<?xml version="1.0" standalone="no"?>
<!DOCTYPE svg PUBLIC "-//W3C//DTD SVG 1.1//EN" "http://www.w3.org/Graphics/SVG/1.1/DTD/svg11.dtd" >
<svg xmlns="http://www.w3.org/2000/svg" xmlns:xlink="http://www.w3.org/1999/xlink" version="1.1">
<metadata>
Created by FontForge 20170731 at Thu Nov 12 05:28:44 2020
 By Aleksey,,,
Copyright 2015-2020 Google LLC. All Rights Reserved.
</metadata>
<defs>
<font id="NotoSansArabic-Bold" horiz-adv-x="0" >
  <font-face 
    font-family="Noto Sans Arabic"
    font-weight="700"
    font-stretch="normal"
    units-per-em="1000"
    panose-1="0 0 0 0 0 0 0 0 0 0"
    ascent="800"
    descent="-200"
    bbox="-220 -616 2564 1155"
    underline-thickness="50"
    underline-position="-175"
    unicode-range="U+000D-FEFC"
  />
<missing-glyph horiz-adv-x="600" 
d="M94 0v714h411v-714h-411zM145 51h309v612h-309v-612z" />
    <glyph glyph-name="uniFC43" unicode="&#xfedf;&#xfef0;" horiz-adv-x="1097" arabic-form="isolated" 
d="M800 -5l10 140q46 0 66 9.5t24 36t2 77.5l-18 474h141l20 -484q2 -58 -4.5 -104.5t-31 -79.5t-75 -51t-134.5 -18zM26 28q0 23 4 54t15 70.5t33 88.5l123 -43q-11 -31 -19 -56.5t-12 -47t-4 -42.5q0 -33 14.5 -59.5t42.5 -45t68.5 -28.5t93.5 -10q55 0 98.5 5t74 15
t46.5 25.5t16 35.5q0 9 -6.5 17t-21 17t-38 19t-56.5 22l33 141q43 -18 81.5 -31.5t73.5 -22t66 -13t58 -4.5q38 0 54 -19.5t16 -48.5q0 -31 -21 -51.5t-59 -20.5h-15.5h-15h-15.5q2 -10 2 -17.5v-14.5q0 -33 -22.5 -67t-69.5 -63t-119.5 -46.5t-172.5 -17.5
q-108 0 -185.5 27.5t-119 85t-41.5 146.5z" />
    <glyph glyph-name="uniFC86" unicode="&#xfee0;&#xfef0;" horiz-adv-x="1144" arabic-form="final" 
d="M800 -5l10 140q47 0 66.5 9.5t23.5 36t2 77.5l-16 474h142l17 -473q2 -50 12 -77t33.5 -37t63.5 -10q38 0 54 -19.5t16 -48.5q0 -31 -21 -51.5t-59 -20.5q-44 0 -82 10t-63 38t-33 81l44 -1q-17 -52 -44 -79.5t-67.5 -38t-98.5 -10.5zM26 28q0 23 4 54t15 70.5t33 88.5
l123 -43q-11 -31 -19 -56.5t-12 -47t-4 -42.5q0 -33 14.5 -59.5t42.5 -45t68.5 -28.5t93.5 -10q55 0 98.5 5t74 15t46.5 25.5t16 35.5q0 9 -6.5 17t-21 17t-38 19t-56.5 22l33 141q43 -18 81.5 -31.5t73.5 -22t66 -13t58 -4.5q38 0 54 -19.5t16 -48.5q0 -31 -21 -51.5
t-59 -20.5h-15.5h-15h-15.5q2 -10 2 -17.5v-14.5q0 -33 -22.5 -67t-69.5 -63t-119.5 -46.5t-172.5 -17.5q-108 0 -185.5 27.5t-119 85t-41.5 146.5z" />
    <glyph glyph-name="uniFD82" unicode="&#xfee0;&#xfea4;&#xfef0;" horiz-adv-x="1798" arabic-form="final" 
d="M1454 -5l10 140q47 0 66.5 9.5t23.5 36t2 77.5l-16 474h142l17 -473q2 -50 12 -77t33.5 -37t63.5 -10q38 0 54 -19.5t16 -48.5q0 -31 -21 -51.5t-59 -20.5q-44 0 -82 10t-63 38t-33 81l44 -1q-17 -52 -44 -79.5t-67.5 -38t-98.5 -10.5zM1454 -5q-46 0 -85.5 7t-72.5 24.5
t-58.5 48.5t-42.5 78l79 63q18 -32 44 -49.5t62 -24.5t84 -7q38 0 54 -19.5t16 -48.5q0 -31 -20.5 -51.5t-59.5 -20.5zM800 -5l10 140q54 0 107 6t103 18t95.5 31t85.5 46q-30 18 -65 31t-74.5 19.5t-83.5 6.5q-16 0 -33.5 -1t-35.5 -3.5t-36 -6.5l-20 137q29 8 61.5 11.5
t57.5 3.5q54 0 99.5 -12t84 -30t72 -36t64 -30t59.5 -12h37l16 -133q-43 -2 -80.5 -16.5t-74 -36t-78 -44.5t-93.5 -43t-120 -33t-158 -13zM26 28q0 23 4 54t15 70.5t33 88.5l123 -43q-11 -31 -19 -56.5t-12 -47t-4 -42.5q0 -33 14.5 -59.5t42.5 -45t68.5 -28.5t93.5 -10
q55 0 98.5 5t74 15t46.5 25.5t16 35.5q0 9 -6.5 17t-21 17t-38 19t-56.5 22l33 141q43 -18 81.5 -31.5t73.5 -22t66 -13t58 -4.5q38 0 54 -19.5t16 -48.5q0 -31 -21 -51.5t-59 -20.5h-15.5h-15h-15.5q2 -10 2 -17.5v-14.5q0 -33 -22.5 -67t-69.5 -63t-119.5 -46.5
t-172.5 -17.5q-108 0 -185.5 27.5t-119 85t-41.5 146.5z" />
    <glyph glyph-name="uniFDF2" unicode="&#x627;&#xfedf;&#xfee0;&#xfeea;" horiz-adv-x="1470" arabic-form="isolated" 
d="M556 -5q-50 0 -90.5 9t-70 28.5t-47.5 50.5q-63 -12 -121 -7.5t-103 25t-71 59t-26 95.5q0 67 36.5 117.5t100 86t143.5 53.5l-3 76h141l17 -354q2 -41 13.5 -62.5t33.5 -29t57 -7.5q44 0 64 6.5t25 32.5t3 84l-14 401h142l15 -400q2 -53 12 -81.5t33.5 -38.5t63.5 -10
q46 0 66 9.5t24 37.5t2 82l-18 474h141l20 -484q2 -58 -4.5 -104.5t-31 -79.5t-75 -51t-134.5 -18q-35 0 -66 7t-55 23t-39 42q-28 -38 -72 -55t-112 -17zM320 219l-6 154q-45 -7 -78 -22.5t-51 -37t-18 -45.5q0 -17 13 -29t34.5 -18t49 -6.5t56.5 4.5zM1277 0l-21 732h140
l21 -732h-140zM630 701q-37 0 -50 26t-13 57q0 11 1.5 23.5t4.5 28.5l60 14q-3 -17 -4.5 -31.5t-1.5 -25.5q0 -13 5 -20t14 -7q12 0 19.5 14t7.5 54v30l58 18v-61q0 -11 4.5 -18t14.5 -7q14 0 19.5 8.5t5.5 20.5q0 17 -4 34.5t-11 34.5l55 14q10 -19 16.5 -43.5t6.5 -44.5
q0 -33 -19 -59.5t-62 -26.5q-27 0 -46 16.5t-19 39.5l23 -9q0 -34 -23.5 -57t-61.5 -23zM651 926l-7 178h91l7 -178h-91z" />
    <glyph glyph-name="uniFEF5" unicode="&#xfedf;&#xfe82;" horiz-adv-x="732" arabic-form="isolated" 
d="M394 536q0 33 -3.5 66t-8.5 62.5t-9 51.5l140 20q4 -20 8 -53t7 -69.5t3 -69.5q0 -52 -9 -98t-27 -86.5t-45 -77.5l-18 -24q-26 -32 -60.5 -63t-75.5 -60h65q34 0 52 4t24.5 11.5t6.5 17.5q0 18 -31 53.5t-86 82t-128.5 99t-158.5 105.5l73 107q118 -73 199.5 -134
t134 -111t81.5 -91t40 -73.5t11 -58.5q0 -29 -9 -55.5t-29 -47t-52 -32.5t-79 -12h-294v134q103 74 163.5 140t87.5 130t27 132zM205 657q-30 0 -54 10.5t-44 20.5t-37 10q-18 0 -32.5 -9t-30.5 -25l-47 44q27 34 54.5 51t55.5 17q25 0 46 -10t42.5 -20t46.5 -10
q16 0 30 5.5t34 17.5l35 -55q-36 -31 -59.5 -39t-39.5 -8z" />
    <glyph glyph-name="uniFEF6" unicode="&#xfee0;&#xfe82;" horiz-adv-x="681" arabic-form="final" 
d="M680 -5q-70 0 -115.5 10.5t-71.5 33t-37 56.5t-13 81l-21 556h140l21 -489q2 -46 10 -69t30.5 -31t66.5 -8q38 0 54.5 -19.5t16.5 -48.5q0 -31 -21 -51.5t-60 -20.5zM142 -5q-27 0 -54.5 4.5t-38.5 6.5l19 145q69 -9 134.5 -3.5t118 32t83.5 78t31 133.5l54 -157
q-12 -68 -40.5 -112.5t-67 -70t-81.5 -37.5t-84 -15.5t-74 -3.5zM359 132q-15 29 -43 68.5t-68.5 88t-92.5 103t-115 112.5l87 95q93 -88 151 -148t92.5 -100.5t53 -69.5t31.5 -56zM205 657q-30 0 -54 10.5t-44 20.5t-37 10q-18 0 -32.5 -9t-30.5 -25l-47 44q27 34 54.5 51
t55.5 17q25 0 46 -10t42.5 -20t46.5 -10q16 0 30 5.5t34 17.5l35 -55q-36 -31 -59.5 -39t-39.5 -8z" />
    <glyph glyph-name="uniFEF7" unicode="&#xfedf;&#xfe84;" horiz-adv-x="662" arabic-form="isolated" 
d="M394 536q0 33 -3.5 66t-8.5 62.5t-9 51.5l140 20q4 -20 8 -53t7 -69.5t3 -69.5q0 -52 -9 -98t-27 -86.5t-45 -77.5l-18 -24q-26 -32 -60.5 -63t-75.5 -60h65q34 0 52 4t24.5 11.5t6.5 17.5q0 18 -31 53.5t-86 82t-128.5 99t-158.5 105.5l73 107q118 -73 199.5 -134
t134 -111t81.5 -91t40 -73.5t11 -58.5q0 -29 -9 -55.5t-29 -47t-52 -32.5t-79 -12h-294v134q103 74 163.5 140t87.5 130t27 132zM31 630l-17 70q35 6 52.5 10t37.5 9l-10 -25q-26 9 -49.5 35.5t-23.5 60.5q0 36 16 58t41 32t52 10q15 0 28.5 -2t24.5 -6l-8 -72l-20 4t-22 2
q-13 0 -23.5 -8.5t-10.5 -20.5q0 -17 12 -30t28.5 -20.5t27.5 -8.5l-55 -6q27 7 51 14.5t45 15.5l20 -67q-25 -9 -58.5 -19.5t-69 -19.5t-69.5 -16z" />
    <glyph glyph-name="uniFEF8" unicode="&#xfee0;&#xfe84;" horiz-adv-x="681" arabic-form="final" 
d="M680 -5q-70 0 -115.5 10.5t-71.5 33t-37 56.5t-13 81l-21 556h140l21 -489q2 -46 10 -69t30.5 -31t66.5 -8q38 0 54.5 -19.5t16.5 -48.5q0 -31 -21 -51.5t-60 -20.5zM142 -5q-27 0 -54.5 4.5t-38.5 6.5l19 145q69 -9 134.5 -3.5t118 32t83.5 78t31 133.5l54 -157
q-12 -68 -40.5 -112.5t-67 -70t-81.5 -37.5t-84 -15.5t-74 -3.5zM359 132q-15 29 -43 68.5t-68.5 88t-92.5 103t-115 112.5l87 95q93 -88 151 -148t92.5 -100.5t53 -69.5t31.5 -56zM57 630l-17 70q35 6 52.5 10t37.5 9l-10 -25q-26 9 -49.5 35.5t-23.5 60.5q0 36 16 58
t41 32t52 10q15 0 28.5 -2t24.5 -6l-8 -72l-20 4t-22 2q-13 0 -23.5 -8.5t-10.5 -20.5q0 -17 12 -30t28.5 -20.5t27.5 -8.5l-55 -6q27 7 51 14.5t45 15.5l20 -67q-25 -9 -58.5 -19.5t-69 -19.5t-69.5 -16z" />
    <glyph glyph-name="uniFEF9" unicode="&#xfedf;&#xfe88;" horiz-adv-x="632" arabic-form="isolated" 
d="M394 536q0 33 -3.5 66t-8.5 62.5t-9 51.5l140 20q4 -20 8 -53t7 -69.5t3 -69.5q0 -52 -9 -98t-27 -86.5t-45 -77.5l-18 -24q-26 -32 -60.5 -63t-75.5 -60h65q34 0 52 4t24.5 11.5t6.5 17.5q0 18 -31 53.5t-86 82t-128.5 99t-158.5 105.5l73 107q118 -73 199.5 -134
t134 -111t81.5 -91t40 -73.5t11 -58.5q0 -29 -9 -55.5t-29 -47t-52 -32.5t-79 -12h-294v134q103 74 163.5 140t87.5 130t27 132zM102 -309l-17 70q35 6 52.5 10t37.5 9l-10 -25q-26 9 -49.5 35.5t-23.5 60.5q0 36 16 58t41 32t52 10q15 0 28.5 -2t24.5 -6l-8 -72l-20 4
t-22 2q-13 0 -23.5 -8.5t-10.5 -20.5q0 -17 12 -30t28.5 -20.5t27.5 -8.5l-55 -6q27 7 51 14.5t45 15.5l20 -67q-25 -9 -58.5 -19.5t-69 -19.5t-69.5 -16z" />
    <glyph glyph-name="uniFEFA" unicode="&#xfee0;&#xfe88;" horiz-adv-x="681" arabic-form="final" 
d="M680 -5q-70 0 -115.5 10.5t-71.5 33t-37 56.5t-13 81l-21 556h140l21 -489q2 -46 10 -69t30.5 -31t66.5 -8q38 0 54.5 -19.5t16.5 -48.5q0 -31 -21 -51.5t-60 -20.5zM142 -5q-27 0 -54.5 4.5t-38.5 6.5l19 145q69 -9 134.5 -3.5t118 32t83.5 78t31 133.5l54 -157
q-12 -68 -40.5 -112.5t-67 -70t-81.5 -37.5t-84 -15.5t-74 -3.5zM359 132q-15 29 -43 68.5t-68.5 88t-92.5 103t-115 112.5l87 95q93 -88 151 -148t92.5 -100.5t53 -69.5t31.5 -56zM102 -309l-17 70q35 6 52.5 10t37.5 9l-10 -25q-26 9 -49.5 35.5t-23.5 60.5q0 36 16 58
t41 32t52 10q15 0 28.5 -2t24.5 -6l-8 -72l-20 4t-22 2q-13 0 -23.5 -8.5t-10.5 -20.5q0 -17 12 -30t28.5 -20.5t27.5 -8.5l-55 -6q27 7 51 14.5t45 15.5l20 -67q-25 -9 -58.5 -19.5t-69 -19.5t-69.5 -16z" />
    <glyph glyph-name="uniFEFB" unicode="&#xfedf;&#xfe8e;" horiz-adv-x="632" arabic-form="isolated" 
d="M394 536q0 33 -3.5 66t-8.5 62.5t-9 51.5l140 20q4 -20 8 -53t7 -69.5t3 -69.5q0 -52 -9 -98t-27 -86.5t-45 -77.5l-18 -24q-26 -32 -60.5 -63t-75.5 -60h65q34 0 52 4t24.5 11.5t6.5 17.5q0 18 -31 53.5t-86 82t-128.5 99t-158.5 105.5l73 107q118 -73 199.5 -134
t134 -111t81.5 -91t40 -73.5t11 -58.5q0 -29 -9 -55.5t-29 -47t-52 -32.5t-79 -12h-294v134q103 74 163.5 140t87.5 130t27 132z" />
    <glyph glyph-name="uniFEFC" unicode="&#xfee0;&#xfe8e;" horiz-adv-x="681" arabic-form="final" 
d="M680 -5q-70 0 -115.5 10.5t-71.5 33t-37 56.5t-13 81l-21 556h140l21 -489q2 -46 10 -69t30.5 -31t66.5 -8q38 0 54.5 -19.5t16.5 -48.5q0 -31 -21 -51.5t-60 -20.5zM142 -5q-27 0 -54.5 4.5t-38.5 6.5l19 145q69 -9 134.5 -3.5t118 32t83.5 78t31 133.5l54 -157
q-12 -68 -40.5 -112.5t-67 -70t-81.5 -37.5t-84 -15.5t-74 -3.5zM359 132q-15 29 -43 68.5t-68.5 88t-92.5 103t-115 112.5l87 95q93 -88 151 -148t92.5 -100.5t53 -69.5t31.5 -56z" />
    <glyph glyph-name="lam_alefMaksura_meemar" unicode="&#xfedf;&#xfbe9;&#xfee2;" horiz-adv-x="1275" 
d="M978 -5l10 140q46 0 66 9.5t24 36t2 77.5l-18 474h141l20 -484q2 -58 -4.5 -104.5t-31 -79.5t-75 -51t-134.5 -18zM661 -5l10 140q44 0 69.5 6t36.5 22.5t11 47.5q0 28 -7.5 67t-19.5 81t-24 77l138 38q12 -34 24 -79t20.5 -92.5t8.5 -91.5q0 -55 -14 -92.5t-38.5 -62
t-58 -38t-73.5 -18.5t-83 -5zM82 -393q-23 82 -38 155.5t-22 133t-7 99.5q0 89 28.5 158.5t74 120t98 83.5t102 49t84.5 16q36 0 59.5 -19t42 -54.5t39.5 -85.5q24 -54 42.5 -81.5t38.5 -37t45 -9.5q38 0 55 -19.5t17 -48.5q0 -31 -21 -51.5t-61 -20.5q-49 0 -85 16.5
t-65 47.5l28 31q-9 -31 -24.5 -55.5t-41 -38.5t-63.5 -14q-34 0 -67.5 10t-65 30t-60.5 49.5t-55 68.5l37 7q-22 -34 -32 -76t-10 -83q0 -32 5.5 -74.5t14.5 -90t20.5 -94t22.5 -85.5zM406 123q19 0 30.5 5.5t15 16.5t-2.5 26q-10 27 -19.5 47t-18 34t-17 21t-17.5 7
q-13 0 -32 -8.5t-38 -20.5t-32 -23.5t-15 -17.5l-12 33q18 -35 43.5 -62.5t55.5 -42.5t59 -15z" />
    <glyph glyph-name="lam_alefWaslaar" unicode="&#xfedf;&#xfb51;" horiz-adv-x="588" 
d="M151 661q-22 0 -52.5 2t-57.5 5.5t-41 5.5l7 66q15 -2 40 -5t53 -5t51 -2q56 0 73 12.5t17 29.5q0 18 -11 27t-25 9q-13 0 -28 -9.5t-29.5 -28.5t-27.5 -47l-75 1q12 33 34.5 68t55 59.5t73.5 24.5t71 -26t30 -73q0 -30 -12.5 -56t-46.5 -42t-99 -16zM394 536
q0 33 -3.5 66t-8.5 62.5t-9 51.5l140 20q4 -20 8 -53t7 -69.5t3 -69.5q0 -52 -9 -98t-27 -86.5t-45 -77.5l-18 -24q-26 -32 -60.5 -63t-75.5 -60h65q34 0 52 4t24.5 11.5t6.5 17.5q0 18 -31 53.5t-86 82t-128.5 99t-158.5 105.5l73 107q118 -73 199.5 -134t134 -111
t81.5 -91t40 -73.5t11 -58.5q0 -29 -9 -55.5t-29 -47t-52 -32.5t-79 -12h-294v134q103 74 163.5 140t87.5 130t27 132z" />
    <glyph glyph-name="lam_alefWaslaar.fina" unicode="&#xfee0;&#xfb51;" horiz-adv-x="770" 
d="M151 661q-22 0 -52.5 2t-57.5 5.5t-41 5.5l7 66q15 -2 40 -5t53 -5t51 -2q56 0 73 12.5t17 29.5q0 18 -11 27t-25 9q-13 0 -28 -9.5t-29.5 -28.5t-27.5 -47l-75 1q12 33 34.5 68t55 59.5t73.5 24.5t71 -26t30 -73q0 -30 -12.5 -56t-46.5 -42t-99 -16zM680 -5
q-70 0 -115.5 10.5t-71.5 33t-37 56.5t-13 81l-21 556h140l21 -489q2 -46 10 -69t30.5 -31t66.5 -8q38 0 54.5 -19.5t16.5 -48.5q0 -31 -21 -51.5t-60 -20.5zM142 -5q-27 0 -54.5 4.5t-38.5 6.5l19 145q69 -9 134.5 -3.5t118 32t83.5 78t31 133.5l54 -157
q-12 -68 -40.5 -112.5t-67 -70t-81.5 -37.5t-84 -15.5t-74 -3.5zM359 132q-15 29 -43 68.5t-68.5 88t-92.5 103t-115 112.5l87 95q93 -88 151 -148t92.5 -100.5t53 -69.5t31.5 -56z" />
    <glyph glyph-name="uni0620.init" unicode="&#x620;" horiz-adv-x="359" 
d="M0 -5l10 140q60 0 92 6t44.5 22.5t12.5 47.5q0 28 -7.5 67t-19 81t-24.5 77l138 38q13 -34 25 -79t20 -92.5t8 -91.5q0 -68 -22 -110.5t-61.5 -65.5t-94.5 -31.5t-121 -8.5zM145 -129q-42 0 -71 29.5t-29 70.5t29 70.5t71 29.5q41 0 70.5 -29.5t29.5 -70.5t-29.5 -70.5
t-70.5 -29.5zM144 -63q16 0 26.5 9.5t10.5 24.5q0 16 -10.5 25.5t-26.5 9.5q-15 0 -25.5 -10t-10.5 -25t10.5 -24.5t25.5 -9.5z" />
    <glyph glyph-name="uni0620.medi" unicode="&#x620;" horiz-adv-x="409" 
d="M0 -5l10 140q36 0 62 7t44 28.5t30.5 63.5t22.5 112l131 -22q-2 -15 -5.5 -35t-6 -40.5t-2.5 -38.5t7 -32t22.5 -23.5t41 -14.5t62.5 -5q38 0 54 -19.5t16 -48.5q0 -31 -20.5 -51.5t-59.5 -20.5q-45 0 -81.5 7t-63 23.5t-43 44t-20.5 67.5h48q-18 -48 -45.5 -76.5
t-61.5 -42.5t-70.5 -18.5t-71.5 -4.5zM131 -124q-42 0 -71 29.5t-29 70.5t29 70.5t71 29.5q41 0 70.5 -29.5t29.5 -70.5t-29.5 -70.5t-70.5 -29.5zM130 -58q16 0 26.5 9.5t10.5 24.5q0 16 -10.5 25.5t-26.5 9.5q-15 0 -25.5 -10t-10.5 -25t10.5 -24.5t25.5 -9.5z" />
    <glyph glyph-name="uni0620.fina" unicode="&#x620;" horiz-adv-x="800" 
d="M352 -366q-42 0 -71 29.5t-29 70.5t29 70.5t71 29.5q41 0 70.5 -29.5t29.5 -70.5t-29.5 -70.5t-70.5 -29.5zM351 -300q16 0 26.5 9.5t10.5 24.5q0 16 -10.5 25.5t-26.5 9.5q-15 0 -25.5 -10t-10.5 -25t10.5 -24.5t25.5 -9.5zM26 28q0 23 4 54t15 70.5t33 88.5l123 -43
q-11 -31 -19 -56.5t-12 -47t-4 -42.5q0 -33 14.5 -59.5t42.5 -45t68.5 -28.5t93.5 -10q55 0 98.5 5t74 15t46.5 25.5t16 35.5q0 9 -6.5 17t-21 17t-38 19t-56.5 22l33 141q43 -18 81.5 -31.5t73.5 -22t66 -13t58 -4.5q38 0 54 -19.5t16 -48.5q0 -31 -21 -51.5t-59 -20.5
h-15.5h-15h-15.5q2 -10 2 -17.5v-14.5q0 -33 -22.5 -67t-69.5 -63t-119.5 -46.5t-172.5 -17.5q-108 0 -185.5 27.5t-119 85t-41.5 146.5z" />
    <glyph glyph-name="uni063B.init" unicode="&#x63b;" horiz-adv-x="454" 
d="M231 741q-22 0 -37 15t-15 36q0 22 15 37.5t37 15.5q21 0 36 -15.5t15 -37.5q0 -21 -15 -36t-36 -15zM119 679q-22 0 -37 14.5t-15 36.5q0 21 15 36.5t37 15.5q21 0 36 -15.5t15 -36.5q0 -22 -15 -36.5t-36 -14.5zM0 -5l10 140h143q21 0 37 2.5t26.5 8.5t15.5 15t5 21
t-12.5 38.5t-53.5 64.5q-22 20 -47.5 42.5t-48.5 43t-38 36.5t-15 23q0 15 2 33t6.5 33t12.5 22q17 16 50.5 37.5t80.5 47t105.5 54t125.5 57.5l57 -122q-55 -24 -104 -46.5t-91.5 -44t-78 -42t-62.5 -40.5l13 74q85 -65 135.5 -117t75.5 -92.5t33 -72t8 -55.5t-11.5 -51.5
t-41 -52.5t-82.5 -41t-136 -16h-120z" />
    <glyph glyph-name="uni063B.medi" unicode="&#x63b;" horiz-adv-x="508" 
d="M228 739q-22 0 -37 15t-15 36q0 22 15 37.5t37 15.5q21 0 36 -15.5t15 -37.5q0 -21 -15 -36t-36 -15zM116 677q-22 0 -37 14.5t-15 36.5q0 21 15 36.5t37 15.5q21 0 36 -15.5t15 -36.5q0 -22 -15 -36.5t-36 -14.5zM0 -5l10 140h140q35 0 53.5 4t25.5 12.5t7 20.5
q0 18 -15.5 42t-40 50t-51.5 52.5t-51.5 49.5t-40 40.5t-15.5 25.5q0 28 3 44.5t8.5 26.5t12.5 17q17 17 51 38.5t80.5 46t104.5 52t123 57.5l57 -122q-66 -29 -117.5 -53.5t-92 -45t-72 -38.5t-56.5 -34l10 74q43 -37 78 -70t65 -66t56.5 -68t51.5 -76q22 -35 45.5 -52
t46 -22.5t40.5 -5.5q38 0 54.5 -19.5t16.5 -48.5q0 -31 -21 -51.5t-60 -20.5q-33 0 -71 11.5t-71 37.5t-50 71l54 -4q-15 -32 -35.5 -54.5t-48.5 -36t-64 -19.5t-81 -6h-140z" />
    <glyph glyph-name="uni063B.fina" unicode="&#x63b;" horiz-adv-x="952" 
d="M673 741q-22 0 -37 15t-15 36q0 22 15 37.5t37 15.5q21 0 36 -15.5t15 -37.5q0 -21 -15 -36t-36 -15zM561 679q-22 0 -37 14.5t-15 36.5q0 21 15 36.5t37 15.5q21 0 36 -15.5t15 -36.5q0 -22 -15 -36.5t-36 -14.5zM424 -21l26 140q71 0 116 2t69.5 7.5t34.5 15.5t10 25
q0 18 -15.5 42t-40 50t-51.5 52.5t-51.5 49.5t-40 40.5t-15.5 25.5q0 28 3 44.5t8.5 26.5t12.5 17q23 23 74.5 53t124.5 65.5t160 75.5l57 -122q-87 -39 -150.5 -69.5t-109 -55t-78.5 -46.5l10 74q43 -37 78 -70t65 -66t56.5 -68t51.5 -76q16 -26 33.5 -41.5t35 -23t34 -10
t29.5 -2.5q38 0 54.5 -21t16.5 -50q0 -31 -21 -50t-60 -19q-33 0 -71 10.5t-71 36t-50 70.5l54 -4q-19 -41 -46 -66.5t-70 -39t-109.5 -18.5t-163.5 -5zM424 -21q-108 0 -182.5 16.5t-121 47t-67.5 71.5t-21 90q0 32 5.5 64.5t14 63.5t15.5 56l125 -29q-4 -18 -9 -39
t-8 -40.5t-3 -35.5q0 -37 26.5 -65.5t87.5 -44t164 -15.5l20 -108z" />
    <glyph glyph-name="uni063C.init" unicode="&#x63c;" horiz-adv-x="454" 
d="M0 -5l10 140h143q21 0 37 2.5t26.5 8.5t15.5 15t5 21t-12.5 38.5t-53.5 64.5q-22 20 -47.5 42.5t-48.5 43t-38 36.5t-15 23q0 15 2 33t6.5 33t12.5 22q17 16 50.5 37.5t80.5 47t105.5 54t125.5 57.5l57 -122q-55 -24 -104 -46.5t-91.5 -44t-78 -42t-62.5 -40.5l13 74
q85 -65 135.5 -117t75.5 -92.5t33 -72t8 -55.5t-11.5 -51.5t-41 -52.5t-82.5 -41t-136 -16h-120zM200 -351q-26 0 -44.5 18t-18.5 44t18.5 45t44.5 19t44 -19t18 -45t-18 -44t-44 -18zM124 -219q-26 0 -44.5 18t-18.5 44t18.5 45t44.5 19t44 -19t18 -45t-18 -44t-44 -18z
M280 -219q-26 0 -44.5 18t-18.5 44t18.5 45t44.5 19t44 -19t18 -45t-18 -44t-44 -18z" />
    <glyph glyph-name="uni063C.medi" unicode="&#x63c;" horiz-adv-x="508" 
d="M0 -5l10 140h140q35 0 53.5 4t25.5 12.5t7 20.5q0 18 -15.5 42t-40 50t-51.5 52.5t-51.5 49.5t-40 40.5t-15.5 25.5q0 28 3 44.5t8.5 26.5t12.5 17q17 17 51 38.5t80.5 46t104.5 52t123 57.5l57 -122q-66 -29 -117.5 -53.5t-92 -45t-72 -38.5t-56.5 -34l10 74
q43 -37 78 -70t65 -66t56.5 -68t51.5 -76q22 -35 45.5 -52t46 -22.5t40.5 -5.5q38 0 54.5 -19.5t16.5 -48.5q0 -31 -21 -51.5t-60 -20.5q-33 0 -71 11.5t-71 37.5t-50 71l54 -4q-15 -32 -35.5 -54.5t-48.5 -36t-64 -19.5t-81 -6h-140zM200 -351q-26 0 -44.5 18t-18.5 44
t18.5 45t44.5 19t44 -19t18 -45t-18 -44t-44 -18zM124 -219q-26 0 -44.5 18t-18.5 44t18.5 45t44.5 19t44 -19t18 -45t-18 -44t-44 -18zM280 -219q-26 0 -44.5 18t-18.5 44t18.5 45t44.5 19t44 -19t18 -45t-18 -44t-44 -18z" />
    <glyph glyph-name="uni063C.fina" unicode="&#x63c;" horiz-adv-x="952" 
d="M424 -21l26 140q71 0 116 2t69.5 7.5t34.5 15.5t10 25q0 18 -15.5 42t-40 50t-51.5 52.5t-51.5 49.5t-40 40.5t-15.5 25.5q0 28 3 44.5t8.5 26.5t12.5 17q23 23 74.5 53t124.5 65.5t160 75.5l57 -122q-87 -39 -150.5 -69.5t-109 -55t-78.5 -46.5l10 74q43 -37 78 -70
t65 -66t56.5 -68t51.5 -76q16 -26 33.5 -41.5t35 -23t34 -10t29.5 -2.5q38 0 54.5 -21t16.5 -50q0 -31 -21 -50t-60 -19q-33 0 -71 10.5t-71 36t-50 70.5l54 -4q-19 -41 -46 -66.5t-70 -39t-109.5 -18.5t-163.5 -5zM424 -21q-108 0 -182.5 16.5t-121 47t-67.5 71.5t-21 90
q0 32 5.5 64.5t14 63.5t15.5 56l125 -29q-4 -18 -9 -39t-8 -40.5t-3 -35.5q0 -37 26.5 -65.5t87.5 -44t164 -15.5l20 -108zM447 -372q-26 0 -44.5 18t-18.5 44t18.5 45t44.5 19t44 -19t18 -45t-18 -44t-44 -18zM371 -240q-26 0 -44.5 18t-18.5 44t18.5 45t44.5 19t44 -19
t18 -45t-18 -44t-44 -18zM527 -240q-26 0 -44.5 18t-18.5 44t18.5 45t44.5 19t44 -19t18 -45t-18 -44t-44 -18z" />
    <glyph glyph-name="uni063D.init" unicode="&#x63d;" horiz-adv-x="317" 
d="M0 -5l10 140q44 0 69.5 6t36.5 22.5t11 47.5q0 28 -7.5 67t-19.5 81t-24 77l138 38q12 -34 24 -79t20.5 -92.5t8.5 -91.5q0 -55 -14 -92.5t-38.5 -62t-58 -38t-73.5 -18.5t-83 -5zM168 776q8 -15 19.5 -37.5t24.5 -47.5t26 -48t23 -39l-58 -31q-7 10 -18.5 29.5t-24 42.5
t-24 44.5t-19.5 35.5l-21 45zM96 770l57 -22q-7 -17 -18 -43.5t-23.5 -54.5t-22.5 -50t-15 -30l-58 24q5 10 15.5 32.5t23 50t24 52.5t17.5 41zM215 -237q-29 0 -49.5 20.5t-20.5 48.5q0 29 20.5 50t49.5 21q28 0 48 -21t20 -50q0 -28 -20 -48.5t-48 -20.5zM42 -237
q-29 0 -49.5 20.5t-20.5 48.5q0 29 20.5 50t49.5 21q28 0 48 -21t20 -50q0 -28 -20 -48.5t-48 -20.5z" />
    <glyph glyph-name="uni063D.medi" unicode="&#x63d;" horiz-adv-x="384" 
d="M0 -5l10 140q38 0 60.5 7t36 28.5t23 63.5t19.5 112l131 -22q-2 -15 -5.5 -35t-6 -40.5t-2.5 -38.5q0 -24 10.5 -40.5t38 -25.5t79.5 -9q38 0 54 -19.5t16 -48.5q0 -31 -20.5 -51.5t-59.5 -20.5q-69 0 -112 13t-64 44t-27 85h48q-18 -48 -42 -76.5t-54 -42.5t-63.5 -18.5
t-69.5 -4.5zM228 667q8 -15 19.5 -37.5t24.5 -47.5t26 -48t23 -39l-58 -31q-7 10 -18.5 29.5t-24 42.5t-24 44.5t-19.5 35.5l-21 45zM156 661l57 -22q-7 -17 -18 -43.5t-23.5 -54.5t-22.5 -50t-15 -30l-58 24q5 10 15.5 32.5t23 50t24 52.5t17.5 41zM270 -237
q-29 0 -49.5 20.5t-20.5 48.5q0 29 20.5 50t49.5 21q28 0 48 -21t20 -50q0 -28 -20 -48.5t-48 -20.5zM97 -237q-29 0 -49.5 20.5t-20.5 48.5q0 29 20.5 50t49.5 21q28 0 48 -21t20 -50q0 -28 -20 -48.5t-48 -20.5z" />
    <glyph glyph-name="uni063D.fina" unicode="&#x63d;" horiz-adv-x="800" 
d="M26 28q0 23 4 54t15 70.5t33 88.5l123 -43q-11 -31 -19 -56.5t-12 -47t-4 -42.5q0 -33 14.5 -59.5t42.5 -45t68.5 -28.5t93.5 -10q55 0 98.5 5t74 15t46.5 25.5t16 35.5q0 9 -6.5 17t-21 17t-38 19t-56.5 22l33 141q43 -18 81.5 -31.5t73.5 -22t66 -13t58 -4.5
q38 0 54 -19.5t16 -48.5q0 -31 -21 -51.5t-59 -20.5h-15.5h-15h-15.5q2 -10 2 -17.5v-14.5q0 -33 -22.5 -67t-69.5 -63t-119.5 -46.5t-172.5 -17.5q-108 0 -185.5 27.5t-119 85t-41.5 146.5zM253 526q8 -15 19.5 -37.5t24.5 -47.5t26 -48t23 -39l-58 -31q-7 10 -18.5 29.5
t-24 42.5t-24 44.5t-19.5 35.5l-21 45zM181 520l57 -22q-7 -17 -18 -43.5t-23.5 -54.5t-22.5 -50t-15 -30l-58 24q5 10 15.5 32.5t23 50t24 52.5t17.5 41z" />
    <glyph glyph-name="uni063E.init" unicode="&#x63e;" horiz-adv-x="359" 
d="M0 -5l10 140q60 0 92 6t44.5 22.5t12.5 47.5q0 28 -7.5 67t-19 81t-24.5 77l138 38q13 -34 25 -79t20 -92.5t8 -91.5q0 -68 -22 -110.5t-61.5 -65.5t-94.5 -31.5t-121 -8.5zM271 555q-29 0 -49.5 20.5t-20.5 48.5q0 29 20.5 50t49.5 21q28 0 48 -21t20 -50
q0 -28 -20 -48.5t-48 -20.5zM98 556q-29 0 -49.5 20.5t-20.5 48.5q0 29 20.5 50t49.5 21q28 0 48 -21t20 -50q0 -28 -20 -48.5t-48 -20.5zM247 -237q-29 0 -49.5 20.5t-20.5 48.5q0 29 20.5 50t49.5 21q28 0 48 -21t20 -50q0 -28 -20 -48.5t-48 -20.5zM74 -237
q-29 0 -49.5 20.5t-20.5 48.5q0 29 20.5 50t49.5 21q28 0 48 -21t20 -50q0 -28 -20 -48.5t-48 -20.5z" />
    <glyph glyph-name="uni063E.medi" unicode="&#x63e;" horiz-adv-x="409" 
d="M0 -5l10 140q36 0 62 7t44 28.5t30.5 63.5t22.5 112l131 -22q-2 -15 -5.5 -35t-6 -40.5t-2.5 -38.5t7 -32t22.5 -23.5t41 -14.5t62.5 -5q38 0 54 -19.5t16 -48.5q0 -31 -20.5 -51.5t-59.5 -20.5q-45 0 -81.5 7t-63 23.5t-43 44t-20.5 67.5h48q-18 -48 -45.5 -76.5
t-61.5 -42.5t-70.5 -18.5t-71.5 -4.5zM321 436q-29 0 -49.5 20.5t-20.5 48.5q0 29 20.5 50t49.5 21q28 0 48 -21t20 -50q0 -28 -20 -48.5t-48 -20.5zM148 437q-29 0 -49.5 20.5t-20.5 48.5q0 29 20.5 50t49.5 21q28 0 48 -21t20 -50q0 -28 -20 -48.5t-48 -20.5zM279 -237
q-29 0 -49.5 20.5t-20.5 48.5q0 29 20.5 50t49.5 21q28 0 48 -21t20 -50q0 -28 -20 -48.5t-48 -20.5zM106 -237q-29 0 -49.5 20.5t-20.5 48.5q0 29 20.5 50t49.5 21q28 0 48 -21t20 -50q0 -28 -20 -48.5t-48 -20.5z" />
    <glyph glyph-name="uni063E.fina" unicode="&#x63e;" horiz-adv-x="800" 
d="M26 28q0 23 4 54t15 70.5t33 88.5l123 -43q-11 -31 -19 -56.5t-12 -47t-4 -42.5q0 -33 14.5 -59.5t42.5 -45t68.5 -28.5t93.5 -10q55 0 98.5 5t74 15t46.5 25.5t16 35.5q0 9 -6.5 17t-21 17t-38 19t-56.5 22l33 141q43 -18 81.5 -31.5t73.5 -22t66 -13t58 -4.5
q38 0 54 -19.5t16 -48.5q0 -31 -21 -51.5t-59 -20.5h-15.5h-15h-15.5q2 -10 2 -17.5v-14.5q0 -33 -22.5 -67t-69.5 -63t-119.5 -46.5t-172.5 -17.5q-108 0 -185.5 27.5t-119 85t-41.5 146.5zM334 350q-29 0 -49.5 20.5t-20.5 48.5q0 29 20.5 50t49.5 21q28 0 48 -21t20 -50
q0 -28 -20 -48.5t-48 -20.5zM161 351q-29 0 -49.5 20.5t-20.5 48.5q0 29 20.5 50t49.5 21q28 0 48 -21t20 -50q0 -28 -20 -48.5t-48 -20.5z" />
    <glyph glyph-name="uni063F.init" unicode="&#x63f;" horiz-adv-x="359" 
d="M0 -5l10 140q60 0 92 6t44.5 22.5t12.5 47.5q0 28 -7.5 67t-19 81t-24.5 77l138 38q13 -34 25 -79t20 -92.5t8 -91.5q0 -68 -22 -110.5t-61.5 -65.5t-94.5 -31.5t-121 -8.5zM191 689q-25 0 -43.5 19t-18.5 45t18.5 44t43.5 18q26 0 44 -18t18 -44t-18 -45t-44 -19z
M111 557q-25 0 -43.5 19t-18.5 45t18.5 44t43.5 18q26 0 44 -18t18 -44t-18 -45t-44 -19zM266 557q-25 0 -43.5 19t-18.5 45t18.5 44t43.5 18q26 0 44 -18t18 -44t-18 -45t-44 -19zM247 -237q-29 0 -49.5 20.5t-20.5 48.5q0 29 20.5 50t49.5 21q28 0 48 -21t20 -50
q0 -28 -20 -48.5t-48 -20.5zM74 -237q-29 0 -49.5 20.5t-20.5 48.5q0 29 20.5 50t49.5 21q28 0 48 -21t20 -50q0 -28 -20 -48.5t-48 -20.5z" />
    <glyph glyph-name="uni063F.medi" unicode="&#x63f;" horiz-adv-x="409" 
d="M0 -5l10 140q36 0 62 7t44 28.5t30.5 63.5t22.5 112l131 -22q-2 -15 -5.5 -35t-6 -40.5t-2.5 -38.5t7 -32t22.5 -23.5t41 -14.5t62.5 -5q38 0 54 -19.5t16 -48.5q0 -31 -20.5 -51.5t-59.5 -20.5q-45 0 -81.5 7t-63 23.5t-43 44t-20.5 67.5h48q-18 -48 -45.5 -76.5
t-61.5 -42.5t-70.5 -18.5t-71.5 -4.5zM241 570q-25 0 -43.5 19t-18.5 45t18.5 44t43.5 18q26 0 44 -18t18 -44t-18 -45t-44 -19zM161 438q-25 0 -43.5 19t-18.5 45t18.5 44t43.5 18q26 0 44 -18t18 -44t-18 -45t-44 -19zM316 438q-25 0 -43.5 19t-18.5 45t18.5 44t43.5 18
q26 0 44 -18t18 -44t-18 -45t-44 -19zM279 -237q-29 0 -49.5 20.5t-20.5 48.5q0 29 20.5 50t49.5 21q28 0 48 -21t20 -50q0 -28 -20 -48.5t-48 -20.5zM106 -237q-29 0 -49.5 20.5t-20.5 48.5q0 29 20.5 50t49.5 21q28 0 48 -21t20 -50q0 -28 -20 -48.5t-48 -20.5z" />
    <glyph glyph-name="uni063F.fina" unicode="&#x63f;" horiz-adv-x="800" 
d="M26 28q0 23 4 54t15 70.5t33 88.5l123 -43q-11 -31 -19 -56.5t-12 -47t-4 -42.5q0 -33 14.5 -59.5t42.5 -45t68.5 -28.5t93.5 -10q55 0 98.5 5t74 15t46.5 25.5t16 35.5q0 9 -6.5 17t-21 17t-38 19t-56.5 22l33 141q43 -18 81.5 -31.5t73.5 -22t66 -13t58 -4.5
q38 0 54 -19.5t16 -48.5q0 -31 -21 -51.5t-59 -20.5h-15.5h-15h-15.5q2 -10 2 -17.5v-14.5q0 -33 -22.5 -67t-69.5 -63t-119.5 -46.5t-172.5 -17.5q-108 0 -185.5 27.5t-119 85t-41.5 146.5zM236 439q-25 0 -43.5 19t-18.5 45t18.5 44t43.5 18q26 0 44 -18t18 -44t-18 -45
t-44 -19zM156 307q-25 0 -43.5 19t-18.5 45t18.5 44t43.5 18q26 0 44 -18t18 -44t-18 -45t-44 -19zM311 307q-25 0 -43.5 19t-18.5 45t18.5 44t43.5 18q26 0 44 -18t18 -44t-18 -45t-44 -19z" />
    <glyph glyph-name="uni066E.init" unicode="&#x66e;" horiz-adv-x="317" 
d="M0 -5l10 140q44 0 69.5 6t36.5 22.5t11 47.5q0 28 -7.5 67t-19.5 81t-24 77l138 38q12 -34 24 -79t20.5 -92.5t8.5 -91.5q0 -55 -14 -92.5t-38.5 -62t-58 -38t-73.5 -18.5t-83 -5z" />
    <glyph glyph-name="uni066E.medi" unicode="&#x66e;" horiz-adv-x="384" 
d="M0 -5l10 140q38 0 60.5 7t36 28.5t23 63.5t19.5 112l131 -22q-2 -15 -5.5 -35t-6 -40.5t-2.5 -38.5q0 -24 10.5 -40.5t38 -25.5t79.5 -9q38 0 54 -19.5t16 -48.5q0 -31 -20.5 -51.5t-59.5 -20.5q-69 0 -112 13t-64 44t-27 85h48q-18 -48 -42 -76.5t-54 -42.5t-63.5 -18.5
t-69.5 -4.5z" />
    <glyph glyph-name="uni066E.fina" unicode="&#x66e;" horiz-adv-x="1142" 
d="M425 -21l26 140q72 0 138.5 7t127 28t113.5 62t96 110l112 -51q-6 -19 -10 -36.5t-4 -28.5q0 -23 11.5 -40t39.5 -26t77 -9q38 0 54 -19.5t16 -48.5q0 -31 -20.5 -51.5t-59.5 -20.5q-69 0 -119.5 19t-79 53.5t-33.5 79.5l40 -4q-36 -43 -89.5 -74t-121 -51t-147 -29.5
t-167.5 -9.5zM424 -21q-108 0 -182.5 16.5t-121 47t-67.5 71.5t-21 90q0 32 5.5 64.5t14 63.5t15.5 56l125 -29q-4 -18 -9 -39t-8 -40.5t-3 -35.5q0 -37 26.5 -65.5t87.5 -44t164 -15.5l20 -108z" />
    <glyph glyph-name="uni066F.init" unicode="&#x66f;" horiz-adv-x="505" 
d="M0 -5l10 139q83 0 133.5 1t79 4.5t42.5 9t24 12.5q12 9 20.5 24.5t13.5 41.5t5 65q0 49 -8.5 82.5t-24 50.5t-37.5 17q-16 0 -30 -10.5t-23 -28.5t-9 -41q0 -13 7 -23t22 -15t38 -5q22 0 46.5 5.5t45.5 15.5l4 -119q-16 -11 -37 -20t-44.5 -13.5t-47.5 -4.5
q-53 0 -91.5 14.5t-59.5 47.5t-21 90q0 44 15 87.5t43 79t66 57t84 21.5q68 0 112.5 -39.5t66 -106t21.5 -147.5q0 -71 -21 -123.5t-50 -82.5q-24 -25 -55 -42t-75.5 -26.5t-109 -13.5t-155.5 -4z" />
    <glyph glyph-name="uni066F.medi" unicode="&#x66f;" horiz-adv-x="529" 
d="M0 -5l10 139q39 -1 72 1t59.5 6t47 9t34.5 9q34 11 58 26.5t37 35.5t13 43q0 18 -7.5 36.5t-21.5 30.5t-33 12q-18 0 -33 -11t-24 -29.5t-9 -42.5q0 -21 10 -39.5t28 -35.5t43 -32l-133 -51q-22 21 -41.5 45t-32 54.5t-12.5 68.5q0 46 18 84t48 65.5t67 42.5t74 15
q60 0 104 -28t68.5 -73t24.5 -98q0 -49 -18 -87.5t-48.5 -68t-67 -51.5t-73.5 -37q-18 -8 -45 -15t-61 -12.5t-73 -8.5t-83 -3zM528 -5q-58 0 -114 6t-103.5 18t-82.5 29l69 108q30 -8 70.5 -12.5t85 -6.5t85.5 -2q38 0 54.5 -19.5t16.5 -48.5q0 -31 -21 -51.5t-60 -20.5z
" />
    <glyph glyph-name="uni066F.fina" unicode="&#x66f;" horiz-adv-x="855" 
d="M349 -272q-67 0 -125.5 14.5t-103 45t-69.5 79t-25 116.5q0 23 3.5 52t15.5 69.5t37 94.5l122 -47q-14 -36 -22.5 -60.5t-12 -44t-3.5 -40.5q0 -44 25 -75.5t71.5 -47.5t110.5 -16q44 0 81.5 6.5t67.5 18.5t53 27.5t38.5 34t22.5 37.5q9 26 13 58t4 67q0 44 -8 74
t-23 45.5t-36 15.5q-14 0 -25.5 -7t-20 -18t-13 -23.5t-4.5 -24.5q0 -13 6 -23.5t23.5 -17t53.5 -8t96 4.5l163 1q38 0 54 -19.5t16 -48.5q0 -32 -21 -52.5t-59 -20.5h-244q-57 0 -99 10t-69.5 30.5t-41.5 50.5t-14 69q0 45 16.5 87.5t45.5 75.5t65.5 52.5t75.5 19.5
q63 0 108.5 -35t70 -99.5t24.5 -155.5q0 -46 -14 -96t-35 -90q-25 -46 -63 -81t-88 -58.5t-111 -35t-133 -11.5z" />
    <glyph glyph-name="uni0672.fina" unicode="&#x672;" horiz-adv-x="316" 
d="M315 -5q-93 0 -143.5 19t-70.5 59.5t-23 102.5l-19 486h140l19 -419q2 -46 10 -69t30.5 -31t66.5 -8q38 0 54.5 -19.5t16.5 -48.5q0 -31 -21 -51.5t-60 -20.5zM2 727l-54 36q12 28 34 40.5t40 12.5q23 0 40.5 -11t31.5 -11t26 1t21 5l-14 -22q-28 11 -49 37.5t-21 59.5
q0 45 31.5 71t77.5 26q14 0 28.5 -2t25.5 -6l-8 -62q-10 2 -19 4t-20 2q-22 0 -34.5 -8.5t-12.5 -24.5q0 -20 13 -34.5t30 -22.5t28 -8l-36 -6q27 7 47 15.5t39 15.5l20 -60q-8 -4 -27.5 -12t-43.5 -16t-47 -13.5t-38 -5.5q-29 0 -47 11t-29 11q-10 0 -17 -6t-16 -17z" />
    <glyph glyph-name="uni0673.fina" unicode="&#x673;" horiz-adv-x="318" 
d="M317 -5q-93 0 -143.5 19t-70.5 59.5t-23 102.5l-21 556h140l21 -489q2 -46 10 -69t30.5 -31t66.5 -8q38 0 54.5 -19.5t16.5 -48.5q0 -31 -21 -51.5t-60 -20.5zM15 -313l-54 36q12 28 34 40.5t40 12.5q23 0 40.5 -11t31.5 -11t26 1t21 5l-14 -22q-28 11 -49 37.5t-21 59.5
q0 45 31.5 71t77.5 26q14 0 28.5 -2t25.5 -6l-8 -62q-10 2 -19 4t-20 2q-22 0 -34.5 -8.5t-12.5 -24.5q0 -20 13 -34.5t30 -22.5t28 -8l-36 -6q27 7 47 15.5t39 15.5l20 -60q-8 -4 -27.5 -12t-43.5 -16t-47 -13.5t-38 -5.5q-29 0 -47 11t-29 11q-10 0 -17 -6t-16 -17z" />
    <glyph glyph-name="uni0675.fina" unicode="&#x675;" horiz-adv-x="548" 
d="M547 -5h-232q-92 0 -142 19t-70 59.5t-23 102.5l-21 556h140l21 -489q2 -45 10 -68.5t29.5 -31.5t64.5 -8h233q38 0 54.5 -19.5t16.5 -48.5q0 -31 -21 -51.5t-60 -20.5zM271 578l-16 66q35 6 52.5 10t37.5 9l-13 -27q-26 9 -49.5 35.5t-23.5 60.5q0 36 16 58t41 32t52 10
q15 0 28.5 -2t24.5 -6l-8 -62l-20 4t-22 2q-21 0 -32.5 -9t-11.5 -24q0 -20 12.5 -34.5t29.5 -22t28 -8.5l-44 -4q27 7 51 14.5t45 15.5l19 -63q-25 -9 -58.5 -19.5t-69 -19.5t-69.5 -16z" />
    <glyph glyph-name="uni0676.fina" unicode="&#x676;" horiz-adv-x="524" 
d="M57 -230l-29 140q71 9 124 21.5t89 34.5t54 60.5t18 99.5q0 59 -18 94t-48 35q-21 0 -35 -14.5t-20.5 -34t-6.5 -34.5q0 -9 5 -19t22 -17t53.5 -8t99.5 7h168q38 0 54.5 -19.5t16.5 -48.5q0 -31 -21 -51.5t-60 -20.5h-275q-63 0 -108 15t-69 48.5t-24 89.5q0 45 15.5 90
t43.5 82.5t65.5 60t81.5 22.5q60 0 105 -37t70.5 -98t25.5 -133q0 -113 -48 -192t-137 -122.5t-212 -50.5zM313 430l-17 70q35 6 52.5 10t37.5 9l-10 -25q-26 9 -49.5 35.5t-23.5 60.5q0 36 16 58t41 32t52 10q15 0 28.5 -2t24.5 -6l-8 -72l-20 4t-22 2q-13 0 -23.5 -8.5
t-10.5 -20.5q0 -17 12 -30t28.5 -20.5t27.5 -8.5l-55 -6q27 7 51 14.5t45 15.5l20 -67q-25 -9 -58.5 -19.5t-69 -19.5t-69.5 -16z" />
    <glyph glyph-name="uni0677.fina" unicode="&#x677;" horiz-adv-x="524" 
d="M57 -230l-29 140q71 9 124 21.5t89 34.5t54 60.5t18 99.5q0 59 -18 94t-48 35q-21 0 -35 -14.5t-20.5 -34t-6.5 -34.5q0 -9 5 -19t22 -17t53.5 -8t99.5 7h168q38 0 54.5 -19.5t16.5 -48.5q0 -31 -21 -51.5t-60 -20.5h-275q-63 0 -108 15t-69 48.5t-24 89.5q0 45 15.5 90
t43.5 82.5t65.5 60t81.5 22.5q60 0 105 -37t70.5 -98t25.5 -133q0 -113 -48 -192t-137 -122.5t-212 -50.5zM313 430l-17 70q35 6 52.5 10t37.5 9l-10 -25q-26 9 -49.5 35.5t-23.5 60.5q0 36 16 58t41 32t52 10q15 0 28.5 -2t24.5 -6l-8 -72l-20 4t-22 2q-13 0 -23.5 -8.5
t-10.5 -20.5q0 -17 12 -30t28.5 -20.5t27.5 -8.5l-55 -6q27 7 51 14.5t45 15.5l20 -67q-25 -9 -58.5 -19.5t-69 -19.5t-69.5 -16zM8 417l-11 63q53 0 99 15.5t74 39.5t28 47q0 14 -8 25t-23 11q-13 0 -23 -10t-10 -25q0 -19 15 -33.5t36 -23.5l-43 -38q-30 14 -52 37.5
t-22 60.5q0 41 28.5 68t71.5 27q47 0 71 -30t24 -68q0 -48 -34.5 -84t-92 -57t-128.5 -25z" />
    <glyph glyph-name="uni0678.init" unicode="&#x678;" horiz-adv-x="350" 
d="M0 -5l10 140q44 0 69.5 6t36.5 22.5t11 47.5q0 28 -7.5 67t-19.5 81t-24 77l138 38q12 -34 24 -79t20.5 -92.5t8.5 -91.5q0 -55 -14 -92.5t-38.5 -62t-58 -38t-73.5 -18.5t-83 -5zM171 578l-16 66q35 6 52.5 10t37.5 9l-13 -27q-26 9 -49.5 35.5t-23.5 60.5q0 36 16 58
t41 32t52 10q15 0 28.5 -2t24.5 -6l-8 -62l-20 4t-22 2q-21 0 -32.5 -9t-11.5 -24q0 -20 12.5 -34.5t29.5 -22t28 -8.5l-44 -4q27 7 51 14.5t45 15.5l19 -63q-25 -9 -58.5 -19.5t-69 -19.5t-69.5 -16z" />
    <glyph glyph-name="uni0678.medi" unicode="&#x678;" horiz-adv-x="384" 
d="M0 -5l10 140q38 0 60.5 7t36 28.5t23 63.5t19.5 112l131 -22q-2 -15 -5.5 -35t-6 -40.5t-2.5 -38.5q0 -24 10.5 -40.5t38 -25.5t79.5 -9q38 0 54 -19.5t16 -48.5q0 -31 -20.5 -51.5t-59.5 -20.5q-69 0 -112 13t-64 44t-27 85h48q-18 -48 -42 -76.5t-54 -42.5t-63.5 -18.5
t-69.5 -4.5zM167 409l-16 66q35 6 52.5 10t37.5 9l-13 -27q-26 9 -49.5 35.5t-23.5 60.5q0 36 16 58t41 32t52 10q15 0 28.5 -2t24.5 -6l-8 -62l-20 4t-22 2q-21 0 -32.5 -9t-11.5 -24q0 -20 12.5 -34.5t29.5 -22t28 -8.5l-44 -4q27 7 51 14.5t45 15.5l19 -63
q-25 -9 -58.5 -19.5t-69 -19.5t-69.5 -16z" />
    <glyph glyph-name="uni0678.fina" unicode="&#x678;" horiz-adv-x="800" 
d="M26 28q0 23 4 54t15 70.5t33 88.5l123 -43q-11 -31 -19 -56.5t-12 -47t-4 -42.5q0 -33 14.5 -59.5t42.5 -45t68.5 -28.5t93.5 -10q55 0 98.5 5t74 15t46.5 25.5t16 35.5q0 9 -6.5 17t-21 17t-38 19t-56.5 22l33 141q43 -18 81.5 -31.5t73.5 -22t66 -13t58 -4.5
q38 0 54 -19.5t16 -48.5q0 -31 -21 -51.5t-59 -20.5h-15.5h-15h-15.5q2 -10 2 -17.5v-14.5q0 -33 -22.5 -67t-69.5 -63t-119.5 -46.5t-172.5 -17.5q-108 0 -185.5 27.5t-119 85t-41.5 146.5zM559 268l-16 66q35 6 52.5 10t37.5 9l-13 -27q-26 9 -49.5 35.5t-23.5 60.5
q0 36 16 58t41 32t52 10q15 0 28.5 -2t24.5 -6l-8 -62l-20 4t-22 2q-21 0 -32.5 -9t-11.5 -24q0 -20 12.5 -34.5t29.5 -22t28 -8.5l-44 -4q27 7 51 14.5t45 15.5l19 -63q-25 -9 -58.5 -19.5t-69 -19.5t-69.5 -16z" />
    <glyph glyph-name="uni067C.init" unicode="&#x67c;" horiz-adv-x="359" 
d="M0 -5l10 140q60 0 92 6t44.5 22.5t12.5 47.5q0 28 -7.5 67t-19 81t-24.5 77l138 38q13 -34 25 -79t20 -92.5t8 -91.5q0 -68 -22 -110.5t-61.5 -65.5t-94.5 -31.5t-121 -8.5zM145 -130q-42 0 -71 29.5t-29 70.5t29 70.5t71 29.5q41 0 70.5 -29.5t29.5 -70.5t-29.5 -70.5
t-70.5 -29.5zM144 -64q16 0 26.5 9.5t10.5 24.5q0 16 -10.5 25.5t-25.5 9.5q-16 0 -26.5 -10t-10.5 -25t10.5 -24.5t25.5 -9.5zM271 555q-29 0 -49.5 20.5t-20.5 48.5q0 29 20.5 50t49.5 21q28 0 48 -21t20 -50q0 -28 -20 -48.5t-48 -20.5zM98 556q-29 0 -49.5 20.5
t-20.5 48.5q0 29 20.5 50t49.5 21q28 0 48 -21t20 -50q0 -28 -20 -48.5t-48 -20.5z" />
    <glyph glyph-name="uni067C.medi" unicode="&#x67c;" horiz-adv-x="384" 
d="M127 -123q-42 0 -71 29.5t-29 70.5t29 70.5t71 29.5q41 0 70.5 -29.5t29.5 -70.5t-29.5 -70.5t-70.5 -29.5zM126 -57q16 0 26.5 9.5t10.5 24.5q0 16 -10.5 25.5t-25.5 9.5q-16 0 -26.5 -10t-10.5 -25t10.5 -24.5t25.5 -9.5zM0 -5l10 140q38 0 60.5 7t36 28.5t23 63.5
t19.5 112l131 -22q-2 -15 -5.5 -35t-6 -40.5t-2.5 -38.5q0 -24 10.5 -40.5t38 -25.5t79.5 -9q38 0 54 -19.5t16 -48.5q0 -31 -20.5 -51.5t-59.5 -20.5q-69 0 -112 13t-64 44t-27 85h48q-18 -48 -42 -76.5t-54 -42.5t-63.5 -18.5t-69.5 -4.5zM301 436q-29 0 -49.5 20.5
t-20.5 48.5q0 29 20.5 50t49.5 21q28 0 48 -21t20 -50q0 -28 -20 -48.5t-48 -20.5zM128 437q-29 0 -49.5 20.5t-20.5 48.5q0 29 20.5 50t49.5 21q28 0 48 -21t20 -50q0 -28 -20 -48.5t-48 -20.5z" />
    <glyph glyph-name="uni067C.fina" unicode="&#x67c;" horiz-adv-x="1142" 
d="M545 -152q-42 0 -71 29.5t-29 70.5t29 70.5t71 29.5q41 0 70.5 -29.5t29.5 -70.5t-29.5 -70.5t-70.5 -29.5zM544 -86q16 0 26.5 9.5t10.5 24.5q0 16 -10.5 25.5t-26.5 9.5q-15 0 -25.5 -10t-10.5 -25t10.5 -24.5t25.5 -9.5zM425 -21l26 140q72 0 138.5 7t127 28t113.5 62
t96 110l112 -51q-6 -19 -10 -36.5t-4 -28.5q0 -23 11.5 -40t39.5 -26t77 -9q38 0 54 -19.5t16 -48.5q0 -31 -20.5 -51.5t-59.5 -20.5q-69 0 -119.5 19t-79 53.5t-33.5 79.5l40 -4q-36 -43 -89.5 -74t-121 -51t-147 -29.5t-167.5 -9.5zM424 -21q-108 0 -182.5 16.5t-121 47
t-67.5 71.5t-21 90q0 32 5.5 64.5t14 63.5t15.5 56l125 -29q-4 -18 -9 -39t-8 -40.5t-3 -35.5q0 -37 26.5 -65.5t87.5 -44t164 -15.5l20 -108zM610 436q-29 0 -49.5 20.5t-20.5 48.5q0 29 20.5 50t49.5 21q28 0 48 -21t20 -50q0 -28 -20 -48.5t-48 -20.5zM437 437
q-29 0 -49.5 20.5t-20.5 48.5q0 29 20.5 50t49.5 21q28 0 48 -21t20 -50q0 -28 -20 -48.5t-48 -20.5z" />
    <glyph glyph-name="uni067D.init" unicode="&#x67d;" horiz-adv-x="359" 
d="M0 -5l10 140q60 0 92 6t44.5 22.5t12.5 47.5q0 28 -7.5 67t-19 81t-24.5 77l138 38q13 -34 25 -79t20 -92.5t8 -91.5q0 -68 -22 -110.5t-61.5 -65.5t-94.5 -31.5t-121 -8.5zM183 556q-26 0 -44.5 18t-18.5 44t18.5 45t44.5 19t44 -19t18 -45t-18 -44t-44 -18zM107 688
q-26 0 -44.5 18t-18.5 44t18.5 45t44.5 19t44 -19t18 -45t-18 -44t-44 -18zM263 688q-26 0 -44.5 18t-18.5 44t18.5 45t44.5 19t44 -19t18 -45t-18 -44t-44 -18z" />
    <glyph glyph-name="uni067D.medi" unicode="&#x67d;" horiz-adv-x="409" 
d="M0 -5l10 140q36 0 62 7t44 28.5t30.5 63.5t22.5 112l131 -22q-2 -15 -5.5 -35t-6 -40.5t-2.5 -38.5t7 -32t22.5 -23.5t41 -14.5t62.5 -5q38 0 54 -19.5t16 -48.5q0 -31 -20.5 -51.5t-59.5 -20.5q-45 0 -81.5 7t-63 23.5t-43 44t-20.5 67.5h48q-18 -48 -45.5 -76.5
t-61.5 -42.5t-70.5 -18.5t-71.5 -4.5zM233 437q-26 0 -44.5 18t-18.5 44t18.5 45t44.5 19t44 -19t18 -45t-18 -44t-44 -18zM157 569q-26 0 -44.5 18t-18.5 44t18.5 45t44.5 19t44 -19t18 -45t-18 -44t-44 -18zM313 569q-26 0 -44.5 18t-18.5 44t18.5 45t44.5 19t44 -19
t18 -45t-18 -44t-44 -18z" />
    <glyph glyph-name="uni067D.fina" unicode="&#x67d;" horiz-adv-x="1142" 
d="M425 -21l26 140q72 0 138.5 7t127 28t113.5 62t96 110l112 -51q-6 -19 -10 -36.5t-4 -28.5q0 -23 11.5 -40t39.5 -26t77 -9q38 0 54 -19.5t16 -48.5q0 -31 -20.5 -51.5t-59.5 -20.5q-69 0 -119.5 19t-79 53.5t-33.5 79.5l40 -4q-36 -43 -89.5 -74t-121 -51t-147 -29.5
t-167.5 -9.5zM424 -21q-108 0 -182.5 16.5t-121 47t-67.5 71.5t-21 90q0 32 5.5 64.5t14 63.5t15.5 56l125 -29q-4 -18 -9 -39t-8 -40.5t-3 -35.5q0 -37 26.5 -65.5t87.5 -44t164 -15.5l20 -108zM552 445q-26 0 -44.5 18t-18.5 44t18.5 45t44.5 19t44 -19t18 -45t-18 -44
t-44 -18zM476 577q-26 0 -44.5 18t-18.5 44t18.5 45t44.5 19t44 -19t18 -45t-18 -44t-44 -18zM632 577q-26 0 -44.5 18t-18.5 44t18.5 45t44.5 19t44 -19t18 -45t-18 -44t-44 -18z" />
    <glyph glyph-name="uni0681.init" unicode="&#x681;" horiz-adv-x="629" 
d="M0 -5l10 140q54 0 107 6t103 18t95.5 31t85.5 46q-30 18 -65 31t-74.5 19.5t-83.5 6.5q-16 0 -33.5 -1t-35.5 -3.5t-36 -6.5l-20 137q29 8 61.5 11.5t57.5 3.5q54 0 99.5 -12t84 -30t72 -36t64 -30t59.5 -12h37l16 -133q-43 -2 -80.5 -16.5t-74 -36t-78 -44.5t-93.5 -43
t-120 -33t-158 -13zM63 488l-17 70q35 6 52.5 10t37.5 9l-10 -25q-26 9 -49.5 35.5t-23.5 60.5q0 36 16 58t41 32t52 10q15 0 28.5 -2t24.5 -6l-8 -72l-20 4t-22 2q-13 0 -23.5 -8.5t-10.5 -20.5q0 -17 12 -30t28.5 -20.5t27.5 -8.5l-55 -6q27 7 51 14.5t45 15.5l20 -67
q-25 -9 -58.5 -19.5t-69 -19.5t-69.5 -16z" />
    <glyph glyph-name="uni0681.medi" unicode="&#x681;" horiz-adv-x="654" 
d="M654 -5q-46 0 -85.5 7t-72.5 24.5t-58.5 48.5t-42.5 78l79 63q18 -32 44 -49.5t62 -24.5t84 -7q38 0 54 -19.5t16 -48.5q0 -31 -20.5 -51.5t-59.5 -20.5zM0 -5l10 140q54 0 107 6t103 18t95.5 31t85.5 46q-30 18 -65 31t-74.5 19.5t-83.5 6.5q-16 0 -33.5 -1t-35.5 -3.5
t-36 -6.5l-20 137q29 8 61.5 11.5t57.5 3.5q54 0 99.5 -12t84 -30t72 -36t64 -30t59.5 -12h37l16 -133q-43 -2 -80.5 -16.5t-74 -36t-78 -44.5t-93.5 -43t-120 -33t-158 -13zM63 488l-17 70q35 6 52.5 10t37.5 9l-10 -25q-26 9 -49.5 35.5t-23.5 60.5q0 36 16 58t41 32
t52 10q15 0 28.5 -2t24.5 -6l-8 -72l-20 4t-22 2q-13 0 -23.5 -8.5t-10.5 -20.5q0 -17 12 -30t28.5 -20.5t27.5 -8.5l-55 -6q27 7 51 14.5t45 15.5l20 -67q-25 -9 -58.5 -19.5t-69 -19.5t-69.5 -16z" />
    <glyph glyph-name="uni0681.fina" unicode="&#x681;" horiz-adv-x="739" 
d="M739 -5q-57 0 -106 8.5t-86.5 33t-61 72.5t-30.5 128l98 41q7 -48 22.5 -77t40 -43t58 -18.5t75.5 -4.5q38 0 54 -19.5t16 -48.5q0 -31 -20.5 -51.5t-59.5 -20.5zM377 -394q-76 0 -142 19t-115 57t-76.5 94t-27.5 129q0 68 21.5 126t60 105t91.5 84t116.5 63t133.5 41
l2 -18q-24 7 -53 16t-62.5 17t-71 13.5t-78.5 5.5q-36 0 -67.5 -4.5t-55.5 -10.5l-21 136q29 9 62.5 15t69.5 6q54 0 100 -9.5t86.5 -23.5t78 -28.5t73.5 -24t74 -9.5h40l13 -150q-38 0 -87.5 -10t-102.5 -29t-103.5 -47t-91 -65t-64.5 -82t-24 -98q0 -48 18 -82t50 -55
t74.5 -31t91.5 -10q55 0 111.5 12t113.5 34l41 -122q-73 -34 -145 -49t-134 -15zM225 614l-17 70q35 6 52.5 10t37.5 9l-10 -25q-26 9 -49.5 35.5t-23.5 60.5q0 36 16 58t41 32t52 10q15 0 28.5 -2t24.5 -6l-8 -72l-20 4t-22 2q-13 0 -23.5 -8.5t-10.5 -20.5q0 -17 12 -30
t28.5 -20.5t27.5 -8.5l-55 -6q27 7 51 14.5t45 15.5l20 -67q-25 -9 -58.5 -19.5t-69 -19.5t-69.5 -16z" />
    <glyph glyph-name="uni0682.init" unicode="&#x682;" horiz-adv-x="629" 
d="M0 -5l10 140q54 0 107 6t103 18t95.5 31t85.5 46q-30 18 -65 31t-74.5 19.5t-83.5 6.5q-16 0 -33.5 -1t-35.5 -3.5t-36 -6.5l-20 137q29 8 61.5 11.5t57.5 3.5q54 0 99.5 -12t84 -30t72 -36t64 -30t59.5 -12h37l16 -133q-43 -2 -80.5 -16.5t-74 -36t-78 -44.5t-93.5 -43
t-120 -33t-158 -13zM174 528q-26 0 -44.5 18t-18.5 44t18.5 45t44.5 19t44.5 -19t18.5 -45t-18.5 -44t-44.5 -18zM174 694q-26 0 -44.5 18t-18.5 44t18.5 45t44.5 19t44.5 -19t18.5 -45t-18.5 -44t-44.5 -18z" />
    <glyph glyph-name="uni0682.medi" unicode="&#x682;" horiz-adv-x="654" 
d="M654 -5q-46 0 -85.5 7t-72.5 24.5t-58.5 48.5t-42.5 78l79 63q18 -32 44 -49.5t62 -24.5t84 -7q38 0 54 -19.5t16 -48.5q0 -31 -20.5 -51.5t-59.5 -20.5zM0 -5l10 140q54 0 107 6t103 18t95.5 31t85.5 46q-30 18 -65 31t-74.5 19.5t-83.5 6.5q-16 0 -33.5 -1t-35.5 -3.5
t-36 -6.5l-20 137q29 8 61.5 11.5t57.5 3.5q54 0 99.5 -12t84 -30t72 -36t64 -30t59.5 -12h37l16 -133q-43 -2 -80.5 -16.5t-74 -36t-78 -44.5t-93.5 -43t-120 -33t-158 -13zM173 538q-26 0 -44.5 18t-18.5 44t18.5 45t44.5 19t44.5 -19t18.5 -45t-18.5 -44t-44.5 -18z
M173 704q-26 0 -44.5 18t-18.5 44t18.5 45t44.5 19t44.5 -19t18.5 -45t-18.5 -44t-44.5 -18z" />
    <glyph glyph-name="uni0682.fina" unicode="&#x682;" horiz-adv-x="739" 
d="M739 -5q-57 0 -106 8.5t-86.5 33t-61 72.5t-30.5 128l98 41q7 -48 22.5 -77t40 -43t58 -18.5t75.5 -4.5q38 0 54 -19.5t16 -48.5q0 -31 -20.5 -51.5t-59.5 -20.5zM377 -394q-76 0 -142 19t-115 57t-76.5 94t-27.5 129q0 68 21.5 126t60 105t91.5 84t116.5 63t133.5 41
l2 -18q-24 7 -53 16t-62.5 17t-71 13.5t-78.5 5.5q-36 0 -67.5 -4.5t-55.5 -10.5l-21 136q29 9 62.5 15t69.5 6q54 0 100 -9.5t86.5 -23.5t78 -28.5t73.5 -24t74 -9.5h40l13 -150q-38 0 -87.5 -10t-102.5 -29t-103.5 -47t-91 -65t-64.5 -82t-24 -98q0 -48 18 -82t50 -55
t74.5 -31t91.5 -10q55 0 111.5 12t113.5 34l41 -122q-73 -34 -145 -49t-134 -15zM331 594q-26 0 -44.5 18t-18.5 44t18.5 45t44.5 19t44.5 -19t18.5 -45t-18.5 -44t-44.5 -18zM331 760q-26 0 -44.5 18t-18.5 44t18.5 45t44.5 19t44.5 -19t18.5 -45t-18.5 -44t-44.5 -18z" />
    <glyph glyph-name="uni0685.init" unicode="&#x685;" horiz-adv-x="629" 
d="M0 -5l10 140q54 0 107 6t103 18t95.5 31t85.5 46q-30 18 -65 31t-74.5 19.5t-83.5 6.5q-16 0 -33.5 -1t-35.5 -3.5t-36 -6.5l-20 137q29 8 61.5 11.5t57.5 3.5q54 0 99.5 -12t84 -30t72 -36t64 -30t59.5 -12h37l16 -133q-43 -2 -80.5 -16.5t-74 -36t-78 -44.5t-93.5 -43
t-120 -33t-158 -13zM190 659q-25 0 -43.5 19t-18.5 45t18.5 44t43.5 18q26 0 44 -18t18 -44t-18 -45t-44 -19zM110 527q-25 0 -43.5 19t-18.5 45t18.5 44t43.5 18q26 0 44 -18t18 -44t-18 -45t-44 -19zM265 527q-25 0 -43.5 19t-18.5 45t18.5 44t43.5 18q26 0 44 -18t18 -44
t-18 -45t-44 -19z" />
    <glyph glyph-name="uni0685.medi" unicode="&#x685;" horiz-adv-x="654" 
d="M654 -5q-46 0 -85.5 7t-72.5 24.5t-58.5 48.5t-42.5 78l79 63q18 -32 44 -49.5t62 -24.5t84 -7q38 0 54 -19.5t16 -48.5q0 -31 -20.5 -51.5t-59.5 -20.5zM0 -5l10 140q54 0 107 6t103 18t95.5 31t85.5 46q-30 18 -65 31t-74.5 19.5t-83.5 6.5q-16 0 -33.5 -1t-35.5 -3.5
t-36 -6.5l-20 137q29 8 61.5 11.5t57.5 3.5q54 0 99.5 -12t84 -30t72 -36t64 -30t59.5 -12h37l16 -133q-43 -2 -80.5 -16.5t-74 -36t-78 -44.5t-93.5 -43t-120 -33t-158 -13zM190 659q-25 0 -43.5 19t-18.5 45t18.5 44t43.5 18q26 0 44 -18t18 -44t-18 -45t-44 -19zM110 527
q-25 0 -43.5 19t-18.5 45t18.5 44t43.5 18q26 0 44 -18t18 -44t-18 -45t-44 -19zM265 527q-25 0 -43.5 19t-18.5 45t18.5 44t43.5 18q26 0 44 -18t18 -44t-18 -45t-44 -19z" />
    <glyph glyph-name="uni0685.fina" unicode="&#x685;" horiz-adv-x="739" 
d="M739 -5q-57 0 -106 8.5t-86.5 33t-61 72.5t-30.5 128l98 41q7 -48 22.5 -77t40 -43t58 -18.5t75.5 -4.5q38 0 54 -19.5t16 -48.5q0 -31 -20.5 -51.5t-59.5 -20.5zM377 -394q-76 0 -142 19t-115 57t-76.5 94t-27.5 129q0 68 21.5 126t60 105t91.5 84t116.5 63t133.5 41
l2 -18q-24 7 -53 16t-62.5 17t-71 13.5t-78.5 5.5q-36 0 -67.5 -4.5t-55.5 -10.5l-21 136q29 9 62.5 15t69.5 6q54 0 100 -9.5t86.5 -23.5t78 -28.5t73.5 -24t74 -9.5h40l13 -150q-38 0 -87.5 -10t-102.5 -29t-103.5 -47t-91 -65t-64.5 -82t-24 -98q0 -48 18 -82t50 -55
t74.5 -31t91.5 -10q55 0 111.5 12t113.5 34l41 -122q-73 -34 -145 -49t-134 -15zM330 725q-25 0 -43.5 19t-18.5 45t18.5 44t43.5 18q26 0 44 -18t18 -44t-18 -45t-44 -19zM250 593q-25 0 -43.5 19t-18.5 45t18.5 44t43.5 18q26 0 44 -18t18 -44t-18 -45t-44 -19zM405 593
q-25 0 -43.5 19t-18.5 45t18.5 44t43.5 18q26 0 44 -18t18 -44t-18 -45t-44 -19z" />
    <glyph glyph-name="uni0689.fina" unicode="&#x689;" horiz-adv-x="571" 
d="M225 -141q-42 0 -71 29.5t-29 70.5t29 70.5t71 29.5q41 0 70.5 -29.5t29.5 -70.5t-29.5 -70.5t-70.5 -29.5zM224 -75q16 0 26.5 9.5t10.5 24.5q0 16 -10.5 25.5t-26.5 9.5q-15 0 -25.5 -10t-10.5 -25t10.5 -24.5t25.5 -9.5zM218 135q45 0 69 8t33 21t9 28q0 24 -13.5 56
t-33.5 67t-41.5 67t-38.5 56l119 79q43 -58 74 -114.5t50.5 -104.5t27.5 -82q8 -32 24.5 -49.5t38.5 -24.5t44 -7q38 0 54.5 -19.5t16.5 -48.5q0 -31 -20.5 -51.5t-60.5 -20.5q-44 0 -77 12t-56 38t-39 66l61 -13q-8 -28 -36.5 -51.5t-75 -38t-109.5 -14.5q-30 0 -66.5 5
t-72 15t-64.5 26l49 127q37 -16 71.5 -24t62.5 -8z" />
    <glyph glyph-name="uni068A.fina" unicode="&#x68a;" horiz-adv-x="571" 
d="M218 135q45 0 69 8t33 21t9 28q0 24 -13.5 56t-33.5 67t-41.5 67t-38.5 56l119 79q43 -58 74 -114.5t50.5 -104.5t27.5 -82q8 -32 24.5 -49.5t38.5 -24.5t44 -7q38 0 54.5 -19.5t16.5 -48.5q0 -31 -20.5 -51.5t-60.5 -20.5q-44 0 -77 12t-56 38t-39 66l61 -13
q-8 -28 -36.5 -51.5t-75 -38t-109.5 -14.5q-30 0 -66.5 5t-72 15t-64.5 26l49 127q37 -16 71.5 -24t62.5 -8zM236 -235q-29 0 -49.5 20t-20.5 49t20.5 50.5t49.5 21.5t49.5 -21.5t20.5 -50.5t-20.5 -49t-49.5 -20z" />
    <glyph glyph-name="uni068B.fina" unicode="&#x68b;" horiz-adv-x="571" 
d="M218 135q45 0 69 8t33 21t9 28q0 24 -13.5 56t-33.5 67t-41.5 67t-38.5 56l119 79q43 -58 74 -114.5t50.5 -104.5t27.5 -82q8 -32 24.5 -49.5t38.5 -24.5t44 -7q38 0 54.5 -19.5t16.5 -48.5q0 -31 -20.5 -51.5t-60.5 -20.5q-44 0 -77 12t-56 38t-39 66l61 -13
q-8 -28 -36.5 -51.5t-75 -38t-109.5 -14.5q-30 0 -66.5 5t-72 15t-64.5 26l49 127q37 -16 71.5 -24t62.5 -8zM217 629q-18 0 -43 1.5t-46.5 3.5t-32.5 3l3 63q20 -2 52 -4.5t60 -2.5q38 0 59 5t29.5 13.5t8.5 18.5q0 11 -7 19t-21 8q-16 0 -33.5 -12.5t-32 -30t-22.5 -34.5
l-64 14q18 38 44.5 67t57.5 46t61 17q38 0 61 -25.5t23 -63.5q0 -22 -11.5 -46.5t-45.5 -42t-100 -17.5zM145 701l-6 192h65l7 -171zM236 -235q-29 0 -49.5 20t-20.5 49t20.5 50.5t49.5 21.5t49.5 -21.5t20.5 -50.5t-20.5 -49t-49.5 -20z" />
    <glyph glyph-name="uni068F.fina" unicode="&#x68f;" horiz-adv-x="571" 
d="M218 135q45 0 69 8t33 21t9 28q0 24 -13.5 56t-33.5 67t-41.5 67t-38.5 56l119 79q43 -58 74 -114.5t50.5 -104.5t27.5 -82q8 -32 24.5 -49.5t38.5 -24.5t44 -7q38 0 54.5 -19.5t16.5 -48.5q0 -31 -20.5 -51.5t-60.5 -20.5q-44 0 -77 12t-56 38t-39 66l61 -13
q-8 -28 -36.5 -51.5t-75 -38t-109.5 -14.5q-30 0 -66.5 5t-72 15t-64.5 26l49 127q37 -16 71.5 -24t62.5 -8zM223 592q-26 0 -44.5 18t-18.5 44t18.5 45t44.5 19t44 -19t18 -45t-18 -44t-44 -18zM147 724q-26 0 -44.5 18t-18.5 44t18.5 45t44.5 19t44 -19t18 -45t-18 -44
t-44 -18zM303 724q-26 0 -44.5 18t-18.5 44t18.5 45t44.5 19t44 -19t18 -45t-18 -44t-44 -18z" />
    <glyph glyph-name="uni0690.fina" unicode="&#x690;" horiz-adv-x="571" 
d="M218 135q45 0 69 8t33 21t9 28q0 24 -13.5 56t-33.5 67t-41.5 67t-38.5 56l119 79q43 -58 74 -114.5t50.5 -104.5t27.5 -82q8 -32 24.5 -49.5t38.5 -24.5t44 -7q38 0 54.5 -19.5t16.5 -48.5q0 -31 -20.5 -51.5t-60.5 -20.5q-44 0 -77 12t-56 38t-39 66l61 -13
q-8 -28 -36.5 -51.5t-75 -38t-109.5 -14.5q-30 0 -66.5 5t-72 15t-64.5 26l49 127q37 -16 71.5 -24t62.5 -8zM161 730q-24 0 -40.5 16.5t-16.5 40.5t16.5 41.5t40.5 17.5q23 0 40 -17.5t17 -41.5t-17 -40.5t-40 -16.5zM161 591q-24 0 -40.5 16.5t-16.5 40.5t16.5 41.5
t40.5 17.5q23 0 40 -17.5t17 -41.5t-17 -40.5t-40 -16.5zM299 730q-24 0 -40.5 16.5t-16.5 40.5t16.5 41.5t40.5 17.5q23 0 40 -17.5t17 -41.5t-17 -40.5t-40 -16.5zM299 591q-24 0 -40.5 16.5t-16.5 40.5t16.5 41.5t40.5 17.5q23 0 40 -17.5t17 -41.5t-17 -40.5t-40 -16.5z
" />
    <glyph glyph-name="uni0692.fina" unicode="&#x692;" horiz-adv-x="450" 
d="M16 -231l-51 124q53 18 97.5 42t77.5 53t51 63.5t18 74.5q0 42 -19 92t-46 102l131 63q18 -31 31.5 -66.5t22.5 -63.5t12 -38q14 -48 38.5 -64t79.5 -16q38 0 54.5 -19.5t16.5 -48.5q0 -31 -21 -51.5t-60 -20.5q-41 0 -72 12t-49.5 35t-23.5 54l37 -21
q-6 -53 -34.5 -100.5t-73.5 -87.5t-101 -70t-116 -48zM180 425q-7 15 -19 37.5t-25 47.5t-26 48t-23 39l58 31q7 -10 18.5 -29.5t24 -42.5t24.5 -44.5t19 -35.5l21 -45zM252 431l-57 22q7 17 18 43.5t23.5 54.5t22.5 50t15 30l58 -24q-5 -10 -15.5 -32.5t-23 -50t-24 -52.5
t-17.5 -41z" />
    <glyph glyph-name="uni0693.fina" unicode="&#x693;" horiz-adv-x="450" 
d="M283 -217q-42 0 -71 29.5t-29 70.5t29 70.5t71 29.5q41 0 70.5 -29.5t29.5 -70.5t-29.5 -70.5t-70.5 -29.5zM282 -151q16 0 26.5 9.5t10.5 24.5q0 16 -10.5 25.5t-26.5 9.5q-15 0 -25.5 -10t-10.5 -25t10.5 -24.5t25.5 -9.5zM16 -231l-51 124q53 18 97.5 42t77.5 53
t51 63.5t18 74.5q0 42 -19 92t-46 102l131 63q18 -31 31.5 -66.5t22.5 -63.5t12 -38q14 -48 38.5 -64t79.5 -16q38 0 54.5 -19.5t16.5 -48.5q0 -31 -21 -51.5t-60 -20.5q-41 0 -72 12t-49.5 35t-23.5 54l37 -21q-6 -53 -34.5 -100.5t-73.5 -87.5t-101 -70t-116 -48z" />
    <glyph glyph-name="uni0694.fina" unicode="&#x694;" horiz-adv-x="450" 
d="M16 -231l-51 124q53 18 97.5 42t77.5 53t51 63.5t18 74.5q0 42 -19 92t-46 102l131 63q18 -31 31.5 -66.5t22.5 -63.5t12 -38q14 -48 38.5 -64t79.5 -16q38 0 54.5 -19.5t16.5 -48.5q0 -31 -21 -51.5t-60 -20.5q-41 0 -72 12t-49.5 35t-23.5 54l37 -21
q-6 -53 -34.5 -100.5t-73.5 -87.5t-101 -70t-116 -48zM162 -447q-29 0 -49.5 20t-20.5 49t20.5 50.5t49.5 21.5t49.5 -21.5t20.5 -50.5t-20.5 -49t-49.5 -20z" />
    <glyph glyph-name="uni0695.fina" unicode="&#x695;" horiz-adv-x="450" 
d="M43 3q-8 16 -21 41t-27.5 49.5t-25.5 41.5l46 25q6 -8 15 -22.5t19.5 -32t19.5 -34l15 -27.5l17 -36zM101 8l-46 18q6 13 15 33.5t18.5 42t18 38t12.5 22.5l46 -19l-12.5 -25t-18.5 -38t-19 -40t-14 -32zM16 -231l-51 124q53 18 97.5 42t77.5 53t51 63.5t18 74.5
q0 42 -19 92t-46 102l131 63q18 -31 31.5 -66.5t22.5 -63.5t12 -38q14 -48 38.5 -64t79.5 -16q38 0 54.5 -19.5t16.5 -48.5q0 -31 -21 -51.5t-60 -20.5q-41 0 -72 12t-49.5 35t-23.5 54l37 -21q-6 -53 -34.5 -100.5t-73.5 -87.5t-101 -70t-116 -48z" />
    <glyph glyph-name="uni0696.fina" unicode="&#x696;" horiz-adv-x="450" 
d="M16 -231l-51 124q53 18 97.5 42t77.5 53t51 63.5t18 74.5q0 42 -19 92t-46 102l131 63q18 -31 31.5 -66.5t22.5 -63.5t12 -38q14 -48 38.5 -64t79.5 -16q38 0 54.5 -19.5t16.5 -48.5q0 -31 -21 -51.5t-60 -20.5q-41 0 -72 12t-49.5 35t-23.5 54l37 -21
q-6 -53 -34.5 -100.5t-73.5 -87.5t-101 -70t-116 -48zM89 2q-31 0 -52.5 21t-21.5 52t21.5 53t52.5 22q30 0 51.5 -22t21.5 -53t-21.5 -52t-51.5 -21zM162 -447q-29 0 -49.5 20t-20.5 49t20.5 50.5t49.5 21.5t49.5 -21.5t20.5 -50.5t-20.5 -49t-49.5 -20z" />
    <glyph glyph-name="uni0697.fina" unicode="&#x697;" horiz-adv-x="450" 
d="M16 -231l-51 124q53 18 97.5 42t77.5 53t51 63.5t18 74.5q0 42 -19 92t-46 102l131 63q18 -31 31.5 -66.5t22.5 -63.5t12 -38q14 -48 38.5 -64t79.5 -16q38 0 54.5 -19.5t16.5 -48.5q0 -31 -21 -51.5t-60 -20.5q-41 0 -72 12t-49.5 35t-23.5 54l37 -21
q-6 -53 -34.5 -100.5t-73.5 -87.5t-101 -70t-116 -48zM307 483q-29 0 -49.5 20.5t-20.5 48.5q0 29 20.5 50t49.5 21q28 0 48 -21t20 -50q0 -28 -20 -48.5t-48 -20.5zM134 484q-29 0 -49.5 20.5t-20.5 48.5q0 29 20.5 50t49.5 21q28 0 48 -21t20 -50q0 -28 -20 -48.5
t-48 -20.5z" />
    <glyph glyph-name="uni0699.fina" unicode="&#x699;" horiz-adv-x="450" 
d="M16 -231l-51 124q53 18 97.5 42t77.5 53t51 63.5t18 74.5q0 42 -19 92t-46 102l131 63q18 -31 31.5 -66.5t22.5 -63.5t12 -38q14 -48 38.5 -64t79.5 -16q38 0 54.5 -19.5t16.5 -48.5q0 -31 -21 -51.5t-60 -20.5q-41 0 -72 12t-49.5 35t-23.5 54l37 -21
q-6 -53 -34.5 -100.5t-73.5 -87.5t-101 -70t-116 -48zM157 622q-24 0 -40.5 16.5t-16.5 40.5t16.5 41.5t40.5 17.5q23 0 40 -17.5t17 -41.5t-17 -40.5t-40 -16.5zM157 483q-24 0 -40.5 16.5t-16.5 40.5t16.5 41.5t40.5 17.5q23 0 40 -17.5t17 -41.5t-17 -40.5t-40 -16.5z
M295 622q-24 0 -40.5 16.5t-16.5 40.5t16.5 41.5t40.5 17.5q23 0 40 -17.5t17 -41.5t-17 -40.5t-40 -16.5zM295 483q-24 0 -40.5 16.5t-16.5 40.5t16.5 41.5t40.5 17.5q23 0 40 -17.5t17 -41.5t-17 -40.5t-40 -16.5z" />
    <glyph glyph-name="uni069A.init" unicode="&#x69a;" horiz-adv-x="950" 
d="M0 -5l10 140q33 0 54 5.5t34.5 25t24 59t23.5 107.5l130 -24l-7 -35t-7 -40.5t-3 -36.5q0 -28 18 -44.5t68 -16.5q25 0 43.5 5.5t32 25t24 61t20.5 112.5l132 -21q-4 -23 -8 -49t-7 -48t-3 -36q0 -13 7.5 -24.5t28 -18.5t58.5 -7q27 0 46.5 7t30 23t10.5 42q0 37 -17 97
t-40 126l141 42q16 -43 28.5 -91.5t20 -94t7.5 -79.5q0 -51 -16 -90.5t-45 -66.5t-69 -41t-88 -14q-58 0 -95 11.5t-56.5 39t-25.5 75.5h34q-21 -59 -47 -85.5t-61.5 -33.5t-88.5 -7q-33 0 -67.5 7.5t-61.5 35.5t-40 87l54 2q-21 -59 -54.5 -87t-76.5 -36.5t-96 -8.5z
M472 -235q-29 0 -49.5 20t-20.5 49t20.5 50.5t49.5 21.5t49.5 -21.5t20.5 -50.5t-20.5 -49t-49.5 -20zM516 482q-31 0 -52.5 21t-21.5 52t21.5 53t52.5 22q30 0 51.5 -22t21.5 -53t-21.5 -52t-51.5 -21z" />
    <glyph glyph-name="uni069A.medi" unicode="&#x69a;" horiz-adv-x="1019" 
d="M0 -5l10 140q33 0 54 5.5t34.5 25t24 59t23.5 107.5l130 -24q-4 -22 -10.5 -55t-6.5 -57q0 -19 7.5 -32.5t26 -21t51.5 -7.5q26 0 44.5 5.5t32 25t24 61t20.5 112.5l132 -21q-4 -23 -8 -49t-7 -48t-3 -36q0 -13 7.5 -24.5t28 -18.5t57.5 -7q45 0 66.5 19.5t21.5 59.5
q0 23 -1 49.5t-3.5 60t-8.5 76.5l129 10q7 -86 16 -140t24.5 -83.5t42 -40.5t69.5 -11q38 0 54.5 -19.5t16.5 -48.5q0 -31 -20.5 -51.5t-60.5 -20.5q-27 0 -56 4.5t-56 18t-48 39.5t-33 69l18 -6q-14 -50 -38 -77t-59 -37.5t-84 -10.5q-45 0 -80 12t-55.5 39.5t-21.5 74.5
h34q-20 -56 -46 -83t-63 -35t-93 -8q-34 0 -67 7.5t-59 35t-38 87.5l54 2q-21 -59 -54.5 -87t-76.5 -36.5t-96 -8.5zM455 -235q-29 0 -49.5 20t-20.5 49t20.5 50.5t49.5 21.5t49.5 -21.5t20.5 -50.5t-20.5 -49t-49.5 -20zM506 482q-31 0 -52.5 21t-21.5 52t21.5 53t52.5 22
q30 0 51.5 -22t21.5 -53t-21.5 -52t-51.5 -21z" />
    <glyph glyph-name="uni069A.fina" unicode="&#x69a;" horiz-adv-x="1439" 
d="M343 -232q-72 0 -130 16.5t-100 49.5t-64.5 81.5t-22.5 112.5q0 23 4 54t15 70.5t33 88.5l123 -43q-11 -31 -19 -56.5t-12 -47t-4 -42.5q0 -39 18 -72t58 -52.5t105 -19.5q60 0 100 13.5t63 37t33 54.5t10 67q0 28 -6.5 63t-18.5 76.5t-27 87.5l140 36q14 -58 22.5 -90
t13.5 -48q10 -30 24.5 -45.5t33 -20.5t41.5 -5q19 0 35 6t29.5 25.5t24.5 60.5t20 113l132 -21q-4 -23 -8 -49t-7 -48.5t-3 -36.5q0 -13 7.5 -24t27.5 -18t57 -7q46 0 67.5 19.5t21.5 59.5q0 23 -1 49.5t-3.5 60t-8.5 76.5l129 10q8 -93 18 -148t26.5 -82.5t42.5 -36
t65 -8.5q38 0 54.5 -19.5t16.5 -48.5q0 -31 -21 -51.5t-60 -20.5q-42 0 -81 11t-68.5 39.5t-44.5 80.5l38 -6q-13 -54 -43.5 -81t-68.5 -35.5t-76 -8.5q-50 0 -88.5 15t-60 43t-20.5 68h34q-15 -55 -41 -82t-58 -35.5t-65 -8.5q-26 0 -50 5t-43.5 16.5t-33.5 31t-19 47.5
l37 -40q-2 -68 -27 -121t-69.5 -90t-107 -56.5t-139.5 -19.5zM935 -230q-29 0 -49.5 20t-20.5 49t20.5 50.5t49.5 21.5t49.5 -21.5t20.5 -50.5t-20.5 -49t-49.5 -20zM882 482q-31 0 -52.5 21t-21.5 52t21.5 53t52.5 22q30 0 51.5 -22t21.5 -53t-21.5 -52t-51.5 -21z" />
    <glyph glyph-name="uni069B.init" unicode="&#x69b;" horiz-adv-x="950" 
d="M0 -5l10 140q33 0 54 5.5t34.5 25t24 59t23.5 107.5l130 -24l-7 -35t-7 -40.5t-3 -36.5q0 -28 18 -44.5t68 -16.5q25 0 43.5 5.5t32 25t24 61t20.5 112.5l132 -21q-4 -23 -8 -49t-7 -48t-3 -36q0 -13 7.5 -24.5t28 -18.5t58.5 -7q27 0 46.5 7t30 23t10.5 42q0 37 -17 97
t-40 126l141 42q16 -43 28.5 -91.5t20 -94t7.5 -79.5q0 -51 -16 -90.5t-45 -66.5t-69 -41t-88 -14q-58 0 -95 11.5t-56.5 39t-25.5 75.5h34q-21 -59 -47 -85.5t-61.5 -33.5t-88.5 -7q-33 0 -67.5 7.5t-61.5 35.5t-40 87l54 2q-21 -59 -54.5 -87t-76.5 -36.5t-96 -8.5z
M476 -356q-26 0 -44.5 18t-18.5 44t18.5 45t44.5 19t44 -19t18 -45t-18 -44t-44 -18zM400 -224q-26 0 -44.5 18t-18.5 44t18.5 45t44.5 19t44 -19t18 -45t-18 -44t-44 -18zM556 -224q-26 0 -44.5 18t-18.5 44t18.5 45t44.5 19t44 -19t18 -45t-18 -44t-44 -18z" />
    <glyph glyph-name="uni069B.medi" unicode="&#x69b;" horiz-adv-x="1019" 
d="M0 -5l10 140q33 0 54 5.5t34.5 25t24 59t23.5 107.5l130 -24q-4 -22 -10.5 -55t-6.5 -57q0 -19 7.5 -32.5t26 -21t51.5 -7.5q26 0 44.5 5.5t32 25t24 61t20.5 112.5l132 -21q-4 -23 -8 -49t-7 -48t-3 -36q0 -13 7.5 -24.5t28 -18.5t57.5 -7q45 0 66.5 19.5t21.5 59.5
q0 23 -1 49.5t-3.5 60t-8.5 76.5l129 10q7 -86 16 -140t24.5 -83.5t42 -40.5t69.5 -11q38 0 54.5 -19.5t16.5 -48.5q0 -31 -20.5 -51.5t-60.5 -20.5q-27 0 -56 4.5t-56 18t-48 39.5t-33 69l18 -6q-14 -50 -38 -77t-59 -37.5t-84 -10.5q-45 0 -80 12t-55.5 39.5t-21.5 74.5
h34q-20 -56 -46 -83t-63 -35t-93 -8q-34 0 -67 7.5t-59 35t-38 87.5l54 2q-21 -59 -54.5 -87t-76.5 -36.5t-96 -8.5zM459 -356q-26 0 -44.5 18t-18.5 44t18.5 45t44.5 19t44 -19t18 -45t-18 -44t-44 -18zM383 -224q-26 0 -44.5 18t-18.5 44t18.5 45t44.5 19t44 -19t18 -45
t-18 -44t-44 -18zM539 -224q-26 0 -44.5 18t-18.5 44t18.5 45t44.5 19t44 -19t18 -45t-18 -44t-44 -18z" />
    <glyph glyph-name="uni069B.fina" unicode="&#x69b;" horiz-adv-x="1439" 
d="M343 -232q-72 0 -130 16.5t-100 49.5t-64.5 81.5t-22.5 112.5q0 23 4 54t15 70.5t33 88.5l123 -43q-11 -31 -19 -56.5t-12 -47t-4 -42.5q0 -39 18 -72t58 -52.5t105 -19.5q60 0 100 13.5t63 37t33 54.5t10 67q0 28 -6.5 63t-18.5 76.5t-27 87.5l140 36q14 -58 22.5 -90
t13.5 -48q10 -30 24.5 -45.5t33 -20.5t41.5 -5q19 0 35 6t29.5 25.5t24.5 60.5t20 113l132 -21q-4 -23 -8 -49t-7 -48.5t-3 -36.5q0 -13 7.5 -24t27.5 -18t57 -7q46 0 67.5 19.5t21.5 59.5q0 23 -1 49.5t-3.5 60t-8.5 76.5l129 10q8 -93 18 -148t26.5 -82.5t42.5 -36
t65 -8.5q38 0 54.5 -19.5t16.5 -48.5q0 -31 -21 -51.5t-60 -20.5q-42 0 -81 11t-68.5 39.5t-44.5 80.5l38 -6q-13 -54 -43.5 -81t-68.5 -35.5t-76 -8.5q-50 0 -88.5 15t-60 43t-20.5 68h34q-15 -55 -41 -82t-58 -35.5t-65 -8.5q-26 0 -50 5t-43.5 16.5t-33.5 31t-19 47.5
l37 -40q-2 -68 -27 -121t-69.5 -90t-107 -56.5t-139.5 -19.5zM346 -559q-26 0 -44.5 18t-18.5 44t18.5 45t44.5 19t44 -19t18 -45t-18 -44t-44 -18zM270 -427q-26 0 -44.5 18t-18.5 44t18.5 45t44.5 19t44 -19t18 -45t-18 -44t-44 -18zM426 -427q-26 0 -44.5 18t-18.5 44
t18.5 45t44.5 19t44 -19t18 -45t-18 -44t-44 -18z" />
    <glyph glyph-name="uni069D.init" unicode="&#x69d;" horiz-adv-x="974" 
d="M518 -18q-93 0 -154.5 8t-99.5 23t-60 36t-36 46l28 8q-25 -48 -57 -71t-67 -30t-72 -7l10 140q31 0 49 10t29.5 33t21.5 61t24 93l127 -31q-7 -27 -11.5 -47t-7 -34.5t-2.5 -23.5q0 -19 9 -33.5t35 -23t76.5 -13t132.5 -4.5q87 0 145 6.5t92.5 19t49.5 31t15 42.5
q0 19 -8.5 35.5t-27.5 27.5t-49 11q-36 0 -72.5 -17.5t-71.5 -46t-66.5 -63.5t-56.5 -70l-150 17q39 63 88 121t105 102.5t116 70.5t122 26q67 0 114 -26t72 -72t25 -106q0 -73 -41.5 -129t-133 -88t-242.5 -32zM609 -250q-29 0 -49.5 20.5t-20.5 48.5q0 29 20.5 50t49.5 21
q28 0 48 -21t20 -50q0 -28 -20 -48.5t-48 -20.5zM436 -250q-29 0 -49.5 20.5t-20.5 48.5q0 29 20.5 50t49.5 21q28 0 48 -21t20 -50q0 -28 -20 -48.5t-48 -20.5z" />
    <glyph glyph-name="uni069D.medi" unicode="&#x69d;" horiz-adv-x="1004" 
d="M1003 -5q-51 0 -98 9.5t-84.5 25.5t-61.5 36l90 97q36 -15 74 -21.5t90 -6.5q38 0 54.5 -19.5t16.5 -48.5q0 -31 -21 -51.5t-60 -20.5zM518 -18q-93 0 -154.5 8t-99.5 23t-60 36t-36 46l28 8q-25 -48 -57 -71t-67 -30t-72 -7l10 140q31 0 49 10t29.5 33t21.5 61t24 93
l127 -31q-7 -27 -11.5 -47t-7 -34.5t-2.5 -23.5q0 -19 9 -33.5t35 -23t76.5 -13t132.5 -4.5q87 0 145 6.5t92.5 19t49.5 31t15 42.5q0 19 -8.5 35.5t-27.5 27.5t-49 11q-36 0 -72.5 -17.5t-71.5 -46t-66.5 -63.5t-56.5 -70l-150 17q39 63 88 121t105 102.5t116 70.5t122 26
q67 0 114 -26t72 -72t25 -106q0 -73 -41.5 -129t-133 -88t-242.5 -32zM609 -250q-29 0 -49.5 20.5t-20.5 48.5q0 29 20.5 50t49.5 21q28 0 48 -21t20 -50q0 -28 -20 -48.5t-48 -20.5zM436 -250q-29 0 -49.5 20.5t-20.5 48.5q0 29 20.5 50t49.5 21q28 0 48 -21t20 -50
q0 -28 -20 -48.5t-48 -20.5z" />
    <glyph glyph-name="uni069D.fina" unicode="&#x69d;" horiz-adv-x="1442" 
d="M1441 -5q-51 0 -98 9.5t-84.5 25.5t-61.5 36l90 97q36 -15 74 -21.5t90 -6.5q38 0 54.5 -19.5t16.5 -48.5q0 -31 -21 -51.5t-60 -20.5zM342 -231q-67 0 -124.5 16.5t-100.5 49t-67 81t-24 112.5q0 23 4 54t15 70.5t33 88.5l123 -43q-11 -31 -19 -56.5t-12 -47t-4 -42.5
q0 -40 21.5 -72.5t62 -51.5t96.5 -19q54 0 93 11t64.5 32.5t37.5 53t12 72.5q0 43 -16 101t-36 128l140 36q10 -38 16.5 -65.5t11 -45t8.5 -27.5q8 -21 23 -35.5t44.5 -24t79.5 -14t129 -4.5q66 0 114.5 4.5t82 13t54 20.5t30 27.5t9.5 33.5t-8.5 35t-27.5 28t-49 11
q-39 0 -78 -19t-75.5 -49.5t-67 -64.5t-53.5 -64l-143 17q29 47 65.5 93.5t78.5 87.5t88.5 72t96.5 49t101 18q67 0 114 -26.5t72.5 -72.5t25.5 -105q0 -55 -22.5 -100.5t-72 -79t-129.5 -51.5t-194 -18q-57 0 -111.5 6.5t-99.5 19.5t-76 32.5t-42 45.5l56 -31
q-3 -68 -29 -122t-71.5 -91.5t-108.5 -57.5t-141 -20zM1044 -245q-29 0 -49.5 20.5t-20.5 48.5q0 29 20.5 50t49.5 21q28 0 48 -21t20 -50q0 -28 -20 -48.5t-48 -20.5zM871 -245q-29 0 -49.5 20.5t-20.5 48.5q0 29 20.5 50t49.5 21q28 0 48 -21t20 -50q0 -28 -20 -48.5
t-48 -20.5z" />
    <glyph glyph-name="uni069E.init" unicode="&#x69e;" horiz-adv-x="974" 
d="M518 -18q-93 0 -154.5 8t-99.5 23t-60 36t-36 46l28 8q-25 -48 -57 -71t-67 -30t-72 -7l10 140q31 0 49 10t29.5 33t21.5 61t24 93l127 -31q-7 -27 -11.5 -47t-7 -34.5t-2.5 -23.5q0 -19 9 -33.5t35 -23t76.5 -13t132.5 -4.5q87 0 145 6.5t92.5 19t49.5 31t15 42.5
q0 19 -8.5 35.5t-27.5 27.5t-49 11q-36 0 -72.5 -17.5t-71.5 -46t-66.5 -63.5t-56.5 -70l-150 17q39 63 88 121t105 102.5t116 70.5t122 26q67 0 114 -26t72 -72t25 -106q0 -73 -41.5 -129t-133 -88t-242.5 -32zM702 660q-25 0 -43.5 19t-18.5 45t18.5 44t43.5 18
q26 0 44 -18t18 -44t-18 -45t-44 -19zM622 528q-25 0 -43.5 19t-18.5 45t18.5 44t43.5 18q26 0 44 -18t18 -44t-18 -45t-44 -19zM777 528q-25 0 -43.5 19t-18.5 45t18.5 44t43.5 18q26 0 44 -18t18 -44t-18 -45t-44 -19z" />
    <glyph glyph-name="uni069E.medi" unicode="&#x69e;" horiz-adv-x="1004" 
d="M1003 -5q-51 0 -98 9.5t-84.5 25.5t-61.5 36l90 97q36 -15 74 -21.5t90 -6.5q38 0 54.5 -19.5t16.5 -48.5q0 -31 -21 -51.5t-60 -20.5zM518 -18q-93 0 -154.5 8t-99.5 23t-60 36t-36 46l28 8q-25 -48 -57 -71t-67 -30t-72 -7l10 140q31 0 49 10t29.5 33t21.5 61t24 93
l127 -31q-7 -27 -11.5 -47t-7 -34.5t-2.5 -23.5q0 -19 9 -33.5t35 -23t76.5 -13t132.5 -4.5q87 0 145 6.5t92.5 19t49.5 31t15 42.5q0 19 -8.5 35.5t-27.5 27.5t-49 11q-36 0 -72.5 -17.5t-71.5 -46t-66.5 -63.5t-56.5 -70l-150 17q39 63 88 121t105 102.5t116 70.5t122 26
q67 0 114 -26t72 -72t25 -106q0 -73 -41.5 -129t-133 -88t-242.5 -32zM702 660q-25 0 -43.5 19t-18.5 45t18.5 44t43.5 18q26 0 44 -18t18 -44t-18 -45t-44 -19zM622 528q-25 0 -43.5 19t-18.5 45t18.5 44t43.5 18q26 0 44 -18t18 -44t-18 -45t-44 -19zM777 528
q-25 0 -43.5 19t-18.5 45t18.5 44t43.5 18q26 0 44 -18t18 -44t-18 -45t-44 -19z" />
    <glyph glyph-name="uni069E.fina" unicode="&#x69e;" horiz-adv-x="1442" 
d="M1441 -5q-51 0 -98 9.5t-84.5 25.5t-61.5 36l90 97q36 -15 74 -21.5t90 -6.5q38 0 54.5 -19.5t16.5 -48.5q0 -31 -21 -51.5t-60 -20.5zM342 -231q-67 0 -124.5 16.5t-100.5 49t-67 81t-24 112.5q0 23 4 54t15 70.5t33 88.5l123 -43q-11 -31 -19 -56.5t-12 -47t-4 -42.5
q0 -40 21.5 -72.5t62 -51.5t96.5 -19q54 0 93 11t64.5 32.5t37.5 53t12 72.5q0 43 -16 101t-36 128l140 36q10 -38 16.5 -65.5t11 -45t8.5 -27.5q8 -21 23 -35.5t44.5 -24t79.5 -14t129 -4.5q66 0 114.5 4.5t82 13t54 20.5t30 27.5t9.5 33.5t-8.5 35t-27.5 28t-49 11
q-39 0 -78 -19t-75.5 -49.5t-67 -64.5t-53.5 -64l-143 17q29 47 65.5 93.5t78.5 87.5t88.5 72t96.5 49t101 18q67 0 114 -26.5t72.5 -72.5t25.5 -105q0 -55 -22.5 -100.5t-72 -79t-129.5 -51.5t-194 -18q-57 0 -111.5 6.5t-99.5 19.5t-76 32.5t-42 45.5l56 -31
q-3 -68 -29 -122t-71.5 -91.5t-108.5 -57.5t-141 -20zM1142 662q-25 0 -43.5 19t-18.5 45t18.5 44t43.5 18q26 0 44 -18t18 -44t-18 -45t-44 -19zM1062 530q-25 0 -43.5 19t-18.5 45t18.5 44t43.5 18q26 0 44 -18t18 -44t-18 -45t-44 -19zM1217 530q-25 0 -43.5 19t-18.5 45
t18.5 44t43.5 18q26 0 44 -18t18 -44t-18 -45t-44 -19z" />
    <glyph glyph-name="uni069F.init" unicode="&#x69f;" horiz-adv-x="737" 
d="M0 -5l10 140h224q94 0 156.5 7t99.5 20.5t52.5 31.5t15.5 39q0 19 -9 36.5t-27 28.5t-47 11q-37 0 -74 -17.5t-72 -47t-66.5 -65.5t-57.5 -73l-151 21q42 65 91.5 123.5t105 103t115 70t121.5 25.5q66 0 113 -27t72.5 -74t25.5 -109q0 -65 -36.5 -117t-123.5 -86
q-37 -14 -80 -23t-101 -13.5t-139 -4.5h-218zM104 97l-21 635h140l18 -480zM465 674q-25 0 -43.5 19t-18.5 45t18.5 44t43.5 18q26 0 44 -18t18 -44t-18 -45t-44 -19zM385 542q-25 0 -43.5 19t-18.5 45t18.5 44t43.5 18q26 0 44 -18t18 -44t-18 -45t-44 -19zM540 542
q-25 0 -43.5 19t-18.5 45t18.5 44t43.5 18q26 0 44 -18t18 -44t-18 -45t-44 -19z" />
    <glyph glyph-name="uni069F.medi" unicode="&#x69f;" horiz-adv-x="762" 
d="M761 -5q-51 0 -98 9.5t-84.5 25.5t-61.5 36l90 97q36 -15 74 -21.5t90 -6.5q38 0 54.5 -19.5t16.5 -48.5q0 -31 -21 -51.5t-60 -20.5zM0 -5l10 140h224q94 0 156.5 7t99.5 20.5t52.5 31.5t15.5 39q0 19 -9 36.5t-27 28.5t-47 11q-37 0 -74 -17.5t-72 -47t-66.5 -65.5
t-57.5 -73l-151 21q42 65 91.5 123.5t105 103t115 70t121.5 25.5q66 0 113 -27t72.5 -74t25.5 -109q0 -65 -36.5 -117t-123.5 -86q-37 -14 -80 -23t-101 -13.5t-139 -4.5h-218zM104 97l-21 635h140l18 -480zM465 674q-25 0 -43.5 19t-18.5 45t18.5 44t43.5 18q26 0 44 -18
t18 -44t-18 -45t-44 -19zM385 542q-25 0 -43.5 19t-18.5 45t18.5 44t43.5 18q26 0 44 -18t18 -44t-18 -45t-44 -19zM540 542q-25 0 -43.5 19t-18.5 45t18.5 44t43.5 18q26 0 44 -18t18 -44t-18 -45t-44 -19z" />
    <glyph glyph-name="uni069F.fina" unicode="&#x69f;" horiz-adv-x="861" 
d="M860 -5q-51 0 -98 9.5t-84.5 25.5t-61.5 36l90 97q36 -15 74 -21.5t90 -6.5q38 0 54.5 -19.5t16.5 -48.5q0 -31 -21 -51.5t-60 -20.5zM387 -13q-52 0 -102 1.5t-97 3.5t-89 6t-79 8l16 138q50 -5 93.5 -8.5t83.5 -5.5t80 -2.5t82 -0.5q82 0 138 7t89.5 20t48 31t14.5 39
q0 19 -9.5 36t-28 28t-46.5 11q-38 0 -75 -18t-71.5 -47.5t-64.5 -64t-54 -66.5l-153 17q41 64 89.5 121.5t104 102t115.5 70t122 25.5q64 0 111 -26t73.5 -72t26.5 -106q0 -72 -41 -128t-132.5 -88t-244.5 -32zM213 99l-21 633h140l18 -478zM582 664q-25 0 -43.5 19
t-18.5 45t18.5 44t43.5 18q26 0 44 -18t18 -44t-18 -45t-44 -19zM502 532q-25 0 -43.5 19t-18.5 45t18.5 44t43.5 18q26 0 44 -18t18 -44t-18 -45t-44 -19zM657 532q-25 0 -43.5 19t-18.5 45t18.5 44t43.5 18q26 0 44 -18t18 -44t-18 -45t-44 -19z" />
    <glyph glyph-name="uni06A0.init" unicode="&#x6a0;" horiz-adv-x="557" 
d="M0 -5l10 140q47 0 72.5 1t38.5 2.5t22 2.5q-10 10 -26 29t-28.5 49t-12.5 72q0 61 31.5 107t85.5 72t121 26q32 0 59.5 -4t55.5 -12l-22 -133q-20 5 -42 8t-39 3q-33 0 -57.5 -10.5t-38 -29t-13.5 -44.5q0 -17 6.5 -32t16.5 -27t22 -21t23.5 -14.5t19.5 -7.5
q25 7 43.5 12.5t36 11t38.5 14.5t52 22l45 -132q-84 -41 -164 -64t-166 -32t-190 -9zM282 721q-25 0 -43.5 19t-18.5 45t18.5 44t43.5 18q26 0 44 -18t18 -44t-18 -45t-44 -19zM202 589q-25 0 -43.5 19t-18.5 45t18.5 44t43.5 18q26 0 44 -18t18 -44t-18 -45t-44 -19z
M357 589q-25 0 -43.5 19t-18.5 45t18.5 44t43.5 18q26 0 44 -18t18 -44t-18 -45t-44 -19z" />
    <glyph glyph-name="uni06A0.medi" unicode="&#x6a0;" horiz-adv-x="552" 
d="M-4 -5l10 140q70 0 126 9.5t98.5 25.5t71 37t43 44.5t14.5 46.5q0 13 -6.5 24.5t-21.5 19t-41 7.5q-13 0 -31 -3t-36 -8.5t-34 -14.5q21 -16 46 -40.5t50 -51t43 -51.5q21 -9 46.5 -17.5t55.5 -14.5t63 -9.5t68 -3.5q38 0 54.5 -19.5t16.5 -48.5q0 -31 -21 -51.5
t-60 -20.5q-80 0 -142 12.5t-110.5 37t-90.5 59.5q-12 21 -33.5 45.5t-45 47.5t-42.5 38q-5 4 -11.5 21.5t-11.5 37t-5 27.5q0 23 21.5 49t58 48.5t81 37t90.5 14.5q62 0 103.5 -18.5t62.5 -51t21 -75.5q0 -48 -21 -95.5t-61.5 -89.5t-101 -74.5t-140 -51.5t-177.5 -19z
M306 695q-25 0 -43.5 19t-18.5 45t18.5 44t43.5 18q26 0 44 -18t18 -44t-18 -45t-44 -19zM226 563q-25 0 -43.5 19t-18.5 45t18.5 44t43.5 18q26 0 44 -18t18 -44t-18 -45t-44 -19zM381 563q-25 0 -43.5 19t-18.5 45t18.5 44t43.5 18q26 0 44 -18t18 -44t-18 -45t-44 -19z
" />
    <glyph glyph-name="uni06A0.fina" unicode="&#x6a0;" horiz-adv-x="570" 
d="M326 -394q-66 0 -124 14t-101.5 43t-68 75t-24.5 109q0 65 27 114.5t69 87t89.5 68t89.5 58.5t69 57.5t27 65.5q0 13 -6.5 24.5t-21 19t-40.5 7.5q-17 0 -35 -3.5t-35 -9t-32 -13.5q26 -21 51.5 -46.5t47 -49t33.5 -40.5q23 -12 50 -21.5t57.5 -16.5t63.5 -10.5t68 -3.5
q38 0 54 -19.5t16 -48.5q0 -31 -21 -51.5t-59 -20.5q-83 0 -141.5 12t-105 36.5t-95.5 60.5q-12 21 -35 46.5t-46.5 48.5t-39.5 36q-3 3 -10 20.5t-12.5 37.5t-5.5 28q0 20 19 45.5t53.5 49t80.5 39t100 15.5q98 0 141.5 -41.5t43.5 -106.5q0 -60 -26.5 -107t-68.5 -86
t-88.5 -72t-88.5 -64.5t-68.5 -64t-26.5 -70.5q0 -32 16.5 -53.5t42.5 -34.5t57.5 -18.5t61.5 -5.5q31 0 64.5 5t70 15.5t75.5 26.5l42 -120q-38 -20 -81 -35.5t-87 -23.5t-86 -8zM329 695q-25 0 -43.5 19t-18.5 45t18.5 44t43.5 18q26 0 44 -18t18 -44t-18 -45t-44 -19z
M249 563q-25 0 -43.5 19t-18.5 45t18.5 44t43.5 18q26 0 44 -18t18 -44t-18 -45t-44 -19zM404 563q-25 0 -43.5 19t-18.5 45t18.5 44t43.5 18q26 0 44 -18t18 -44t-18 -45t-44 -19z" />
    <glyph glyph-name="uni06A1.init" unicode="&#x6a1;" horiz-adv-x="505" 
d="M0 -5l10 139q83 0 133.5 1t79 4.5t42.5 9t24 12.5q12 9 20.5 24.5t13.5 41.5t5 65q0 49 -8.5 82.5t-24 50.5t-37.5 17q-16 0 -30 -10.5t-23 -28.5t-9 -41q0 -13 7 -23t22 -15t38 -5q22 0 46.5 5.5t45.5 15.5l4 -119q-16 -11 -37 -20t-44.5 -13.5t-47.5 -4.5
q-53 0 -91.5 14.5t-59.5 47.5t-21 90q0 44 15 87.5t43 79t66 57t84 21.5q68 0 112.5 -39.5t66 -106t21.5 -147.5q0 -71 -21 -123.5t-50 -82.5q-24 -25 -55 -42t-75.5 -26.5t-109 -13.5t-155.5 -4z" />
    <glyph glyph-name="uni06A1.medi" unicode="&#x6a1;" horiz-adv-x="529" 
d="M0 -5l10 139q39 -1 72 1t59.5 6t47 9t34.5 9q34 11 58 26.5t37 35.5t13 43q0 18 -7.5 36.5t-21.5 30.5t-33 12q-18 0 -33 -11t-24 -29.5t-9 -42.5q0 -21 10 -39.5t28 -35.5t43 -32l-133 -51q-22 21 -41.5 45t-32 54.5t-12.5 68.5q0 46 18 84t48 65.5t67 42.5t74 15
q60 0 104 -28t68.5 -73t24.5 -98q0 -49 -18 -87.5t-48.5 -68t-67 -51.5t-73.5 -37q-18 -8 -45 -15t-61 -12.5t-73 -8.5t-83 -3zM528 -5q-58 0 -114 6t-103.5 18t-82.5 29l69 108q30 -8 70.5 -12.5t85 -6.5t85.5 -2q38 0 54.5 -19.5t16.5 -48.5q0 -31 -21 -51.5t-60 -20.5z
" />
    <glyph glyph-name="uni06A1.fina" unicode="&#x6a1;" horiz-adv-x="1115" 
d="M424 -21l26 140q62 0 118 4t103.5 10t83 13t54.5 13q34 11 58 27t37 36t13 40q0 14 -5 28t-13.5 26t-20 19.5t-23.5 7.5q-16 0 -31.5 -12t-25 -31.5t-9.5 -43.5q0 -17 10 -36t28.5 -36.5t42.5 -30.5l-133 -51q-22 21 -41.5 43.5t-32 50.5t-12.5 63q0 46 18.5 85.5
t49 69.5t67 46.5t72.5 16.5q58 0 102 -30.5t69.5 -78.5t25.5 -101q0 -47 -18 -84t-48.5 -64.5t-67 -48.5t-73.5 -36q-26 -11 -71.5 -21t-104 -17.5t-122.5 -12t-126 -4.5zM1114 -5q-58 0 -114 6t-103.5 18t-82.5 29l69 108q30 -8 70.5 -12.5t85 -6.5t85.5 -2
q38 0 54.5 -19.5t16.5 -48.5q0 -31 -21 -51.5t-60 -20.5zM424 -21q-108 0 -182.5 16.5t-121 47t-67.5 71.5t-21 90q0 32 5.5 64.5t14 63.5t15.5 56l125 -29q-4 -18 -9 -39t-8 -40.5t-3 -35.5q0 -37 26.5 -65.5t87.5 -44t164 -15.5l20 -108z" />
    <glyph glyph-name="fehDotMovedbelowar.init" unicode="&#x6a2;" horiz-adv-x="505" 
d="M0 -5l10 139q83 0 133.5 1t79 4.5t42.5 9t24 12.5q12 9 20.5 24.5t13.5 41.5t5 65q0 49 -8.5 82.5t-24 50.5t-37.5 17q-16 0 -30 -10.5t-23 -28.5t-9 -41q0 -13 7 -23t22 -15t38 -5q22 0 46.5 5.5t45.5 15.5l4 -119q-16 -11 -37 -20t-44.5 -13.5t-47.5 -4.5
q-53 0 -91.5 14.5t-59.5 47.5t-21 90q0 44 15 87.5t43 79t66 57t84 21.5q68 0 112.5 -39.5t66 -106t21.5 -147.5q0 -71 -21 -123.5t-50 -82.5q-24 -25 -55 -42t-75.5 -26.5t-109 -13.5t-155.5 -4zM220 -247q-29 0 -49.5 20t-20.5 49t20.5 50.5t49.5 21.5t49.5 -21.5
t20.5 -50.5t-20.5 -49t-49.5 -20z" />
    <glyph glyph-name="fehDotMovedbelowar.medi" unicode="&#x6a2;" horiz-adv-x="529" 
d="M0 -5l10 139q39 -1 72 1t59.5 6t47 9t34.5 9q34 11 58 26.5t37 35.5t13 43q0 18 -7.5 36.5t-21.5 30.5t-33 12q-18 0 -33 -11t-24 -29.5t-9 -42.5q0 -21 10 -39.5t28 -35.5t43 -32l-133 -51q-22 21 -41.5 45t-32 54.5t-12.5 68.5q0 46 18 84t48 65.5t67 42.5t74 15
q60 0 104 -28t68.5 -73t24.5 -98q0 -49 -18 -87.5t-48.5 -68t-67 -51.5t-73.5 -37q-18 -8 -45 -15t-61 -12.5t-73 -8.5t-83 -3zM528 -5q-58 0 -114 6t-103.5 18t-82.5 29l69 108q30 -8 70.5 -12.5t85 -6.5t85.5 -2q38 0 54.5 -19.5t16.5 -48.5q0 -31 -21 -51.5t-60 -20.5z
M262 -248q-29 0 -49.5 20t-20.5 49t20.5 50.5t49.5 21.5t49.5 -21.5t20.5 -50.5t-20.5 -49t-49.5 -20z" />
    <glyph glyph-name="fehDotMovedbelowar.fina" unicode="&#x6a2;" horiz-adv-x="1115" 
d="M424 -21l26 140q62 0 118 4t103.5 10t83 13t54.5 13q34 11 58 27t37 36t13 40q0 14 -5 28t-13.5 26t-20 19.5t-23.5 7.5q-16 0 -31.5 -12t-25 -31.5t-9.5 -43.5q0 -17 10 -36t28.5 -36.5t42.5 -30.5l-133 -51q-22 21 -41.5 43.5t-32 50.5t-12.5 63q0 46 18.5 85.5
t49 69.5t67 46.5t72.5 16.5q58 0 102 -30.5t69.5 -78.5t25.5 -101q0 -47 -18 -84t-48.5 -64.5t-67 -48.5t-73.5 -36q-26 -11 -71.5 -21t-104 -17.5t-122.5 -12t-126 -4.5zM1114 -5q-58 0 -114 6t-103.5 18t-82.5 29l69 108q30 -8 70.5 -12.5t85 -6.5t85.5 -2
q38 0 54.5 -19.5t16.5 -48.5q0 -31 -21 -51.5t-60 -20.5zM424 -21q-108 0 -182.5 16.5t-121 47t-67.5 71.5t-21 90q0 32 5.5 64.5t14 63.5t15.5 56l125 -29q-4 -18 -9 -39t-8 -40.5t-3 -35.5q0 -37 26.5 -65.5t87.5 -44t164 -15.5l20 -108zM490 -248q-29 0 -49.5 20
t-20.5 49t20.5 50.5t49.5 21.5t49.5 -21.5t20.5 -50.5t-20.5 -49t-49.5 -20z" />
    <glyph glyph-name="uni06A3.init" unicode="&#x6a3;" horiz-adv-x="505" 
d="M0 -5l10 139q83 0 133.5 1t79 4.5t42.5 9t24 12.5q12 9 20.5 24.5t13.5 41.5t5 65q0 49 -8.5 82.5t-24 50.5t-37.5 17q-16 0 -30 -10.5t-23 -28.5t-9 -41q0 -13 7 -23t22 -15t38 -5q22 0 46.5 5.5t45.5 15.5l4 -119q-16 -11 -37 -20t-44.5 -13.5t-47.5 -4.5
q-53 0 -91.5 14.5t-59.5 47.5t-21 90q0 44 15 87.5t43 79t66 57t84 21.5q68 0 112.5 -39.5t66 -106t21.5 -147.5q0 -71 -21 -123.5t-50 -82.5q-24 -25 -55 -42t-75.5 -26.5t-109 -13.5t-155.5 -4zM264 673q-31 0 -52.5 21t-21.5 52t21.5 53t52.5 22q30 0 51.5 -22t21.5 -53
t-21.5 -52t-51.5 -21zM220 -247q-29 0 -49.5 20t-20.5 49t20.5 50.5t49.5 21.5t49.5 -21.5t20.5 -50.5t-20.5 -49t-49.5 -20z" />
    <glyph glyph-name="uni06A3.medi" unicode="&#x6a3;" horiz-adv-x="529" 
d="M0 -5l10 139q39 -1 72 1t59.5 6t47 9t34.5 9q34 11 58 26.5t37 35.5t13 43q0 18 -7.5 36.5t-21.5 30.5t-33 12q-18 0 -33 -11t-24 -29.5t-9 -42.5q0 -21 10 -39.5t28 -35.5t43 -32l-133 -51q-22 21 -41.5 45t-32 54.5t-12.5 68.5q0 46 18 84t48 65.5t67 42.5t74 15
q60 0 104 -28t68.5 -73t24.5 -98q0 -49 -18 -87.5t-48.5 -68t-67 -51.5t-73.5 -37q-18 -8 -45 -15t-61 -12.5t-73 -8.5t-83 -3zM528 -5q-58 0 -114 6t-103.5 18t-82.5 29l69 108q30 -8 70.5 -12.5t85 -6.5t85.5 -2q38 0 54.5 -19.5t16.5 -48.5q0 -31 -21 -51.5t-60 -20.5z
M273 570q-31 0 -52.5 21t-21.5 52t21.5 53t52.5 22q30 0 51.5 -22t21.5 -53t-21.5 -52t-51.5 -21zM262 -248q-29 0 -49.5 20t-20.5 49t20.5 50.5t49.5 21.5t49.5 -21.5t20.5 -50.5t-20.5 -49t-49.5 -20z" />
    <glyph glyph-name="uni06A3.fina" unicode="&#x6a3;" horiz-adv-x="1115" 
d="M424 -21l26 140q62 0 118 4t103.5 10t83 13t54.5 13q34 11 58 27t37 36t13 40q0 14 -5 28t-13.5 26t-20 19.5t-23.5 7.5q-16 0 -31.5 -12t-25 -31.5t-9.5 -43.5q0 -17 10 -36t28.5 -36.5t42.5 -30.5l-133 -51q-22 21 -41.5 43.5t-32 50.5t-12.5 63q0 46 18.5 85.5
t49 69.5t67 46.5t72.5 16.5q58 0 102 -30.5t69.5 -78.5t25.5 -101q0 -47 -18 -84t-48.5 -64.5t-67 -48.5t-73.5 -36q-26 -11 -71.5 -21t-104 -17.5t-122.5 -12t-126 -4.5zM1114 -5q-58 0 -114 6t-103.5 18t-82.5 29l69 108q30 -8 70.5 -12.5t85 -6.5t85.5 -2
q38 0 54.5 -19.5t16.5 -48.5q0 -31 -21 -51.5t-60 -20.5zM424 -21q-108 0 -182.5 16.5t-121 47t-67.5 71.5t-21 90q0 32 5.5 64.5t14 63.5t15.5 56l125 -29q-4 -18 -9 -39t-8 -40.5t-3 -35.5q0 -37 26.5 -65.5t87.5 -44t164 -15.5l20 -108zM859 570q-31 0 -52.5 21t-21.5 52
t21.5 53t52.5 22q30 0 51.5 -22t21.5 -53t-21.5 -52t-51.5 -21zM490 -248q-29 0 -49.5 20t-20.5 49t20.5 50.5t49.5 21.5t49.5 -21.5t20.5 -50.5t-20.5 -49t-49.5 -20z" />
    <glyph glyph-name="uni06A5.init" unicode="&#x6a5;" horiz-adv-x="505" 
d="M0 -5l10 139q83 0 133.5 1t79 4.5t42.5 9t24 12.5q12 9 20.5 24.5t13.5 41.5t5 65q0 49 -8.5 82.5t-24 50.5t-37.5 17q-16 0 -30 -10.5t-23 -28.5t-9 -41q0 -13 7 -23t22 -15t38 -5q22 0 46.5 5.5t45.5 15.5l4 -119q-16 -11 -37 -20t-44.5 -13.5t-47.5 -4.5
q-53 0 -91.5 14.5t-59.5 47.5t-21 90q0 44 15 87.5t43 79t66 57t84 21.5q68 0 112.5 -39.5t66 -106t21.5 -147.5q0 -71 -21 -123.5t-50 -82.5q-24 -25 -55 -42t-75.5 -26.5t-109 -13.5t-155.5 -4zM224 -368q-26 0 -44.5 18t-18.5 44t18.5 45t44.5 19t44 -19t18 -45t-18 -44
t-44 -18zM148 -236q-26 0 -44.5 18t-18.5 44t18.5 45t44.5 19t44 -19t18 -45t-18 -44t-44 -18zM304 -236q-26 0 -44.5 18t-18.5 44t18.5 45t44.5 19t44 -19t18 -45t-18 -44t-44 -18z" />
    <glyph glyph-name="uni06A5.medi" unicode="&#x6a5;" horiz-adv-x="529" 
d="M0 -5l10 139q39 -1 72 1t59.5 6t47 9t34.5 9q34 11 58 26.5t37 35.5t13 43q0 18 -7.5 36.5t-21.5 30.5t-33 12q-18 0 -33 -11t-24 -29.5t-9 -42.5q0 -21 10 -39.5t28 -35.5t43 -32l-133 -51q-22 21 -41.5 45t-32 54.5t-12.5 68.5q0 46 18 84t48 65.5t67 42.5t74 15
q60 0 104 -28t68.5 -73t24.5 -98q0 -49 -18 -87.5t-48.5 -68t-67 -51.5t-73.5 -37q-18 -8 -45 -15t-61 -12.5t-73 -8.5t-83 -3zM528 -5q-58 0 -114 6t-103.5 18t-82.5 29l69 108q30 -8 70.5 -12.5t85 -6.5t85.5 -2q38 0 54.5 -19.5t16.5 -48.5q0 -31 -21 -51.5t-60 -20.5z
M266 -369q-26 0 -44.5 18t-18.5 44t18.5 45t44.5 19t44 -19t18 -45t-18 -44t-44 -18zM190 -237q-26 0 -44.5 18t-18.5 44t18.5 45t44.5 19t44 -19t18 -45t-18 -44t-44 -18zM346 -237q-26 0 -44.5 18t-18.5 44t18.5 45t44.5 19t44 -19t18 -45t-18 -44t-44 -18z" />
    <glyph glyph-name="uni06A5.fina" unicode="&#x6a5;" horiz-adv-x="1115" 
d="M424 -21l26 140q62 0 118 4t103.5 10t83 13t54.5 13q34 11 58 27t37 36t13 40q0 14 -5 28t-13.5 26t-20 19.5t-23.5 7.5q-16 0 -31.5 -12t-25 -31.5t-9.5 -43.5q0 -17 10 -36t28.5 -36.5t42.5 -30.5l-133 -51q-22 21 -41.5 43.5t-32 50.5t-12.5 63q0 46 18.5 85.5
t49 69.5t67 46.5t72.5 16.5q58 0 102 -30.5t69.5 -78.5t25.5 -101q0 -47 -18 -84t-48.5 -64.5t-67 -48.5t-73.5 -36q-26 -11 -71.5 -21t-104 -17.5t-122.5 -12t-126 -4.5zM1114 -5q-58 0 -114 6t-103.5 18t-82.5 29l69 108q30 -8 70.5 -12.5t85 -6.5t85.5 -2
q38 0 54.5 -19.5t16.5 -48.5q0 -31 -21 -51.5t-60 -20.5zM424 -21q-108 0 -182.5 16.5t-121 47t-67.5 71.5t-21 90q0 32 5.5 64.5t14 63.5t15.5 56l125 -29q-4 -18 -9 -39t-8 -40.5t-3 -35.5q0 -37 26.5 -65.5t87.5 -44t164 -15.5l20 -108zM494 -369q-26 0 -44.5 18
t-18.5 44t18.5 45t44.5 19t44 -19t18 -45t-18 -44t-44 -18zM418 -237q-26 0 -44.5 18t-18.5 44t18.5 45t44.5 19t44 -19t18 -45t-18 -44t-44 -18zM574 -237q-26 0 -44.5 18t-18.5 44t18.5 45t44.5 19t44 -19t18 -45t-18 -44t-44 -18z" />
    <glyph glyph-name="uni06A7.fina" unicode="&#x6a7;" horiz-adv-x="855" 
d="M349 -272q-67 0 -125.5 14.5t-103 45t-69.5 79t-25 116.5q0 23 3.5 52t15.5 69.5t37 94.5l122 -47q-14 -36 -22.5 -60.5t-12 -44t-3.5 -40.5q0 -44 25 -75.5t71.5 -47.5t110.5 -16q44 0 81.5 6.5t67.5 18.5t53 27.5t38.5 34t22.5 37.5q9 26 13 58t4 67q0 44 -8 74
t-23 45.5t-36 15.5q-14 0 -25.5 -7t-20 -18t-13 -23.5t-4.5 -24.5q0 -13 6 -23.5t23.5 -17t53.5 -8t96 4.5l163 1q38 0 54 -19.5t16 -48.5q0 -32 -21 -52.5t-59 -20.5h-244q-57 0 -99 10t-69.5 30.5t-41.5 50.5t-14 69q0 45 16.5 87.5t45.5 75.5t65.5 52.5t75.5 19.5
q63 0 108.5 -35t70 -99.5t24.5 -155.5q0 -46 -14 -96t-35 -90q-25 -46 -63 -81t-88 -58.5t-111 -35t-133 -11.5zM589 483q-31 0 -52.5 21t-21.5 52t21.5 53t52.5 22q30 0 51.5 -22t21.5 -53t-21.5 -52t-51.5 -21z" />
    <glyph glyph-name="uni06A8.init" unicode="&#x6a8;" horiz-adv-x="505" 
d="M0 -5l10 139q83 0 133.5 1t79 4.5t42.5 9t24 12.5q12 9 20.5 24.5t13.5 41.5t5 65q0 49 -8.5 82.5t-24 50.5t-37.5 17q-16 0 -30 -10.5t-23 -28.5t-9 -41q0 -13 7 -23t22 -15t38 -5q22 0 46.5 5.5t45.5 15.5l4 -119q-16 -11 -37 -20t-44.5 -13.5t-47.5 -4.5
q-53 0 -91.5 14.5t-59.5 47.5t-21 90q0 44 15 87.5t43 79t66 57t84 21.5q68 0 112.5 -39.5t66 -106t21.5 -147.5q0 -71 -21 -123.5t-50 -82.5q-24 -25 -55 -42t-75.5 -26.5t-109 -13.5t-155.5 -4zM271 805q-25 0 -43.5 19t-18.5 45t18.5 44t43.5 18q26 0 44 -18t18 -44
t-18 -45t-44 -19zM191 673q-25 0 -43.5 19t-18.5 45t18.5 44t43.5 18q26 0 44 -18t18 -44t-18 -45t-44 -19zM346 673q-25 0 -43.5 19t-18.5 45t18.5 44t43.5 18q26 0 44 -18t18 -44t-18 -45t-44 -19z" />
    <glyph glyph-name="uni06A8.medi" unicode="&#x6a8;" horiz-adv-x="529" 
d="M0 -5l10 139q39 -1 72 1t59.5 6t47 9t34.5 9q34 11 58 26.5t37 35.5t13 43q0 18 -7.5 36.5t-21.5 30.5t-33 12q-18 0 -33 -11t-24 -29.5t-9 -42.5q0 -21 10 -39.5t28 -35.5t43 -32l-133 -51q-22 21 -41.5 45t-32 54.5t-12.5 68.5q0 46 18 84t48 65.5t67 42.5t74 15
q60 0 104 -28t68.5 -73t24.5 -98q0 -49 -18 -87.5t-48.5 -68t-67 -51.5t-73.5 -37q-18 -8 -45 -15t-61 -12.5t-73 -8.5t-83 -3zM528 -5q-58 0 -114 6t-103.5 18t-82.5 29l69 108q30 -8 70.5 -12.5t85 -6.5t85.5 -2q38 0 54.5 -19.5t16.5 -48.5q0 -31 -21 -51.5t-60 -20.5z
M280 702q-25 0 -43.5 19t-18.5 45t18.5 44t43.5 18q26 0 44 -18t18 -44t-18 -45t-44 -19zM200 570q-25 0 -43.5 19t-18.5 45t18.5 44t43.5 18q26 0 44 -18t18 -44t-18 -45t-44 -19zM355 570q-25 0 -43.5 19t-18.5 45t18.5 44t43.5 18q26 0 44 -18t18 -44t-18 -45t-44 -19z
" />
    <glyph glyph-name="uni06A8.fina" unicode="&#x6a8;" horiz-adv-x="855" 
d="M349 -272q-67 0 -125.5 14.5t-103 45t-69.5 79t-25 116.5q0 23 3.5 52t15.5 69.5t37 94.5l122 -47q-14 -36 -22.5 -60.5t-12 -44t-3.5 -40.5q0 -44 25 -75.5t71.5 -47.5t110.5 -16q44 0 81.5 6.5t67.5 18.5t53 27.5t38.5 34t22.5 37.5q9 26 13 58t4 67q0 44 -8 74
t-23 45.5t-36 15.5q-14 0 -25.5 -7t-20 -18t-13 -23.5t-4.5 -24.5q0 -13 6 -23.5t23.5 -17t53.5 -8t96 4.5l163 1q38 0 54 -19.5t16 -48.5q0 -32 -21 -52.5t-59 -20.5h-244q-57 0 -99 10t-69.5 30.5t-41.5 50.5t-14 69q0 45 16.5 87.5t45.5 75.5t65.5 52.5t75.5 19.5
q63 0 108.5 -35t70 -99.5t24.5 -155.5q0 -46 -14 -96t-35 -90q-25 -46 -63 -81t-88 -58.5t-111 -35t-133 -11.5zM596 615q-25 0 -43.5 19t-18.5 45t18.5 44t43.5 18q26 0 44 -18t18 -44t-18 -45t-44 -19zM516 483q-25 0 -43.5 19t-18.5 45t18.5 44t43.5 18q26 0 44 -18
t18 -44t-18 -45t-44 -19zM671 483q-25 0 -43.5 19t-18.5 45t18.5 44t43.5 18q26 0 44 -18t18 -44t-18 -45t-44 -19z" />
    <glyph glyph-name="uni06AA.init" unicode="&#x6aa;" horiz-adv-x="813" 
d="M0 -5l10 140h309q86 0 145.5 0.5t96.5 3t53.5 9t16.5 19.5q0 12 -9 21t-32 16t-65 12.5t-108 11.5q-113 10 -180.5 27t-97 46.5t-29.5 76.5q0 49 29 89t82.5 71t128.5 53.5t166 36.5l27 -137q-91 -13 -157 -30t-102 -33t-36 -30q0 -11 18 -18t60.5 -12.5t116.5 -11.5
q94 -8 157 -22t100 -37t53 -56t16 -78q0 -50 -24.5 -83t-77.5 -51.5t-139 -26t-209 -7.5h-319z" />
    <glyph glyph-name="uni06AA.medi" unicode="&#x6aa;" horiz-adv-x="900" 
d="M899 -5q-51 0 -98 9.5t-84.5 25.5t-61.5 36l90 97q36 -15 74 -21.5t90 -6.5q38 0 54.5 -19.5t16.5 -48.5q0 -31 -21 -51.5t-60 -20.5zM0 -5l10 140h309q86 0 145.5 0.5t96.5 3t53.5 9t16.5 19.5q0 12 -9 21t-32 16t-65 12.5t-108 11.5q-113 10 -180.5 27t-97 46.5
t-29.5 76.5q0 49 29 89t82.5 71t128.5 53.5t166 36.5l27 -137q-91 -13 -157 -30t-102 -33t-36 -30q0 -11 18 -18t60.5 -12.5t116.5 -11.5q94 -8 157 -22t100 -37t53 -56t16 -78q0 -50 -24.5 -83t-77.5 -51.5t-139 -26t-209 -7.5h-319z" />
    <glyph glyph-name="uni06AA.fina" unicode="&#x6aa;" horiz-adv-x="1122" 
d="M1121 -5q-51 0 -98 9.5t-84.5 25.5t-61.5 36l90 97q36 -15 74 -21.5t90 -6.5q38 0 54.5 -19.5t16.5 -48.5q0 -31 -21 -51.5t-60 -20.5zM540 -15q-48 0 -112.5 1t-134 3t-133.5 6t-111 9l6 138q50 -3 108 -6t121 -5.5t128 -4t128 -1.5q86 0 145.5 1.5t96.5 5.5t53.5 12
t16.5 20q0 11 -7 20t-28.5 16.5t-64 14.5t-114.5 13q-112 10 -180 26t-98 46.5t-30 82.5q0 51 31 90.5t86.5 69t129.5 51t160 34.5l27 -137q-91 -14 -157.5 -30.5t-102.5 -33t-36 -29.5q0 -10 18 -17t61 -13t117 -12q94 -7 157 -22t100 -38t53 -56t16 -77q0 -50 -24.5 -84.5
t-77.5 -55t-139 -29.5t-209 -9z" />
    <glyph glyph-name="uni06AB.init" unicode="&#x6ab;" horiz-adv-x="454" 
d="M345 400q-42 0 -71 29.5t-29 70.5t29 70.5t71 29.5q41 0 70.5 -29.5t29.5 -70.5t-29.5 -70.5t-70.5 -29.5zM344 466q16 0 26.5 9.5t10.5 24.5q0 16 -10.5 25.5t-26.5 9.5q-15 0 -25.5 -10t-10.5 -25t10.5 -24.5t25.5 -9.5zM0 -5l10 140h143q21 0 37 2.5t26.5 8.5t15.5 15
t5 21t-12.5 38.5t-53.5 64.5q-22 20 -47.5 42.5t-48.5 43t-38 36.5t-15 23q0 15 2 33t6.5 33t12.5 22q17 16 50.5 37.5t80.5 47t105.5 54t125.5 57.5l57 -122q-55 -24 -104 -46.5t-91.5 -44t-78 -42t-62.5 -40.5l13 74q85 -65 135.5 -117t75.5 -92.5t33 -72t8 -55.5
t-11.5 -51.5t-41 -52.5t-82.5 -41t-136 -16h-120z" />
    <glyph glyph-name="uni06AB.medi" unicode="&#x6ab;" horiz-adv-x="508" 
d="M346 400q-42 0 -71 29.5t-29 70.5t29 70.5t71 29.5q41 0 70.5 -29.5t29.5 -70.5t-29.5 -70.5t-70.5 -29.5zM345 466q16 0 26.5 9.5t10.5 24.5q0 16 -10.5 25.5t-26.5 9.5q-15 0 -25.5 -10t-10.5 -25t10.5 -24.5t25.5 -9.5zM0 -5l10 140h140q35 0 53.5 4t25.5 12.5t7 20.5
q0 18 -15.5 42t-40 50t-51.5 52.5t-51.5 49.5t-40 40.5t-15.5 25.5q0 28 3 44.5t8.5 26.5t12.5 17q17 17 51 38.5t80.5 46t104.5 52t123 57.5l57 -122q-66 -29 -117.5 -53.5t-92 -45t-72 -38.5t-56.5 -34l10 74q43 -37 78 -70t65 -66t56.5 -68t51.5 -76q22 -35 45.5 -52
t46 -22.5t40.5 -5.5q38 0 54.5 -19.5t16.5 -48.5q0 -31 -21 -51.5t-60 -20.5q-33 0 -71 11.5t-71 37.5t-50 71l54 -4q-15 -32 -35.5 -54.5t-48.5 -36t-64 -19.5t-81 -6h-140z" />
    <glyph glyph-name="uni06AB.fina" unicode="&#x6ab;" horiz-adv-x="952" 
d="M800 400q-42 0 -71 29.5t-29 70.5t29 70.5t71 29.5q41 0 70.5 -29.5t29.5 -70.5t-29.5 -70.5t-70.5 -29.5zM799 466q16 0 26.5 9.5t10.5 24.5q0 16 -10.5 25.5t-26.5 9.5q-15 0 -25.5 -10t-10.5 -25t10.5 -24.5t25.5 -9.5zM424 -21l26 140q71 0 116 2t69.5 7.5t34.5 15.5
t10 25q0 18 -15.5 42t-40 50t-51.5 52.5t-51.5 49.5t-40 40.5t-15.5 25.5q0 28 3 44.5t8.5 26.5t12.5 17q23 23 74.5 53t124.5 65.5t160 75.5l57 -122q-87 -39 -150.5 -69.5t-109 -55t-78.5 -46.5l10 74q43 -37 78 -70t65 -66t56.5 -68t51.5 -76q16 -26 33.5 -41.5t35 -23
t34 -10t29.5 -2.5q38 0 54.5 -21t16.5 -50q0 -31 -21 -50t-60 -19q-33 0 -71 10.5t-71 36t-50 70.5l54 -4q-19 -41 -46 -66.5t-70 -39t-109.5 -18.5t-163.5 -5zM424 -21q-108 0 -182.5 16.5t-121 47t-67.5 71.5t-21 90q0 32 5.5 64.5t14 63.5t15.5 56l125 -29q-4 -18 -9 -39
t-8 -40.5t-3 -35.5q0 -37 26.5 -65.5t87.5 -44t164 -15.5l20 -108z" />
    <glyph glyph-name="uni06AC.init" unicode="&#x6ac;" horiz-adv-x="454" 
d="M0 -5l10 140h143q21 0 37 2.5t26.5 8.5t15.5 15t5 21t-12.5 38.5t-53.5 64.5q-22 20 -47.5 42.5t-48.5 43t-38 36.5t-15 23q0 15 2 33t6.5 33t12.5 22q17 16 50.5 37.5t80.5 47t105.5 54t125.5 57.5l57 -122q-55 -24 -104 -46.5t-91.5 -44t-78 -42t-62.5 -40.5l13 74
q85 -65 135.5 -117t75.5 -92.5t33 -72t8 -55.5t-11.5 -51.5t-41 -52.5t-82.5 -41t-136 -16h-120zM153 729q-31 0 -52.5 21t-21.5 52t21.5 53t52.5 22q30 0 51.5 -22t21.5 -53t-21.5 -52t-51.5 -21z" />
    <glyph glyph-name="uni06AC.medi" unicode="&#x6ac;" horiz-adv-x="508" 
d="M0 -5l10 140h140q35 0 53.5 4t25.5 12.5t7 20.5q0 18 -15.5 42t-40 50t-51.5 52.5t-51.5 49.5t-40 40.5t-15.5 25.5q0 28 3 44.5t8.5 26.5t12.5 17q17 17 51 38.5t80.5 46t104.5 52t123 57.5l57 -122q-66 -29 -117.5 -53.5t-92 -45t-72 -38.5t-56.5 -34l10 74
q43 -37 78 -70t65 -66t56.5 -68t51.5 -76q22 -35 45.5 -52t46 -22.5t40.5 -5.5q38 0 54.5 -19.5t16.5 -48.5q0 -31 -21 -51.5t-60 -20.5q-33 0 -71 11.5t-71 37.5t-50 71l54 -4q-15 -32 -35.5 -54.5t-48.5 -36t-64 -19.5t-81 -6h-140zM135 729q-31 0 -52.5 21t-21.5 52
t21.5 53t52.5 22q30 0 51.5 -22t21.5 -53t-21.5 -52t-51.5 -21z" />
    <glyph glyph-name="uni06AC.fina" unicode="&#x6ac;" horiz-adv-x="974" 
d="M424 -21l26 140q95 -1 153.5 5.5t89 25t40 53t6.5 88.5l-22 441h140l22 -448q3 -60 14 -92t33 -44.5t58 -12.5q37 0 53.5 -19.5t16.5 -48.5q0 -31 -21 -51.5t-59 -20.5q-44 0 -79 11t-58 38.5t-31 74.5h45q-23 -49 -62.5 -78t-94 -42.5t-122.5 -17t-148 -2.5zM376 216
l-26 99q35 9 57.5 16t33.5 14t11 14q0 9 -9 19t-20 23t-20 29t-9 37q0 25 14 47.5t45.5 44t83.5 42.5l43 -89q-42 -17 -56.5 -29.5t-14.5 -23.5q0 -9 9 -21t20.5 -26.5t20.5 -32t9 -37.5q0 -16 -6.5 -33t-26 -33t-57.5 -31t-102 -29zM424 -21q-108 0 -182.5 16.5t-121 47
t-67.5 71.5t-21 90q0 32 5.5 64.5t14 63.5t15.5 56l125 -29q-4 -18 -9 -39t-8 -40.5t-3 -35.5q0 -37 26.5 -65.5t87.5 -44t164 -15.5l20 -108zM468 678q-31 0 -52.5 21t-21.5 52t21.5 53t52.5 22q30 0 51.5 -22t21.5 -53t-21.5 -52t-51.5 -21z" />
    <glyph glyph-name="uni06AE.init" unicode="&#x6ae;" horiz-adv-x="454" 
d="M0 -5l10 140h143q21 0 37 2.5t26.5 8.5t15.5 15t5 21t-12.5 38.5t-53.5 64.5q-22 20 -47.5 42.5t-48.5 43t-38 36.5t-15 23q0 15 2 33t6.5 33t12.5 22q17 16 50.5 37.5t80.5 47t105.5 54t125.5 57.5l57 -122q-55 -24 -104 -46.5t-91.5 -44t-78 -42t-62.5 -40.5l13 74
q85 -65 135.5 -117t75.5 -92.5t33 -72t8 -55.5t-11.5 -51.5t-41 -52.5t-82.5 -41t-136 -16h-120zM200 -351q-26 0 -44.5 18t-18.5 44t18.5 45t44.5 19t44 -19t18 -45t-18 -44t-44 -18zM124 -219q-26 0 -44.5 18t-18.5 44t18.5 45t44.5 19t44 -19t18 -45t-18 -44t-44 -18z
M280 -219q-26 0 -44.5 18t-18.5 44t18.5 45t44.5 19t44 -19t18 -45t-18 -44t-44 -18z" />
    <glyph glyph-name="uni06AE.medi" unicode="&#x6ae;" horiz-adv-x="508" 
d="M0 -5l10 140h140q35 0 53.5 4t25.5 12.5t7 20.5q0 18 -15.5 42t-40 50t-51.5 52.5t-51.5 49.5t-40 40.5t-15.5 25.5q0 28 3 44.5t8.5 26.5t12.5 17q17 17 51 38.5t80.5 46t104.5 52t123 57.5l57 -122q-66 -29 -117.5 -53.5t-92 -45t-72 -38.5t-56.5 -34l10 74
q43 -37 78 -70t65 -66t56.5 -68t51.5 -76q22 -35 45.5 -52t46 -22.5t40.5 -5.5q38 0 54.5 -19.5t16.5 -48.5q0 -31 -21 -51.5t-60 -20.5q-33 0 -71 11.5t-71 37.5t-50 71l54 -4q-15 -32 -35.5 -54.5t-48.5 -36t-64 -19.5t-81 -6h-140zM200 -351q-26 0 -44.5 18t-18.5 44
t18.5 45t44.5 19t44 -19t18 -45t-18 -44t-44 -18zM124 -219q-26 0 -44.5 18t-18.5 44t18.5 45t44.5 19t44 -19t18 -45t-18 -44t-44 -18zM280 -219q-26 0 -44.5 18t-18.5 44t18.5 45t44.5 19t44 -19t18 -45t-18 -44t-44 -18z" />
    <glyph glyph-name="uni06AE.fina" unicode="&#x6ae;" horiz-adv-x="974" 
d="M424 -21l26 140q95 -1 153.5 5.5t89 25t40 53t6.5 88.5l-22 441h140l22 -448q3 -60 14 -92t33 -44.5t58 -12.5q37 0 53.5 -19.5t16.5 -48.5q0 -31 -21 -51.5t-59 -20.5q-44 0 -79 11t-58 38.5t-31 74.5h45q-23 -49 -62.5 -78t-94 -42.5t-122.5 -17t-148 -2.5zM376 216
l-26 99q35 9 57.5 16t33.5 14t11 14q0 9 -9 19t-20 23t-20 29t-9 37q0 25 14 47.5t45.5 44t83.5 42.5l43 -89q-42 -17 -56.5 -29.5t-14.5 -23.5q0 -9 9 -21t20.5 -26.5t20.5 -32t9 -37.5q0 -16 -6.5 -33t-26 -33t-57.5 -31t-102 -29zM424 -21q-108 0 -182.5 16.5t-121 47
t-67.5 71.5t-21 90q0 32 5.5 64.5t14 63.5t15.5 56l125 -29q-4 -18 -9 -39t-8 -40.5t-3 -35.5q0 -37 26.5 -65.5t87.5 -44t164 -15.5l20 -108zM431 -372q-26 0 -44.5 18t-18.5 44t18.5 45t44.5 19t44 -19t18 -45t-18 -44t-44 -18zM355 -240q-26 0 -44.5 18t-18.5 44t18.5 45
t44.5 19t44 -19t18 -45t-18 -44t-44 -18zM511 -240q-26 0 -44.5 18t-18.5 44t18.5 45t44.5 19t44 -19t18 -45t-18 -44t-44 -18z" />
    <glyph glyph-name="uni06B0.init" unicode="&#x6b0;" horiz-adv-x="454" 
d="M345 400q-42 0 -71 29.5t-29 70.5t29 70.5t71 29.5q41 0 70.5 -29.5t29.5 -70.5t-29.5 -70.5t-70.5 -29.5zM344 466q16 0 26.5 9.5t10.5 24.5q0 16 -10.5 25.5t-26.5 9.5q-15 0 -25.5 -10t-10.5 -25t10.5 -24.5t25.5 -9.5zM3 585l-49 82q49 29 101 58.5t116.5 64
t151.5 78.5l46 -88q-89 -43 -153.5 -77t-115 -62.5t-97.5 -55.5zM0 -5l10 140h143q21 0 37 2.5t26.5 8.5t15.5 15t5 21t-12.5 38.5t-53.5 64.5q-22 20 -47.5 42.5t-48.5 43t-38 36.5t-15 23q0 15 2 33t6.5 33t12.5 22q17 16 50.5 37.5t80.5 47t105.5 54t125.5 57.5l57 -122
q-55 -24 -104 -46.5t-91.5 -44t-78 -42t-62.5 -40.5l13 74q85 -65 135.5 -117t75.5 -92.5t33 -72t8 -55.5t-11.5 -51.5t-41 -52.5t-82.5 -41t-136 -16h-120z" />
    <glyph glyph-name="uni06B0.medi" unicode="&#x6b0;" horiz-adv-x="508" 
d="M346 400q-42 0 -71 29.5t-29 70.5t29 70.5t71 29.5q41 0 70.5 -29.5t29.5 -70.5t-29.5 -70.5t-70.5 -29.5zM345 466q16 0 26.5 9.5t10.5 24.5q0 16 -10.5 25.5t-26.5 9.5q-15 0 -25.5 -10t-10.5 -25t10.5 -24.5t25.5 -9.5zM8 585l-49 82q49 29 101 58.5t116.5 64
t151.5 78.5l46 -88q-89 -43 -153.5 -77t-115 -62.5t-97.5 -55.5zM0 -5l10 140h140q35 0 53.5 4t25.5 12.5t7 20.5q0 18 -15.5 42t-40 50t-51.5 52.5t-51.5 49.5t-40 40.5t-15.5 25.5q0 28 3 44.5t8.5 26.5t12.5 17q17 17 51 38.5t80.5 46t104.5 52t123 57.5l57 -122
q-66 -29 -117.5 -53.5t-92 -45t-72 -38.5t-56.5 -34l10 74q43 -37 78 -70t65 -66t56.5 -68t51.5 -76q22 -35 45.5 -52t46 -22.5t40.5 -5.5q38 0 54.5 -19.5t16.5 -48.5q0 -31 -21 -51.5t-60 -20.5q-33 0 -71 11.5t-71 37.5t-50 71l54 -4q-15 -32 -35.5 -54.5t-48.5 -36
t-64 -19.5t-81 -6h-140z" />
    <glyph glyph-name="uni06B0.fina" unicode="&#x6b0;" horiz-adv-x="952" 
d="M800 400q-42 0 -71 29.5t-29 70.5t29 70.5t71 29.5q41 0 70.5 -29.5t29.5 -70.5t-29.5 -70.5t-70.5 -29.5zM799 466q16 0 26.5 9.5t10.5 24.5q0 16 -10.5 25.5t-26.5 9.5q-15 0 -25.5 -10t-10.5 -25t10.5 -24.5t25.5 -9.5zM453 585l-49 82q49 29 101 58.5t116.5 64
t151.5 78.5l46 -88q-89 -43 -153.5 -77t-115 -62.5t-97.5 -55.5zM424 -21l26 140q71 0 116 2t69.5 7.5t34.5 15.5t10 25q0 18 -15.5 42t-40 50t-51.5 52.5t-51.5 49.5t-40 40.5t-15.5 25.5q0 28 3 44.5t8.5 26.5t12.5 17q23 23 74.5 53t124.5 65.5t160 75.5l57 -122
q-87 -39 -150.5 -69.5t-109 -55t-78.5 -46.5l10 74q43 -37 78 -70t65 -66t56.5 -68t51.5 -76q16 -26 33.5 -41.5t35 -23t34 -10t29.5 -2.5q38 0 54.5 -21t16.5 -50q0 -31 -21 -50t-60 -19q-33 0 -71 10.5t-71 36t-50 70.5l54 -4q-19 -41 -46 -66.5t-70 -39t-109.5 -18.5
t-163.5 -5zM424 -21q-108 0 -182.5 16.5t-121 47t-67.5 71.5t-21 90q0 32 5.5 64.5t14 63.5t15.5 56l125 -29q-4 -18 -9 -39t-8 -40.5t-3 -35.5q0 -37 26.5 -65.5t87.5 -44t164 -15.5l20 -108z" />
    <glyph glyph-name="uni06B2.init" unicode="&#x6b2;" horiz-adv-x="454" 
d="M3 585l-49 82q49 29 101 58.5t116.5 64t151.5 78.5l46 -88q-89 -43 -153.5 -77t-115 -62.5t-97.5 -55.5zM0 -5l10 140h143q21 0 37 2.5t26.5 8.5t15.5 15t5 21t-12.5 38.5t-53.5 64.5q-22 20 -47.5 42.5t-48.5 43t-38 36.5t-15 23q0 15 2 33t6.5 33t12.5 22
q17 16 50.5 37.5t80.5 47t105.5 54t125.5 57.5l57 -122q-55 -24 -104 -46.5t-91.5 -44t-78 -42t-62.5 -40.5l13 74q85 -65 135.5 -117t75.5 -92.5t33 -72t8 -55.5t-11.5 -51.5t-41 -52.5t-82.5 -41t-136 -16h-120zM254 -232q-29 0 -49.5 20.5t-20.5 48.5q0 29 20.5 50
t49.5 21q28 0 48 -21t20 -50q0 -28 -20 -48.5t-48 -20.5zM81 -232q-29 0 -49.5 20.5t-20.5 48.5q0 29 20.5 50t49.5 21q28 0 48 -21t20 -50q0 -28 -20 -48.5t-48 -20.5z" />
    <glyph glyph-name="uni06B2.medi" unicode="&#x6b2;" horiz-adv-x="508" 
d="M8 585l-49 82q49 29 101 58.5t116.5 64t151.5 78.5l46 -88q-89 -43 -153.5 -77t-115 -62.5t-97.5 -55.5zM0 -5l10 140h140q35 0 53.5 4t25.5 12.5t7 20.5q0 18 -15.5 42t-40 50t-51.5 52.5t-51.5 49.5t-40 40.5t-15.5 25.5q0 28 3 44.5t8.5 26.5t12.5 17q17 17 51 38.5
t80.5 46t104.5 52t123 57.5l57 -122q-66 -29 -117.5 -53.5t-92 -45t-72 -38.5t-56.5 -34l10 74q43 -37 78 -70t65 -66t56.5 -68t51.5 -76q22 -35 45.5 -52t46 -22.5t40.5 -5.5q38 0 54.5 -19.5t16.5 -48.5q0 -31 -21 -51.5t-60 -20.5q-33 0 -71 11.5t-71 37.5t-50 71l54 -4
q-15 -32 -35.5 -54.5t-48.5 -36t-64 -19.5t-81 -6h-140zM254 -232q-29 0 -49.5 20.5t-20.5 48.5q0 29 20.5 50t49.5 21q28 0 48 -21t20 -50q0 -28 -20 -48.5t-48 -20.5zM81 -232q-29 0 -49.5 20.5t-20.5 48.5q0 29 20.5 50t49.5 21q28 0 48 -21t20 -50q0 -28 -20 -48.5
t-48 -20.5z" />
    <glyph glyph-name="uni06B2.fina" unicode="&#x6b2;" horiz-adv-x="952" 
d="M453 585l-49 82q49 29 101 58.5t116.5 64t151.5 78.5l46 -88q-89 -43 -153.5 -77t-115 -62.5t-97.5 -55.5zM424 -21l26 140q71 0 116 2t69.5 7.5t34.5 15.5t10 25q0 18 -15.5 42t-40 50t-51.5 52.5t-51.5 49.5t-40 40.5t-15.5 25.5q0 28 3 44.5t8.5 26.5t12.5 17
q23 23 74.5 53t124.5 65.5t160 75.5l57 -122q-87 -39 -150.5 -69.5t-109 -55t-78.5 -46.5l10 74q43 -37 78 -70t65 -66t56.5 -68t51.5 -76q16 -26 33.5 -41.5t35 -23t34 -10t29.5 -2.5q38 0 54.5 -21t16.5 -50q0 -31 -21 -50t-60 -19q-33 0 -71 10.5t-71 36t-50 70.5l54 -4
q-19 -41 -46 -66.5t-70 -39t-109.5 -18.5t-163.5 -5zM424 -21q-108 0 -182.5 16.5t-121 47t-67.5 71.5t-21 90q0 32 5.5 64.5t14 63.5t15.5 56l125 -29q-4 -18 -9 -39t-8 -40.5t-3 -35.5q0 -37 26.5 -65.5t87.5 -44t164 -15.5l20 -108zM501 -253q-29 0 -49.5 20.5
t-20.5 48.5q0 29 20.5 50t49.5 21q28 0 48 -21t20 -50q0 -28 -20 -48.5t-48 -20.5zM328 -253q-29 0 -49.5 20.5t-20.5 48.5q0 29 20.5 50t49.5 21q28 0 48 -21t20 -50q0 -28 -20 -48.5t-48 -20.5z" />
    <glyph glyph-name="uni06B4.init" unicode="&#x6b4;" horiz-adv-x="454" 
d="M42 919q-22 0 -37 15t-15 36q0 22 15 37.5t37 15.5q21 0 36 -15.5t15 -37.5q0 -21 -15 -36t-36 -15zM42 799q-22 0 -37 14.5t-15 36.5q0 21 15 36.5t37 15.5q21 0 36 -15.5t15 -36.5q0 -22 -15 -36.5t-36 -14.5zM147 860q-22 0 -37 15t-15 36q0 22 15 37.5t37 15.5
q21 0 36 -15.5t15 -37.5q0 -21 -15 -36t-36 -15zM3 585l-49 82q49 29 101 58.5t116.5 64t151.5 78.5l46 -88q-89 -43 -153.5 -77t-115 -62.5t-97.5 -55.5zM0 -5l10 140h143q21 0 37 2.5t26.5 8.5t15.5 15t5 21t-12.5 38.5t-53.5 64.5q-22 20 -47.5 42.5t-48.5 43t-38 36.5
t-15 23q0 15 2 33t6.5 33t12.5 22q17 16 50.5 37.5t80.5 47t105.5 54t125.5 57.5l57 -122q-55 -24 -104 -46.5t-91.5 -44t-78 -42t-62.5 -40.5l13 74q85 -65 135.5 -117t75.5 -92.5t33 -72t8 -55.5t-11.5 -51.5t-41 -52.5t-82.5 -41t-136 -16h-120z" />
    <glyph glyph-name="uni06B4.medi" unicode="&#x6b4;" horiz-adv-x="508" 
d="M43 919q-22 0 -37 15t-15 36q0 22 15 37.5t37 15.5q21 0 36 -15.5t15 -37.5q0 -21 -15 -36t-36 -15zM43 799q-22 0 -37 14.5t-15 36.5q0 21 15 36.5t37 15.5q21 0 36 -15.5t15 -36.5q0 -22 -15 -36.5t-36 -14.5zM148 860q-22 0 -37 15t-15 36q0 22 15 37.5t37 15.5
q21 0 36 -15.5t15 -37.5q0 -21 -15 -36t-36 -15zM8 585l-49 82q49 29 101 58.5t116.5 64t151.5 78.5l46 -88q-89 -43 -153.5 -77t-115 -62.5t-97.5 -55.5zM0 -5l10 140h140q35 0 53.5 4t25.5 12.5t7 20.5q0 18 -15.5 42t-40 50t-51.5 52.5t-51.5 49.5t-40 40.5t-15.5 25.5
q0 28 3 44.5t8.5 26.5t12.5 17q17 17 51 38.5t80.5 46t104.5 52t123 57.5l57 -122q-66 -29 -117.5 -53.5t-92 -45t-72 -38.5t-56.5 -34l10 74q43 -37 78 -70t65 -66t56.5 -68t51.5 -76q22 -35 45.5 -52t46 -22.5t40.5 -5.5q38 0 54.5 -19.5t16.5 -48.5q0 -31 -21 -51.5
t-60 -20.5q-33 0 -71 11.5t-71 37.5t-50 71l54 -4q-15 -32 -35.5 -54.5t-48.5 -36t-64 -19.5t-81 -6h-140z" />
    <glyph glyph-name="uni06B4.fina" unicode="&#x6b4;" horiz-adv-x="952" 
d="M488 924q-22 0 -37 15t-15 36q0 22 15 37.5t37 15.5q21 0 36 -15.5t15 -37.5q0 -21 -15 -36t-36 -15zM488 804q-22 0 -37 14.5t-15 36.5q0 21 15 36.5t37 15.5q21 0 36 -15.5t15 -36.5q0 -22 -15 -36.5t-36 -14.5zM593 865q-22 0 -37 15t-15 36q0 22 15 37.5t37 15.5
q21 0 36 -15.5t15 -37.5q0 -21 -15 -36t-36 -15zM453 585l-49 82q49 29 101 58.5t116.5 64t151.5 78.5l46 -88q-89 -43 -153.5 -77t-115 -62.5t-97.5 -55.5zM424 -21l26 140q71 0 116 2t69.5 7.5t34.5 15.5t10 25q0 18 -15.5 42t-40 50t-51.5 52.5t-51.5 49.5t-40 40.5
t-15.5 25.5q0 28 3 44.5t8.5 26.5t12.5 17q23 23 74.5 53t124.5 65.5t160 75.5l57 -122q-87 -39 -150.5 -69.5t-109 -55t-78.5 -46.5l10 74q43 -37 78 -70t65 -66t56.5 -68t51.5 -76q16 -26 33.5 -41.5t35 -23t34 -10t29.5 -2.5q38 0 54.5 -21t16.5 -50q0 -31 -21 -50
t-60 -19q-33 0 -71 10.5t-71 36t-50 70.5l54 -4q-19 -41 -46 -66.5t-70 -39t-109.5 -18.5t-163.5 -5zM424 -21q-108 0 -182.5 16.5t-121 47t-67.5 71.5t-21 90q0 32 5.5 64.5t14 63.5t15.5 56l125 -29q-4 -18 -9 -39t-8 -40.5t-3 -35.5q0 -37 26.5 -65.5t87.5 -44t164 -15.5
l20 -108z" />
    <glyph glyph-name="uni06B5.init" unicode="&#x6b5;" horiz-adv-x="297" 
d="M0 -5l10 140q46 0 66 9.5t24 36t2 77.5l-18 474h141l20 -484q2 -58 -4.5 -104.5t-31 -79.5t-75 -51t-134.5 -18zM130 843q-7 15 -19 37.5t-25 47.5t-26 48t-23 39l58 31q7 -10 18.5 -29.5t24 -42.5t24.5 -44.5t19 -35.5l21 -45zM202 849l-57 22q7 17 18 43.5t23.5 54.5
t22.5 50t15 30l58 -24q-5 -10 -15.5 -32.5t-23 -50t-24 -52.5t-17.5 -41z" />
    <glyph glyph-name="uni06B5.medi" unicode="&#x6b5;" horiz-adv-x="344" 
d="M0 -5l10 140q47 0 66.5 9.5t23.5 36t2 77.5l-16 474h142l17 -473q2 -50 12 -77t33.5 -37t63.5 -10q38 0 54 -19.5t16 -48.5q0 -31 -21 -51.5t-59 -20.5q-44 0 -82 10t-63 38t-33 81l44 -1q-17 -52 -44 -79.5t-67.5 -38t-98.5 -10.5zM137 843q-7 15 -19 37.5t-25 47.5
t-26 48t-23 39l58 31q7 -10 18.5 -29.5t24 -42.5t24.5 -44.5t19 -35.5l21 -45zM209 849l-57 22q7 17 18 43.5t23.5 54.5t22.5 50t15 30l58 -24q-5 -10 -15.5 -32.5t-23 -50t-24 -52.5t-17.5 -41z" />
    <glyph glyph-name="uni06B5.fina" unicode="&#x6b5;" horiz-adv-x="791" 
d="M26 28q0 23 4 54t15 70.5t33 88.5l123 -43q-11 -31 -19 -56.5t-12 -47t-4 -42.5q0 -45 22.5 -78.5t62 -52t91.5 -18.5q85 0 130.5 27.5t62 87t12.5 154.5l-20 560h141l15 -473q2 -50 14 -77t37.5 -37t66.5 -10q38 0 54 -19.5t16 -48.5q0 -31 -21 -51.5t-59 -20.5
q-22 0 -47 6t-48 19t-40 34.5t-23 53.5l54 27q0 -101 -23.5 -171t-68 -113t-109 -62.5t-148.5 -19.5q-64 0 -120.5 16t-99.5 48t-67.5 80.5t-24.5 114.5zM264 568q-7 15 -19 37.5t-25 47.5t-26 48t-23 39l58 31q7 -10 18.5 -29.5t24 -42.5t24.5 -44.5t19 -35.5l21 -45z
M336 574l-57 22q7 17 18 43.5t23.5 54.5t22.5 50t15 30l58 -24q-5 -10 -15.5 -32.5t-23 -50t-24 -52.5t-17.5 -41z" />
    <glyph glyph-name="uni06B6.init" unicode="&#x6b6;" horiz-adv-x="297" 
d="M0 -5l10 140q46 0 66 9.5t24 36t2 77.5l-18 474h141l20 -484q2 -58 -4.5 -104.5t-31 -79.5t-75 -51t-134.5 -18zM165 825q-31 0 -52.5 21t-21.5 52t21.5 53t52.5 22q30 0 51.5 -22t21.5 -53t-21.5 -52t-51.5 -21z" />
    <glyph glyph-name="uni06B6.medi" unicode="&#x6b6;" horiz-adv-x="344" 
d="M0 -5l10 140q47 0 66.5 9.5t23.5 36t2 77.5l-16 474h142l17 -473q2 -50 12 -77t33.5 -37t63.5 -10q38 0 54 -19.5t16 -48.5q0 -31 -21 -51.5t-59 -20.5q-44 0 -82 10t-63 38t-33 81l44 -1q-17 -52 -44 -79.5t-67.5 -38t-98.5 -10.5zM172 825q-31 0 -52.5 21t-21.5 52
t21.5 53t52.5 22q30 0 51.5 -22t21.5 -53t-21.5 -52t-51.5 -21z" />
    <glyph glyph-name="uni06B6.fina" unicode="&#x6b6;" horiz-adv-x="791" 
d="M26 28q0 23 4 54t15 70.5t33 88.5l123 -43q-11 -31 -19 -56.5t-12 -47t-4 -42.5q0 -45 22.5 -78.5t62 -52t91.5 -18.5q85 0 130.5 27.5t62 87t12.5 154.5l-20 560h141l15 -473q2 -50 14 -77t37.5 -37t66.5 -10q38 0 54 -19.5t16 -48.5q0 -31 -21 -51.5t-59 -20.5
q-22 0 -47 6t-48 19t-40 34.5t-23 53.5l54 27q0 -101 -23.5 -171t-68 -113t-109 -62.5t-148.5 -19.5q-64 0 -120.5 16t-99.5 48t-67.5 80.5t-24.5 114.5zM299 550q-31 0 -52.5 21t-21.5 52t21.5 53t52.5 22q30 0 51.5 -22t21.5 -53t-21.5 -52t-51.5 -21z" />
    <glyph glyph-name="uni06B7.init" unicode="&#x6b7;" horiz-adv-x="297" 
d="M0 -5l10 140q46 0 66 9.5t24 36t2 77.5l-18 474h141l20 -484q2 -58 -4.5 -104.5t-31 -79.5t-75 -51t-134.5 -18zM172 957q-25 0 -43.5 19t-18.5 45t18.5 44t43.5 18q26 0 44 -18t18 -44t-18 -45t-44 -19zM92 825q-25 0 -43.5 19t-18.5 45t18.5 44t43.5 18q26 0 44 -18
t18 -44t-18 -45t-44 -19zM247 825q-25 0 -43.5 19t-18.5 45t18.5 44t43.5 18q26 0 44 -18t18 -44t-18 -45t-44 -19z" />
    <glyph glyph-name="uni06B7.medi" unicode="&#x6b7;" horiz-adv-x="344" 
d="M0 -5l10 140q47 0 66.5 9.5t23.5 36t2 77.5l-16 474h142l17 -473q2 -50 12 -77t33.5 -37t63.5 -10q38 0 54 -19.5t16 -48.5q0 -31 -21 -51.5t-59 -20.5q-44 0 -82 10t-63 38t-33 81l44 -1q-17 -52 -44 -79.5t-67.5 -38t-98.5 -10.5zM165 957q-25 0 -43.5 19t-18.5 45
t18.5 44t43.5 18q26 0 44 -18t18 -44t-18 -45t-44 -19zM85 825q-25 0 -43.5 19t-18.5 45t18.5 44t43.5 18q26 0 44 -18t18 -44t-18 -45t-44 -19zM240 825q-25 0 -43.5 19t-18.5 45t18.5 44t43.5 18q26 0 44 -18t18 -44t-18 -45t-44 -19z" />
    </font>
</defs>
</svg>
