<?xml version="1.0" standalone="no"?>
<!DOCTYPE svg PUBLIC "-//W3C//DTD SVG 1.1//EN" "http://www.w3.org/Graphics/SVG/1.1/DTD/svg11.dtd" >
<svg xmlns="http://www.w3.org/2000/svg" xmlns:xlink="http://www.w3.org/1999/xlink" version="1.1">
<metadata>
Created by FontForge 20170731 at Thu Nov 12 05:28:44 2020
 By Aleksey,,,
Copyright 2015-2020 Google LLC. All Rights Reserved.
</metadata>
<defs>
<font id="NotoSansArabic-ExtraBold" horiz-adv-x="0" >
  <font-face 
    font-family="Noto Sans Arabic ExtraBold"
    font-weight="800"
    font-stretch="normal"
    units-per-em="1000"
    panose-1="0 0 0 0 0 0 0 0 0 0"
    ascent="800"
    descent="-200"
    bbox="-220 -654 2660 1166"
    underline-thickness="50"
    underline-position="-175"
    unicode-range="U+000D-FEFC"
  />
<missing-glyph horiz-adv-x="600" 
d="M94 0v714h411v-714h-411zM145 51h309v612h-309v-612z" />
    <glyph glyph-name="uniFC43" unicode="&#xfedf;&#xfef0;" horiz-adv-x="1129" arabic-form="isolated" 
d="M819 -5l10 153q43 0 62.5 9t23.5 36t2 81l-19 471h156l21 -487q2 -59 -4.5 -107.5t-31.5 -83t-78 -53.5t-142 -19zM25 31q0 26 4 56.5t15.5 70.5t34.5 94l138 -48q-13 -35 -20.5 -60t-11 -45t-3.5 -41q0 -29 12.5 -53.5t38 -43t65.5 -28.5t95 -10q62 0 105.5 7.5t70.5 20
t39.5 27.5t12.5 30q0 9 -7 17t-21.5 17t-37 18.5t-53.5 20.5l40 143q40 -18 78.5 -32t75 -23.5t70 -15t63.5 -5.5q43 0 61 -21.5t18 -53.5q0 -34 -23 -56t-66 -22h-17h-16h-16q1 -7 1.5 -13.5t0.5 -12.5q0 -32 -23 -66.5t-71 -65t-121.5 -49.5t-175.5 -19q-109 0 -188.5 28
t-123.5 86t-44 148z" />
    <glyph glyph-name="uniFC86" unicode="&#xfee0;&#xfef0;" horiz-adv-x="1167" arabic-form="final" 
d="M819 -5l10 153q44 0 63 9t23 36t2 81l-16 471h157l17 -470q2 -53 11 -80.5t31 -37t60 -9.5q42 0 60.5 -21.5t18.5 -53.5q0 -34 -23 -56t-66 -22t-81.5 10.5t-65.5 40t-35 84.5l50 -1q-18 -52 -47 -81.5t-70 -41t-99 -11.5zM25 31q0 26 4 56.5t15.5 70.5t34.5 94l138 -48
q-13 -35 -20.5 -60t-11 -45t-3.5 -41q0 -29 12.5 -53.5t38 -43t65.5 -28.5t95 -10q62 0 105.5 7.5t70.5 20t39.5 27.5t12.5 30q0 9 -7 17t-21.5 17t-37 18.5t-53.5 20.5l40 143q40 -18 78.5 -32t75 -23.5t70 -15t63.5 -5.5q43 0 61 -21.5t18 -53.5q0 -34 -23 -56t-66 -22
h-17h-16h-16q1 -7 1.5 -13.5t0.5 -12.5q0 -32 -23 -66.5t-71 -65t-121.5 -49.5t-175.5 -19q-109 0 -188.5 28t-123.5 86t-44 148z" />
    <glyph glyph-name="uniFD82" unicode="&#xfee0;&#xfea4;&#xfef0;" horiz-adv-x="1855" arabic-form="final" 
d="M1507 -5l10 153q44 0 63 9t23 36t2 81l-16 471h157l17 -470q2 -53 11 -80.5t31 -37t60 -9.5q42 0 60.5 -21.5t18.5 -53.5q0 -34 -23 -56t-66 -22t-81.5 10.5t-65.5 40t-35 84.5l50 -1q-18 -52 -47 -81.5t-70 -41t-99 -11.5zM1507 -5q-50 0 -91.5 7.5t-74.5 26t-57.5 50
t-40.5 78.5l85 67q16 -30 40.5 -46.5t61 -23t87.5 -6.5q43 0 61 -21.5t18 -53.5q0 -34 -22.5 -56t-66.5 -22zM819 -5l10 153q58 0 114.5 6t108.5 18.5t98.5 32t86.5 46.5q-32 15 -67.5 25.5t-74.5 16t-82 5.5q-16 0 -37 -1t-42.5 -3.5t-39.5 -6.5l-21 155q29 8 66 11.5
t66 3.5q54 0 101 -12t86.5 -29.5t74 -35t65.5 -29.5t59 -12h39l18 -141q-41 -3 -77 -19t-72.5 -39.5t-80 -48t-99 -46.5t-129 -36t-171.5 -14zM25 31q0 26 4 56.5t15.5 70.5t34.5 94l138 -48q-13 -35 -20.5 -60t-11 -45t-3.5 -41q0 -29 12.5 -53.5t38 -43t65.5 -28.5t95 -10
q62 0 105.5 7.5t70.5 20t39.5 27.5t12.5 30q0 9 -7 17t-21.5 17t-37 18.5t-53.5 20.5l40 143q40 -18 78.5 -32t75 -23.5t70 -15t63.5 -5.5q43 0 61 -21.5t18 -53.5q0 -34 -23 -56t-66 -22h-17h-16h-16q1 -7 1.5 -13.5t0.5 -12.5q0 -32 -23 -66.5t-71 -65t-121.5 -49.5
t-175.5 -19q-109 0 -188.5 28t-123.5 86t-44 148z" />
    <glyph glyph-name="uniFDF2" unicode="&#x627;&#xfedf;&#xfee0;&#xfeea;" horiz-adv-x="1534" arabic-form="isolated" 
d="M581 -5q-52 0 -94.5 9t-73 28.5t-49.5 50.5q-67 -11 -127 -6.5t-106.5 26t-73 61.5t-26.5 100q0 71 37 123.5t102.5 89t148.5 55.5l-3 77h155l17 -361q2 -41 12.5 -63t32.5 -29.5t58 -7.5q43 0 62 7.5t23.5 34.5t2.5 84l-11 380h159l13 -379q2 -54 10.5 -82.5t32 -38
t65.5 -9.5q44 0 63 9t23.5 37t1.5 83l-18 471h158l21 -487q2 -59 -5 -107.5t-32.5 -83t-79 -53.5t-142.5 -19q-35 0 -67.5 7t-59 23t-44.5 44q-29 -40 -74 -57t-112 -17zM332 230l-6 149q-42 -7 -74 -22t-49.5 -35.5t-17.5 -44.5q0 -16 12 -27.5t32.5 -17.5t47 -6.5
t55.5 4.5zM1325 0l-21 745h158l21 -745h-158zM657 710q-41 0 -54.5 28t-13.5 64q0 11 1.5 23.5t4.5 28.5l65 14q-2 -17 -3.5 -31.5t-1.5 -25.5q0 -15 4.5 -22t12.5 -7q12 0 18.5 14.5t7.5 55.5v30l59 18v-61q0 -13 4 -20t14 -7q13 0 18 9t5 22q0 17 -4 34.5t-10 34.5l60 14
q10 -19 16.5 -43.5t6.5 -44.5q0 -39 -19.5 -67t-64.5 -28q-25 0 -45.5 18t-20.5 47l23 -9q0 -40 -24 -64.5t-59 -24.5zM670 952l-7 176h102l7 -176h-102z" />
    <glyph glyph-name="uniFEF5" unicode="&#xfedf;&#xfe82;" horiz-adv-x="702" arabic-form="isolated" 
d="M389 547q0 26 -3.5 59t-8.5 64t-9 52l152 20q4 -20 8 -52t7 -67t3 -68q0 -53 -9.5 -100t-30 -88.5t-49.5 -79.5l-20 -21q-28 -32 -63.5 -63t-77.5 -60h73q34 0 52 4.5t24.5 12.5t6.5 19q0 18 -31 52t-86.5 79.5t-129 96t-159.5 101.5l75 125q124 -74 208.5 -135.5
t138 -111.5t82.5 -91.5t39.5 -76t10.5 -64.5q0 -27 -9.5 -54t-30.5 -49.5t-54.5 -36.5t-82.5 -14h-305v158q103 72 164 136t88 125.5t27 127.5zM209 677q-30 0 -54 10.5t-44 20.5t-37 10q-18 0 -32.5 -9t-30.5 -25l-49 48q28 35 56 52.5t56 17.5q25 0 46 -10t42.5 -20
t46.5 -10q16 0 30 5.5t34 17.5l37 -60q-37 -32 -61 -40t-40 -8z" />
    <glyph glyph-name="uniFEF6" unicode="&#xfee0;&#xfe82;" horiz-adv-x="689" arabic-form="final" 
d="M692 -5q-70 0 -117.5 15t-76.5 43t-42.5 66.5t-15.5 85.5l-24 540h157l21 -489q2 -46 12.5 -69t33.5 -31t61 -8q36 0 56.5 -20t20.5 -55q0 -34 -23.5 -56t-62.5 -22zM138 -5q-27 0 -54.5 4.5t-38.5 6.5l19 158q69 -9 134.5 -5t118 29t83.5 77t31 139l61 -170
q-12 -68 -41.5 -112.5t-68.5 -70t-83 -37.5t-86 -15.5t-75 -3.5zM353 135q-16 28 -43.5 66t-67 84.5t-90 101.5t-114.5 117l99 106q73 -72 126.5 -130t91.5 -103.5t61 -81.5t35 -64zM209 677q-30 0 -54 10.5t-44 20.5t-37 10q-18 0 -32.5 -9t-30.5 -25l-49 48q28 35 56 52.5
t56 17.5q25 0 46 -10t42.5 -20t46.5 -10q16 0 30 5.5t34 17.5l37 -60q-37 -32 -61 -40t-40 -8z" />
    <glyph glyph-name="uniFEF7" unicode="&#xfedf;&#xfe84;" horiz-adv-x="664" arabic-form="isolated" 
d="M389 547q0 26 -3.5 59t-8.5 64t-9 52l152 20q4 -20 8 -52t7 -67t3 -68q0 -53 -9.5 -100t-30 -88.5t-49.5 -79.5l-20 -21q-28 -32 -63.5 -63t-77.5 -60h73q34 0 52 4.5t24.5 12.5t6.5 19q0 18 -31 52t-86.5 79.5t-129 96t-159.5 101.5l75 125q124 -74 208.5 -135.5
t138 -111.5t82.5 -91.5t39.5 -76t10.5 -64.5q0 -27 -9.5 -54t-30.5 -49.5t-54.5 -36.5t-82.5 -14h-305v158q103 72 164 136t88 125.5t27 127.5zM33 650l-17 72q38 6 56 10t38 9l-14 -28q-26 9 -49.5 35.5t-23.5 61.5q0 37 16 59.5t41.5 33t53.5 10.5q16 0 29.5 -2t24.5 -6
l-8 -72l-20 4t-22 2q-16 0 -26.5 -8.5t-10.5 -21.5q0 -18 12 -31t28 -20.5t27 -8.5l-50 -5q27 7 51 14.5t45 15.5l21 -69q-25 -9 -59 -19.5t-70.5 -19.5t-72.5 -16z" />
    <glyph glyph-name="uniFEF8" unicode="&#xfee0;&#xfe84;" horiz-adv-x="689" arabic-form="final" 
d="M692 -5q-70 0 -117.5 15t-76.5 43t-42.5 66.5t-15.5 85.5l-24 540h157l21 -489q2 -46 12.5 -69t33.5 -31t61 -8q36 0 56.5 -20t20.5 -55q0 -34 -23.5 -56t-62.5 -22zM138 -5q-27 0 -54.5 4.5t-38.5 6.5l19 158q69 -9 134.5 -5t118 29t83.5 77t31 139l61 -170
q-12 -68 -41.5 -112.5t-68.5 -70t-83 -37.5t-86 -15.5t-75 -3.5zM353 135q-16 28 -43.5 66t-67 84.5t-90 101.5t-114.5 117l99 106q73 -72 126.5 -130t91.5 -103.5t61 -81.5t35 -64zM62 650l-17 72q38 6 56 10t38 9l-14 -28q-26 9 -49.5 35.5t-23.5 61.5q0 37 16 59.5
t41.5 33t53.5 10.5q16 0 29.5 -2t24.5 -6l-8 -72l-20 4t-22 2q-16 0 -26.5 -8.5t-10.5 -21.5q0 -18 12 -31t28 -20.5t27 -8.5l-50 -5q27 7 51 14.5t45 15.5l21 -69q-25 -9 -59 -19.5t-70.5 -19.5t-72.5 -16z" />
    <glyph glyph-name="uniFEF9" unicode="&#xfedf;&#xfe88;" horiz-adv-x="648" arabic-form="isolated" 
d="M389 547q0 26 -3.5 59t-8.5 64t-9 52l152 20q4 -20 8 -52t7 -67t3 -68q0 -53 -9.5 -100t-30 -88.5t-49.5 -79.5l-20 -21q-28 -32 -63.5 -63t-77.5 -60h73q34 0 52 4.5t24.5 12.5t6.5 19q0 18 -31 52t-86.5 79.5t-129 96t-159.5 101.5l75 125q124 -74 208.5 -135.5
t138 -111.5t82.5 -91.5t39.5 -76t10.5 -64.5q0 -27 -9.5 -54t-30.5 -49.5t-54.5 -36.5t-82.5 -14h-305v158q103 72 164 136t88 125.5t27 127.5zM98 -311l-17 72q38 6 56 10t38 9l-14 -28q-26 9 -49.5 35.5t-23.5 61.5q0 37 16 59.5t41.5 33t53.5 10.5q16 0 29.5 -2t24.5 -6
l-8 -72l-20 4t-22 2q-16 0 -26.5 -8.5t-10.5 -21.5q0 -18 12 -31t28 -20.5t27 -8.5l-50 -5q27 7 51 14.5t45 15.5l21 -69q-25 -9 -59 -19.5t-70.5 -19.5t-72.5 -16z" />
    <glyph glyph-name="uniFEFA" unicode="&#xfee0;&#xfe88;" horiz-adv-x="689" arabic-form="final" 
d="M692 -5q-70 0 -117.5 15t-76.5 43t-42.5 66.5t-15.5 85.5l-24 540h157l21 -489q2 -46 12.5 -69t33.5 -31t61 -8q36 0 56.5 -20t20.5 -55q0 -34 -23.5 -56t-62.5 -22zM138 -5q-27 0 -54.5 4.5t-38.5 6.5l19 158q69 -9 134.5 -5t118 29t83.5 77t31 139l61 -170
q-12 -68 -41.5 -112.5t-68.5 -70t-83 -37.5t-86 -15.5t-75 -3.5zM353 135q-16 28 -43.5 66t-67 84.5t-90 101.5t-114.5 117l99 106q73 -72 126.5 -130t91.5 -103.5t61 -81.5t35 -64zM98 -311l-17 72q38 6 56 10t38 9l-14 -28q-26 9 -49.5 35.5t-23.5 61.5q0 37 16 59.5
t41.5 33t53.5 10.5q16 0 29.5 -2t24.5 -6l-8 -72l-20 4t-22 2q-16 0 -26.5 -8.5t-10.5 -21.5q0 -18 12 -31t28 -20.5t27 -8.5l-50 -5q27 7 51 14.5t45 15.5l21 -69q-25 -9 -59 -19.5t-70.5 -19.5t-72.5 -16z" />
    <glyph glyph-name="uniFEFB" unicode="&#xfedf;&#xfe8e;" horiz-adv-x="648" arabic-form="isolated" 
d="M389 547q0 26 -3.5 59t-8.5 64t-9 52l152 20q4 -20 8 -52t7 -67t3 -68q0 -53 -9.5 -100t-30 -88.5t-49.5 -79.5l-20 -21q-28 -32 -63.5 -63t-77.5 -60h73q34 0 52 4.5t24.5 12.5t6.5 19q0 18 -31 52t-86.5 79.5t-129 96t-159.5 101.5l75 125q124 -74 208.5 -135.5
t138 -111.5t82.5 -91.5t39.5 -76t10.5 -64.5q0 -27 -9.5 -54t-30.5 -49.5t-54.5 -36.5t-82.5 -14h-305v158q103 72 164 136t88 125.5t27 127.5z" />
    <glyph glyph-name="uniFEFC" unicode="&#xfee0;&#xfe8e;" horiz-adv-x="689" arabic-form="final" 
d="M692 -5q-70 0 -117.5 15t-76.5 43t-42.5 66.5t-15.5 85.5l-24 540h157l21 -489q2 -46 12.5 -69t33.5 -31t61 -8q36 0 56.5 -20t20.5 -55q0 -34 -23.5 -56t-62.5 -22zM138 -5q-27 0 -54.5 4.5t-38.5 6.5l19 158q69 -9 134.5 -5t118 29t83.5 77t31 139l61 -170
q-12 -68 -41.5 -112.5t-68.5 -70t-83 -37.5t-86 -15.5t-75 -3.5zM353 135q-16 28 -43.5 66t-67 84.5t-90 101.5t-114.5 117l99 106q73 -72 126.5 -130t91.5 -103.5t61 -81.5t35 -64z" />
    <glyph glyph-name="lam_alefMaksura_meemar" unicode="&#xfedf;&#xfbe9;&#xfee2;" horiz-adv-x="1322" 
d="M1012 -5l10 153q43 0 62.5 9t23.5 36t2 81l-19 471h156l21 -487q2 -59 -4.5 -107.5t-31.5 -83t-78 -53.5t-142 -19zM682 -5l10 153q43 0 67.5 7t35.5 24t11 46q0 30 -8 70t-19.5 82.5t-23.5 77.5l149 40q12 -34 25 -80t22 -95.5t9 -96.5q0 -60 -16 -100t-43 -65.5
t-62.5 -39t-75.5 -18.5t-81 -5zM82 -393q-23 82 -38 156t-22 133t-7 93q0 96 30 170t77 127t101.5 87t105 50.5t84.5 16.5q40 0 64.5 -18.5t43.5 -54.5t41 -90q24 -56 44 -83.5t40.5 -36.5t44.5 -9q43 0 61.5 -21.5t18.5 -53.5q0 -34 -22.5 -56t-67.5 -22q-49 0 -87 17.5
t-69 52.5l24 17q-7 -29 -24 -51.5t-43 -35.5t-60 -13q-30 0 -62.5 8.5t-65 27t-64.5 48.5t-60 74l40 3q-20 -35 -29.5 -75.5t-9.5 -79.5q-1 -32 4.5 -73t14.5 -87.5t20 -92.5t23 -86zM418 132q16 0 26 6t13.5 17t-2.5 25q-10 24 -18.5 44t-16.5 34.5t-16 22.5t-17 8
q-13 0 -31 -8.5t-35.5 -21t-30 -23.5t-15.5 -17l-9 36q18 -37 43.5 -65t53.5 -43t55 -15z" />
    <glyph glyph-name="lam_alefWaslaar" unicode="&#xfedf;&#xfb51;" horiz-adv-x="600" 
d="M151 675q-22 0 -52.5 2t-57.5 5.5t-41 5.5l7 70q15 -2 40 -5t53 -5t51 -2q55 0 72 12.5t17 28.5q0 18 -10.5 27t-24.5 9q-11 0 -26 -9t-29.5 -28t-26.5 -47l-82 1q12 33 35 69t56.5 61t75.5 25q44 0 74.5 -27.5t30.5 -74.5q0 -32 -13 -59t-47.5 -43t-101.5 -16zM389 547
q0 26 -3.5 59t-8.5 64t-9 52l152 20q4 -20 8 -52t7 -67t3 -68q0 -53 -9.5 -100t-30 -88.5t-49.5 -79.5l-20 -21q-28 -32 -63.5 -63t-77.5 -60h73q34 0 52 4.5t24.5 12.5t6.5 19q0 18 -31 52t-86.5 79.5t-129 96t-159.5 101.5l75 125q124 -74 208.5 -135.5t138 -111.5
t82.5 -91.5t39.5 -76t10.5 -64.5q0 -27 -9.5 -54t-30.5 -49.5t-54.5 -36.5t-82.5 -14h-305v158q103 72 164 136t88 125.5t27 127.5z" />
    <glyph glyph-name="lam_alefWaslaar.fina" unicode="&#xfee0;&#xfb51;" horiz-adv-x="786" 
d="M151 675q-22 0 -52.5 2t-57.5 5.5t-41 5.5l7 70q15 -2 40 -5t53 -5t51 -2q55 0 72 12.5t17 28.5q0 18 -10.5 27t-24.5 9q-11 0 -26 -9t-29.5 -28t-26.5 -47l-82 1q12 33 35 69t56.5 61t75.5 25q44 0 74.5 -27.5t30.5 -74.5q0 -32 -13 -59t-47.5 -43t-101.5 -16zM692 -5
q-70 0 -117.5 15t-76.5 43t-42.5 66.5t-15.5 85.5l-24 540h157l21 -489q2 -46 12.5 -69t33.5 -31t61 -8q36 0 56.5 -20t20.5 -55q0 -34 -23.5 -56t-62.5 -22zM138 -5q-27 0 -54.5 4.5t-38.5 6.5l19 158q69 -9 134.5 -5t118 29t83.5 77t31 139l61 -170q-12 -68 -41.5 -112.5
t-68.5 -70t-83 -37.5t-86 -15.5t-75 -3.5zM353 135q-16 28 -43.5 66t-67 84.5t-90 101.5t-114.5 117l99 106q73 -72 126.5 -130t91.5 -103.5t61 -81.5t35 -64z" />
    <glyph glyph-name="uni0620.init" unicode="&#x620;" horiz-adv-x="379" 
d="M0 -5l10 153q61 0 94 7.5t45 25t12 46.5q0 30 -7.5 69.5t-19 81.5t-23.5 77l149 40q12 -34 25 -79.5t21.5 -94.5t8.5 -97q0 -73 -24.5 -118.5t-67.5 -69.5t-100 -32.5t-123 -8.5zM187 -117q-42 0 -72 30t-30 73q0 42 30 72.5t72 30.5q43 0 73.5 -30.5t30.5 -72.5
q0 -43 -30.5 -73t-73.5 -30zM187 -47q15 0 25.5 9t10.5 24t-10.5 24.5t-25.5 9.5q-14 0 -24.5 -10t-10.5 -24q0 -15 10.5 -24t24.5 -9z" />
    <glyph glyph-name="uni0620.medi" unicode="&#x620;" horiz-adv-x="426" 
d="M0 -5l10 153q39 0 65 6.5t43 28t28.5 64t20.5 113.5l147 -24q-2 -15 -5 -34t-5 -39t-2 -39t6.5 -33t21.5 -24t41 -14.5t65 -4.5q42 0 60.5 -21.5t18.5 -53.5q0 -34 -22.5 -56t-66.5 -22q-53 0 -92 8t-66 26.5t-42.5 47t-19.5 69.5h53q-18 -51 -46 -82t-63 -45.5
t-73.5 -19t-76.5 -4.5zM139 -126q-43 0 -73 30.5t-30 72.5q0 43 30 73.5t73 30.5t73 -30.5t30 -73.5q0 -42 -30 -72.5t-73 -30.5zM138 -56q15 0 25.5 9.5t10.5 23.5q0 16 -10.5 25t-25.5 9q-14 0 -24.5 -9.5t-10.5 -24.5q0 -14 10.5 -23.5t24.5 -9.5z" />
    <glyph glyph-name="uni0620.fina" unicode="&#x620;" horiz-adv-x="819" 
d="M361 -368q-43 0 -73 30.5t-30 72.5t30 72.5t73 30.5t73 -30.5t30 -72.5t-30 -72.5t-73 -30.5zM361 -298q15 0 25 9t10 24t-10 24.5t-25 9.5q-14 0 -24.5 -10t-10.5 -24q0 -15 10.5 -24t24.5 -9zM25 31q0 26 4 56.5t15.5 70.5t34.5 94l138 -48q-13 -35 -20.5 -60t-11 -45
t-3.5 -41q0 -29 12.5 -53.5t38 -43t65.5 -28.5t95 -10q62 0 105.5 7.5t70.5 20t39.5 27.5t12.5 30q0 9 -7 17t-21.5 17t-37 18.5t-53.5 20.5l40 143q40 -18 78.5 -32t75 -23.5t70 -15t63.5 -5.5q43 0 61 -21.5t18 -53.5q0 -34 -23 -56t-66 -22h-17h-16h-16q1 -7 1.5 -13.5
t0.5 -12.5q0 -32 -23 -66.5t-71 -65t-121.5 -49.5t-175.5 -19q-109 0 -188.5 28t-123.5 86t-44 148z" />
    <glyph glyph-name="uni063B.init" unicode="&#x63b;" horiz-adv-x="472" 
d="M240 742q-22 0 -37.5 15.5t-15.5 37.5q0 23 15.5 39t37.5 16t37.5 -16t15.5 -39q0 -22 -15.5 -37.5t-37.5 -15.5zM121 680q-22 0 -37.5 15t-15.5 38q0 22 15.5 38t37.5 16t37.5 -16t15.5 -38q0 -23 -15.5 -38t-37.5 -15zM0 -5l10 153h148q18 0 31.5 2t22 8t12.5 14.5
t4 19.5q0 19 -18 47t-55 62q-21 19 -44 39.5t-43.5 38.5t-33 32.5t-12.5 22.5q0 15 2 34.5t6.5 37t12.5 24.5q17 17 54.5 41t88.5 51.5t110 55.5t119 53l61 -134q-57 -25 -107.5 -47.5t-93 -44t-76.5 -41.5t-58 -39l2 82q74 -54 122.5 -103t77.5 -91.5t41 -78.5t12 -66
t-13.5 -60.5t-44.5 -55.5t-83 -41t-130 -16h-125z" />
    <glyph glyph-name="uni063B.medi" unicode="&#x63b;" horiz-adv-x="519" 
d="M244 742q-23 0 -38.5 15.5t-15.5 37.5q0 23 15.5 39t38.5 16q21 0 37 -16t16 -39q0 -22 -16 -37.5t-37 -15.5zM125 680q-23 0 -38.5 15t-15.5 38q0 22 15.5 38t38.5 16q22 0 37.5 -16t15.5 -38q0 -23 -15.5 -38t-37.5 -15zM0 -5l10 153h140q29 0 45.5 3.5t24 12t7.5 23.5
q0 17 -14.5 40t-38 47.5t-49.5 49.5t-49.5 47.5t-38.5 39.5t-15 26q0 27 3 45t8 30t12 19q17 18 52 40.5t83 48t108 53.5t127 58l61 -134q-70 -31 -122 -55t-91 -44t-69 -37.5t-54 -34.5l2 81q36 -31 70 -62t65 -65t58.5 -71.5t51.5 -80.5q20 -35 41 -52t46 -22.5t55 -5.5
q42 0 60.5 -21.5t18.5 -53.5q0 -34 -22.5 -56t-66.5 -22q-48 0 -89.5 11.5t-72 38t-43.5 71.5l56 -2q-15 -31 -36 -53.5t-50 -37t-66 -21.5t-82 -7h-136z" />
    <glyph glyph-name="uni063B.fina" unicode="&#x63b;" horiz-adv-x="983" 
d="M712 751q-22 0 -37.5 15.5t-15.5 37.5t15.5 38t37.5 16t37.5 -16t15.5 -38t-15.5 -37.5t-37.5 -15.5zM593 688q-22 0 -37.5 15.5t-15.5 37.5t15.5 38t37.5 16t37.5 -16t15.5 -38t-15.5 -37.5t-37.5 -15.5zM438 -21l26 153q63 0 106 1.5t69.5 7t39.5 16t13 28.5t-15 40.5
t-38.5 47.5t-49.5 50t-49.5 47t-38.5 39t-15 26q0 27 3 45.5t8 30.5t12 19q23 24 74.5 54.5t126.5 66.5t169 78l61 -134q-70 -31 -133 -60t-114.5 -56t-88.5 -55l3 81q36 -32 69 -62t63 -63t58 -70.5t54 -83.5q15 -26 31 -42t33 -23.5t36.5 -10t42.5 -2.5q42 0 60.5 -22.5
t18.5 -53.5q0 -34 -23 -55.5t-66 -21.5t-85 10t-74.5 36t-46.5 73l56 -2q-22 -45 -55.5 -71.5t-81.5 -39.5t-112 -17.5t-147 -4.5zM438 -21q-116 0 -194 18t-124.5 50t-66.5 74t-20 90q0 36 6 70.5t15 66.5t16 57l135 -32q-4 -19 -9 -40t-8 -41t-3 -37q0 -36 26 -64
t87 -43.5t166 -15.5l20 -121z" />
    <glyph glyph-name="uni063C.init" unicode="&#x63c;" horiz-adv-x="472" 
d="M0 -5l10 153h148q18 0 31.5 2t22 8t12.5 14.5t4 19.5q0 19 -18 47t-55 62q-21 19 -44 39.5t-43.5 38.5t-33 32.5t-12.5 22.5q0 15 2 34.5t6.5 37t12.5 24.5q17 17 54.5 41t88.5 51.5t110 55.5t119 53l61 -134q-57 -25 -107.5 -47.5t-93 -44t-76.5 -41.5t-58 -39l2 82
q74 -54 122.5 -103t77.5 -91.5t41 -78.5t12 -66t-13.5 -60.5t-44.5 -55.5t-83 -41t-130 -16h-125zM208 -369q-29 0 -48.5 19.5t-19.5 47.5t19.5 48.5t48.5 20.5q27 0 46.5 -20.5t19.5 -48.5t-19.5 -47.5t-46.5 -19.5zM124 -226q-28 0 -47.5 19.5t-19.5 47.5t19.5 48.5
t47.5 20.5t47.5 -20.5t19.5 -48.5t-19.5 -47.5t-47.5 -19.5zM295 -226q-28 0 -48 19.5t-20 47.5t20 48.5t48 20.5t47.5 -20.5t19.5 -48.5t-19.5 -47.5t-47.5 -19.5z" />
    <glyph glyph-name="uni063C.medi" unicode="&#x63c;" horiz-adv-x="519" 
d="M0 -5l10 153h140q29 0 45.5 3.5t24 12t7.5 23.5q0 17 -14.5 40t-38 47.5t-49.5 49.5t-49.5 47.5t-38.5 39.5t-15 26q0 27 3 45t8 30t12 19q17 18 52 40.5t83 48t108 53.5t127 58l61 -134q-70 -31 -122 -55t-91 -44t-69 -37.5t-54 -34.5l2 81q36 -31 70 -62t65 -65
t58.5 -71.5t51.5 -80.5q20 -35 41 -52t46 -22.5t55 -5.5q42 0 60.5 -21.5t18.5 -53.5q0 -34 -22.5 -56t-66.5 -22q-48 0 -89.5 11.5t-72 38t-43.5 71.5l56 -2q-15 -31 -36 -53.5t-50 -37t-66 -21.5t-82 -7h-136zM208 -369q-29 0 -48.5 19.5t-19.5 47.5t19.5 48.5t48.5 20.5
q27 0 46.5 -20.5t19.5 -48.5t-19.5 -47.5t-46.5 -19.5zM124 -226q-28 0 -47.5 19.5t-19.5 47.5t19.5 48.5t47.5 20.5t47.5 -20.5t19.5 -48.5t-19.5 -47.5t-47.5 -19.5zM295 -226q-28 0 -48 19.5t-20 47.5t20 48.5t48 20.5t47.5 -20.5t19.5 -48.5t-19.5 -47.5t-47.5 -19.5z
" />
    <glyph glyph-name="uni063C.fina" unicode="&#x63c;" horiz-adv-x="983" 
d="M438 -21l26 153q63 0 106 1.5t69.5 7t39.5 16t13 28.5t-15 40.5t-38.5 47.5t-49.5 50t-49.5 47t-38.5 39t-15 26q0 27 3 45.5t8 30.5t12 19q23 24 74.5 54.5t126.5 66.5t169 78l61 -134q-70 -31 -133 -60t-114.5 -56t-88.5 -55l3 81q36 -32 69 -62t63 -63t58 -70.5
t54 -83.5q15 -26 31 -42t33 -23.5t36.5 -10t42.5 -2.5q42 0 60.5 -22.5t18.5 -53.5q0 -34 -23 -55.5t-66 -21.5t-85 10t-74.5 36t-46.5 73l56 -2q-22 -45 -55.5 -71.5t-81.5 -39.5t-112 -17.5t-147 -4.5zM438 -21q-116 0 -194 18t-124.5 50t-66.5 74t-20 90q0 36 6 70.5
t15 66.5t16 57l135 -32q-4 -19 -9 -40t-8 -41t-3 -37q0 -36 26 -64t87 -43.5t166 -15.5l20 -121zM459 -390q-29 0 -48.5 19.5t-19.5 47.5t19.5 48.5t48.5 20.5q27 0 46.5 -20.5t19.5 -48.5t-19.5 -47.5t-46.5 -19.5zM375 -247q-28 0 -47.5 19.5t-19.5 47.5t19.5 48.5
t47.5 20.5t47.5 -20.5t19.5 -48.5t-19.5 -47.5t-47.5 -19.5zM546 -247q-28 0 -48 19.5t-20 47.5t20 48.5t48 20.5t47.5 -20.5t19.5 -48.5t-19.5 -47.5t-47.5 -19.5z" />
    <glyph glyph-name="uni063D.init" unicode="&#x63d;" horiz-adv-x="330" 
d="M0 -5l10 153q43 0 67.5 7t35.5 24t11 46q0 30 -8 70t-19.5 82.5t-23.5 77.5l149 40q12 -34 25 -80t22 -95.5t9 -96.5q0 -60 -16 -100t-43 -65.5t-62.5 -39t-75.5 -18.5t-81 -5zM173 802q8 -15 20 -38t25 -48.5t26 -49t22 -39.5l-62 -33q-7 12 -18 33t-23.5 44.5t-24 46
t-19.5 36.5l-22 42zM97 796l59 -22q-7 -17 -18 -44t-23.5 -56t-22.5 -52t-14 -31l-62 26q5 10 15.5 33t23.5 51t24.5 53.5t17.5 41.5zM212 -237q-30 0 -50.5 20.5t-20.5 50.5t20.5 51t50.5 21q29 0 50 -21t21 -51t-21 -50.5t-50 -20.5zM37 -237q-30 0 -51 20.5t-21 50.5
t21 51t51 21q29 0 50 -21t21 -51t-21 -50.5t-50 -20.5z" />
    <glyph glyph-name="uni063D.medi" unicode="&#x63d;" horiz-adv-x="396" 
d="M0 -5l10 153q36 0 58.5 6.5t36.5 28t23.5 64t18.5 113.5l147 -24q-2 -15 -5 -34t-5 -39t-2 -39q0 -25 10.5 -42t37.5 -25.5t76 -8.5q43 0 61 -21.5t18 -53.5q0 -34 -22.5 -56t-66.5 -22q-70 0 -115 15t-67 48t-28 88h53q-18 -51 -44 -82t-58 -45.5t-67 -19t-70 -4.5z
M233 684q8 -15 20 -38t25 -48.5t26 -49t22 -39.5l-62 -33q-7 12 -18 33t-23.5 44.5t-24 46t-19.5 36.5l-22 42zM157 678l59 -22q-7 -17 -18 -44t-23.5 -56t-22.5 -52t-14 -31l-62 26q5 10 15.5 33t23.5 51t24.5 53.5t17.5 41.5zM269 -237q-30 0 -50.5 20.5t-20.5 50.5
t20.5 51t50.5 21q29 0 50 -21t21 -51t-21 -50.5t-50 -20.5zM94 -237q-30 0 -51 20.5t-21 50.5t21 51t51 21q29 0 50 -21t21 -51t-21 -50.5t-50 -20.5z" />
    <glyph glyph-name="uni063D.fina" unicode="&#x63d;" horiz-adv-x="819" 
d="M25 31q0 26 4 56.5t15.5 70.5t34.5 94l138 -48q-13 -35 -20.5 -60t-11 -45t-3.5 -41q0 -29 12.5 -53.5t38 -43t65.5 -28.5t95 -10q62 0 105.5 7.5t70.5 20t39.5 27.5t12.5 30q0 9 -7 17t-21.5 17t-37 18.5t-53.5 20.5l40 143q40 -18 78.5 -32t75 -23.5t70 -15t63.5 -5.5
q43 0 61 -21.5t18 -53.5q0 -34 -23 -56t-66 -22h-17h-16h-16q1 -7 1.5 -13.5t0.5 -12.5q0 -32 -23 -66.5t-71 -65t-121.5 -49.5t-175.5 -19q-109 0 -188.5 28t-123.5 86t-44 148zM265 526q8 -15 20 -38t25 -48.5t26 -49t22 -39.5l-62 -33q-7 12 -18 33t-23.5 44.5t-24 46
t-19.5 36.5l-22 42zM189 520l59 -22q-7 -17 -18 -44t-23.5 -56t-22.5 -52t-14 -31l-62 26q5 10 15.5 33t23.5 51t24.5 53.5t17.5 41.5z" />
    <glyph glyph-name="uni063E.init" unicode="&#x63e;" horiz-adv-x="379" 
d="M0 -5l10 153q61 0 94 7.5t45 25t12 46.5q0 30 -7.5 69.5t-19 81.5t-23.5 77l149 40q12 -34 25 -79.5t21.5 -94.5t8.5 -97q0 -73 -24.5 -118.5t-67.5 -69.5t-100 -32.5t-123 -8.5zM281 582q-30 0 -50.5 21t-20.5 50q0 30 20.5 51t50.5 21q29 0 50 -21t21 -51
q0 -29 -21 -50t-50 -21zM105 583q-30 0 -50.5 21t-20.5 50q0 30 20.5 51t50.5 21q29 0 50 -21t21 -51q0 -29 -21 -50t-50 -21zM262 -237q-30 0 -50.5 20.5t-20.5 50.5t20.5 51t50.5 21q29 0 50 -21t21 -51t-21 -50.5t-50 -20.5zM87 -237q-30 0 -51 20.5t-21 50.5t20.5 51
t50.5 21q29 0 50 -21t21 -51t-21 -50.5t-49 -20.5z" />
    <glyph glyph-name="uni063E.medi" unicode="&#x63e;" horiz-adv-x="426" 
d="M0 -5l10 153q39 0 65 6.5t43 28t28.5 64t20.5 113.5l147 -24q-2 -15 -5 -34t-5 -39t-2 -39t6.5 -33t21.5 -24t41 -14.5t65 -4.5q42 0 60.5 -21.5t18.5 -53.5q0 -34 -22.5 -56t-66.5 -22q-53 0 -92 8t-66 26.5t-42.5 47t-19.5 69.5h53q-18 -51 -46 -82t-63 -45.5
t-73.5 -19t-76.5 -4.5zM357 468q-30 0 -50.5 21t-20.5 50q0 30 20 51t51 21q29 0 50 -21t21 -51q0 -29 -21 -50t-50 -21zM181 468q-30 0 -50.5 21t-20.5 50q0 30 20.5 51t50.5 21q29 0 50 -21t21 -51q0 -29 -21 -50t-50 -21zM319 -237q-30 0 -50.5 20.5t-20.5 50.5t20.5 51
t50.5 21q29 0 50 -21t21 -51t-21 -50.5t-50 -20.5zM143 -237q-30 0 -50.5 20.5t-20.5 50.5t20.5 51t50.5 21q29 0 50 -21t21 -51t-21 -50.5t-50 -20.5z" />
    <glyph glyph-name="uni063E.fina" unicode="&#x63e;" horiz-adv-x="819" 
d="M25 31q0 26 4 56.5t15.5 70.5t34.5 94l138 -48q-13 -35 -20.5 -60t-11 -45t-3.5 -41q0 -29 12.5 -53.5t38 -43t65.5 -28.5t95 -10q62 0 105.5 7.5t70.5 20t39.5 27.5t12.5 30q0 9 -7 17t-21.5 17t-37 18.5t-53.5 20.5l40 143q40 -18 78.5 -32t75 -23.5t70 -15t63.5 -5.5
q43 0 61 -21.5t18 -53.5q0 -34 -23 -56t-66 -22h-17h-16h-16q1 -7 1.5 -13.5t0.5 -12.5q0 -32 -23 -66.5t-71 -65t-121.5 -49.5t-175.5 -19q-109 0 -188.5 28t-123.5 86t-44 148zM347 351q-30 0 -50.5 21t-20.5 50q0 30 20 51t50 21t51 -21t21 -51q0 -29 -21 -50t-50 -21z
M171 352q-30 0 -50.5 21t-20.5 50q0 30 20.5 50.5t50.5 20.5q29 0 50 -20.5t21 -50.5q0 -29 -21 -50t-50 -21z" />
    <glyph glyph-name="uni063F.init" unicode="&#x63f;" horiz-adv-x="379" 
d="M0 -5l10 153q61 0 94 7.5t45 25t12 46.5q0 30 -7.5 69.5t-19 81.5t-23.5 77l149 40q12 -34 25 -79.5t21.5 -94.5t8.5 -97q0 -73 -24.5 -118.5t-67.5 -69.5t-100 -32.5t-123 -8.5zM195 725q-28 0 -47.5 20t-19.5 48t19.5 48t47.5 20t48 -20t20 -48t-20 -48t-48 -20z
M113 581q-28 0 -48.5 21t-20.5 49q0 27 20.5 47.5t48.5 20.5q27 0 46.5 -20.5t19.5 -47.5q0 -28 -19.5 -49t-46.5 -21zM276 581q-27 0 -46.5 21t-19.5 49q0 27 19.5 47.5t46.5 20.5q28 0 48 -20.5t20 -47.5q0 -28 -20 -49t-48 -21zM262 -237q-30 0 -50.5 20.5t-20.5 50.5
t20.5 51t50.5 21q29 0 50 -21t21 -51t-21 -50.5t-50 -20.5zM87 -237q-30 0 -51 20.5t-21 50.5t20.5 51t50.5 21q29 0 50 -21t21 -51t-20.5 -50.5t-49.5 -20.5z" />
    <glyph glyph-name="uni063F.medi" unicode="&#x63f;" horiz-adv-x="426" 
d="M0 -5l10 153q39 0 65 6.5t43 28t28.5 64t20.5 113.5l147 -24q-2 -15 -5 -34t-5 -39t-2 -39t6.5 -33t21.5 -24t41 -14.5t65 -4.5q42 0 60.5 -21.5t18.5 -53.5q0 -34 -22.5 -56t-66.5 -22q-53 0 -92 8t-66 26.5t-42.5 47t-19.5 69.5h53q-18 -51 -46 -82t-63 -45.5
t-73.5 -19t-76.5 -4.5zM240 602q-28 0 -47.5 20t-19.5 48t19.5 48t47.5 20t48 -20t20 -48t-20 -48t-48 -20zM158 458q-28 0 -48.5 21t-20.5 49q0 27 20.5 47.5t48.5 20.5q27 0 46.5 -20.5t19.5 -47.5q0 -28 -19.5 -49t-46.5 -21zM321 458q-27 0 -46.5 21t-19.5 49
q0 27 19.5 47.5t46.5 20.5q28 0 48 -20.5t20 -47.5q0 -28 -20 -49t-48 -21zM289 -237q-30 0 -50.5 20.5t-20.5 50.5t20.5 51t50.5 21t50.5 -21t20.5 -51t-20.5 -50.5t-50.5 -20.5zM114 -237q-30 0 -51 20.5t-21 50.5t21 51t51 21q29 0 50 -21t21 -51t-21 -50.5t-50 -20.5z
" />
    <glyph glyph-name="uni063F.fina" unicode="&#x63f;" horiz-adv-x="819" 
d="M25 31q0 26 4 56.5t15.5 70.5t34.5 94l138 -48q-13 -35 -20.5 -60t-11 -45t-3.5 -41q0 -29 12.5 -53.5t38 -43t65.5 -28.5t95 -10q62 0 105.5 7.5t70.5 20t39.5 27.5t12.5 30q0 9 -7 17t-21.5 17t-37 18.5t-53.5 20.5l40 143q40 -18 78.5 -32t75 -23.5t70 -15t63.5 -5.5
q43 0 61 -21.5t18 -53.5q0 -34 -23 -56t-66 -22h-17h-16h-16q1 -7 1.5 -13.5t0.5 -12.5q0 -32 -23 -66.5t-71 -65t-121.5 -49.5t-175.5 -19q-109 0 -188.5 28t-123.5 86t-44 148zM252 471q-28 0 -48 20t-20 47q0 29 20 48.5t48 19.5t47.5 -19.5t19.5 -48.5q0 -27 -19.5 -47
t-47.5 -20zM170 327q-28 0 -48.5 21t-20.5 49q0 27 20.5 47.5t48.5 20.5q27 0 46.5 -20.5t19.5 -47.5q0 -28 -19.5 -49t-46.5 -21zM333 327q-27 0 -46.5 21t-19.5 49q0 27 19.5 47.5t46.5 20.5q28 0 48 -20.5t20 -47.5q0 -28 -20 -49t-48 -21z" />
    <glyph glyph-name="uni066E.init" unicode="&#x66e;" horiz-adv-x="330" 
d="M0 -5l10 153q43 0 67.5 7t35.5 24t11 46q0 30 -8 70t-19.5 82.5t-23.5 77.5l149 40q12 -34 25 -80t22 -95.5t9 -96.5q0 -60 -16 -100t-43 -65.5t-62.5 -39t-75.5 -18.5t-81 -5z" />
    <glyph glyph-name="uni066E.medi" unicode="&#x66e;" horiz-adv-x="396" 
d="M0 -5l10 153q36 0 58.5 6.5t36.5 28t23.5 64t18.5 113.5l147 -24q-2 -15 -5 -34t-5 -39t-2 -39q0 -25 10.5 -42t37.5 -25.5t76 -8.5q43 0 61 -21.5t18 -53.5q0 -34 -22.5 -56t-66.5 -22q-70 0 -115 15t-67 48t-28 88h53q-18 -51 -44 -82t-58 -45.5t-67 -19t-70 -4.5z" />
    <glyph glyph-name="uni066E.fina" unicode="&#x66e;" horiz-adv-x="1165" 
d="M449 -21l26 153q93 0 164.5 10.5t127 35t98.5 64t77 97.5l124 -54q-7 -20 -11 -36.5t-4 -29.5q0 -22 12.5 -38t40 -24.5t71.5 -8.5q43 0 61 -21.5t18 -53.5q0 -34 -22.5 -56t-66.5 -22q-70 0 -120 18t-78 51t-33 78l44 8q-32 -44 -83 -76.5t-118 -53.5t-149.5 -31
t-178.5 -10zM449 -21q-116 0 -194 18t-124.5 50t-66.5 74t-20 90q0 36 6 70.5t15 66.5t16 57l135 -32q-4 -19 -9 -40t-8 -41t-3 -37q0 -36 26.5 -64t87.5 -43.5t165 -15.5l20 -121z" />
    <glyph glyph-name="uni066F.init" unicode="&#x66f;" horiz-adv-x="526" 
d="M0 -5l10 152q66 0 112.5 0.5t77.5 3t49.5 6.5t30.5 10q17 9 27.5 25.5t15.5 43t5 63.5q0 51 -8.5 84t-23 49t-33.5 16q-15 0 -27.5 -9.5t-20 -26.5t-7.5 -40q0 -13 6.5 -23.5t20 -16t34.5 -5.5q19 0 42 5t44 16l4 -119q-16 -12 -37 -21.5t-45 -14t-48 -4.5
q-51 0 -89 16.5t-59.5 50.5t-21.5 87q0 45 15 88.5t43.5 78.5t67.5 55.5t87 20.5q67 0 113 -38t70 -104.5t24 -153.5q0 -80 -23.5 -137t-65.5 -88q-27 -22 -62 -35.5t-81 -21t-107 -10.5t-140 -3z" />
    <glyph glyph-name="uni066F.medi" unicode="&#x66f;" horiz-adv-x="538" 
d="M0 -5l10 152q29 0 60.5 2t61 5.5t54.5 8.5t42 10q33 11 55.5 26.5t34 34.5t11.5 41q0 17 -7 33.5t-20 27t-28 10.5q-16 0 -29.5 -10t-22 -27t-8.5 -39q0 -18 8 -34.5t24.5 -33t42.5 -32.5l-142 -57q-24 23 -43 48t-30 54.5t-11 66.5q0 45 19 82.5t49.5 65.5t68.5 43
t77 15q59 0 104.5 -28t72 -73t26.5 -97q0 -51 -18.5 -90.5t-48.5 -69.5t-66.5 -52.5t-72.5 -38.5q-22 -11 -55.5 -19t-71.5 -13.5t-76 -8.5t-71 -3zM538 -5q-61 0 -118.5 6.5t-105.5 18.5t-81 30l69 121q30 -10 70.5 -15t85.5 -6.5t90 -1.5q42 0 60.5 -21.5t18.5 -53.5
q0 -34 -22.5 -56t-66.5 -22z" />
    <glyph glyph-name="uni066F.fina" unicode="&#x66f;" horiz-adv-x="860" 
d="M356 -272q-69 0 -129 14.5t-105.5 46t-71 81t-25.5 118.5q0 25 4 55t16 70.5t36 97.5l137 -51q-14 -38 -22 -62.5t-11 -43t-3 -39.5q0 -40 23 -71t67.5 -47t108.5 -16q43 0 80 6.5t66 18t51.5 27t37.5 33.5t22 37q9 24 12.5 55t3.5 71q0 45 -6.5 74.5t-19 44t-32.5 14.5
q-13 0 -23.5 -6.5t-18 -16.5t-11.5 -22t-4 -22q0 -16 6.5 -27.5t25.5 -18t57 -7.5t103 6h139q42 0 60.5 -21.5t18.5 -52.5q0 -35 -23 -57t-66 -22h-214q-57 0 -104.5 9t-81.5 29.5t-53 52.5t-19 79q0 46 16.5 88.5t47 75.5t69.5 52t83 19q66 0 111.5 -36t68.5 -101t23 -152
q0 -51 -15 -102.5t-36 -90.5q-25 -46 -63 -81.5t-88.5 -60t-113 -36.5t-135.5 -12z" />
    <glyph glyph-name="uni0672.fina" unicode="&#x672;" horiz-adv-x="328" 
d="M327 -5q-97 0 -150 19.5t-74 60t-24 103.5l-20 497h155l20 -419q2 -47 11 -70t30.5 -30.5t61.5 -7.5q43 0 61.5 -21.5t18.5 -53.5q0 -34 -23 -56t-67 -22zM8 736l-59 40q12 28 34.5 40.5t40.5 12.5q21 0 39 -11t31 -11q15 0 27 1t21 5l-15 -24q-28 11 -48.5 38t-20.5 60
q0 45 32 72t79 27q16 0 30.5 -2t25.5 -6l-8 -65q-10 2 -19 4t-20 2q-22 0 -34 -8.5t-12 -24.5q0 -19 12.5 -33.5t29.5 -22.5t28 -8l-36 -5q27 7 46.5 15.5t38.5 15.5l22 -63q-8 -4 -28 -12t-44.5 -16t-47 -14t-36.5 -6q-30 0 -48 11t-28 11t-17 -5.5t-16 -17.5z" />
    <glyph glyph-name="uni0673.fina" unicode="&#x673;" horiz-adv-x="330" 
d="M329 -5q-97 0 -149.5 19.5t-74 60t-24.5 103.5l-22 567h155l22 -489q3 -47 11.5 -70t30.5 -30.5t61 -7.5q43 0 61.5 -21.5t18.5 -53.5q0 -34 -22.5 -56t-67.5 -22zM28 -317l-58 40q12 28 34 40.5t40 12.5q22 0 40 -11t31 -11q15 0 27 1t21 5l-15 -24q-28 11 -48.5 38
t-20.5 60q0 46 31.5 72.5t79.5 26.5q15 0 29.5 -2t25.5 -6l-8 -65q-10 2 -19 4t-20 2q-22 0 -34 -8.5t-12 -24.5q0 -19 13 -33.5t30 -22t28 -7.5l-36 -6q26 7 46 15.5t39 15.5l21 -63q-8 -4 -27.5 -12t-44 -16t-47.5 -14t-37 -6q-30 0 -47.5 11t-28.5 11q-9 0 -16.5 -5.5
t-16.5 -17.5z" />
    <glyph glyph-name="uni0675.fina" unicode="&#x675;" horiz-adv-x="523" 
d="M523 -5h-189q-95 0 -149.5 19.5t-77.5 60.5t-26 103l-22 567h155l22 -489q2 -44 10.5 -67.5t30.5 -32t64 -8.5h192q42 0 60.5 -21.5t18.5 -53.5q0 -34 -22.5 -56t-66.5 -22zM281 578l-17 70q38 6 56 10t38 9l-16 -29q-26 9 -49.5 35.5t-23.5 61.5q0 37 16.5 59.5t42 33
t52.5 10.5q16 0 30 -2t25 -6l-8 -66q-10 2 -20.5 4t-22.5 2q-20 0 -31 -9t-11 -24q0 -19 12 -33t28.5 -21.5t27.5 -8.5l-44 -4q27 7 51 14.5t45 15.5l21 -67q-26 -9 -59.5 -19.5t-70 -19.5t-72.5 -16z" />
    <glyph glyph-name="uni0676.fina" unicode="&#x676;" horiz-adv-x="527" 
d="M53 -230l-27 146q73 7 128 20.5t92 36.5t55.5 60.5t18.5 92.5q0 65 -18 103.5t-48 38.5q-18 0 -30.5 -14t-18.5 -33t-6 -34q0 -12 5.5 -23t24.5 -18t58.5 -7.5t107.5 9.5h141q43 0 61.5 -21.5t18.5 -53.5q0 -34 -23 -56t-67 -22h-249q-71 0 -122 18t-78 54.5t-27 92.5
q0 45 15.5 90t44 83t66.5 60.5t83 22.5q66 0 113 -38.5t72.5 -102.5t25.5 -140q0 -108 -48 -187t-141 -124.5t-228 -53.5zM329 433l-17 72q38 6 56 10t38 9l-14 -28q-26 9 -49.5 35.5t-23.5 61.5q0 37 16 59.5t41.5 33t53.5 10.5q16 0 29.5 -2t24.5 -6l-8 -72l-20 4t-22 2
q-16 0 -26.5 -8.5t-10.5 -21.5q0 -18 12 -31t28 -20.5t27 -8.5l-50 -5q27 7 51 14.5t45 15.5l21 -69q-25 -9 -59 -19.5t-70.5 -19.5t-72.5 -16z" />
    <glyph glyph-name="uni0677.fina" unicode="&#x677;" horiz-adv-x="527" 
d="M53 -230l-27 146q73 7 128 20.5t92 36.5t55.5 60.5t18.5 92.5q0 65 -18 103.5t-48 38.5q-18 0 -30.5 -14t-18.5 -33t-6 -34q0 -12 5.5 -23t24.5 -18t58.5 -7.5t107.5 9.5h141q43 0 61.5 -21.5t18.5 -53.5q0 -34 -23 -56t-67 -22h-249q-71 0 -122 18t-78 54.5t-27 92.5
q0 45 15.5 90t44 83t66.5 60.5t83 22.5q66 0 113 -38.5t72.5 -102.5t25.5 -140q0 -108 -48 -187t-141 -124.5t-228 -53.5zM335 433l-17 72q38 6 56 10t38 9l-14 -28q-26 9 -49.5 35.5t-23.5 61.5q0 37 16 59.5t41.5 33t53.5 10.5q16 0 29.5 -2t24.5 -6l-8 -72l-20 4t-22 2
q-16 0 -26.5 -8.5t-10.5 -21.5q0 -18 12 -31t28 -20.5t27 -8.5l-50 -5q27 7 51 14.5t45 15.5l21 -69q-25 -9 -59 -19.5t-70.5 -19.5t-72.5 -16zM26 422l-12 66q57 0 103 16t72.5 39.5t26.5 45.5q0 14 -8 25t-23 11q-13 0 -22.5 -10t-9.5 -25q0 -19 14.5 -32.5t34.5 -23.5
l-46 -40q-29 14 -51 38.5t-22 61.5q0 43 29.5 70.5t73.5 27.5q50 0 74.5 -31t24.5 -71q0 -47 -33 -83t-91 -58t-135 -27z" />
    <glyph glyph-name="uni0678.init" unicode="&#x678;" horiz-adv-x="368" 
d="M0 -5l10 153q43 0 67.5 7t35.5 24t11 46q0 30 -8 70t-19.5 82.5t-23.5 77.5l149 40q12 -34 25 -80t22 -95.5t9 -96.5q0 -60 -16 -100t-43 -65.5t-62.5 -39t-75.5 -18.5t-81 -5zM177 578l-17 70q38 6 56 10t38 9l-16 -29q-26 9 -49.5 35.5t-23.5 61.5q0 37 16.5 59.5
t42 33t52.5 10.5q16 0 30 -2t25 -6l-8 -66q-10 2 -20.5 4t-22.5 2q-20 0 -31 -9t-11 -24q0 -19 12 -33t28.5 -21.5t27.5 -8.5l-44 -4q27 7 51 14.5t45 15.5l21 -67q-26 -9 -59.5 -19.5t-70 -19.5t-72.5 -16z" />
    <glyph glyph-name="uni0678.medi" unicode="&#x678;" horiz-adv-x="396" 
d="M0 -5l10 153q36 0 58.5 6.5t36.5 28t23.5 64t18.5 113.5l147 -24q-2 -15 -5 -34t-5 -39t-2 -39q0 -25 10.5 -42t37.5 -25.5t76 -8.5q43 0 61 -21.5t18 -53.5q0 -34 -22.5 -56t-66.5 -22q-70 0 -115 15t-67 48t-28 88h53q-18 -51 -44 -82t-58 -45.5t-67 -19t-70 -4.5z
M188 409l-17 70q38 6 56 10t38 9l-16 -29q-26 9 -49.5 35.5t-23.5 61.5q0 37 16.5 59.5t42 33t52.5 10.5q16 0 30 -2t25 -6l-8 -66q-10 2 -20.5 4t-22.5 2q-20 0 -31 -9t-11 -24q0 -19 12 -33t28.5 -21.5t27.5 -8.5l-44 -4q27 7 51 14.5t45 15.5l21 -67q-26 -9 -59.5 -19.5
t-70 -19.5t-72.5 -16z" />
    <glyph glyph-name="uni0678.fina" unicode="&#x678;" horiz-adv-x="819" 
d="M25 31q0 26 4 56.5t15.5 70.5t34.5 94l138 -48q-13 -35 -20.5 -60t-11 -45t-3.5 -41q0 -29 12.5 -53.5t38 -43t65.5 -28.5t95 -10q62 0 105.5 7.5t70.5 20t39.5 27.5t12.5 30q0 9 -7 17t-21.5 17t-37 18.5t-53.5 20.5l40 143q40 -18 78.5 -32t75 -23.5t70 -15t63.5 -5.5
q43 0 61 -21.5t18 -53.5q0 -34 -23 -56t-66 -22h-17h-16h-16q1 -7 1.5 -13.5t0.5 -12.5q0 -32 -23 -66.5t-71 -65t-121.5 -49.5t-175.5 -19q-109 0 -188.5 28t-123.5 86t-44 148zM585 262l-17 70q38 6 56 10t38 9l-16 -29q-26 9 -49.5 35.5t-23.5 61.5q0 37 16.5 59.5t42 33
t52.5 10.5q16 0 30 -2t25 -6l-8 -66q-10 2 -20.5 4t-22.5 2q-20 0 -31 -9t-11 -24q0 -19 12 -33t28.5 -21.5t27.5 -8.5l-44 -4q27 7 51 14.5t45 15.5l21 -67q-26 -9 -59.5 -19.5t-70 -19.5t-72.5 -16z" />
    <glyph glyph-name="uni067C.init" unicode="&#x67c;" horiz-adv-x="379" 
d="M0 -5l10 153q61 0 94 7.5t45 25t12 46.5q0 30 -7.5 69.5t-19 81.5t-23.5 77l149 40q12 -34 25 -79.5t21.5 -94.5t8.5 -97q0 -73 -24.5 -118.5t-67.5 -69.5t-100 -32.5t-123 -8.5zM175 -125q-43 0 -73 30.5t-30 72.5q0 43 30 73.5t72 30.5q43 0 73.5 -30.5t30.5 -73.5
q0 -42 -30.5 -72.5t-72.5 -30.5zM174 -55q15 0 25.5 9.5t10.5 23.5q0 16 -10.5 25t-25.5 9q-14 0 -24.5 -9.5t-10.5 -24.5q0 -14 10.5 -23.5t24.5 -9.5zM281 582q-30 0 -50.5 21t-20.5 50q0 30 20.5 51t50.5 21q29 0 50 -21t21 -51q0 -29 -21 -50t-50 -21zM106 583
q-31 0 -51.5 21t-20.5 50q0 30 20.5 51t50.5 21q29 0 50 -21t21 -51q0 -29 -21 -50t-49 -21z" />
    <glyph glyph-name="uni067C.medi" unicode="&#x67c;" horiz-adv-x="396" 
d="M125 -127q-43 0 -73 30.5t-30 73.5q0 42 30 72.5t73 30.5t73 -30.5t30 -72.5q0 -43 -30 -73.5t-73 -30.5zM125 -57q15 0 25 9.5t10 24.5t-10 24.5t-25 9.5q-14 0 -24.5 -10t-10.5 -24q0 -15 10.5 -24.5t24.5 -9.5zM0 -5l10 153q36 0 58.5 6.5t36.5 28t23.5 64t18.5 113.5
l147 -24q-2 -15 -5 -34t-5 -39t-2 -39q0 -25 10.5 -42t37.5 -25.5t76 -8.5q43 0 61 -21.5t18 -53.5q0 -34 -22.5 -56t-66.5 -22q-70 0 -115 15t-67 48t-28 88h53q-18 -51 -44 -82t-58 -45.5t-67 -19t-70 -4.5zM301 459q-30 0 -50.5 21t-20.5 50q0 30 20.5 51t50.5 21
q29 0 50 -21t21 -51q0 -29 -21 -50t-50 -21zM126 460q-30 0 -51 21t-21 50q0 30 21 50.5t51 20.5q29 0 49.5 -20.5t20.5 -50.5q0 -29 -20.5 -50t-49.5 -21z" />
    <glyph glyph-name="uni067C.fina" unicode="&#x67c;" horiz-adv-x="1165" 
d="M566 -156q-43 0 -73 30.5t-30 73.5q0 42 30 72.5t73 30.5t73 -30.5t30 -72.5q0 -43 -30 -73.5t-73 -30.5zM566 -86q15 0 25 9.5t10 24.5t-10 24.5t-25 9.5q-14 0 -24.5 -10t-10.5 -24q0 -15 10.5 -24.5t24.5 -9.5zM449 -21l26 153q93 0 164.5 10.5t127 35t98.5 64
t77 97.5l124 -54q-7 -20 -11 -36.5t-4 -29.5q0 -22 12.5 -38t40 -24.5t71.5 -8.5q43 0 61 -21.5t18 -53.5q0 -34 -22.5 -56t-66.5 -22q-70 0 -120 18t-78 51t-33 78l44 8q-32 -44 -83 -76.5t-118 -53.5t-149.5 -31t-178.5 -10zM449 -21q-116 0 -194 18t-124.5 50t-66.5 74
t-20 90q0 36 6 70.5t15 66.5t16 57l135 -32q-4 -19 -9 -40t-8 -41t-3 -37q0 -36 26.5 -64t87.5 -43.5t165 -15.5l20 -121zM630 448q-30 0 -50.5 20.5t-20.5 49.5q0 31 20.5 51.5t50.5 20.5t51 -20.5t21 -51.5q0 -29 -21 -49.5t-51 -20.5zM455 448q-30 0 -50.5 21t-20.5 50
q0 30 20.5 51t50.5 21q29 0 50 -21t21 -51q0 -29 -21 -50t-50 -21z" />
    <glyph glyph-name="uni067D.init" unicode="&#x67d;" horiz-adv-x="379" 
d="M0 -5l10 153q61 0 94 7.5t45 25t12 46.5q0 30 -7.5 69.5t-19 81.5t-23.5 77l149 40q12 -34 25 -79.5t21.5 -94.5t8.5 -97q0 -73 -24.5 -118.5t-67.5 -69.5t-100 -32.5t-123 -8.5zM187 580q-28 0 -47.5 20t-19.5 48t19.5 48.5t47.5 20.5t47.5 -20.5t19.5 -48.5t-19.5 -48
t-47.5 -20zM107 724q-29 0 -48.5 19t-19.5 48q0 28 19.5 48.5t48.5 20.5q27 0 46.5 -20.5t19.5 -48.5q0 -29 -19.5 -48t-46.5 -19zM272 724q-28 0 -47.5 19t-19.5 48q0 28 19.5 48.5t47.5 20.5q29 0 48 -20.5t19 -48.5q0 -29 -19 -48t-48 -19z" />
    <glyph glyph-name="uni067D.medi" unicode="&#x67d;" horiz-adv-x="426" 
d="M0 -5l10 153q39 0 65 6.5t43 28t28.5 64t20.5 113.5l147 -24q-2 -15 -5 -34t-5 -39t-2 -39t6.5 -33t21.5 -24t41 -14.5t65 -4.5q42 0 60.5 -21.5t18.5 -53.5q0 -34 -22.5 -56t-66.5 -22q-53 0 -92 8t-66 26.5t-42.5 47t-19.5 69.5h53q-18 -51 -46 -82t-63 -45.5
t-73.5 -19t-76.5 -4.5zM232 457q-28 0 -48 20t-20 47q0 29 20 49t48 20t47.5 -20t19.5 -49q0 -27 -19.5 -47t-47.5 -20zM151 600q-28 0 -47.5 19.5t-19.5 47.5q0 29 19.5 49.5t47.5 20.5t47.5 -20.5t19.5 -49.5q0 -28 -19.5 -47.5t-47.5 -19.5zM317 600q-28 0 -47.5 19.5
t-19.5 47.5q0 29 19.5 49.5t47.5 20.5q29 0 48 -20.5t19 -49.5q0 -28 -19 -47.5t-48 -19.5z" />
    <glyph glyph-name="uni067D.fina" unicode="&#x67d;" horiz-adv-x="1165" 
d="M449 -21l26 153q93 0 164.5 10.5t127 35t98.5 64t77 97.5l124 -54q-7 -20 -11 -36.5t-4 -29.5q0 -22 12.5 -38t40 -24.5t71.5 -8.5q43 0 61 -21.5t18 -53.5q0 -34 -22.5 -56t-66.5 -22q-70 0 -120 18t-78 51t-33 78l44 8q-32 -44 -83 -76.5t-118 -53.5t-149.5 -31
t-178.5 -10zM449 -21q-116 0 -194 18t-124.5 50t-66.5 74t-20 90q0 36 6 70.5t15 66.5t16 57l135 -32q-4 -19 -9 -40t-8 -41t-3 -37q0 -36 26.5 -64t87.5 -43.5t165 -15.5l20 -121zM553 450q-28 0 -48 19.5t-20 47.5t20 48.5t48 20.5q27 0 47 -20.5t20 -48.5t-20 -47.5
t-47 -19.5zM473 593q-29 0 -48.5 19.5t-19.5 47.5t19.5 48.5t48.5 20.5q27 0 46.5 -20.5t19.5 -48.5t-19.5 -47.5t-46.5 -19.5zM638 593q-28 0 -47.5 19.5t-19.5 47.5t19.5 48.5t47.5 20.5q29 0 48 -20.5t19 -48.5t-19 -47.5t-48 -19.5z" />
    <glyph glyph-name="uni0681.init" unicode="&#x681;" horiz-adv-x="654" 
d="M0 -5l10 153q58 0 114.5 6t108.5 18.5t98.5 32t86.5 46.5q-32 15 -67.5 25.5t-74.5 16t-82 5.5q-16 0 -37 -1t-42.5 -3.5t-39.5 -6.5l-21 155q29 8 66 11.5t66 3.5q54 0 101 -12t86.5 -29.5t74 -35t65.5 -29.5t59 -12h39l18 -141q-41 -3 -77 -19t-72.5 -39.5t-80 -48
t-99 -46.5t-129 -36t-171.5 -14zM70 541l-17 72q38 6 56 10t38 9l-14 -28q-26 9 -49.5 35.5t-23.5 61.5q0 37 16 59.5t41.5 33t53.5 10.5q16 0 29.5 -2t24.5 -6l-8 -72l-20 4t-22 2q-16 0 -26.5 -8.5t-10.5 -21.5q0 -18 12 -31t28 -20.5t27 -8.5l-50 -5q27 7 51 14.5
t45 15.5l21 -69q-25 -9 -59 -19.5t-70.5 -19.5t-72.5 -16z" />
    <glyph glyph-name="uni0681.medi" unicode="&#x681;" horiz-adv-x="688" 
d="M688 -5q-50 0 -91.5 7.5t-74.5 26t-57.5 50t-40.5 78.5l85 67q16 -30 40.5 -46.5t61 -23t87.5 -6.5q43 0 61 -21.5t18 -53.5q0 -34 -22.5 -56t-66.5 -22zM0 -5l10 153q58 0 114.5 6t108.5 18.5t98.5 32t86.5 46.5q-32 15 -67.5 25.5t-74.5 16t-82 5.5q-16 0 -37 -1
t-42.5 -3.5t-39.5 -6.5l-21 155q29 8 66 11.5t66 3.5q54 0 101 -12t86.5 -29.5t74 -35t65.5 -29.5t59 -12h39l18 -141q-41 -3 -77 -19t-72.5 -39.5t-80 -48t-99 -46.5t-129 -36t-171.5 -14zM65 551l-17 72q38 6 56 10t38 9l-14 -28q-26 9 -49.5 35.5t-23.5 61.5
q0 37 16 59.5t41.5 33t53.5 10.5q16 0 29.5 -2t24.5 -6l-8 -72l-20 4t-22 2q-16 0 -26.5 -8.5t-10.5 -21.5q0 -18 12 -31t28 -20.5t27 -8.5l-50 -5q27 7 51 14.5t45 15.5l21 -69q-25 -9 -59 -19.5t-70.5 -19.5t-72.5 -16z" />
    <glyph glyph-name="uni0681.fina" unicode="&#x681;" horiz-adv-x="754" 
d="M754 -5q-61 0 -111.5 8.5t-88.5 33t-61.5 70t-32.5 119.5l109 54q8 -44 23 -70.5t38.5 -40t56.5 -17.5t77 -4q42 0 60.5 -21.5t18.5 -53.5q0 -34 -22.5 -56t-66.5 -22zM387 -394q-78 0 -145 20t-116 59t-76.5 96.5t-27.5 131.5q0 72 23 131t63.5 106.5t95 84t119 61
t134.5 37.5l6 -19q-23 7 -53 15.5t-65 16t-73.5 13t-80.5 5.5q-38 0 -72 -4.5t-60 -10.5l-22 154q29 8 63 14t71 6q58 0 106.5 -9.5t90 -24t79 -29t72.5 -24.5t70 -10h45l17 -169q-35 0 -83 -9.5t-101 -28t-104 -46t-92.5 -63.5t-66 -79.5t-24.5 -94.5q0 -48 17 -80.5
t47 -53t70 -30t87 -9.5q56 0 114.5 12t117.5 35l45 -138q-77 -35 -152.5 -50.5t-138.5 -15.5zM231 640l-17 72q38 6 56 10t38 9l-14 -28q-26 9 -49.5 35.5t-23.5 61.5q0 37 16 59.5t41.5 33t53.5 10.5q16 0 29.5 -2t24.5 -6l-8 -72l-20 4t-22 2q-16 0 -26.5 -8.5
t-10.5 -21.5q0 -18 12 -31t28 -20.5t27 -8.5l-50 -5q27 7 51 14.5t45 15.5l21 -69q-25 -9 -59 -19.5t-70.5 -19.5t-72.5 -16z" />
    <glyph glyph-name="uni0682.init" unicode="&#x682;" horiz-adv-x="654" 
d="M0 -5l10 153q58 0 114.5 6t108.5 18.5t98.5 32t86.5 46.5q-32 15 -67.5 25.5t-74.5 16t-82 5.5q-16 0 -37 -1t-42.5 -3.5t-39.5 -6.5l-21 155q29 8 66 11.5t66 3.5q54 0 101 -12t86.5 -29.5t74 -35t65.5 -29.5t59 -12h39l18 -141q-41 -3 -77 -19t-72.5 -39.5t-80 -48
t-99 -46.5t-129 -36t-171.5 -14zM183 550q-29 0 -48.5 20t-19.5 47q0 29 19.5 49t48.5 20q27 0 47 -20.5t20 -47.5q0 -29 -20 -48.5t-47 -19.5zM183 722q-29 0 -48.5 19.5t-19.5 47.5q0 29 19.5 49t48.5 20q27 0 47 -20.5t20 -48.5t-20 -47.5t-47 -19.5z" />
    <glyph glyph-name="uni0682.medi" unicode="&#x682;" horiz-adv-x="688" 
d="M688 -5q-50 0 -91.5 7.5t-74.5 26t-57.5 50t-40.5 78.5l85 67q16 -30 40.5 -46.5t61 -23t87.5 -6.5q43 0 61 -21.5t18 -53.5q0 -34 -22.5 -56t-66.5 -22zM0 -5l10 153q58 0 114.5 6t108.5 18.5t98.5 32t86.5 46.5q-32 15 -67.5 25.5t-74.5 16t-82 5.5q-16 0 -37 -1
t-42.5 -3.5t-39.5 -6.5l-21 155q29 8 66 11.5t66 3.5q54 0 101 -12t86.5 -29.5t74 -35t65.5 -29.5t59 -12h39l18 -141q-41 -3 -77 -19t-72.5 -39.5t-80 -48t-99 -46.5t-129 -36t-171.5 -14zM177 565q-29 0 -48.5 20t-19.5 47q0 29 19.5 49t48.5 20q27 0 47 -20.5t20 -47.5
q0 -29 -20 -48.5t-47 -19.5zM177 737q-29 0 -48.5 19.5t-19.5 47.5q0 29 19.5 49t48.5 20q27 0 47 -20.5t20 -48.5t-20 -47.5t-47 -19.5z" />
    <glyph glyph-name="uni0682.fina" unicode="&#x682;" horiz-adv-x="754" 
d="M754 -5q-61 0 -111.5 8.5t-88.5 33t-61.5 70t-32.5 119.5l109 54q8 -44 23 -70.5t38.5 -40t56.5 -17.5t77 -4q42 0 60.5 -21.5t18.5 -53.5q0 -34 -22.5 -56t-66.5 -22zM387 -394q-78 0 -145 20t-116 59t-76.5 96.5t-27.5 131.5q0 72 23 131t63.5 106.5t95 84t119 61
t134.5 37.5l6 -19q-23 7 -53 15.5t-65 16t-73.5 13t-80.5 5.5q-38 0 -72 -4.5t-60 -10.5l-22 154q29 8 63 14t71 6q58 0 106.5 -9.5t90 -24t79 -29t72.5 -24.5t70 -10h45l17 -169q-35 0 -83 -9.5t-101 -28t-104 -46t-92.5 -63.5t-66 -79.5t-24.5 -94.5q0 -48 17 -80.5
t47 -53t70 -30t87 -9.5q56 0 114.5 12t117.5 35l45 -138q-77 -35 -152.5 -50.5t-138.5 -15.5zM341 617q-29 0 -48.5 20t-19.5 47q0 29 19.5 49t48.5 20q27 0 47 -20.5t20 -47.5q0 -29 -20 -48.5t-47 -19.5zM341 789q-29 0 -48.5 19.5t-19.5 47.5q0 29 19.5 49t48.5 20
q27 0 47 -20.5t20 -48.5t-20 -47.5t-47 -19.5z" />
    <glyph glyph-name="uni0685.init" unicode="&#x685;" horiz-adv-x="654" 
d="M0 -5l10 153q58 0 114.5 6t108.5 18.5t98.5 32t86.5 46.5q-32 15 -67.5 25.5t-74.5 16t-82 5.5q-16 0 -37 -1t-42.5 -3.5t-39.5 -6.5l-21 155q29 8 66 11.5t66 3.5q54 0 101 -12t86.5 -29.5t74 -35t65.5 -29.5t59 -12h39l18 -141q-41 -3 -77 -19t-72.5 -39.5t-80 -48
t-99 -46.5t-129 -36t-171.5 -14zM192 692q-28 0 -48 20t-20 47q0 29 20 48.5t48 19.5t47.5 -19.5t19.5 -48.5q0 -27 -19.5 -47t-47.5 -20zM110 548q-28 0 -48.5 21t-20.5 49q0 27 20.5 47.5t48.5 20.5q27 0 46.5 -20.5t19.5 -47.5q0 -28 -19.5 -49t-46.5 -21zM273 548
q-27 0 -46.5 21t-19.5 49q0 27 19.5 47.5t46.5 20.5q28 0 48 -20.5t20 -47.5q0 -28 -20 -49t-48 -21z" />
    <glyph glyph-name="uni0685.medi" unicode="&#x685;" horiz-adv-x="688" 
d="M688 -5q-50 0 -91.5 7.5t-74.5 26t-57.5 50t-40.5 78.5l85 67q16 -30 40.5 -46.5t61 -23t87.5 -6.5q43 0 61 -21.5t18 -53.5q0 -34 -22.5 -56t-66.5 -22zM0 -5l10 153q58 0 114.5 6t108.5 18.5t98.5 32t86.5 46.5q-32 15 -67.5 25.5t-74.5 16t-82 5.5q-16 0 -37 -1
t-42.5 -3.5t-39.5 -6.5l-21 155q29 8 66 11.5t66 3.5q54 0 101 -12t86.5 -29.5t74 -35t65.5 -29.5t59 -12h39l18 -141q-41 -3 -77 -19t-72.5 -39.5t-80 -48t-99 -46.5t-129 -36t-171.5 -14zM187 702q-28 0 -48 20t-20 47q0 29 20 48.5t48 19.5t47.5 -19.5t19.5 -48.5
q0 -27 -19.5 -47t-47.5 -20zM105 558q-28 0 -48.5 21t-20.5 49q0 27 20.5 47.5t48.5 20.5q27 0 46.5 -20.5t19.5 -47.5q0 -28 -19.5 -49t-46.5 -21zM268 558q-27 0 -46.5 21t-19.5 49q0 27 19.5 47.5t46.5 20.5q28 0 48 -20.5t20 -47.5q0 -28 -20 -49t-48 -21z" />
    <glyph glyph-name="uni0685.fina" unicode="&#x685;" horiz-adv-x="754" 
d="M754 -5q-61 0 -111.5 8.5t-88.5 33t-61.5 70t-32.5 119.5l109 54q8 -44 23 -70.5t38.5 -40t56.5 -17.5t77 -4q42 0 60.5 -21.5t18.5 -53.5q0 -34 -22.5 -56t-66.5 -22zM387 -394q-78 0 -145 20t-116 59t-76.5 96.5t-27.5 131.5q0 72 23 131t63.5 106.5t95 84t119 61
t134.5 37.5l6 -19q-23 7 -53 15.5t-65 16t-73.5 13t-80.5 5.5q-38 0 -72 -4.5t-60 -10.5l-22 154q29 8 63 14t71 6q58 0 106.5 -9.5t90 -24t79 -29t72.5 -24.5t70 -10h45l17 -169q-35 0 -83 -9.5t-101 -28t-104 -46t-92.5 -63.5t-66 -79.5t-24.5 -94.5q0 -48 17 -80.5
t47 -53t70 -30t87 -9.5q56 0 114.5 12t117.5 35l45 -138q-77 -35 -152.5 -50.5t-138.5 -15.5zM341 759q-28 0 -48 20t-20 47q0 29 20 48.5t48 19.5t47.5 -19.5t19.5 -48.5q0 -27 -19.5 -47t-47.5 -20zM259 615q-28 0 -48.5 21t-20.5 49q0 27 20.5 47.5t48.5 20.5
q27 0 46.5 -20.5t19.5 -47.5q0 -28 -19.5 -49t-46.5 -21zM422 615q-27 0 -46.5 21t-19.5 49q0 27 19.5 47.5t46.5 20.5q28 0 48 -20.5t20 -47.5q0 -28 -20 -49t-48 -21z" />
    <glyph glyph-name="uni0689.fina" unicode="&#x689;" horiz-adv-x="584" 
d="M231 -143q-43 0 -73 30.5t-30 72.5q0 43 30 73.5t73 30.5t73 -30.5t30 -73.5q0 -42 -30 -72.5t-73 -30.5zM230 -73q16 0 26 9.5t10 23.5q0 16 -10 25t-26 9q-14 0 -24.5 -9.5t-10.5 -24.5q0 -14 10.5 -23.5t24.5 -9.5zM223 154q37 0 57 7t28.5 20t8.5 30q0 20 -9.5 46
t-25.5 56.5t-37.5 65.5t-47.5 71l138 89q45 -62 74.5 -118.5t48 -103t26.5 -81.5q9 -34 24.5 -53t37.5 -27t47 -8q43 0 61.5 -21.5t18.5 -53.5q0 -34 -22.5 -56t-67.5 -22q-42 0 -76.5 12t-60.5 38t-43 67l57 -12q-11 -30 -40.5 -54t-74 -38t-103.5 -14q-34 0 -71 5.5
t-72.5 16.5t-65.5 29l56 142q33 -15 67.5 -24t66.5 -9z" />
    <glyph glyph-name="uni068A.fina" unicode="&#x68a;" horiz-adv-x="584" 
d="M223 154q37 0 57 7t28.5 20t8.5 30q0 20 -9.5 46t-25.5 56.5t-37.5 65.5t-47.5 71l138 89q45 -62 74.5 -118.5t48 -103t26.5 -81.5q9 -34 24.5 -53t37.5 -27t47 -8q43 0 61.5 -21.5t18.5 -53.5q0 -34 -22.5 -56t-67.5 -22q-42 0 -76.5 12t-60.5 38t-43 67l57 -12
q-11 -30 -40.5 -54t-74 -38t-103.5 -14q-34 0 -71 5.5t-72.5 16.5t-65.5 29l56 142q33 -15 67.5 -24t66.5 -9zM238 -243q-32 0 -54 21.5t-22 52.5q0 32 22 55t54 23q31 0 53 -23t22 -55q0 -31 -22 -52.5t-53 -21.5z" />
    <glyph glyph-name="uni068B.fina" unicode="&#x68b;" horiz-adv-x="584" 
d="M223 154q37 0 57 7t28.5 20t8.5 30q0 20 -9.5 46t-25.5 56.5t-37.5 65.5t-47.5 71l138 89q45 -62 74.5 -118.5t48 -103t26.5 -81.5q9 -34 24.5 -53t37.5 -27t47 -8q43 0 61.5 -21.5t18.5 -53.5q0 -34 -22.5 -56t-67.5 -22q-42 0 -76.5 12t-60.5 38t-43 67l57 -12
q-11 -30 -40.5 -54t-74 -38t-103.5 -14q-34 0 -71 5.5t-72.5 16.5t-65.5 29l56 142q33 -15 67.5 -24t66.5 -9zM224 652q-19 0 -44 1.5t-46.5 3.5t-32.5 3l3 67q20 -2 52 -4.5t60 -2.5q41 0 62.5 5.5t29.5 14.5t8 19q0 11 -7 18.5t-21 7.5q-15 0 -32.5 -12.5t-32.5 -30
t-23 -34.5l-67 14q18 40 45 70t59 47t62 17q40 0 64 -27t24 -66q0 -23 -12 -48.5t-47 -44t-104 -18.5zM150 729l-7 192h69l8 -171zM238 -243q-32 0 -54 21.5t-22 52.5q0 32 22 55t54 23q31 0 53 -23t22 -55q0 -31 -22 -52.5t-53 -21.5z" />
    <glyph glyph-name="uni068F.fina" unicode="&#x68f;" horiz-adv-x="584" 
d="M223 154q37 0 57 7t28.5 20t8.5 30q0 20 -9.5 46t-25.5 56.5t-37.5 65.5t-47.5 71l138 89q45 -62 74.5 -118.5t48 -103t26.5 -81.5q9 -34 24.5 -53t37.5 -27t47 -8q43 0 61.5 -21.5t18.5 -53.5q0 -34 -22.5 -56t-67.5 -22q-42 0 -76.5 12t-60.5 38t-43 67l57 -12
q-11 -30 -40.5 -54t-74 -38t-103.5 -14q-34 0 -71 5.5t-72.5 16.5t-65.5 29l56 142q33 -15 67.5 -24t66.5 -9zM227 610q-28 0 -48 19.5t-20 47.5t20 48.5t48 20.5q27 0 47 -20.5t20 -48.5t-20 -47.5t-47 -19.5zM147 753q-29 0 -48.5 19.5t-19.5 47.5t19.5 48.5t48.5 20.5
q27 0 46.5 -20.5t19.5 -48.5t-19.5 -47.5t-46.5 -19.5zM312 753q-28 0 -47.5 19.5t-19.5 47.5t19.5 48.5t47.5 20.5q29 0 48 -20.5t19 -48.5t-19 -47.5t-48 -19.5z" />
    <glyph glyph-name="uni0690.fina" unicode="&#x690;" horiz-adv-x="584" 
d="M223 154q37 0 57 7t28.5 20t8.5 30q0 20 -9.5 46t-25.5 56.5t-37.5 65.5t-47.5 71l138 89q45 -62 74.5 -118.5t48 -103t26.5 -81.5q9 -34 24.5 -53t37.5 -27t47 -8q43 0 61.5 -21.5t18.5 -53.5q0 -34 -22.5 -56t-67.5 -22q-42 0 -76.5 12t-60.5 38t-43 67l57 -12
q-11 -30 -40.5 -54t-74 -38t-103.5 -14q-34 0 -71 5.5t-72.5 16.5t-65.5 29l56 142q33 -15 67.5 -24t66.5 -9zM161 757q-26 0 -43.5 17.5t-17.5 42.5q0 26 17.5 44.5t42.5 18.5t43 -18.5t18 -44.5q0 -25 -18 -42.5t-42 -17.5zM161 610q-26 0 -43.5 17.5t-17.5 42.5
q0 26 17.5 45t43.5 19q24 0 42.5 -19t18.5 -44q0 -26 -18 -43.5t-43 -17.5zM311 757q-26 0 -43.5 17.5t-17.5 42.5q0 26 17.5 44.5t42.5 18.5t43 -18.5t18 -44.5q0 -25 -18 -42.5t-42 -17.5zM309 610q-26 0 -43.5 17.5t-17.5 42.5q0 26 18 45t43 19t43 -19t18 -44
q0 -26 -18 -43.5t-43 -17.5z" />
    <glyph glyph-name="uni0692.fina" unicode="&#x692;" horiz-adv-x="455" 
d="M16 -231l-52 138q61 18 107.5 42.5t77 53.5t46 61t15.5 65q0 42 -20.5 93.5t-51.5 107.5l142 69q17 -30 31 -63.5t24.5 -63t16.5 -48.5q13 -45 37.5 -60.5t74.5 -15.5q43 0 61.5 -21.5t18.5 -53.5q0 -34 -23 -56t-67 -22q-39 0 -68.5 12t-47.5 35t-23 54l43 9
q-3 -53 -27.5 -104.5t-68.5 -96.5t-106 -79.5t-140 -55.5zM168 471q-7 15 -19 38t-25.5 48.5t-26 49t-22.5 39.5l62 32q7 -11 18 -32t23.5 -45t24 -46t19.5 -36l22 -42zM244 477l-59 21q7 17 18 44.5t23.5 56.5t22.5 51.5t14 30.5l62 -25q-4 -10 -15 -33t-24 -51
t-24.5 -53.5t-17.5 -41.5z" />
    <glyph glyph-name="uni0693.fina" unicode="&#x693;" horiz-adv-x="455" 
d="M295 -218q-43 0 -73 30.5t-30 72.5q0 43 30 73.5t73 30.5t73 -30.5t30 -73.5q0 -42 -30 -72.5t-73 -30.5zM294 -148q16 0 26 9.5t10 23.5q0 16 -10 25t-26 9q-14 0 -24.5 -9.5t-10.5 -24.5q0 -14 10.5 -23.5t24.5 -9.5zM16 -231l-52 138q61 18 107.5 42.5t77 53.5t46 61
t15.5 65q0 42 -20.5 93.5t-51.5 107.5l142 69q17 -30 31 -63.5t24.5 -63t16.5 -48.5q13 -45 37.5 -60.5t74.5 -15.5q43 0 61.5 -21.5t18.5 -53.5q0 -34 -23 -56t-67 -22q-39 0 -68.5 12t-47.5 35t-23 54l43 9q-3 -53 -27.5 -104.5t-68.5 -96.5t-106 -79.5t-140 -55.5z" />
    <glyph glyph-name="uni0694.fina" unicode="&#x694;" horiz-adv-x="455" 
d="M16 -231l-52 138q61 18 107.5 42.5t77 53.5t46 61t15.5 65q0 42 -20.5 93.5t-51.5 107.5l142 69q17 -30 31 -63.5t24.5 -63t16.5 -48.5q13 -45 37.5 -60.5t74.5 -15.5q43 0 61.5 -21.5t18.5 -53.5q0 -34 -23 -56t-67 -22q-39 0 -68.5 12t-47.5 35t-23 54l43 9
q-3 -53 -27.5 -104.5t-68.5 -96.5t-106 -79.5t-140 -55.5zM169 -454q-32 0 -54 21.5t-22 52.5q0 32 22 55t54 23q31 0 53 -23t22 -55q0 -31 -22 -52.5t-53 -21.5z" />
    <glyph glyph-name="uni0695.fina" unicode="&#x695;" horiz-adv-x="455" 
d="M29 14q-8 16 -21.5 40.5t-27.5 49.5t-25 42l49 26q6 -8 14.5 -23t19 -33.5t19.5 -35.5t16 -28l16 -34zM89 18l-46 19q6 14 15 34.5t18 42t17.5 38t12.5 22.5l49 -20q-5 -8 -13.5 -25.5t-18.5 -38t-19 -40zM16 -231l-52 138q61 18 107.5 42.5t77 53.5t46 61t15.5 65
q0 42 -20.5 93.5t-51.5 107.5l142 69q17 -30 31 -63.5t24.5 -63t16.5 -48.5q13 -45 37.5 -60.5t74.5 -15.5q43 0 61.5 -21.5t18.5 -53.5q0 -34 -23 -56t-67 -22q-39 0 -68.5 12t-47.5 35t-23 54l43 9q-3 -53 -27.5 -104.5t-68.5 -96.5t-106 -79.5t-140 -55.5z" />
    <glyph glyph-name="uni0696.fina" unicode="&#x696;" horiz-adv-x="455" 
d="M16 -231l-52 138q61 18 107.5 42.5t77 53.5t46 61t15.5 65q0 42 -20.5 93.5t-51.5 107.5l142 69q17 -30 31 -63.5t24.5 -63t16.5 -48.5q13 -45 37.5 -60.5t74.5 -15.5q43 0 61.5 -21.5t18.5 -53.5q0 -34 -23 -56t-67 -22q-39 0 -68.5 12t-47.5 35t-23 54l43 9
q-3 -53 -27.5 -104.5t-68.5 -96.5t-106 -79.5t-140 -55.5zM94 12q-33 0 -55.5 22.5t-22.5 54.5q0 33 22.5 56.5t55.5 23.5q32 0 54 -23.5t22 -56.5q0 -32 -22.5 -54.5t-53.5 -22.5zM169 -454q-32 0 -54 21.5t-22 52.5q0 32 22 55t54 23q31 0 53 -23t22 -55q0 -31 -22 -52.5
t-53 -21.5z" />
    <glyph glyph-name="uni0697.fina" unicode="&#x697;" horiz-adv-x="455" 
d="M16 -231l-52 138q61 18 107.5 42.5t77 53.5t46 61t15.5 65q0 42 -20.5 93.5t-51.5 107.5l142 69q17 -30 31 -63.5t24.5 -63t16.5 -48.5q13 -45 37.5 -60.5t74.5 -15.5q43 0 61.5 -21.5t18.5 -53.5q0 -34 -23 -56t-67 -22q-39 0 -68.5 12t-47.5 35t-23 54l43 9
q-3 -53 -27.5 -104.5t-68.5 -96.5t-106 -79.5t-140 -55.5zM298 497q-30 0 -50.5 21t-20.5 50q0 30 20 51t50 21t51 -21t21 -51q0 -29 -21 -50t-50 -21zM122 498q-30 0 -50.5 21t-20.5 50q0 30 20.5 50.5t50.5 20.5q29 0 50 -20.5t21 -50.5q0 -29 -21 -50t-50 -21z" />
    <glyph glyph-name="uni0699.fina" unicode="&#x699;" horiz-adv-x="455" 
d="M16 -231l-52 138q61 18 107.5 42.5t77 53.5t46 61t15.5 65q0 42 -20.5 93.5t-51.5 107.5l142 69q17 -30 31 -63.5t24.5 -63t16.5 -48.5q13 -45 37.5 -60.5t74.5 -15.5q43 0 61.5 -21.5t18.5 -53.5q0 -34 -23 -56t-67 -22q-39 0 -68.5 12t-47.5 35t-23 54l43 9
q-3 -53 -27.5 -104.5t-68.5 -96.5t-106 -79.5t-140 -55.5zM138 642q-26 0 -43.5 17.5t-17.5 42.5q0 26 17.5 44.5t42.5 18.5t43 -18.5t18 -44.5q0 -25 -18 -42.5t-42 -17.5zM138 495q-26 0 -43.5 17.5t-17.5 42.5q0 26 17.5 45t43.5 19q24 0 42.5 -19t18.5 -44
q0 -26 -18 -43.5t-43 -17.5zM288 642q-26 0 -43.5 17.5t-17.5 42.5q0 26 17.5 44.5t42.5 18.5t43 -18.5t18 -44.5q0 -25 -18 -42.5t-42 -17.5zM286 495q-26 0 -43.5 17.5t-17.5 42.5q0 26 18 45t43 19t43 -19t18 -44q0 -26 -18 -43.5t-43 -17.5z" />
    <glyph glyph-name="uni069A.init" unicode="&#x69a;" horiz-adv-x="996" 
d="M0 -5l10 153q33 0 54.5 6t34.5 26t23.5 60t22.5 109l146 -25q-2 -14 -6 -34.5t-6.5 -42t-2.5 -39.5q0 -26 17 -43t65 -17q29 0 48 6t31.5 26t22.5 62t20 114l149 -23q-4 -23 -8.5 -49t-7.5 -48.5t-3 -36.5q0 -13 8 -25t27.5 -19t55.5 -7q30 0 50 7t29.5 22.5t9.5 40.5
q0 38 -16 99t-40 130l152 45q17 -46 30 -97t20.5 -98t7.5 -82q0 -53 -17 -93.5t-48.5 -69t-74.5 -43t-94 -14.5q-56 0 -93.5 12t-58 42t-28.5 81h35q-22 -62 -50 -91t-65 -36.5t-89 -7.5q-36 0 -72 8t-65 37t-45 91l62 1q-23 -60 -59 -89t-81.5 -38.5t-100.5 -9.5zM497 -243
q-32 0 -54 21.5t-22 52.5q0 32 22 55t54 23q31 0 53 -23t22 -55q0 -31 -22 -52.5t-53 -21.5zM542 498q-33 0 -55.5 22.5t-22.5 54.5q0 33 22.5 56.5t55.5 23.5q32 0 54 -23.5t22 -56.5q0 -32 -22.5 -54.5t-53.5 -22.5z" />
    <glyph glyph-name="uni069A.medi" unicode="&#x69a;" horiz-adv-x="1064" 
d="M0 -5l10 153q33 0 54.5 6t34.5 26t23.5 60t22.5 109l146 -25q-3 -21 -9 -53.5t-6 -57.5q0 -20 7 -34.5t25.5 -22.5t51.5 -8q27 0 46 6t32 26t23 62t19 114l149 -23q-5 -25 -9 -51t-7 -47.5t-3 -35.5q0 -13 8 -25t28.5 -19t57.5 -7q47 0 66.5 20t19.5 62q0 22 -1 49
t-3.5 61t-8.5 78l146 11q7 -89 16.5 -144.5t25 -85.5t41.5 -40.5t67 -10.5q43 0 61.5 -21.5t18.5 -53.5q0 -34 -22.5 -56t-67.5 -22q-24 0 -52.5 4.5t-57 18t-52 40t-38.5 72.5l18 -6q-14 -48 -38 -76t-60 -40.5t-89 -12.5q-46 0 -83 13t-58.5 42.5t-21.5 79.5h34
q-21 -59 -47.5 -88.5t-64 -38t-95.5 -8.5q-37 0 -72.5 9t-63.5 38t-43 89l62 1q-23 -58 -59 -87t-81.5 -39.5t-100.5 -10.5zM475 -243q-32 0 -54 21.5t-22 52.5q0 32 22 55t54 23q31 0 53 -23t22 -55q0 -31 -22 -52.5t-53 -21.5zM529 498q-33 0 -55.5 22.5t-22.5 54.5
q0 33 22.5 56.5t55.5 23.5q32 0 54 -23.5t22 -56.5q0 -32 -22.5 -54.5t-53.5 -22.5z" />
    <glyph glyph-name="uni069A.fina" unicode="&#x69a;" horiz-adv-x="1488" 
d="M355 -232q-71 0 -131 16t-104.5 48.5t-69.5 81.5t-25 116q0 25 4 56t15.5 71.5t33.5 93.5l139 -48q-13 -35 -20.5 -60t-11 -45t-3.5 -41q0 -38 18.5 -68.5t57 -49t98.5 -18.5q55 0 93 11.5t62 32.5t35.5 50.5t11.5 67.5q0 27 -7.5 64t-19.5 81t-28 92l158 40
q14 -58 23 -92t14 -50q10 -29 22.5 -44.5t30 -20.5t42.5 -5q22 0 39 6t30 26t23.5 62t19.5 114l148 -23q-4 -25 -8 -51t-7 -47.5t-3 -35.5t8 -25.5t28 -18.5t57 -7q48 0 67.5 20t19.5 62q0 22 -1 49t-3.5 61t-8.5 78l145 11q9 -98 19.5 -154.5t27.5 -84t42 -35t62 -7.5
q42 0 61 -21.5t19 -53.5q0 -34 -23 -56t-67 -22q-39 0 -79 11t-72 40t-50 84l29 -6q-13 -53 -43 -81t-67.5 -38t-76.5 -10q-55 0 -94.5 15.5t-59.5 46t-20 73.5h34q-16 -58 -42.5 -87t-60.5 -38.5t-72 -9.5q-21 0 -44 4t-44 14.5t-36.5 29.5t-20.5 49l43 -43
q-2 -67 -30.5 -119.5t-77 -88t-112.5 -54.5t-137 -19zM966 -238q-32 0 -54 21.5t-22 52.5q0 32 22 55t54 23q31 0 53 -23t22 -55q0 -31 -22 -52.5t-53 -21.5zM904 498q-33 0 -55.5 22.5t-22.5 54.5q0 33 22.5 56.5t55.5 23.5q32 0 54 -23.5t22 -56.5q0 -32 -22.5 -54.5
t-53.5 -22.5z" />
    <glyph glyph-name="uni069B.init" unicode="&#x69b;" horiz-adv-x="996" 
d="M0 -5l10 153q33 0 54.5 6t34.5 26t23.5 60t22.5 109l146 -25q-2 -14 -6 -34.5t-6.5 -42t-2.5 -39.5q0 -26 17 -43t65 -17q29 0 48 6t31.5 26t22.5 62t20 114l149 -23q-4 -23 -8.5 -49t-7.5 -48.5t-3 -36.5q0 -13 8 -25t27.5 -19t55.5 -7q30 0 50 7t29.5 22.5t9.5 40.5
q0 38 -16 99t-40 130l152 45q17 -46 30 -97t20.5 -98t7.5 -82q0 -53 -17 -93.5t-48.5 -69t-74.5 -43t-94 -14.5q-56 0 -93.5 12t-58 42t-28.5 81h35q-22 -62 -50 -91t-65 -36.5t-89 -7.5q-36 0 -72 8t-65 37t-45 91l62 1q-23 -60 -59 -89t-81.5 -38.5t-100.5 -9.5zM500 -374
q-29 0 -48.5 19.5t-19.5 47.5t19.5 48.5t48.5 20.5q27 0 46.5 -20.5t19.5 -48.5t-19.5 -47.5t-46.5 -19.5zM416 -231q-28 0 -47.5 19.5t-19.5 47.5t19.5 48.5t47.5 20.5t47.5 -20.5t19.5 -48.5t-19.5 -47.5t-47.5 -19.5zM587 -231q-28 0 -48 19.5t-20 47.5t20 48.5t48 20.5
t47.5 -20.5t19.5 -48.5t-19.5 -47.5t-47.5 -19.5z" />
    <glyph glyph-name="uni069B.medi" unicode="&#x69b;" horiz-adv-x="1064" 
d="M0 -5l10 153q33 0 54.5 6t34.5 26t23.5 60t22.5 109l146 -25q-3 -21 -9 -53.5t-6 -57.5q0 -20 7 -34.5t25.5 -22.5t51.5 -8q27 0 46 6t32 26t23 62t19 114l149 -23q-5 -25 -9 -51t-7 -47.5t-3 -35.5q0 -13 8 -25t28.5 -19t57.5 -7q47 0 66.5 20t19.5 62q0 22 -1 49
t-3.5 61t-8.5 78l146 11q7 -89 16.5 -144.5t25 -85.5t41.5 -40.5t67 -10.5q43 0 61.5 -21.5t18.5 -53.5q0 -34 -22.5 -56t-67.5 -22q-24 0 -52.5 4.5t-57 18t-52 40t-38.5 72.5l18 -6q-14 -48 -38 -76t-60 -40.5t-89 -12.5q-46 0 -83 13t-58.5 42.5t-21.5 79.5h34
q-21 -59 -47.5 -88.5t-64 -38t-95.5 -8.5q-37 0 -72.5 9t-63.5 38t-43 89l62 1q-23 -58 -59 -87t-81.5 -39.5t-100.5 -10.5zM477 -374q-29 0 -48.5 19.5t-19.5 47.5t19.5 48.5t48.5 20.5q27 0 46.5 -20.5t19.5 -48.5t-19.5 -47.5t-46.5 -19.5zM393 -231q-28 0 -47.5 19.5
t-19.5 47.5t19.5 48.5t47.5 20.5t47.5 -20.5t19.5 -48.5t-19.5 -47.5t-47.5 -19.5zM564 -231q-28 0 -48 19.5t-20 47.5t20 48.5t48 20.5t47.5 -20.5t19.5 -48.5t-19.5 -47.5t-47.5 -19.5z" />
    <glyph glyph-name="uni069B.fina" unicode="&#x69b;" horiz-adv-x="1488" 
d="M355 -232q-71 0 -131 16t-104.5 48.5t-69.5 81.5t-25 116q0 25 4 56t15.5 71.5t33.5 93.5l139 -48q-13 -35 -20.5 -60t-11 -45t-3.5 -41q0 -38 18.5 -68.5t57 -49t98.5 -18.5q55 0 93 11.5t62 32.5t35.5 50.5t11.5 67.5q0 27 -7.5 64t-19.5 81t-28 92l158 40
q14 -58 23 -92t14 -50q10 -29 22.5 -44.5t30 -20.5t42.5 -5q22 0 39 6t30 26t23.5 62t19.5 114l148 -23q-4 -25 -8 -51t-7 -47.5t-3 -35.5t8 -25.5t28 -18.5t57 -7q48 0 67.5 20t19.5 62q0 22 -1 49t-3.5 61t-8.5 78l145 11q9 -98 19.5 -154.5t27.5 -84t42 -35t62 -7.5
q42 0 61 -21.5t19 -53.5q0 -34 -23 -56t-67 -22q-39 0 -79 11t-72 40t-50 84l29 -6q-13 -53 -43 -81t-67.5 -38t-76.5 -10q-55 0 -94.5 15.5t-59.5 46t-20 73.5h34q-16 -58 -42.5 -87t-60.5 -38.5t-72 -9.5q-21 0 -44 4t-44 14.5t-36.5 29.5t-20.5 49l43 -43
q-2 -67 -30.5 -119.5t-77 -88t-112.5 -54.5t-137 -19zM649 -481q-29 0 -48.5 19.5t-19.5 47.5t19.5 48.5t48.5 20.5q27 0 46.5 -20.5t19.5 -48.5t-19.5 -47.5t-46.5 -19.5zM565 -338q-28 0 -47.5 19.5t-19.5 47.5t19.5 48.5t47.5 20.5t47.5 -20.5t19.5 -48.5t-19.5 -47.5
t-47.5 -19.5zM736 -338q-28 0 -48 19.5t-20 47.5t20 48.5t48 20.5t47.5 -20.5t19.5 -48.5t-19.5 -47.5t-47.5 -19.5z" />
    <glyph glyph-name="uni069D.init" unicode="&#x69d;" horiz-adv-x="1002" 
d="M528 -18q-94 0 -156.5 8.5t-101 24t-61 36.5t-38.5 46l30 8q-25 -48 -58 -71.5t-69.5 -31t-73.5 -7.5l10 153q30 0 46.5 10t27 33.5t20.5 62t24 95.5l143 -35q-7 -28 -11.5 -48t-7 -34t-2.5 -23q0 -19 8.5 -33.5t33 -23t72.5 -13t127 -4.5q93 0 153 6.5t94 18.5t48 29.5
t14 39.5q0 19 -8 34.5t-26 25t-45 9.5q-32 0 -66.5 -15.5t-69.5 -41.5t-67 -59t-59 -70l-164 21q43 66 94.5 124t108.5 102t117.5 69t121.5 25q69 0 118 -27.5t75 -75t26 -110.5q0 -77 -43 -135t-137 -90.5t-248 -32.5zM616 -250q-30 0 -50.5 20.5t-20.5 50.5t20.5 51
t50.5 21q29 0 50 -21t21 -51t-21 -50.5t-50 -20.5zM441 -250q-30 0 -51 20.5t-21 50.5t21 51t51 21q29 0 50 -21t21 -51t-21 -50.5t-50 -20.5z" />
    <glyph glyph-name="uni069D.medi" unicode="&#x69d;" horiz-adv-x="1028" 
d="M1027 -5q-58 0 -107.5 10.5t-86 27.5t-59.5 35l93 109q36 -16 74 -22.5t96 -6.5q43 0 61.5 -21.5t18.5 -53.5q0 -34 -22.5 -56t-67.5 -22zM528 -18q-94 0 -156.5 8.5t-101 24t-61 36.5t-38.5 46l30 8q-25 -48 -58 -71.5t-69.5 -31t-73.5 -7.5l10 153q30 0 46.5 10
t27 33.5t20.5 62t24 95.5l143 -35q-7 -28 -11.5 -48t-7 -34t-2.5 -23q0 -19 8.5 -33.5t33 -23t72.5 -13t127 -4.5q93 0 153 6.5t94 18.5t48 29.5t14 39.5q0 19 -8 34.5t-26 25t-45 9.5q-32 0 -66.5 -15.5t-69.5 -41.5t-67 -59t-59 -70l-164 21q43 66 94.5 124t108.5 102
t117.5 69t121.5 25q69 0 118 -27.5t75 -75t26 -110.5q0 -77 -43 -135t-137 -90.5t-248 -32.5zM616 -250q-30 0 -50.5 20.5t-20.5 50.5t20.5 51t50.5 21q29 0 50 -21t21 -51t-21 -50.5t-50 -20.5zM441 -250q-30 0 -51 20.5t-21 50.5t21 51t51 21q29 0 50 -21t21 -51
t-21 -50.5t-50 -20.5z" />
    <glyph glyph-name="uni069D.fina" unicode="&#x69d;" horiz-adv-x="1482" 
d="M1481 -5q-59 0 -108 10.5t-85.5 27.5t-59.5 35l92 109q37 -16 75 -22.5t96 -6.5q43 0 61.5 -21.5t18.5 -53.5q0 -34 -23 -56t-67 -22zM354 -231q-68 0 -128 15.5t-105 48t-70.5 82t-25.5 115.5q0 26 4 56.5t15.5 71t33.5 93.5l139 -48q-13 -35 -20.5 -60t-11 -45
t-3.5 -41q0 -39 20 -69.5t59 -48.5t94 -18q51 0 89 10.5t63.5 30t38 49t12.5 68.5q0 46 -17 108t-38 133l158 40q9 -38 16 -66.5t12 -47t9 -28.5q7 -20 20.5 -35t41.5 -24.5t78.5 -14t132.5 -4.5q70 0 120 4.5t83.5 12.5t53.5 19.5t28.5 26t8.5 31.5t-8 33t-25.5 26
t-45.5 10q-36 0 -72.5 -17t-71.5 -45t-66 -60t-56 -63l-160 21q32 49 70.5 95.5t82 87t90.5 71t97 48t101 17.5q69 0 118 -28t75.5 -76t26.5 -109q0 -58 -23.5 -105.5t-74.5 -81.5t-132.5 -52.5t-197.5 -18.5q-52 0 -106.5 5.5t-103 18t-83.5 32.5t-48 48l64 -39
q-3 -67 -32 -120t-78.5 -89.5t-113.5 -55t-138 -18.5zM1060 -245q-30 0 -50.5 20.5t-20.5 50.5t20.5 51t50.5 21q29 0 50 -21t21 -51t-21 -50.5t-50 -20.5zM885 -245q-30 0 -51 20.5t-21 50.5t21 51t51 21q29 0 50 -21t21 -51t-21 -50.5t-50 -20.5z" />
    <glyph glyph-name="uni069E.init" unicode="&#x69e;" horiz-adv-x="1002" 
d="M528 -18q-94 0 -156.5 8.5t-101 24t-61 36.5t-38.5 46l30 8q-25 -48 -58 -71.5t-69.5 -31t-73.5 -7.5l10 153q30 0 46.5 10t27 33.5t20.5 62t24 95.5l143 -35q-7 -28 -11.5 -48t-7 -34t-2.5 -23q0 -19 8.5 -33.5t33 -23t72.5 -13t127 -4.5q93 0 153 6.5t94 18.5t48 29.5
t14 39.5q0 19 -8 34.5t-26 25t-45 9.5q-32 0 -66.5 -15.5t-69.5 -41.5t-67 -59t-59 -70l-164 21q43 66 94.5 124t108.5 102t117.5 69t121.5 25q69 0 118 -27.5t75 -75t26 -110.5q0 -77 -43 -135t-137 -90.5t-248 -32.5zM713 688q-28 0 -48 20t-20 47q0 29 20 48.5t48 19.5
t47.5 -19.5t19.5 -48.5q0 -27 -19.5 -47t-47.5 -20zM631 544q-28 0 -48.5 21t-20.5 49q0 27 20.5 47.5t48.5 20.5q27 0 46.5 -20.5t19.5 -47.5q0 -28 -19.5 -49t-46.5 -21zM794 544q-27 0 -46.5 21t-19.5 49q0 27 19.5 47.5t46.5 20.5q28 0 48 -20.5t20 -47.5q0 -28 -20 -49
t-48 -21z" />
    <glyph glyph-name="uni069E.medi" unicode="&#x69e;" horiz-adv-x="1028" 
d="M1027 -5q-58 0 -107.5 10.5t-86 27.5t-59.5 35l93 109q36 -16 74 -22.5t96 -6.5q43 0 61.5 -21.5t18.5 -53.5q0 -34 -22.5 -56t-67.5 -22zM528 -18q-94 0 -156.5 8.5t-101 24t-61 36.5t-38.5 46l30 8q-25 -48 -58 -71.5t-69.5 -31t-73.5 -7.5l10 153q30 0 46.5 10
t27 33.5t20.5 62t24 95.5l143 -35q-7 -28 -11.5 -48t-7 -34t-2.5 -23q0 -19 8.5 -33.5t33 -23t72.5 -13t127 -4.5q93 0 153 6.5t94 18.5t48 29.5t14 39.5q0 19 -8 34.5t-26 25t-45 9.5q-32 0 -66.5 -15.5t-69.5 -41.5t-67 -59t-59 -70l-164 21q43 66 94.5 124t108.5 102
t117.5 69t121.5 25q69 0 118 -27.5t75 -75t26 -110.5q0 -77 -43 -135t-137 -90.5t-248 -32.5zM713 688q-28 0 -48 20t-20 47q0 29 20 48.5t48 19.5t47.5 -19.5t19.5 -48.5q0 -27 -19.5 -47t-47.5 -20zM631 544q-28 0 -48.5 21t-20.5 49q0 27 20.5 47.5t48.5 20.5
q27 0 46.5 -20.5t19.5 -47.5q0 -28 -19.5 -49t-46.5 -21zM794 544q-27 0 -46.5 21t-19.5 49q0 27 19.5 47.5t46.5 20.5q28 0 48 -20.5t20 -47.5q0 -28 -20 -49t-48 -21z" />
    <glyph glyph-name="uni069E.fina" unicode="&#x69e;" horiz-adv-x="1482" 
d="M1481 -5q-59 0 -108 10.5t-85.5 27.5t-59.5 35l92 109q37 -16 75 -22.5t96 -6.5q43 0 61.5 -21.5t18.5 -53.5q0 -34 -23 -56t-67 -22zM354 -231q-68 0 -128 15.5t-105 48t-70.5 82t-25.5 115.5q0 26 4 56.5t15.5 71t33.5 93.5l139 -48q-13 -35 -20.5 -60t-11 -45
t-3.5 -41q0 -39 20 -69.5t59 -48.5t94 -18q51 0 89 10.5t63.5 30t38 49t12.5 68.5q0 46 -17 108t-38 133l158 40q9 -38 16 -66.5t12 -47t9 -28.5q7 -20 20.5 -35t41.5 -24.5t78.5 -14t132.5 -4.5q70 0 120 4.5t83.5 12.5t53.5 19.5t28.5 26t8.5 31.5t-8 33t-25.5 26
t-45.5 10q-36 0 -72.5 -17t-71.5 -45t-66 -60t-56 -63l-160 21q32 49 70.5 95.5t82 87t90.5 71t97 48t101 17.5q69 0 118 -28t75.5 -76t26.5 -109q0 -58 -23.5 -105.5t-74.5 -81.5t-132.5 -52.5t-197.5 -18.5q-52 0 -106.5 5.5t-103 18t-83.5 32.5t-48 48l64 -39
q-3 -67 -32 -120t-78.5 -89.5t-113.5 -55t-138 -18.5zM1170 692q-28 0 -48 20t-20 47q0 29 20 48.5t48 19.5t47.5 -19.5t19.5 -48.5q0 -27 -19.5 -47t-47.5 -20zM1088 548q-28 0 -48.5 21t-20.5 49q0 27 20.5 47.5t48.5 20.5q27 0 46.5 -20.5t19.5 -47.5q0 -28 -19.5 -49
t-46.5 -21zM1251 548q-27 0 -46.5 21t-19.5 49q0 27 19.5 47.5t46.5 20.5q28 0 48 -20.5t20 -47.5q0 -28 -20 -49t-48 -21z" />
    <glyph glyph-name="uni069F.init" unicode="&#x69f;" horiz-adv-x="761" 
d="M0 -5l10 153h228q96 0 158.5 6.5t98 19.5t50 30t14.5 38q0 18 -8.5 34t-25 26t-43.5 10q-32 0 -66.5 -15.5t-69.5 -42t-68 -60.5t-61 -71l-166 19q45 69 97.5 128t110 103t117.5 68.5t120 24.5q69 0 117.5 -28t75 -76.5t26.5 -110.5q0 -71 -37.5 -125.5t-122.5 -88.5
q-36 -14 -79 -23t-98 -14t-127 -5h-251zM106 98l-21 647h155l17 -467zM484 690q-28 0 -48 20t-20 47q0 29 20 48.5t48 19.5t47.5 -19.5t19.5 -48.5q0 -27 -19.5 -47t-47.5 -20zM402 546q-28 0 -48.5 21t-20.5 49q0 27 20.5 47.5t48.5 20.5q27 0 46.5 -20.5t19.5 -47.5
q0 -28 -19.5 -49t-46.5 -21zM565 546q-27 0 -46.5 21t-19.5 49q0 27 19.5 47.5t46.5 20.5q28 0 48 -20.5t20 -47.5q0 -28 -20 -49t-48 -21z" />
    <glyph glyph-name="uni069F.medi" unicode="&#x69f;" horiz-adv-x="781" 
d="M781 -5q-59 0 -108 10.5t-86 27.5t-59 35l92 109q36 -16 74.5 -22.5t95.5 -6.5q43 0 62 -21.5t19 -53.5q0 -34 -23 -56t-67 -22zM0 -5l10 153h228q96 0 158.5 6.5t98 19.5t50 30t14.5 38q0 18 -8.5 34t-25 26t-43.5 10q-32 0 -66.5 -15.5t-69.5 -42t-68 -60.5t-61 -71
l-166 19q45 69 97.5 128t110 103t117.5 68.5t120 24.5q69 0 117.5 -28t75 -76.5t26.5 -110.5q0 -71 -37.5 -125.5t-122.5 -88.5q-36 -14 -79 -23t-98 -14t-127 -5h-251zM106 98l-21 647h155l17 -467zM484 690q-28 0 -48 20t-20 47q0 29 20 48.5t48 19.5t47.5 -19.5
t19.5 -48.5q0 -27 -19.5 -47t-47.5 -20zM402 546q-28 0 -48.5 21t-20.5 49q0 27 20.5 47.5t48.5 20.5q27 0 46.5 -20.5t19.5 -47.5q0 -28 -19.5 -49t-46.5 -21zM565 546q-27 0 -46.5 21t-19.5 49q0 27 19.5 47.5t46.5 20.5q28 0 48 -20.5t20 -47.5q0 -28 -20 -49t-48 -21z
" />
    <glyph glyph-name="uni069F.fina" unicode="&#x69f;" horiz-adv-x="883" 
d="M882 -5q-59 0 -108 10.5t-85.5 27.5t-59.5 35l92 109q37 -16 75 -22.5t96 -6.5q43 0 61.5 -21.5t18.5 -53.5q0 -34 -23 -56t-67 -22zM393 -13q-50 0 -98.5 1.5t-96.5 3.5t-92.5 5.5t-85.5 8.5l18 151q56 -6 101.5 -9.5t84 -5t74.5 -2t73 -0.5q87 0 144 6.5t90 19
t46.5 29.5t13.5 37q0 19 -9 35t-25.5 25.5t-43.5 9.5q-35 0 -70.5 -16.5t-70 -43t-65 -59.5t-56.5 -66l-165 20q44 67 95 125t108 101.5t117.5 68.5t121.5 25q66 0 115 -27t76.5 -75t27.5 -111q0 -76 -43 -134t-137 -90.5t-248 -32.5zM213 99l-21 646h155l17 -466zM595 680
q-28 0 -48 20t-20 47q0 29 20 48.5t48 19.5t47.5 -19.5t19.5 -48.5q0 -27 -19.5 -47t-47.5 -20zM513 536q-28 0 -48.5 21t-20.5 49q0 27 20.5 47.5t48.5 20.5q27 0 46.5 -20.5t19.5 -47.5q0 -28 -19.5 -49t-46.5 -21zM676 536q-27 0 -46.5 21t-19.5 49q0 27 19.5 47.5
t46.5 20.5q28 0 48 -20.5t20 -47.5q0 -28 -20 -49t-48 -21z" />
    <glyph glyph-name="uni06A0.init" unicode="&#x6a0;" horiz-adv-x="577" 
d="M0 -5l10 153q44 0 68 1t37 2.5t24 2.5q-10 11 -25.5 30t-26.5 48.5t-11 70.5q0 63 32.5 110t89 73.5t125.5 26.5q34 0 62 -4t58 -12l-24 -144q-20 5 -42 8t-39 3q-31 0 -54.5 -9.5t-36.5 -27t-13 -42.5q0 -16 6 -31t15.5 -27t21.5 -21t25 -14.5t25 -7.5q14 4 27.5 8
t31 9.5t42.5 15.5t62 26l46 -139q-88 -42 -172 -66t-172.5 -33.5t-191.5 -9.5zM283 749q-28 0 -48 20t-20 47q0 29 20 48.5t48 19.5t47.5 -19.5t19.5 -48.5q0 -27 -19.5 -47t-47.5 -20zM201 605q-28 0 -48.5 21t-20.5 49q0 27 20.5 47.5t48.5 20.5q27 0 46.5 -20.5
t19.5 -47.5q0 -28 -19.5 -49t-46.5 -21zM364 605q-27 0 -46.5 21t-19.5 49q0 27 19.5 47.5t46.5 20.5q28 0 48 -20.5t20 -47.5q0 -28 -20 -49t-48 -21z" />
    <glyph glyph-name="uni06A0.medi" unicode="&#x6a0;" horiz-adv-x="564" 
d="M-2 -5l10 153q68 0 123.5 8.5t98.5 23.5t71.5 35t43.5 43.5t15 47.5q0 13 -6 24.5t-21 18.5t-41 7q-13 0 -30.5 -3t-35 -8.5t-33.5 -14.5q24 -21 48.5 -46t47 -50t40.5 -48q20 -9 43.5 -16t53 -12t66 -7.5t81.5 -2.5q43 0 61.5 -21.5t18.5 -53.5q0 -34 -23 -56t-67 -22
q-75 0 -139.5 12.5t-120 37.5t-104.5 63q-13 22 -34.5 46.5t-45 48t-44.5 42.5q-4 4 -10 20t-10.5 35t-4.5 27q0 27 21.5 55t58.5 52t84.5 38.5t100.5 14.5q67 0 111 -19t65.5 -52.5t21.5 -78.5q0 -53 -24.5 -102.5t-69.5 -93t-108.5 -76t-142.5 -51.5t-170 -19zM313 723
q-28 0 -48 20t-20 47q0 29 20 48.5t48 19.5t47.5 -19.5t19.5 -48.5q0 -27 -19.5 -47t-47.5 -20zM231 579q-28 0 -48.5 21t-20.5 49q0 27 20.5 47.5t48.5 20.5q27 0 46.5 -20.5t19.5 -47.5q0 -28 -19.5 -49t-46.5 -21zM394 579q-27 0 -46.5 21t-19.5 49q0 27 19.5 47.5
t46.5 20.5q28 0 48 -20.5t20 -47.5q0 -28 -20 -49t-48 -21z" />
    <glyph glyph-name="uni06A0.fina" unicode="&#x6a0;" horiz-adv-x="597" 
d="M345 -394q-71 0 -131 15.5t-104 46.5t-68 77t-24 107q0 66 27 115.5t69 86.5t90 67.5t90 58.5t69 58t27 68q0 14 -7 25.5t-21 18t-37 6.5q-19 0 -37 -3t-34.5 -9t-31.5 -14q25 -21 49 -46t46 -49t37 -45q23 -12 52.5 -20t63 -13t68 -7t69.5 -2q42 0 60.5 -21.5
t18.5 -53.5q0 -34 -23 -56t-66 -22q-77 0 -139 8.5t-115 30.5t-106 62q-19 30 -43 58t-47.5 51t-41.5 39q-4 4 -10 21t-11 35.5t-5 26.5q0 24 19.5 52t55.5 52.5t85 40t109 15.5q100 0 147 -42t47 -110q0 -62 -26.5 -109.5t-68 -86t-87.5 -71t-87.5 -63.5t-68 -64t-26.5 -72
q0 -31 15 -52t39.5 -34t55 -18.5t60.5 -5.5t62.5 4.5t68 15t74.5 26.5l47 -132q-40 -21 -84 -36t-87 -23t-84 -8zM342 725q-28 0 -48 20t-20 47q0 29 20 48.5t48 19.5t47.5 -19.5t19.5 -48.5q0 -27 -19.5 -47t-47.5 -20zM260 581q-28 0 -48.5 21t-20.5 49q0 27 20.5 47.5
t48.5 20.5q27 0 46.5 -20.5t19.5 -47.5q0 -28 -19.5 -49t-46.5 -21zM423 581q-27 0 -46.5 21t-19.5 49q0 27 19.5 47.5t46.5 20.5q28 0 48 -20.5t20 -47.5q0 -28 -20 -49t-48 -21z" />
    <glyph glyph-name="uni06A1.init" unicode="&#x6a1;" horiz-adv-x="526" 
d="M0 -5l10 152q66 0 112.5 0.5t77.5 3t49.5 6.5t30.5 10q17 9 27.5 25.5t15.5 43t5 63.5q0 51 -8.5 84t-23 49t-33.5 16q-15 0 -27.5 -9.5t-20 -26.5t-7.5 -40q0 -13 6.5 -23.5t20 -16t34.5 -5.5q19 0 42 5t44 16l4 -119q-16 -12 -37 -21.5t-45 -14t-48 -4.5
q-51 0 -89 16.5t-59.5 50.5t-21.5 87q0 45 15 88.5t43.5 78.5t67.5 55.5t87 20.5q67 0 113 -38t70 -104.5t24 -153.5q0 -80 -23.5 -137t-65.5 -88q-27 -22 -62 -35.5t-81 -21t-107 -10.5t-140 -3z" />
    <glyph glyph-name="uni06A1.medi" unicode="&#x6a1;" horiz-adv-x="538" 
d="M0 -5l10 152q29 0 60.5 2t61 5.5t54.5 8.5t42 10q33 11 55.5 26.5t34 34.5t11.5 41q0 17 -7 33.5t-20 27t-28 10.5q-16 0 -29.5 -10t-22 -27t-8.5 -39q0 -18 8 -34.5t24.5 -33t42.5 -32.5l-142 -57q-24 23 -43 48t-30 54.5t-11 66.5q0 45 19 82.5t49.5 65.5t68.5 43
t77 15q59 0 104.5 -28t72 -73t26.5 -97q0 -51 -18.5 -90.5t-48.5 -69.5t-66.5 -52.5t-72.5 -38.5q-22 -11 -55.5 -19t-71.5 -13.5t-76 -8.5t-71 -3zM538 -5q-61 0 -118.5 6.5t-105.5 18.5t-81 30l69 121q30 -10 70.5 -15t85.5 -6.5t90 -1.5q42 0 60.5 -21.5t18.5 -53.5
q0 -34 -22.5 -56t-66.5 -22z" />
    <glyph glyph-name="uni06A1.fina" unicode="&#x6a1;" horiz-adv-x="1120" 
d="M438 -21l26 153q54 0 107 4t100 10.5t83 13.5t55 13q34 11 56 26.5t33.5 34.5t11.5 38q0 13 -4.5 25.5t-11.5 23.5t-17 18t-22 7q-15 0 -28.5 -11t-22.5 -28.5t-9 -39.5q0 -16 8.5 -32.5t25 -33t41.5 -31.5l-141 -57q-24 23 -43 47.5t-30 52.5t-11 63q0 43 18 81.5t49 68
t68.5 46t77.5 16.5q60 0 105.5 -30t71.5 -77t26 -97t-18 -88.5t-48.5 -67.5t-67 -51t-72.5 -38q-26 -12 -73 -23t-106 -19.5t-121 -13t-117 -4.5zM1119 -5q-60 0 -117.5 6.5t-106 18.5t-81.5 30l69 121q30 -9 70.5 -14t86 -7t89.5 -2q43 0 61.5 -21.5t18.5 -53.5
q0 -34 -23 -56t-67 -22zM438 -21q-116 0 -194 18t-124.5 50t-66.5 74t-20 90q0 36 6 70.5t15 66.5t16 57l135 -32q-4 -19 -9 -40t-8 -41t-3 -37q0 -36 26 -64t87 -43.5t166 -15.5l20 -121z" />
    <glyph glyph-name="fehDotMovedbelowar.init" unicode="&#x6a2;" horiz-adv-x="526" 
d="M0 -5l10 152q66 0 112.5 0.5t77.5 3t49.5 6.5t30.5 10q17 9 27.5 25.5t15.5 43t5 63.5q0 51 -8.5 84t-23 49t-33.5 16q-15 0 -27.5 -9.5t-20 -26.5t-7.5 -40q0 -13 6.5 -23.5t20 -16t34.5 -5.5q19 0 42 5t44 16l4 -119q-16 -12 -37 -21.5t-45 -14t-48 -4.5
q-51 0 -89 16.5t-59.5 50.5t-21.5 87q0 45 15 88.5t43.5 78.5t67.5 55.5t87 20.5q67 0 113 -38t70 -104.5t24 -153.5q0 -80 -23.5 -137t-65.5 -88q-27 -22 -62 -35.5t-81 -21t-107 -10.5t-140 -3zM225 -259q-32 0 -54 21.5t-22 52.5q0 32 22 55t54 23q31 0 53 -23t22 -55
q0 -31 -22 -52.5t-53 -21.5z" />
    <glyph glyph-name="fehDotMovedbelowar.medi" unicode="&#x6a2;" horiz-adv-x="538" 
d="M0 -5l10 152q29 0 60.5 2t61 5.5t54.5 8.5t42 10q33 11 55.5 26.5t34 34.5t11.5 41q0 17 -7 33.5t-20 27t-28 10.5q-16 0 -29.5 -10t-22 -27t-8.5 -39q0 -18 8 -34.5t24.5 -33t42.5 -32.5l-142 -57q-24 23 -43 48t-30 54.5t-11 66.5q0 45 19 82.5t49.5 65.5t68.5 43
t77 15q59 0 104.5 -28t72 -73t26.5 -97q0 -51 -18.5 -90.5t-48.5 -69.5t-66.5 -52.5t-72.5 -38.5q-22 -11 -55.5 -19t-71.5 -13.5t-76 -8.5t-71 -3zM538 -5q-61 0 -118.5 6.5t-105.5 18.5t-81 30l69 121q30 -10 70.5 -15t85.5 -6.5t90 -1.5q42 0 60.5 -21.5t18.5 -53.5
q0 -34 -22.5 -56t-66.5 -22zM268 -259q-32 0 -54 21.5t-22 52.5q0 32 22 55t54 23q31 0 53 -23t22 -55q0 -31 -22 -52.5t-53 -21.5z" />
    <glyph glyph-name="fehDotMovedbelowar.fina" unicode="&#x6a2;" horiz-adv-x="1120" 
d="M438 -21l26 153q54 0 107 4t100 10.5t83 13.5t55 13q34 11 56 26.5t33.5 34.5t11.5 38q0 13 -4.5 25.5t-11.5 23.5t-17 18t-22 7q-15 0 -28.5 -11t-22.5 -28.5t-9 -39.5q0 -16 8.5 -32.5t25 -33t41.5 -31.5l-141 -57q-24 23 -43 47.5t-30 52.5t-11 63q0 43 18 81.5t49 68
t68.5 46t77.5 16.5q60 0 105.5 -30t71.5 -77t26 -97t-18 -88.5t-48.5 -67.5t-67 -51t-72.5 -38q-26 -12 -73 -23t-106 -19.5t-121 -13t-117 -4.5zM1119 -5q-60 0 -117.5 6.5t-106 18.5t-81.5 30l69 121q30 -9 70.5 -14t86 -7t89.5 -2q43 0 61.5 -21.5t18.5 -53.5
q0 -34 -23 -56t-67 -22zM438 -21q-116 0 -194 18t-124.5 50t-66.5 74t-20 90q0 36 6 70.5t15 66.5t16 57l135 -32q-4 -19 -9 -40t-8 -41t-3 -37q0 -36 26 -64t87 -43.5t166 -15.5l20 -121zM484 -259q-32 0 -54 21.5t-22 52.5q0 32 22 55t54 23q31 0 53 -23t22 -55
q0 -31 -22 -52.5t-53 -21.5z" />
    <glyph glyph-name="uni06A3.init" unicode="&#x6a3;" horiz-adv-x="526" 
d="M0 -5l10 152q66 0 112.5 0.5t77.5 3t49.5 6.5t30.5 10q17 9 27.5 25.5t15.5 43t5 63.5q0 51 -8.5 84t-23 49t-33.5 16q-15 0 -27.5 -9.5t-20 -26.5t-7.5 -40q0 -13 6.5 -23.5t20 -16t34.5 -5.5q19 0 42 5t44 16l4 -119q-16 -12 -37 -21.5t-45 -14t-48 -4.5
q-51 0 -89 16.5t-59.5 50.5t-21.5 87q0 45 15 88.5t43.5 78.5t67.5 55.5t87 20.5q67 0 113 -38t70 -104.5t24 -153.5q0 -80 -23.5 -137t-65.5 -88q-27 -22 -62 -35.5t-81 -21t-107 -10.5t-140 -3zM267 678q-33 0 -55.5 22.5t-22.5 54.5q0 33 22.5 56.5t55.5 23.5
q32 0 54 -23.5t22 -56.5q0 -32 -22.5 -54.5t-53.5 -22.5zM225 -259q-32 0 -54 21.5t-22 52.5q0 32 22 55t54 23q31 0 53 -23t22 -55q0 -31 -22 -52.5t-53 -21.5z" />
    <glyph glyph-name="uni06A3.medi" unicode="&#x6a3;" horiz-adv-x="538" 
d="M0 -5l10 152q29 0 60.5 2t61 5.5t54.5 8.5t42 10q33 11 55.5 26.5t34 34.5t11.5 41q0 17 -7 33.5t-20 27t-28 10.5q-16 0 -29.5 -10t-22 -27t-8.5 -39q0 -18 8 -34.5t24.5 -33t42.5 -32.5l-142 -57q-24 23 -43 48t-30 54.5t-11 66.5q0 45 19 82.5t49.5 65.5t68.5 43
t77 15q59 0 104.5 -28t72 -73t26.5 -97q0 -51 -18.5 -90.5t-48.5 -69.5t-66.5 -52.5t-72.5 -38.5q-22 -11 -55.5 -19t-71.5 -13.5t-76 -8.5t-71 -3zM538 -5q-61 0 -118.5 6.5t-105.5 18.5t-81 30l69 121q30 -10 70.5 -15t85.5 -6.5t90 -1.5q42 0 60.5 -21.5t18.5 -53.5
q0 -34 -22.5 -56t-66.5 -22zM278 580q-33 0 -55.5 22.5t-22.5 54.5q0 33 22.5 56.5t55.5 23.5q32 0 54 -23.5t22 -56.5q0 -32 -22.5 -54.5t-53.5 -22.5zM268 -259q-32 0 -54 21.5t-22 52.5q0 32 22 55t54 23q31 0 53 -23t22 -55q0 -31 -22 -52.5t-53 -21.5z" />
    <glyph glyph-name="uni06A3.fina" unicode="&#x6a3;" horiz-adv-x="1120" 
d="M438 -21l26 153q54 0 107 4t100 10.5t83 13.5t55 13q34 11 56 26.5t33.5 34.5t11.5 38q0 13 -4.5 25.5t-11.5 23.5t-17 18t-22 7q-15 0 -28.5 -11t-22.5 -28.5t-9 -39.5q0 -16 8.5 -32.5t25 -33t41.5 -31.5l-141 -57q-24 23 -43 47.5t-30 52.5t-11 63q0 43 18 81.5t49 68
t68.5 46t77.5 16.5q60 0 105.5 -30t71.5 -77t26 -97t-18 -88.5t-48.5 -67.5t-67 -51t-72.5 -38q-26 -12 -73 -23t-106 -19.5t-121 -13t-117 -4.5zM1119 -5q-60 0 -117.5 6.5t-106 18.5t-81.5 30l69 121q30 -9 70.5 -14t86 -7t89.5 -2q43 0 61.5 -21.5t18.5 -53.5
q0 -34 -23 -56t-67 -22zM438 -21q-116 0 -194 18t-124.5 50t-66.5 74t-20 90q0 36 6 70.5t15 66.5t16 57l135 -32q-4 -19 -9 -40t-8 -41t-3 -37q0 -36 26 -64t87 -43.5t166 -15.5l20 -121zM859 580q-33 0 -55.5 22.5t-22.5 54.5q0 33 22.5 56.5t55.5 23.5q32 0 54 -23.5
t22 -56.5q0 -32 -22.5 -54.5t-53.5 -22.5zM484 -259q-32 0 -54 21.5t-22 52.5q0 32 22 55t54 23q31 0 53 -23t22 -55q0 -31 -22 -52.5t-53 -21.5z" />
    <glyph glyph-name="uni06A5.init" unicode="&#x6a5;" horiz-adv-x="526" 
d="M0 -5l10 152q66 0 112.5 0.5t77.5 3t49.5 6.5t30.5 10q17 9 27.5 25.5t15.5 43t5 63.5q0 51 -8.5 84t-23 49t-33.5 16q-15 0 -27.5 -9.5t-20 -26.5t-7.5 -40q0 -13 6.5 -23.5t20 -16t34.5 -5.5q19 0 42 5t44 16l4 -119q-16 -12 -37 -21.5t-45 -14t-48 -4.5
q-51 0 -89 16.5t-59.5 50.5t-21.5 87q0 45 15 88.5t43.5 78.5t67.5 55.5t87 20.5q67 0 113 -38t70 -104.5t24 -153.5q0 -80 -23.5 -137t-65.5 -88q-27 -22 -62 -35.5t-81 -21t-107 -10.5t-140 -3zM227 -390q-29 0 -48.5 19.5t-19.5 47.5t19.5 48.5t48.5 20.5
q27 0 46.5 -20.5t19.5 -48.5t-19.5 -47.5t-46.5 -19.5zM143 -247q-28 0 -47.5 19.5t-19.5 47.5t19.5 48.5t47.5 20.5t47.5 -20.5t19.5 -48.5t-19.5 -47.5t-47.5 -19.5zM314 -247q-28 0 -48 19.5t-20 47.5t20 48.5t48 20.5t47.5 -20.5t19.5 -48.5t-19.5 -47.5t-47.5 -19.5z
" />
    <glyph glyph-name="uni06A5.medi" unicode="&#x6a5;" horiz-adv-x="538" 
d="M0 -5l10 152q29 0 60.5 2t61 5.5t54.5 8.5t42 10q33 11 55.5 26.5t34 34.5t11.5 41q0 17 -7 33.5t-20 27t-28 10.5q-16 0 -29.5 -10t-22 -27t-8.5 -39q0 -18 8 -34.5t24.5 -33t42.5 -32.5l-142 -57q-24 23 -43 48t-30 54.5t-11 66.5q0 45 19 82.5t49.5 65.5t68.5 43
t77 15q59 0 104.5 -28t72 -73t26.5 -97q0 -51 -18.5 -90.5t-48.5 -69.5t-66.5 -52.5t-72.5 -38.5q-22 -11 -55.5 -19t-71.5 -13.5t-76 -8.5t-71 -3zM538 -5q-61 0 -118.5 6.5t-105.5 18.5t-81 30l69 121q30 -10 70.5 -15t85.5 -6.5t90 -1.5q42 0 60.5 -21.5t18.5 -53.5
q0 -34 -22.5 -56t-66.5 -22zM270 -390q-29 0 -48.5 19.5t-19.5 47.5t19.5 48.5t48.5 20.5q27 0 46.5 -20.5t19.5 -48.5t-19.5 -47.5t-46.5 -19.5zM186 -247q-28 0 -47.5 19.5t-19.5 47.5t19.5 48.5t47.5 20.5t47.5 -20.5t19.5 -48.5t-19.5 -47.5t-47.5 -19.5zM357 -247
q-28 0 -48 19.5t-20 47.5t20 48.5t48 20.5t47.5 -20.5t19.5 -48.5t-19.5 -47.5t-47.5 -19.5z" />
    <glyph glyph-name="uni06A5.fina" unicode="&#x6a5;" horiz-adv-x="1120" 
d="M438 -21l26 153q54 0 107 4t100 10.5t83 13.5t55 13q34 11 56 26.5t33.5 34.5t11.5 38q0 13 -4.5 25.5t-11.5 23.5t-17 18t-22 7q-15 0 -28.5 -11t-22.5 -28.5t-9 -39.5q0 -16 8.5 -32.5t25 -33t41.5 -31.5l-141 -57q-24 23 -43 47.5t-30 52.5t-11 63q0 43 18 81.5t49 68
t68.5 46t77.5 16.5q60 0 105.5 -30t71.5 -77t26 -97t-18 -88.5t-48.5 -67.5t-67 -51t-72.5 -38q-26 -12 -73 -23t-106 -19.5t-121 -13t-117 -4.5zM1119 -5q-60 0 -117.5 6.5t-106 18.5t-81.5 30l69 121q30 -9 70.5 -14t86 -7t89.5 -2q43 0 61.5 -21.5t18.5 -53.5
q0 -34 -23 -56t-67 -22zM438 -21q-116 0 -194 18t-124.5 50t-66.5 74t-20 90q0 36 6 70.5t15 66.5t16 57l135 -32q-4 -19 -9 -40t-8 -41t-3 -37q0 -36 26 -64t87 -43.5t166 -15.5l20 -121zM487 -390q-29 0 -48.5 19.5t-19.5 47.5t19.5 48.5t48.5 20.5q27 0 46.5 -20.5
t19.5 -48.5t-19.5 -47.5t-46.5 -19.5zM403 -247q-28 0 -47.5 19.5t-19.5 47.5t19.5 48.5t47.5 20.5t47.5 -20.5t19.5 -48.5t-19.5 -47.5t-47.5 -19.5zM574 -247q-28 0 -48 19.5t-20 47.5t20 48.5t48 20.5t47.5 -20.5t19.5 -48.5t-19.5 -47.5t-47.5 -19.5z" />
    <glyph glyph-name="uni06A7.fina" unicode="&#x6a7;" horiz-adv-x="860" 
d="M356 -272q-69 0 -129 14.5t-105.5 46t-71 81t-25.5 118.5q0 25 4 55t16 70.5t36 97.5l137 -51q-14 -38 -22 -62.5t-11 -43t-3 -39.5q0 -40 23 -71t67.5 -47t108.5 -16q43 0 80 6.5t66 18t51.5 27t37.5 33.5t22 37q9 24 12.5 55t3.5 71q0 45 -6.5 74.5t-19 44t-32.5 14.5
q-13 0 -23.5 -6.5t-18 -16.5t-11.5 -22t-4 -22q0 -16 6.5 -27.5t25.5 -18t57 -7.5t103 6h139q42 0 60.5 -21.5t18.5 -52.5q0 -35 -23 -57t-66 -22h-214q-57 0 -104.5 9t-81.5 29.5t-53 52.5t-19 79q0 46 16.5 88.5t47 75.5t69.5 52t83 19q66 0 111.5 -36t68.5 -101t23 -152
q0 -51 -15 -102.5t-36 -90.5q-25 -46 -63 -81.5t-88.5 -60t-113 -36.5t-135.5 -12zM605 492q-33 0 -55.5 22.5t-22.5 54.5q0 33 22.5 56.5t55.5 23.5q32 0 54 -23.5t22 -56.5q0 -32 -22.5 -54.5t-53.5 -22.5z" />
    <glyph glyph-name="uni06A8.init" unicode="&#x6a8;" horiz-adv-x="526" 
d="M0 -5l10 152q66 0 112.5 0.5t77.5 3t49.5 6.5t30.5 10q17 9 27.5 25.5t15.5 43t5 63.5q0 51 -8.5 84t-23 49t-33.5 16q-15 0 -27.5 -9.5t-20 -26.5t-7.5 -40q0 -13 6.5 -23.5t20 -16t34.5 -5.5q19 0 42 5t44 16l4 -119q-16 -12 -37 -21.5t-45 -14t-48 -4.5
q-51 0 -89 16.5t-59.5 50.5t-21.5 87q0 45 15 88.5t43.5 78.5t67.5 55.5t87 20.5q67 0 113 -38t70 -104.5t24 -153.5q0 -80 -23.5 -137t-65.5 -88q-27 -22 -62 -35.5t-81 -21t-107 -10.5t-140 -3zM271 822q-28 0 -48 20t-20 47q0 29 20 48.5t48 19.5t47.5 -19.5t19.5 -48.5
q0 -27 -19.5 -47t-47.5 -20zM189 678q-28 0 -48.5 21t-20.5 49q0 27 20.5 47.5t48.5 20.5q27 0 46.5 -20.5t19.5 -47.5q0 -28 -19.5 -49t-46.5 -21zM352 678q-27 0 -46.5 21t-19.5 49q0 27 19.5 47.5t46.5 20.5q28 0 48 -20.5t20 -47.5q0 -28 -20 -49t-48 -21z" />
    <glyph glyph-name="uni06A8.medi" unicode="&#x6a8;" horiz-adv-x="538" 
d="M0 -5l10 152q29 0 60.5 2t61 5.5t54.5 8.5t42 10q33 11 55.5 26.5t34 34.5t11.5 41q0 17 -7 33.5t-20 27t-28 10.5q-16 0 -29.5 -10t-22 -27t-8.5 -39q0 -18 8 -34.5t24.5 -33t42.5 -32.5l-142 -57q-24 23 -43 48t-30 54.5t-11 66.5q0 45 19 82.5t49.5 65.5t68.5 43
t77 15q59 0 104.5 -28t72 -73t26.5 -97q0 -51 -18.5 -90.5t-48.5 -69.5t-66.5 -52.5t-72.5 -38.5q-22 -11 -55.5 -19t-71.5 -13.5t-76 -8.5t-71 -3zM538 -5q-61 0 -118.5 6.5t-105.5 18.5t-81 30l69 121q30 -10 70.5 -15t85.5 -6.5t90 -1.5q42 0 60.5 -21.5t18.5 -53.5
q0 -34 -22.5 -56t-66.5 -22zM282 724q-28 0 -48 20t-20 47q0 29 20 48.5t48 19.5t47.5 -19.5t19.5 -48.5q0 -27 -19.5 -47t-47.5 -20zM200 580q-28 0 -48.5 21t-20.5 49q0 27 20.5 47.5t48.5 20.5q27 0 46.5 -20.5t19.5 -47.5q0 -28 -19.5 -49t-46.5 -21zM363 580
q-27 0 -46.5 21t-19.5 49q0 27 19.5 47.5t46.5 20.5q28 0 48 -20.5t20 -47.5q0 -28 -20 -49t-48 -21z" />
    <glyph glyph-name="uni06A8.fina" unicode="&#x6a8;" horiz-adv-x="860" 
d="M356 -272q-69 0 -129 14.5t-105.5 46t-71 81t-25.5 118.5q0 25 4 55t16 70.5t36 97.5l137 -51q-14 -38 -22 -62.5t-11 -43t-3 -39.5q0 -40 23 -71t67.5 -47t108.5 -16q43 0 80 6.5t66 18t51.5 27t37.5 33.5t22 37q9 24 12.5 55t3.5 71q0 45 -6.5 74.5t-19 44t-32.5 14.5
q-13 0 -23.5 -6.5t-18 -16.5t-11.5 -22t-4 -22q0 -16 6.5 -27.5t25.5 -18t57 -7.5t103 6h139q42 0 60.5 -21.5t18.5 -52.5q0 -35 -23 -57t-66 -22h-214q-57 0 -104.5 9t-81.5 29.5t-53 52.5t-19 79q0 46 16.5 88.5t47 75.5t69.5 52t83 19q66 0 111.5 -36t68.5 -101t23 -152
q0 -51 -15 -102.5t-36 -90.5q-25 -46 -63 -81.5t-88.5 -60t-113 -36.5t-135.5 -12zM609 636q-28 0 -48 20t-20 47q0 29 20 48.5t48 19.5t47.5 -19.5t19.5 -48.5q0 -27 -19.5 -47t-47.5 -20zM527 492q-28 0 -48.5 21t-20.5 49q0 27 20.5 47.5t48.5 20.5q27 0 46.5 -20.5
t19.5 -47.5q0 -28 -19.5 -49t-46.5 -21zM690 492q-27 0 -46.5 21t-19.5 49q0 27 19.5 47.5t46.5 20.5q28 0 48 -20.5t20 -47.5q0 -28 -20 -49t-48 -21z" />
    <glyph glyph-name="uni06AA.init" unicode="&#x6aa;" horiz-adv-x="828" 
d="M0 -5l10 153h317h151.5t96 2.5t50 8t14.5 17.5q0 10 -9 18t-32 14t-66 11.5t-111 12.5q-115 12 -183.5 29.5t-98 47.5t-29.5 78q0 52 31 93.5t87.5 73t132.5 54t165 37.5l30 -141q-89 -14 -155 -30.5t-101.5 -32.5t-35.5 -30q0 -10 17.5 -16.5t59 -12t114.5 -12.5
q94 -10 157.5 -24.5t101.5 -38t55 -57.5t17 -81q0 -52 -24 -85.5t-77.5 -53t-141.5 -27.5t-216 -8h-327z" />
    <glyph glyph-name="uni06AA.medi" unicode="&#x6aa;" horiz-adv-x="928" 
d="M928 -5q-59 0 -108 10.5t-86 27.5t-60 35l93 109q36 -16 74.5 -22.5t95.5 -6.5q43 0 61.5 -21.5t18.5 -53.5q0 -34 -22.5 -56t-66.5 -22zM0 -5l10 153h317h151.5t96 2.5t50 8t14.5 17.5q0 10 -9 18t-32 14t-66 11.5t-111 12.5q-115 12 -183.5 29.5t-98 47.5t-29.5 78
q0 52 31 93.5t87.5 73t132.5 54t165 37.5l30 -141q-89 -14 -155 -30.5t-101.5 -32.5t-35.5 -30q0 -10 17.5 -16.5t59 -12t114.5 -12.5q94 -10 157.5 -24.5t101.5 -38t55 -57.5t17 -81q0 -52 -24 -85.5t-77.5 -53t-141.5 -27.5t-216 -8h-327z" />
    <glyph glyph-name="uni06AA.fina" unicode="&#x6aa;" horiz-adv-x="1140" 
d="M1139 -5q-58 0 -107.5 10.5t-86 27.5t-59.5 35l93 109q36 -16 74 -22.5t96 -6.5q43 0 61.5 -21.5t18.5 -53.5q0 -34 -22.5 -56t-67.5 -22zM538 -15q-48 0 -112.5 1t-134 3t-133.5 6t-111 9l6 148q50 -3 108 -6t121 -5.5t128 -4t128 -1.5q91 0 151.5 1.5t95.5 5t50 11.5
t15 20q0 10 -8 18t-30.5 14.5t-65.5 13t-114 13.5q-115 12 -183.5 29t-98.5 47.5t-30 80.5q0 54 32.5 95t89.5 72t133 53t162 36l30 -141q-89 -14 -155 -30.5t-102 -33t-36 -29.5q0 -9 17.5 -15.5t59.5 -12.5t114 -13q94 -9 158 -24t102 -38.5t54.5 -57.5t16.5 -81
q0 -52 -24 -87.5t-77.5 -56.5t-141 -30.5t-215.5 -9.5z" />
    <glyph glyph-name="uni06AB.init" unicode="&#x6ab;" horiz-adv-x="472" 
d="M360 404q-43 0 -73 30.5t-30 72.5q0 43 30 73.5t73 30.5t73 -30.5t30 -73.5q0 -42 -30 -72.5t-73 -30.5zM360 474q15 0 25 9.5t10 23.5q0 16 -10 25t-25 9q-14 0 -24.5 -9.5t-10.5 -24.5q0 -14 10.5 -23.5t24.5 -9.5zM0 -5l10 153h148q18 0 31.5 2t22 8t12.5 14.5t4 19.5
q0 19 -18 47t-55 62q-21 19 -44 39.5t-43.5 38.5t-33 32.5t-12.5 22.5q0 15 2 34.5t6.5 37t12.5 24.5q17 17 54.5 41t88.5 51.5t110 55.5t119 53l61 -134q-57 -25 -107.5 -47.5t-93 -44t-76.5 -41.5t-58 -39l2 82q74 -54 122.5 -103t77.5 -91.5t41 -78.5t12 -66t-13.5 -60.5
t-44.5 -55.5t-83 -41t-130 -16h-125z" />
    <glyph glyph-name="uni06AB.medi" unicode="&#x6ab;" horiz-adv-x="519" 
d="M363 404q-43 0 -73 30.5t-30 72.5q0 43 30 73.5t73 30.5q42 0 72.5 -30.5t30.5 -73.5q0 -42 -30.5 -72.5t-72.5 -30.5zM362 474q15 0 25.5 9.5t10.5 23.5q0 16 -10.5 25t-25.5 9q-14 0 -24.5 -9.5t-10.5 -24.5q0 -14 10.5 -23.5t24.5 -9.5zM0 -5l10 153h140
q29 0 45.5 3.5t24 12t7.5 23.5q0 17 -14.5 40t-38 47.5t-49.5 49.5t-49.5 47.5t-38.5 39.5t-15 26q0 27 3 45t8 30t12 19q17 18 52 40.5t83 48t108 53.5t127 58l61 -134q-70 -31 -122 -55t-91 -44t-69 -37.5t-54 -34.5l2 81q36 -31 70 -62t65 -65t58.5 -71.5t51.5 -80.5
q20 -35 41 -52t46 -22.5t55 -5.5q42 0 60.5 -21.5t18.5 -53.5q0 -34 -22.5 -56t-66.5 -22q-48 0 -89.5 11.5t-72 38t-43.5 71.5l56 -2q-15 -31 -36 -53.5t-50 -37t-66 -21.5t-82 -7h-136z" />
    <glyph glyph-name="uni06AB.fina" unicode="&#x6ab;" horiz-adv-x="983" 
d="M832 405q-43 0 -72.5 30.5t-29.5 72.5q0 43 29.5 73.5t72.5 30.5t73.5 -30.5t30.5 -73.5q0 -42 -30.5 -72.5t-73.5 -30.5zM832 475q15 0 25 9.5t10 23.5q0 16 -10 25t-25 9q-14 0 -24.5 -9.5t-10.5 -24.5q0 -14 10.5 -23.5t24.5 -9.5zM438 -21l26 153q63 0 106 1.5
t69.5 7t39.5 16t13 28.5t-15 40.5t-38.5 47.5t-49.5 50t-49.5 47t-38.5 39t-15 26q0 27 3 45.5t8 30.5t12 19q23 24 74.5 54.5t126.5 66.5t169 78l61 -134q-70 -31 -133 -60t-114.5 -56t-88.5 -55l3 81q36 -32 69 -62t63 -63t58 -70.5t54 -83.5q15 -26 31 -42t33 -23.5
t36.5 -10t42.5 -2.5q42 0 60.5 -22.5t18.5 -53.5q0 -34 -23 -55.5t-66 -21.5t-85 10t-74.5 36t-46.5 73l56 -2q-22 -45 -55.5 -71.5t-81.5 -39.5t-112 -17.5t-147 -4.5zM438 -21q-116 0 -194 18t-124.5 50t-66.5 74t-20 90q0 36 6 70.5t15 66.5t16 57l135 -32q-4 -19 -9 -40
t-8 -41t-3 -37q0 -36 26 -64t87 -43.5t166 -15.5l20 -121z" />
    <glyph glyph-name="uni06AC.init" unicode="&#x6ac;" horiz-adv-x="472" 
d="M0 -5l10 153h148q18 0 31.5 2t22 8t12.5 14.5t4 19.5q0 19 -18 47t-55 62q-21 19 -44 39.5t-43.5 38.5t-33 32.5t-12.5 22.5q0 15 2 34.5t6.5 37t12.5 24.5q17 17 54.5 41t88.5 51.5t110 55.5t119 53l61 -134q-57 -25 -107.5 -47.5t-93 -44t-76.5 -41.5t-58 -39l2 82
q74 -54 122.5 -103t77.5 -91.5t41 -78.5t12 -66t-13.5 -60.5t-44.5 -55.5t-83 -41t-130 -16h-125zM169 728q-33 0 -55.5 22.5t-22.5 54.5q0 33 22.5 56.5t55.5 23.5q32 0 54 -23.5t22 -56.5q0 -32 -22.5 -54.5t-53.5 -22.5z" />
    <glyph glyph-name="uni06AC.medi" unicode="&#x6ac;" horiz-adv-x="519" 
d="M0 -5l10 153h140q29 0 45.5 3.5t24 12t7.5 23.5q0 17 -14.5 40t-38 47.5t-49.5 49.5t-49.5 47.5t-38.5 39.5t-15 26q0 27 3 45t8 30t12 19q17 18 52 40.5t83 48t108 53.5t127 58l61 -134q-70 -31 -122 -55t-91 -44t-69 -37.5t-54 -34.5l2 81q36 -31 70 -62t65 -65
t58.5 -71.5t51.5 -80.5q20 -35 41 -52t46 -22.5t55 -5.5q42 0 60.5 -21.5t18.5 -53.5q0 -34 -22.5 -56t-66.5 -22q-48 0 -89.5 11.5t-72 38t-43.5 71.5l56 -2q-15 -31 -36 -53.5t-50 -37t-66 -21.5t-82 -7h-136zM186 726q-33 0 -55.5 22.5t-22.5 54.5q0 33 22.5 56.5
t55.5 23.5q32 0 54 -23.5t22 -56.5q0 -32 -22.5 -54.5t-53.5 -22.5z" />
    <glyph glyph-name="uni06AC.fina" unicode="&#x6ac;" horiz-adv-x="987" 
d="M438 -21l26 153q87 -1 142.5 5.5t85.5 26t40 56.5t7 98l-18 427h155l18 -439q2 -64 12 -98.5t32 -47t59 -12.5q42 0 60.5 -21.5t18.5 -53.5q0 -34 -23 -56t-66 -22q-42 0 -78 12t-61 41t-34 79h52q-24 -51 -67.5 -82t-100 -45.5t-123 -18t-137.5 -2.5zM380 220l-28 109
q36 8 59.5 15t34.5 14t11 15t-9 18t-21 23.5t-21 30t-9 37.5q0 27 15 50.5t47.5 45t85.5 41.5l47 -98q-41 -16 -57.5 -28.5t-16.5 -23.5q0 -9 9.5 -21.5t21.5 -27t21.5 -32t9.5 -37.5q0 -17 -6.5 -35t-26.5 -34.5t-60 -32t-107 -29.5zM438 -21q-116 0 -194 18t-124.5 50
t-66.5 74t-20 90q0 36 6 70.5t15 66.5t16 57l135 -32q-4 -19 -9 -40t-8 -41t-3 -37q0 -36 26 -64t87 -43.5t166 -15.5l20 -121zM468 671q-33 0 -55.5 22.5t-22.5 54.5q0 33 22.5 56.5t55.5 23.5q32 0 54 -23.5t22 -56.5q0 -32 -22.5 -54.5t-53.5 -22.5z" />
    <glyph glyph-name="uni06AE.init" unicode="&#x6ae;" horiz-adv-x="472" 
d="M0 -5l10 153h148q18 0 31.5 2t22 8t12.5 14.5t4 19.5q0 19 -18 47t-55 62q-21 19 -44 39.5t-43.5 38.5t-33 32.5t-12.5 22.5q0 15 2 34.5t6.5 37t12.5 24.5q17 17 54.5 41t88.5 51.5t110 55.5t119 53l61 -134q-57 -25 -107.5 -47.5t-93 -44t-76.5 -41.5t-58 -39l2 82
q74 -54 122.5 -103t77.5 -91.5t41 -78.5t12 -66t-13.5 -60.5t-44.5 -55.5t-83 -41t-130 -16h-125zM208 -369q-29 0 -48.5 19.5t-19.5 47.5t19.5 48.5t48.5 20.5q27 0 46.5 -20.5t19.5 -48.5t-19.5 -47.5t-46.5 -19.5zM124 -226q-28 0 -47.5 19.5t-19.5 47.5t19.5 48.5
t47.5 20.5t47.5 -20.5t19.5 -48.5t-19.5 -47.5t-47.5 -19.5zM295 -226q-28 0 -48 19.5t-20 47.5t20 48.5t48 20.5t47.5 -20.5t19.5 -48.5t-19.5 -47.5t-47.5 -19.5z" />
    <glyph glyph-name="uni06AE.medi" unicode="&#x6ae;" horiz-adv-x="519" 
d="M0 -5l10 153h140q29 0 45.5 3.5t24 12t7.5 23.5q0 17 -14.5 40t-38 47.5t-49.5 49.5t-49.5 47.5t-38.5 39.5t-15 26q0 27 3 45t8 30t12 19q17 18 52 40.5t83 48t108 53.5t127 58l61 -134q-70 -31 -122 -55t-91 -44t-69 -37.5t-54 -34.5l2 81q36 -31 70 -62t65 -65
t58.5 -71.5t51.5 -80.5q20 -35 41 -52t46 -22.5t55 -5.5q42 0 60.5 -21.5t18.5 -53.5q0 -34 -22.5 -56t-66.5 -22q-48 0 -89.5 11.5t-72 38t-43.5 71.5l56 -2q-15 -31 -36 -53.5t-50 -37t-66 -21.5t-82 -7h-136zM208 -369q-29 0 -48.5 19.5t-19.5 47.5t19.5 48.5t48.5 20.5
q27 0 46.5 -20.5t19.5 -48.5t-19.5 -47.5t-46.5 -19.5zM124 -226q-28 0 -47.5 19.5t-19.5 47.5t19.5 48.5t47.5 20.5t47.5 -20.5t19.5 -48.5t-19.5 -47.5t-47.5 -19.5zM295 -226q-28 0 -48 19.5t-20 47.5t20 48.5t48 20.5t47.5 -20.5t19.5 -48.5t-19.5 -47.5t-47.5 -19.5z
" />
    <glyph glyph-name="uni06AE.fina" unicode="&#x6ae;" horiz-adv-x="987" 
d="M438 -21l26 153q87 -1 142.5 5.5t85.5 26t40 56.5t7 98l-18 427h155l18 -439q2 -64 12 -98.5t32 -47t59 -12.5q42 0 60.5 -21.5t18.5 -53.5q0 -34 -23 -56t-66 -22q-42 0 -78 12t-61 41t-34 79h52q-24 -51 -67.5 -82t-100 -45.5t-123 -18t-137.5 -2.5zM380 220l-28 109
q36 8 59.5 15t34.5 14t11 15t-9 18t-21 23.5t-21 30t-9 37.5q0 27 15 50.5t47.5 45t85.5 41.5l47 -98q-41 -16 -57.5 -28.5t-16.5 -23.5q0 -9 9.5 -21.5t21.5 -27t21.5 -32t9.5 -37.5q0 -17 -6.5 -35t-26.5 -34.5t-60 -32t-107 -29.5zM438 -21q-116 0 -194 18t-124.5 50
t-66.5 74t-20 90q0 36 6 70.5t15 66.5t16 57l135 -32q-4 -19 -9 -40t-8 -41t-3 -37q0 -36 26 -64t87 -43.5t166 -15.5l20 -121zM434 -390q-29 0 -48.5 19.5t-19.5 47.5t19.5 48.5t48.5 20.5q27 0 46.5 -20.5t19.5 -48.5t-19.5 -47.5t-46.5 -19.5zM350 -247q-28 0 -47.5 19.5
t-19.5 47.5t19.5 48.5t47.5 20.5t47.5 -20.5t19.5 -48.5t-19.5 -47.5t-47.5 -19.5zM521 -247q-28 0 -48 19.5t-20 47.5t20 48.5t48 20.5t47.5 -20.5t19.5 -48.5t-19.5 -47.5t-47.5 -19.5z" />
    <glyph glyph-name="uni06B0.init" unicode="&#x6b0;" horiz-adv-x="468" 
d="M362 404q-43 0 -73 30.5t-30 72.5q0 43 30 73.5t73 30.5t73 -30.5t30 -73.5q0 -42 -30 -72.5t-73 -30.5zM362 474q15 0 25 9.5t10 23.5q0 16 -10 25t-25 9t-25.5 -9.5t-10.5 -24.5q0 -14 10.5 -23.5t25.5 -9.5zM7 603l-54 97q43 26 96.5 55t122 64t157.5 79l48 -106
q-90 -43 -157 -76.5t-118.5 -60.5t-94.5 -52zM0 -5l10 153h148q18 0 31.5 2t22 8t12.5 14.5t4 19.5q0 19 -18 47t-55 62q-21 19 -44 39.5t-43.5 38.5t-33 32.5t-12.5 22.5q0 15 2 34.5t6.5 37t12.5 24.5q17 17 54.5 41t88.5 51.5t110 55.5t119 53l61 -134
q-57 -25 -107.5 -47.5t-93 -44t-76.5 -41.5t-58 -39l2 82q74 -54 122.5 -103t77.5 -91.5t41 -78.5t12 -66t-13.5 -60.5t-44.5 -55.5t-83 -41t-130 -16h-125z" />
    <glyph glyph-name="uni06B0.medi" unicode="&#x6b0;" horiz-adv-x="519" 
d="M363 404q-43 0 -73 30.5t-30 72.5q0 43 30 73.5t73 30.5q42 0 72.5 -30.5t30.5 -73.5q0 -42 -30.5 -72.5t-72.5 -30.5zM362 474q15 0 25.5 9.5t10.5 23.5q0 16 -10.5 25t-25.5 9q-14 0 -24.5 -9.5t-10.5 -24.5q0 -14 10.5 -23.5t24.5 -9.5zM11 603l-54 97q43 26 96.5 55
t122 64t157.5 79l48 -106q-90 -43 -157 -76.5t-118 -60.5t-95 -52zM0 -5l10 153h140q29 0 45.5 3.5t24 12t7.5 23.5q0 17 -14.5 40t-38 47.5t-49.5 49.5t-49.5 47.5t-38.5 39.5t-15 26q0 27 3 45t8 30t12 19q17 18 52 40.5t83 48t108 53.5t127 58l61 -134q-70 -31 -122 -55
t-91 -44t-69 -37.5t-54 -34.5l2 81q36 -31 70 -62t65 -65t58.5 -71.5t51.5 -80.5q20 -35 41 -52t46 -22.5t55 -5.5q42 0 60.5 -21.5t18.5 -53.5q0 -34 -22.5 -56t-66.5 -22q-48 0 -89.5 11.5t-72 38t-43.5 71.5l56 -2q-15 -31 -36 -53.5t-50 -37t-66 -21.5t-82 -7h-136z" />
    <glyph glyph-name="uni06B0.fina" unicode="&#x6b0;" horiz-adv-x="983" 
d="M835 405q-43 0 -73 30.5t-30 72.5q0 43 30 73.5t73 30.5t73 -30.5t30 -73.5q0 -42 -30 -72.5t-73 -30.5zM835 475q15 0 25 9.5t10 23.5q0 16 -10 25t-25 9t-25.5 -9.5t-10.5 -24.5q0 -14 10.5 -23.5t25.5 -9.5zM486 603l-54 97q43 26 96.5 55t122 64t157.5 79l48 -106
q-90 -43 -157 -76.5t-118 -60.5t-95 -52zM438 -21l26 153q63 0 106 1.5t69.5 7t39.5 16t13 28.5t-15 40.5t-38.5 47.5t-49.5 50t-49.5 47t-38.5 39t-15 26q0 27 3 45.5t8 30.5t12 19q23 24 74.5 54.5t126.5 66.5t169 78l61 -134q-70 -31 -133 -60t-114.5 -56t-88.5 -55l3 81
q36 -32 69 -62t63 -63t58 -70.5t54 -83.5q15 -26 31 -42t33 -23.5t36.5 -10t42.5 -2.5q42 0 60.5 -22.5t18.5 -53.5q0 -34 -23 -55.5t-66 -21.5t-85 10t-74.5 36t-46.5 73l56 -2q-22 -45 -55.5 -71.5t-81.5 -39.5t-112 -17.5t-147 -4.5zM438 -21q-116 0 -194 18t-124.5 50
t-66.5 74t-20 90q0 36 6 70.5t15 66.5t16 57l135 -32q-4 -19 -9 -40t-8 -41t-3 -37q0 -36 26 -64t87 -43.5t166 -15.5l20 -121z" />
    <glyph glyph-name="uni06B2.init" unicode="&#x6b2;" horiz-adv-x="468" 
d="M7 603l-54 97q43 26 96.5 55t122 64t157.5 79l48 -106q-90 -43 -157 -76.5t-118.5 -60.5t-94.5 -52zM0 -5l10 153h148q18 0 31.5 2t22 8t12.5 14.5t4 19.5q0 19 -18 47t-55 62q-21 19 -44 39.5t-43.5 38.5t-33 32.5t-12.5 22.5q0 15 2 34.5t6.5 37t12.5 24.5
q17 17 54.5 41t88.5 51.5t110 55.5t119 53l61 -134q-57 -25 -107.5 -47.5t-93 -44t-76.5 -41.5t-58 -39l2 82q74 -54 122.5 -103t77.5 -91.5t41 -78.5t12 -66t-13.5 -60.5t-44.5 -55.5t-83 -41t-130 -16h-125zM277 -232q-30 0 -50.5 20.5t-20.5 50.5t20.5 51t50.5 21
q29 0 50 -21t21 -51t-21 -50.5t-50 -20.5zM102 -232q-30 0 -51 20.5t-21 50.5t21 51t51 21q29 0 50 -21t21 -51t-21 -50.5t-50 -20.5z" />
    <glyph glyph-name="uni06B2.medi" unicode="&#x6b2;" horiz-adv-x="519" 
d="M11 603l-54 97q43 26 96.5 55t122 64t157.5 79l48 -106q-90 -43 -157 -76.5t-118 -60.5t-95 -52zM0 -5l10 153h140q29 0 45.5 3.5t24 12t7.5 23.5q0 17 -14.5 40t-38 47.5t-49.5 49.5t-49.5 47.5t-38.5 39.5t-15 26q0 27 3 45t8 30t12 19q17 18 52 40.5t83 48t108 53.5
t127 58l61 -134q-70 -31 -122 -55t-91 -44t-69 -37.5t-54 -34.5l2 81q36 -31 70 -62t65 -65t58.5 -71.5t51.5 -80.5q20 -35 41 -52t46 -22.5t55 -5.5q42 0 60.5 -21.5t18.5 -53.5q0 -34 -22.5 -56t-66.5 -22q-48 0 -89.5 11.5t-72 38t-43.5 71.5l56 -2q-15 -31 -36 -53.5
t-50 -37t-66 -21.5t-82 -7h-136zM307 -232q-30 0 -50.5 20.5t-20.5 50.5t20.5 51t50.5 21q29 0 50 -21t21 -51t-21 -50.5t-50 -20.5zM132 -232q-30 0 -51 20.5t-21 50.5t21 51t51 21q29 0 50 -21t21 -51t-21 -50.5t-50 -20.5z" />
    <glyph glyph-name="uni06B2.fina" unicode="&#x6b2;" horiz-adv-x="983" 
d="M486 603l-54 97q43 26 96.5 55t122 64t157.5 79l48 -106q-90 -43 -157 -76.5t-118 -60.5t-95 -52zM438 -21l26 153q63 0 106 1.5t69.5 7t39.5 16t13 28.5t-15 40.5t-38.5 47.5t-49.5 50t-49.5 47t-38.5 39t-15 26q0 27 3 45.5t8 30.5t12 19q23 24 74.5 54.5t126.5 66.5
t169 78l61 -134q-70 -31 -133 -60t-114.5 -56t-88.5 -55l3 81q36 -32 69 -62t63 -63t58 -70.5t54 -83.5q15 -26 31 -42t33 -23.5t36.5 -10t42.5 -2.5q42 0 60.5 -22.5t18.5 -53.5q0 -34 -23 -55.5t-66 -21.5t-85 10t-74.5 36t-46.5 73l56 -2q-22 -45 -55.5 -71.5
t-81.5 -39.5t-112 -17.5t-147 -4.5zM438 -21q-116 0 -194 18t-124.5 50t-66.5 74t-20 90q0 36 6 70.5t15 66.5t16 57l135 -32q-4 -19 -9 -40t-8 -41t-3 -37q0 -36 26 -64t87 -43.5t166 -15.5l20 -121zM498 -253q-30 0 -50.5 20.5t-20.5 50.5t20.5 51t50.5 21q29 0 50 -21
t21 -51t-21 -50.5t-50 -20.5zM323 -253q-30 0 -51 20.5t-21 50.5t21 51t51 21q29 0 50 -21t21 -51t-21 -50.5t-50 -20.5z" />
    <glyph glyph-name="uni06B4.init" unicode="&#x6b4;" horiz-adv-x="468" 
d="M52 960q-22 0 -38 15.5t-16 36.5q0 23 16 39t38 16t37.5 -16t15.5 -39q0 -21 -15.5 -36.5t-37.5 -15.5zM47 831q-22 0 -37.5 15t-15.5 38q0 22 15.5 38t37.5 16t37.5 -16t15.5 -38q0 -23 -15.5 -38t-37.5 -15zM162 892q-22 0 -37.5 15.5t-15.5 37.5q0 23 15.5 39t37.5 16
t37.5 -16t15.5 -39q0 -22 -15.5 -37.5t-37.5 -15.5zM7 603l-54 97q43 26 96.5 55t122 64t157.5 79l48 -106q-90 -43 -157 -76.5t-118.5 -60.5t-94.5 -52zM0 -5l10 153h148q18 0 31.5 2t22 8t12.5 14.5t4 19.5q0 19 -18 47t-55 62q-21 19 -44 39.5t-43.5 38.5t-33 32.5
t-12.5 22.5q0 15 2 34.5t6.5 37t12.5 24.5q17 17 54.5 41t88.5 51.5t110 55.5t119 53l61 -134q-57 -25 -107.5 -47.5t-93 -44t-76.5 -41.5t-58 -39l2 82q74 -54 122.5 -103t77.5 -91.5t41 -78.5t12 -66t-13.5 -60.5t-44.5 -55.5t-83 -41t-130 -16h-125z" />
    <glyph glyph-name="uni06B4.medi" unicode="&#x6b4;" horiz-adv-x="519" 
d="M53 960q-23 0 -38.5 15.5t-15.5 36.5q0 23 15.5 39t38.5 16q21 0 36.5 -16t15.5 -39q0 -21 -15.5 -36.5t-36.5 -15.5zM48 831q-23 0 -38.5 15t-15.5 38q0 22 15.5 38t38.5 16q22 0 37 -16t15 -38q0 -23 -15 -38t-37 -15zM163 892q-23 0 -38.5 15.5t-15.5 37.5
q0 23 15.5 39t38.5 16q21 0 36.5 -16t15.5 -39q0 -22 -15.5 -37.5t-36.5 -15.5zM11 603l-54 97q43 26 96.5 55t122 64t157.5 79l48 -106q-90 -43 -157 -76.5t-118 -60.5t-95 -52zM0 -5l10 153h140q29 0 45.5 3.5t24 12t7.5 23.5q0 17 -14.5 40t-38 47.5t-49.5 49.5
t-49.5 47.5t-38.5 39.5t-15 26q0 27 3 45t8 30t12 19q17 18 52 40.5t83 48t108 53.5t127 58l61 -134q-70 -31 -122 -55t-91 -44t-69 -37.5t-54 -34.5l2 81q36 -31 70 -62t65 -65t58.5 -71.5t51.5 -80.5q20 -35 41 -52t46 -22.5t55 -5.5q42 0 60.5 -21.5t18.5 -53.5
q0 -34 -22.5 -56t-66.5 -22q-48 0 -89.5 11.5t-72 38t-43.5 71.5l56 -2q-15 -31 -36 -53.5t-50 -37t-66 -21.5t-82 -7h-136z" />
    <glyph glyph-name="uni06B4.fina" unicode="&#x6b4;" horiz-adv-x="983" 
d="M528 961q-22 0 -38 15.5t-16 37.5q0 23 16 39t38 16t37.5 -16t15.5 -39q0 -22 -15.5 -37.5t-37.5 -15.5zM523 833q-22 0 -37.5 15t-15.5 37t15.5 38.5t37.5 16.5t37.5 -16.5t15.5 -38.5t-15.5 -37t-37.5 -15zM638 894q-22 0 -37.5 15.5t-15.5 36.5q0 23 15.5 39t37.5 16
t37.5 -16t15.5 -39q0 -21 -15.5 -36.5t-37.5 -15.5zM486 603l-54 97q43 26 96.5 55t122 64t157.5 79l48 -106q-90 -43 -157 -76.5t-118 -60.5t-95 -52zM438 -21l26 153q63 0 106 1.5t69.5 7t39.5 16t13 28.5t-15 40.5t-38.5 47.5t-49.5 50t-49.5 47t-38.5 39t-15 26
q0 27 3 45.5t8 30.5t12 19q23 24 74.5 54.5t126.5 66.5t169 78l61 -134q-70 -31 -133 -60t-114.5 -56t-88.5 -55l3 81q36 -32 69 -62t63 -63t58 -70.5t54 -83.5q15 -26 31 -42t33 -23.5t36.5 -10t42.5 -2.5q42 0 60.5 -22.5t18.5 -53.5q0 -34 -23 -55.5t-66 -21.5t-85 10
t-74.5 36t-46.5 73l56 -2q-22 -45 -55.5 -71.5t-81.5 -39.5t-112 -17.5t-147 -4.5zM438 -21q-116 0 -194 18t-124.5 50t-66.5 74t-20 90q0 36 6 70.5t15 66.5t16 57l135 -32q-4 -19 -9 -40t-8 -41t-3 -37q0 -36 26 -64t87 -43.5t166 -15.5l20 -121z" />
    <glyph glyph-name="uni06B5.init" unicode="&#x6b5;" horiz-adv-x="310" 
d="M0 -5l10 153q43 0 62.5 9t23.5 36t2 81l-19 471h156l21 -487q2 -59 -4.5 -107.5t-31.5 -83t-78 -53.5t-142 -19zM129 838q-7 15 -19 38t-25.5 48.5t-26 49t-22.5 39.5l62 32q7 -11 18 -32t23.5 -45t24 -46t19.5 -36l22 -42zM205 844l-59 21q7 17 18 44.5t23.5 56.5
t22.5 51.5t14 30.5l62 -25q-4 -10 -15 -33t-24 -51t-24.5 -53.5t-17.5 -41.5z" />
    <glyph glyph-name="uni06B5.medi" unicode="&#x6b5;" horiz-adv-x="348" 
d="M0 -5l10 153q44 0 63 9t23 36t2 81l-16 471h157l17 -470q2 -53 11 -80.5t31 -37t60 -9.5q42 0 60.5 -21.5t18.5 -53.5q0 -34 -23 -56t-66 -22t-81.5 10.5t-65.5 40t-35 84.5l50 -1q-18 -52 -47 -81.5t-70 -41t-99 -11.5zM134 839q-7 15 -19 38t-25.5 48.5t-26 49
t-22.5 39.5l62 32q7 -11 18 -32t23.5 -45t24 -46t19.5 -36l22 -42zM210 845l-59 21q7 17 18 44.5t23.5 56.5t22.5 51.5t14 30.5l62 -25q-4 -10 -15 -33t-24 -51t-24.5 -53.5t-17.5 -41.5z" />
    <glyph glyph-name="uni06B5.fina" unicode="&#x6b5;" horiz-adv-x="801" 
d="M25 31q0 25 4 56t15.5 71t33.5 94l139 -48q-13 -35 -20.5 -60t-11 -45t-3.5 -41q0 -41 21 -72.5t60 -49t91 -17.5q81 0 124 26.5t58 83.5t11 148l-20 568h157l14 -470q2 -53 13.5 -80.5t36 -37t63.5 -9.5q43 0 61 -21.5t18 -53.5q0 -34 -22.5 -56t-66.5 -22q-17 0 -41 5
t-48.5 18t-43.5 36t-26 59l58 -5q-4 -84 -27 -147.5t-66.5 -106t-107 -64t-149.5 -21.5q-67 0 -126 15.5t-103.5 47.5t-70 81.5t-25.5 117.5zM259 565q-7 15 -19 38t-25.5 48.5t-26 49t-22.5 39.5l62 32q7 -11 18 -32t23.5 -45t24 -46t19.5 -36l22 -42zM335 571l-59 21
q7 17 18 44.5t23.5 56.5t22.5 51.5t14 30.5l62 -25q-4 -10 -15 -33t-24 -51t-24.5 -53.5t-17.5 -41.5z" />
    <glyph glyph-name="uni06B6.init" unicode="&#x6b6;" horiz-adv-x="310" 
d="M0 -5l10 153q43 0 62.5 9t23.5 36t2 81l-19 471h156l21 -487q2 -59 -4.5 -107.5t-31.5 -83t-78 -53.5t-142 -19zM166 821q-33 0 -55.5 22.5t-22.5 54.5q0 33 22.5 56.5t55.5 23.5q32 0 54 -23.5t22 -56.5q0 -32 -22.5 -54.5t-53.5 -22.5z" />
    </font>
</defs>
</svg>
