<?xml version="1.0" standalone="no"?>
<!DOCTYPE svg PUBLIC "-//W3C//DTD SVG 1.1//EN" "http://www.w3.org/Graphics/SVG/1.1/DTD/svg11.dtd" >
<svg xmlns="http://www.w3.org/2000/svg" xmlns:xlink="http://www.w3.org/1999/xlink" version="1.1">
<metadata>
Created by FontForge 20170731 at Thu Nov 12 05:28:44 2020
 By Aleksey,,,
Copyright 2015-2020 Google LLC. All Rights Reserved.
</metadata>
<defs>
<font id="NotoSansArabic-ExtraLight" horiz-adv-x="0" >
  <font-face 
    font-family="Noto Sans Arabic ExtraLight"
    font-weight="250"
    font-stretch="normal"
    units-per-em="1000"
    panose-1="0 0 0 0 0 0 0 0 0 0"
    ascent="800"
    descent="-200"
    bbox="-215 -573 2335 1084"
    underline-thickness="50"
    underline-position="-175"
    unicode-range="U+000D-FEFC"
  />
<missing-glyph horiz-adv-x="600" 
d="M104 0v714h391v-714h-391zM134 29h331v656h-331v-656z" />
    <glyph glyph-name="uniFC43" unicode="&#xfedf;&#xfef0;" horiz-adv-x="971" arabic-form="isolated" 
d="M752 -5l5 36q59 0 85 14t32 47t4 89l-19 533h35l20 -529q2 -51 -3.5 -87t-22.5 -58.5t-49.5 -33.5t-86.5 -11zM46 -18q0 25 4 52.5t15 61t31 76.5l33 -14q-15 -31 -25 -61t-15.5 -58t-5.5 -53q0 -42 16.5 -75.5t50 -57t84 -36t117.5 -12.5q71 0 125.5 15.5t92.5 40.5
t57.5 54.5t19.5 56.5q0 19 -14.5 35t-38 29t-51 24l-52.5 21l11 35q55 -24 92.5 -40.5t64.5 -26.5t50 -14t48 -4q11 0 14 -5t3 -12q0 -6 -5.5 -12.5t-21.5 -6.5q-8 0 -23 1.5t-31 5t-26 7.5q10 -12 12.5 -24t2.5 -20q0 -30 -20.5 -64t-62 -63.5t-103.5 -48.5t-147 -19
t-153.5 22t-108.5 69t-40 121z" />
    <glyph glyph-name="uniFC86" unicode="&#xfee0;&#xfef0;" horiz-adv-x="1031" arabic-form="final" 
d="M752 -5l5 36q62 0 88 19.5t31 59t3 95.5l-17 509h37l16 -507q3 -68 14.5 -106.5t37 -54t69.5 -15.5q9 0 13 -5t4 -12q0 -6 -6 -12.5t-16 -6.5q-43 0 -70.5 15t-42.5 40t-21 53h13q-7 -33 -24 -57t-49 -37.5t-85 -13.5zM46 -18q0 25 4 52.5t15 61t31 76.5l33 -14
q-15 -31 -25 -61t-15.5 -58t-5.5 -53q0 -42 16.5 -75.5t50 -57t84 -36t117.5 -12.5q71 0 125.5 15.5t92.5 40.5t57.5 54.5t19.5 56.5q0 19 -14.5 35t-38 29t-51 24l-52.5 21l11 35q55 -24 92.5 -40.5t64.5 -26.5t50 -14t48 -4q11 0 14 -5t3 -12q0 -6 -5.5 -12.5t-21.5 -6.5
q-8 0 -23 1.5t-31 5t-26 7.5q10 -12 12.5 -24t2.5 -20q0 -30 -20.5 -64t-62 -63.5t-103.5 -48.5t-147 -19t-153.5 22t-108.5 69t-40 121z" />
    <glyph glyph-name="uniFD82" unicode="&#xfee0;&#xfea4;&#xfef0;" horiz-adv-x="1644" arabic-form="final" 
d="M1365 -5l5 36q62 0 88 19.5t31 59t3 95.5l-17 509h37l16 -507q3 -68 14.5 -106.5t37 -54t69.5 -15.5q9 0 13 -5t4 -12q0 -6 -6 -12.5t-16 -6.5q-43 0 -70.5 15t-42.5 40t-21 53h13q-7 -33 -24 -57t-49 -37.5t-85 -13.5zM1365 -5q-42 0 -77 3t-62.5 16t-46.5 42t-29 80
l28 14q12 -57 36 -82t62.5 -31t93.5 -6q9 0 12.5 -5t3.5 -12q0 -6 -6 -12.5t-15 -6.5zM752 -5l5 36q58 0 108 8t98 24.5t98 41.5t106 60q-44 34 -86 59.5t-85 39.5t-91 14q-16 0 -31 -1t-30.5 -4t-34.5 -8l-7 34q26 8 52 11.5t51 3.5q53 0 94.5 -13.5t74.5 -32.5t60.5 -38.5
t52 -33t49.5 -13.5h25l3 -33q-33 0 -63 -11.5t-61.5 -29t-68 -37t-81.5 -37.5t-103.5 -29t-134.5 -11zM46 -18q0 25 4 52.5t15 61t31 76.5l33 -14q-15 -31 -25 -61t-15.5 -58t-5.5 -53q0 -42 16.5 -75.5t50 -57t84 -36t117.5 -12.5q71 0 125.5 15.5t92.5 40.5t57.5 54.5
t19.5 56.5q0 19 -14.5 35t-38 29t-51 24l-52.5 21l11 35q55 -24 92.5 -40.5t64.5 -26.5t50 -14t48 -4q11 0 14 -5t3 -12q0 -6 -5.5 -12.5t-21.5 -6.5q-8 0 -23 1.5t-31 5t-26 7.5q10 -12 12.5 -24t2.5 -20q0 -30 -20.5 -64t-62 -63.5t-103.5 -48.5t-147 -19t-153.5 22
t-108.5 69t-40 121z" />
    <glyph glyph-name="uniFDF2" unicode="&#x627;&#xfedf;&#xfee0;&#xfeea;" horiz-adv-x="1202" arabic-form="isolated" 
d="M470 -5q-39 0 -69.5 7.5t-51.5 29.5t-29 65q-51 -12 -100 -10.5t-88.5 16.5t-62.5 42t-23 67q0 52 34 99.5t91.5 82t129.5 46.5l-4 76h36l17 -359q3 -51 14 -78.5t38 -37.5t78 -10q62 0 88 19.5t31 59t3 95.5l-12 363h37l11 -361q2 -68 13.5 -106.5t38.5 -54t74 -15.5
q59 0 85 14t32 47t4 89l-19 533h34l20 -529q2 -51 -3 -87t-22 -58.5t-51 -33.5t-90 -11q-37 0 -62.5 12t-41.5 31.5t-24 42.5q-13 -40 -47 -63t-109 -23zM315 131l-13 272q-59 -8 -109 -37t-80.5 -68t-30.5 -80q0 -34 22 -55t57.5 -30.5t76.5 -9.5t77 8zM1085 0l-20 714h36
l20 -714h-36zM539 602q-33 0 -48 23t-15 57q0 11 1.5 25t4.5 30l27 8q-3 -18 -4.5 -33t-1.5 -26q0 -22 8.5 -38.5t30.5 -16.5q18 0 31.5 17t13.5 61v56l28 11v-77q0 -14 9.5 -24.5t29.5 -10.5q22 0 31 15t9 40q0 21 -4 40t-11 36l25 9q8 -14 13.5 -38.5t5.5 -47.5
q0 -34 -16.5 -58.5t-51.5 -24.5q-27 0 -43 15t-16 38l14 -2q0 -34 -18.5 -59t-52.5 -25zM582 817l-6 173h29l6 -173h-29z" />
    <glyph glyph-name="uniFEF5" unicode="&#xfedf;&#xfe82;" horiz-adv-x="656" arabic-form="isolated" 
d="M383 529q0 31 -3 65.5t-7.5 66t-8.5 51.5l36 6q3 -19 7.5 -52t7.5 -69.5t3 -67.5q0 -39 -5 -77.5t-16 -75.5t-27 -73l-5 -11q-34 -73 -89 -137.5t-128 -118.5h200q44 0 68 13t32.5 32.5t8.5 39.5q0 40 -28 82t-81 90.5t-129.5 108t-174.5 133.5l21 30q94 -71 164 -126.5
t120 -100t81 -82t45.5 -70t14.5 -65.5q0 -19 -6 -40t-21.5 -39.5t-44 -30t-73.5 -11.5h-240v46q100 71 161 150.5t89 164t28 168.5zM171 639q-27 0 -51 10.5t-44 20.5t-39 10q-16 0 -30.5 -9t-30.5 -25l-20 18q18 20 38 33.5t45 13.5q24 0 45 -10t43 -20.5t47 -10.5
q19 0 37.5 8t39.5 26l16 -22q-27 -24 -50.5 -33.5t-45.5 -9.5z" />
    <glyph glyph-name="uniFEF6" unicode="&#xfee0;&#xfe82;" horiz-adv-x="553" arabic-form="final" 
d="M553 -5q-39 0 -65.5 9.5t-42.5 31.5t-23.5 58.5t-9.5 90.5l-18 529h35l18 -502q3 -62 9 -102.5t28.5 -59.5t72.5 -19q9 0 13 -5t4 -12q0 -6 -6 -12.5t-15 -6.5zM155 -10q-27 0 -54.5 4.5t-38.5 6.5l5 36q71 -16 132.5 -7.5t108 44.5t73 100.5t26.5 161.5l25 -44
q-3 -76 -22.5 -128.5t-50 -86.5t-67 -53t-72 -26.5t-65.5 -7.5zM389 149q-36 56 -69.5 105t-68.5 94.5t-76 90.5t-92 92l24 25q54 -51 97 -98.5t78.5 -94.5t66.5 -93t61 -94zM187 639q-27 0 -51 10.5t-44 20.5t-39 10q-16 0 -30.5 -9t-30.5 -25l-20 18q18 20 38 33.5
t45 13.5q24 0 45 -10t43 -20.5t47 -10.5q19 0 37.5 8t39.5 26l16 -22q-27 -24 -50.5 -33.5t-45.5 -9.5z" />
    <glyph glyph-name="uniFEF7" unicode="&#xfedf;&#xfe84;" horiz-adv-x="571" arabic-form="isolated" 
d="M383 529q0 31 -3 65.5t-7.5 66t-8.5 51.5l36 6q3 -19 7.5 -52t7.5 -69.5t3 -67.5q0 -39 -5 -77.5t-16 -75.5t-27 -73l-5 -11q-34 -73 -89 -137.5t-128 -118.5h200q44 0 68 13t32.5 32.5t8.5 39.5q0 40 -28 82t-81 90.5t-129.5 108t-174.5 133.5l21 30q94 -71 164 -126.5
t120 -100t81 -82t45.5 -70t14.5 -65.5q0 -19 -6 -40t-21.5 -39.5t-44 -30t-73.5 -11.5h-240v46q100 71 161 150.5t89 164t28 168.5zM16 648l-6 28q26 6 44 11t38 10l24 -10q-45 6 -73.5 33.5t-28.5 61.5q0 27 13.5 45.5t35 27.5t45.5 9q13 0 25.5 -2t22.5 -6l-6 -26
q-10 3 -20.5 4.5t-21.5 1.5q-33 0 -49.5 -16t-16.5 -38q0 -21 14 -37.5t35.5 -26.5t45.5 -14l-40 -5q27 7 50.5 14.5t42.5 14.5l9 -26q-24 -9 -56.5 -19t-65.5 -19t-61 -16z" />
    <glyph glyph-name="uniFEF8" unicode="&#xfee0;&#xfe84;" horiz-adv-x="537" arabic-form="final" 
d="M537 -5q-39 0 -65.5 9.5t-42.5 31.5t-23.5 58.5t-9.5 90.5l-18 529h35l18 -502q3 -62 9 -102.5t28.5 -59.5t72.5 -19q9 0 13 -5t4 -12q0 -6 -6 -12.5t-15 -6.5zM139 -10q-27 0 -54.5 4.5t-38.5 6.5l5 36q71 -16 132.5 -7.5t108 44.5t73 100.5t26.5 161.5l25 -44
q-3 -76 -22.5 -128.5t-50 -86.5t-67 -53t-72 -26.5t-65.5 -7.5zM373 149q-36 56 -69.5 105t-68.5 94.5t-76 90.5t-92 92l24 25q54 -51 97 -98.5t78.5 -94.5t66.5 -93t61 -94zM62 648l-6 28q26 6 44 11t38 10l24 -10q-45 6 -73.5 33.5t-28.5 61.5q0 27 13.5 45.5t35 27.5
t45.5 9q13 0 25.5 -2t22.5 -6l-6 -26q-10 3 -20.5 4.5t-21.5 1.5q-33 0 -49.5 -16t-16.5 -38q0 -21 14 -37.5t35.5 -26.5t45.5 -14l-40 -5q27 7 50.5 14.5t42.5 14.5l9 -26q-24 -9 -56.5 -19t-65.5 -19t-61 -16z" />
    <glyph glyph-name="uniFEF9" unicode="&#xfedf;&#xfe88;" horiz-adv-x="571" arabic-form="isolated" 
d="M383 529q0 31 -3 65.5t-7.5 66t-8.5 51.5l36 6q3 -19 7.5 -52t7.5 -69.5t3 -67.5q0 -39 -5 -77.5t-16 -75.5t-27 -73l-5 -11q-34 -73 -89 -137.5t-128 -118.5h200q44 0 68 13t32.5 32.5t8.5 39.5q0 40 -28 82t-81 90.5t-129.5 108t-174.5 133.5l21 30q94 -71 164 -126.5
t120 -100t81 -82t45.5 -70t14.5 -65.5q0 -19 -6 -40t-21.5 -39.5t-44 -30t-73.5 -11.5h-240v46q100 71 161 150.5t89 164t28 168.5zM91 -291l-6 28q26 6 44 11t38 10l24 -10q-45 6 -73.5 33.5t-28.5 61.5q0 27 13.5 45.5t35 27.5t45.5 9q13 0 25.5 -2t22.5 -6l-6 -26
q-10 3 -20.5 4.5t-21.5 1.5q-33 0 -49.5 -16t-16.5 -38q0 -21 14 -37.5t35.5 -26.5t45.5 -14l-40 -5q27 7 50.5 14.5t42.5 14.5l9 -26q-24 -9 -56.5 -19t-65.5 -19t-61 -16z" />
    <glyph glyph-name="uniFEFA" unicode="&#xfee0;&#xfe88;" horiz-adv-x="537" arabic-form="final" 
d="M537 -5q-39 0 -65.5 9.5t-42.5 31.5t-23.5 58.5t-9.5 90.5l-18 529h35l18 -502q3 -62 9 -102.5t28.5 -59.5t72.5 -19q9 0 13 -5t4 -12q0 -6 -6 -12.5t-15 -6.5zM139 -10q-27 0 -54.5 4.5t-38.5 6.5l5 36q71 -16 132.5 -7.5t108 44.5t73 100.5t26.5 161.5l25 -44
q-3 -76 -22.5 -128.5t-50 -86.5t-67 -53t-72 -26.5t-65.5 -7.5zM373 149q-36 56 -69.5 105t-68.5 94.5t-76 90.5t-92 92l24 25q54 -51 97 -98.5t78.5 -94.5t66.5 -93t61 -94zM91 -291l-6 28q26 6 44 11t38 10l24 -10q-45 6 -73.5 33.5t-28.5 61.5q0 27 13.5 45.5t35 27.5
t45.5 9q13 0 25.5 -2t22.5 -6l-6 -26q-10 3 -20.5 4.5t-21.5 1.5q-33 0 -49.5 -16t-16.5 -38q0 -21 14 -37.5t35.5 -26.5t45.5 -14l-40 -5q27 7 50.5 14.5t42.5 14.5l9 -26q-24 -9 -56.5 -19t-65.5 -19t-61 -16z" />
    <glyph glyph-name="uniFEFB" unicode="&#xfedf;&#xfe8e;" horiz-adv-x="571" arabic-form="isolated" 
d="M383 529q0 31 -3 65.5t-7.5 66t-8.5 51.5l36 6q3 -19 7.5 -52t7.5 -69.5t3 -67.5q0 -39 -5 -77.5t-16 -75.5t-27 -73l-5 -11q-34 -73 -89 -137.5t-128 -118.5h200q44 0 68 13t32.5 32.5t8.5 39.5q0 40 -28 82t-81 90.5t-129.5 108t-174.5 133.5l21 30q94 -71 164 -126.5
t120 -100t81 -82t45.5 -70t14.5 -65.5q0 -19 -6 -40t-21.5 -39.5t-44 -30t-73.5 -11.5h-240v46q100 71 161 150.5t89 164t28 168.5z" />
    <glyph glyph-name="uniFEFC" unicode="&#xfee0;&#xfe8e;" horiz-adv-x="537" arabic-form="final" 
d="M537 -5q-39 0 -65.5 9.5t-42.5 31.5t-23.5 58.5t-9.5 90.5l-18 529h35l18 -502q3 -62 9 -102.5t28.5 -59.5t72.5 -19q9 0 13 -5t4 -12q0 -6 -6 -12.5t-15 -6.5zM139 -10q-27 0 -54.5 4.5t-38.5 6.5l5 36q71 -16 132.5 -7.5t108 44.5t73 100.5t26.5 161.5l25 -44
q-3 -76 -22.5 -128.5t-50 -86.5t-67 -53t-72 -26.5t-65.5 -7.5zM373 149q-36 56 -69.5 105t-68.5 94.5t-76 90.5t-92 92l24 25q54 -51 97 -98.5t78.5 -94.5t66.5 -93t61 -94z" />
    <glyph glyph-name="lam_alefMaksura_meemar" unicode="&#xfedf;&#xfbe9;&#xfee2;" horiz-adv-x="1041" 
d="M822 -5l5 36q59 0 85 14t32 47t4 89l-19 533h35l20 -529q2 -51 -3.5 -87t-22.5 -58.5t-49.5 -33.5t-86.5 -11zM569 -5l5 36q54 0 82.5 11.5t40 35.5t11.5 63q0 28 -6 61t-17.5 72t-27.5 84l34 13q16 -41 27.5 -82t18 -77t6.5 -64q0 -31 -5.5 -55.5t-17.5 -43t-32.5 -30.5
t-49.5 -18t-69 -6zM93 -393q-21 79 -36 152t-23 132t-8 97q0 71 22.5 128t58 99.5t76 72t78 44t62.5 14.5q22 0 36 -14t30 -52t42 -113q19 -52 36 -81.5t42 -42t65 -12.5q9 0 12.5 -5t3.5 -12q0 -6 -6 -12.5t-15 -6.5q-52 0 -85.5 21.5t-46.5 54.5l12 15q0 -36 -14.5 -57
t-37 -30t-45.5 -9q-21 0 -49.5 8.5t-60 30t-62.5 61.5t-57 103l9 -4q-33 -43 -51.5 -94.5t-18.5 -113.5q0 -30 5.5 -72t14.5 -90.5t21 -100t24 -102.5zM353 25q27 0 43.5 12t21 32.5t-4.5 45.5q-21 60 -35 98t-23.5 58.5t-19 28t-21.5 7.5q-14 0 -34.5 -7t-43 -20t-45.5 -31
t-41 -40v10q25 -67 60 -110t73 -63.5t70 -20.5z" />
    <glyph glyph-name="lam_alefWaslaar" unicode="&#xfedf;&#xfb51;" horiz-adv-x="488" 
d="M148 661q-25 0 -54 2t-54.5 5.5t-39.5 5.5l4 27q15 -2 39 -5t51.5 -5t52.5 -2q61 0 82.5 20t21.5 44q0 23 -14 33t-35 10q-27 0 -51 -16.5t-43 -41.5t-31 -52l-28 3q15 33 37 64t52 51.5t67 20.5q34 0 54 -19.5t20 -50.5q0 -24 -13 -45.5t-41.5 -35t-76.5 -13.5zM383 529
q0 31 -3 65.5t-7.5 66t-8.5 51.5l36 6q3 -19 7.5 -52t7.5 -69.5t3 -67.5q0 -39 -5 -77.5t-16 -75.5t-27 -73l-5 -11q-34 -73 -89 -137.5t-128 -118.5h200q44 0 68 13t32.5 32.5t8.5 39.5q0 40 -28 82t-81 90.5t-129.5 108t-174.5 133.5l21 30q94 -71 164 -126.5t120 -100
t81 -82t45.5 -70t14.5 -65.5q0 -19 -6 -40t-21.5 -39.5t-44 -30t-73.5 -11.5h-240v46q100 71 161 150.5t89 164t28 168.5z" />
    <glyph glyph-name="lam_alefWaslaar.fina" unicode="&#xfee0;&#xfb51;" horiz-adv-x="556" 
d="M148 661q-25 0 -54 2t-54.5 5.5t-39.5 5.5l4 27q15 -2 39 -5t51.5 -5t52.5 -2q61 0 82.5 20t21.5 44q0 23 -14 33t-35 10q-27 0 -51 -16.5t-43 -41.5t-31 -52l-28 3q15 33 37 64t52 51.5t67 20.5q34 0 54 -19.5t20 -50.5q0 -24 -13 -45.5t-41.5 -35t-76.5 -13.5zM537 -5
q-39 0 -65.5 9.5t-42.5 31.5t-23.5 58.5t-9.5 90.5l-18 529h35l18 -502q3 -62 9 -102.5t28.5 -59.5t72.5 -19q9 0 13 -5t4 -12q0 -6 -6 -12.5t-15 -6.5zM139 -10q-27 0 -54.5 4.5t-38.5 6.5l5 36q71 -16 132.5 -7.5t108 44.5t73 100.5t26.5 161.5l25 -44
q-3 -76 -22.5 -128.5t-50 -86.5t-67 -53t-72 -26.5t-65.5 -7.5zM373 149q-36 56 -69.5 105t-68.5 94.5t-76 90.5t-92 92l24 25q54 -51 97 -98.5t78.5 -94.5t66.5 -93t61 -94z" />
    <glyph glyph-name="uni0620.init" unicode="&#x620;" horiz-adv-x="275" 
d="M0 -5l5 36q64 0 97 11t45 35t12 64q0 28 -6 61t-17.5 72t-27.5 84l34 13q16 -41 27.5 -82t18 -77t6.5 -64q0 -39 -9 -67.5t-31 -47.5t-59.5 -28.5t-94.5 -9.5zM132 -119q-33 0 -56.5 23.5t-23.5 56.5t23.5 56.5t56.5 23.5t56.5 -23.5t23.5 -56.5t-23.5 -56.5t-56.5 -23.5
zM132 -91q21 0 36.5 15.5t15.5 36.5q0 22 -15.5 37t-36.5 15t-36.5 -15t-15.5 -37q0 -21 15.5 -36.5t36.5 -15.5z" />
    <glyph glyph-name="uni0620.medi" unicode="&#x620;" horiz-adv-x="356" 
d="M0 -5l5 36q37 0 66.5 6.5t52 29.5t40 71t31.5 130l36 -7q-6 -33 -11.5 -56t-8.5 -42t-3 -40q0 -20 4.5 -37t19.5 -29t45.5 -19t83.5 -7q9 0 13 -5t4 -12q0 -6 -6 -12.5t-16 -6.5q-52 0 -87 7.5t-54.5 22.5t-26.5 37.5t-5 50.5h9q-15 -39 -33.5 -62.5t-41.5 -35.5t-52 -16
t-65 -4zM120 -120q-33 0 -56 23.5t-23 56.5t23 56t56 23t57 -23t24 -56t-24 -56.5t-57 -23.5zM120 -93q21 0 37 15.5t16 37.5t-15.5 37t-37.5 15q-21 0 -36 -15t-15 -37t15 -37.5t36 -15.5z" />
    <glyph glyph-name="uni0620.fina" unicode="&#x620;" horiz-adv-x="752" 
d="M332 -363q-33 0 -56 24t-23 57t23 56t56 23t57 -23t24 -56t-24 -57t-57 -24zM332 -335q21 0 37 15.5t16 37.5q0 21 -15.5 36.5t-37.5 15.5q-21 0 -36 -15.5t-15 -36.5q0 -22 15 -37.5t36 -15.5zM46 -18q0 25 4 52.5t15 61t31 76.5l33 -14q-15 -31 -25 -61t-15.5 -58
t-5.5 -53q0 -42 16.5 -75.5t50 -57t84 -36t117.5 -12.5q71 0 125.5 15.5t92.5 40.5t57.5 54.5t19.5 56.5q0 19 -14.5 35t-38 29t-51 24l-52.5 21l11 35q55 -24 92.5 -40.5t64.5 -26.5t50 -14t48 -4q11 0 14 -5t3 -12q0 -6 -5.5 -12.5t-21.5 -6.5q-8 0 -23 1.5t-31 5t-26 7.5
q10 -12 12.5 -24t2.5 -20q0 -30 -20.5 -64t-62 -63.5t-103.5 -48.5t-147 -19t-153.5 22t-108.5 69t-40 121z" />
    <glyph glyph-name="uni063B.init" unicode="&#x63b;" horiz-adv-x="383" 
d="M225 740q-13 0 -21 8.5t-8 19.5t8 19.5t21 8.5q11 0 19 -8.5t8 -19.5t-8 -19.5t-19 -8.5zM114 688q-12 0 -20 8.5t-8 19.5t8 19.5t20 8.5t20 -8.5t8 -19.5t-8 -19.5t-20 -8.5zM0 -5l5 36h75q53 0 90 7t60 21t34 36t11 52q0 41 -29 90.5t-80 101.5q-37 40 -64.5 64.5
t-45 39.5t-26 22.5t-8.5 12.5q0 10 2 18t5.5 14t9.5 9q24 21 57.5 42.5t76 45.5t92 49t105.5 52l15 -33q-61 -27 -113 -53.5t-94.5 -51t-76 -47t-56.5 -43.5l3 15q46 -42 92 -85t84.5 -87t61.5 -88.5t23 -88.5q0 -38 -14.5 -66.5t-43.5 -47t-72.5 -28t-101.5 -9.5h-77z" />
    <glyph glyph-name="uni063B.medi" unicode="&#x63b;" horiz-adv-x="463" 
d="M202 740q-12 0 -20 8.5t-8 19.5t8 19.5t20 8.5q11 0 19.5 -8.5t8.5 -19.5t-8.5 -19.5t-19.5 -8.5zM92 688q-12 0 -20.5 8.5t-8.5 19.5t8.5 19.5t20.5 8.5q11 0 19 -8.5t8 -19.5t-8 -19.5t-19 -8.5zM0 -5l5 36h77q71 0 113 13t61 38t19 63q0 27 -18.5 61t-47 69.5
t-60.5 69.5t-61 62t-47.5 48t-18.5 25q0 9 2.5 16.5t6 13.5t8.5 10q25 20 58.5 41.5t74.5 45.5t91 49.5t107 51.5l15 -33q-56 -25 -106 -50.5t-94 -50.5t-79 -48.5t-61 -44.5l3 15q38 -37 79 -79t79 -85.5t67.5 -86t42.5 -81.5q13 -38 33.5 -68t49.5 -47.5t69 -17.5
q9 0 13 -5t4 -12q0 -6 -6 -12.5t-16 -6.5q-36 0 -70 15.5t-61 49.5t-43 86l19 -12q-4 -42 -23.5 -69.5t-51.5 -42.5t-72.5 -21t-85.5 -6h-75z" />
    <glyph glyph-name="uni063B.fina" unicode="&#x63b;" horiz-adv-x="967" 
d="M727 741q-12 0 -20 8.5t-8 20.5q0 11 8 19t20 8t20 -8t8 -19q0 -12 -8 -20.5t-20 -8.5zM617 689q-12 0 -20 8.5t-8 19.5q0 12 8 20t20 8q11 0 19.5 -8t8.5 -20q0 -11 -8.5 -19.5t-19.5 -8.5zM406 -21l26 36q74 0 137 7.5t110 23.5t73.5 40.5t26.5 58.5t-18.5 70
t-47.5 71.5t-61 68t-60.5 58.5t-47 44t-18.5 23q0 9 2 16.5t6 13.5t8 10q29 24 79 55t115.5 65.5t136.5 67.5l15 -33q-65 -29 -132 -64t-121 -68.5t-86 -61.5l3 15q37 -36 76.5 -71.5t76 -75t66.5 -85t49 -100.5q10 -28 24 -52.5t32 -42.5t42 -28t53 -10q10 0 13.5 -5
t3.5 -12q0 -6 -6 -12.5t-15 -6.5q-37 0 -69.5 15.5t-59.5 49.5t-44 86l17 -12q-4 -41 -31.5 -70t-78.5 -48t-125 -28t-170 -9zM406 -21q-87 0 -154.5 11t-113 34.5t-69 60.5t-23.5 89q0 23 3.5 47.5t9.5 49t13 46.5l32 -9q-5 -18 -10 -38.5t-8.5 -42.5t-3.5 -44
q0 -62 38.5 -99t116.5 -53t195 -16l20 -22z" />
    <glyph glyph-name="uni063C.init" unicode="&#x63c;" horiz-adv-x="383" 
d="M0 -5l5 36h75q53 0 90 7t60 21t34 36t11 52q0 41 -29 90.5t-80 101.5q-37 40 -64.5 64.5t-45 39.5t-26 22.5t-8.5 12.5q0 10 2 18t5.5 14t9.5 9q24 21 57.5 42.5t76 45.5t92 49t105.5 52l15 -33q-61 -27 -113 -53.5t-94.5 -51t-76 -47t-56.5 -43.5l3 15q46 -42 92 -85
t84.5 -87t61.5 -88.5t23 -88.5q0 -38 -14.5 -66.5t-43.5 -47t-72.5 -28t-101.5 -9.5h-77zM158 -260q-13 0 -22.5 9t-9.5 22t9.5 22t22.5 9t22 -9t9 -22t-9 -22t-22 -9zM102 -171q-13 0 -22.5 9t-9.5 21q0 13 9.5 22.5t22.5 9.5t22 -9.5t9 -22.5q0 -12 -9 -21t-22 -9z
M213 -171q-13 0 -22 9t-9 21q0 13 9 22.5t22 9.5t22 -9.5t9 -22.5q0 -12 -9 -21t-22 -9z" />
    <glyph glyph-name="uni063C.medi" unicode="&#x63c;" horiz-adv-x="463" 
d="M0 -5l5 36h77q71 0 113 13t61 38t19 63q0 27 -18.5 61t-47 69.5t-60.5 69.5t-61 62t-47.5 48t-18.5 25q0 9 2.5 16.5t6 13.5t8.5 10q25 20 58.5 41.5t74.5 45.5t91 49.5t107 51.5l15 -33q-56 -25 -106 -50.5t-94 -50.5t-79 -48.5t-61 -44.5l3 15q38 -37 79 -79t79 -85.5
t67.5 -86t42.5 -81.5q13 -38 33.5 -68t49.5 -47.5t69 -17.5q9 0 13 -5t4 -12q0 -6 -6 -12.5t-16 -6.5q-36 0 -70 15.5t-61 49.5t-43 86l19 -12q-4 -42 -23.5 -69.5t-51.5 -42.5t-72.5 -21t-85.5 -6h-75zM158 -260q-13 0 -22.5 9t-9.5 22t9.5 22t22.5 9t22 -9t9 -22t-9 -22
t-22 -9zM102 -171q-13 0 -22.5 9t-9.5 21q0 13 9.5 22.5t22.5 9.5t22 -9.5t9 -22.5q0 -12 -9 -21t-22 -9zM213 -171q-13 0 -22 9t-9 21q0 13 9 22.5t22 9.5t22 -9.5t9 -22.5q0 -12 -9 -21t-22 -9z" />
    <glyph glyph-name="uni063C.fina" unicode="&#x63c;" horiz-adv-x="967" 
d="M406 -21l26 36q74 0 137 7.5t110 23.5t73.5 40.5t26.5 58.5t-18.5 70t-47.5 71.5t-61 68t-60.5 58.5t-47 44t-18.5 23q0 9 2 16.5t6 13.5t8 10q29 24 79 55t115.5 65.5t136.5 67.5l15 -33q-65 -29 -132 -64t-121 -68.5t-86 -61.5l3 15q37 -36 76.5 -71.5t76 -75t66.5 -85
t49 -100.5q10 -28 24 -52.5t32 -42.5t42 -28t53 -10q10 0 13.5 -5t3.5 -12q0 -6 -6 -12.5t-15 -6.5q-37 0 -69.5 15.5t-59.5 49.5t-44 86l17 -12q-4 -41 -31.5 -70t-78.5 -48t-125 -28t-170 -9zM406 -21q-87 0 -154.5 11t-113 34.5t-69 60.5t-23.5 89q0 23 3.5 47.5t9.5 49
t13 46.5l32 -9q-5 -18 -10 -38.5t-8.5 -42.5t-3.5 -44q0 -62 38.5 -99t116.5 -53t195 -16l20 -22zM410 -281q-13 0 -22.5 9t-9.5 22t9.5 22t22.5 9t22 -9t9 -22t-9 -22t-22 -9zM354 -192q-13 0 -22.5 9t-9.5 21q0 13 9.5 22.5t22.5 9.5t22 -9.5t9 -22.5q0 -12 -9 -21t-22 -9
zM465 -192q-13 0 -22 9t-9 21q0 13 9 22.5t22 9.5t22 -9.5t9 -22.5q0 -12 -9 -21t-22 -9z" />
    <glyph glyph-name="uni063D.init" unicode="&#x63d;" horiz-adv-x="253" 
d="M0 -5l5 36q54 0 82.5 11.5t40 35.5t11.5 63q0 28 -6 61t-17.5 72t-27.5 84l34 13q16 -41 27.5 -82t18 -77t6.5 -64q0 -31 -5.5 -55.5t-17.5 -43t-32.5 -30.5t-49.5 -18t-69 -6zM108 710q7 -16 18 -39.5t23.5 -49.5t25 -49.5t21.5 -39.5l-25 -13q-6 10 -18 32t-24.5 48
t-24.5 50.5t-18 39.5l-9 18zM77 707l24 -8q-6 -18 -17 -45.5t-23.5 -57t-22.5 -52t-15 -30.5l-25 11q5 10 15.5 33t23 51.5t23.5 55t17 42.5zM161 -175q-13 0 -22.5 9t-9.5 22t9.5 22t22.5 9t22 -9t9 -22t-9.5 -22t-21.5 -9zM49 -175q-13 0 -22 9t-9 22t9 22t22 9t22 -9
t9 -22t-9 -22t-22 -9z" />
    <glyph glyph-name="uni063D.medi" unicode="&#x63d;" horiz-adv-x="350" 
d="M0 -5l5 36q41 0 69 6t48 28t36 70.5t33 132.5l36 -7q-7 -33 -12 -56t-8 -42t-3 -40q0 -26 10 -47t42 -33t99 -12q9 0 12.5 -5t3.5 -12q0 -6 -6 -12.5t-15 -6.5q-64 0 -103 14t-55 40t-13 64h9q-15 -39 -32 -62.5t-38 -35.5t-50 -16t-68 -4zM178 599q7 -16 18 -39.5
t23.5 -49.5t25 -49.5t21.5 -39.5l-25 -13q-6 10 -18 32t-24.5 48t-24.5 50.5t-18 39.5l-9 18zM147 596l24 -8q-6 -18 -17 -45.5t-23.5 -57t-22.5 -52t-15 -30.5l-25 11q5 10 15.5 33t23 51.5t23.5 55t17 42.5zM234 -175q-13 0 -22.5 9t-9.5 22t9.5 22t22.5 9t22 -9t9 -22
t-9.5 -22t-21.5 -9zM122 -175q-13 0 -22 9t-9 22t9 22t22 9t22 -9t9 -22t-9 -22t-22 -9z" />
    <glyph glyph-name="uni063D.fina" unicode="&#x63d;" horiz-adv-x="752" 
d="M46 -18q0 25 4 52.5t15 61t31 76.5l33 -14q-15 -31 -25 -61t-15.5 -58t-5.5 -53q0 -42 16.5 -75.5t50 -57t84 -36t117.5 -12.5q71 0 125.5 15.5t92.5 40.5t57.5 54.5t19.5 56.5q0 19 -14.5 35t-38 29t-51 24l-52.5 21l11 35q55 -24 92.5 -40.5t64.5 -26.5t50 -14t48 -4
q11 0 14 -5t3 -12q0 -6 -5.5 -12.5t-21.5 -6.5q-8 0 -23 1.5t-31 5t-26 7.5q10 -12 12.5 -24t2.5 -20q0 -30 -20.5 -64t-62 -63.5t-103.5 -48.5t-147 -19t-153.5 22t-108.5 69t-40 121zM248 456q7 -16 18 -39.5t23.5 -49.5t25 -49.5t21.5 -39.5l-25 -13q-6 10 -18 32
t-24.5 48t-24.5 50.5t-18 39.5l-9 18zM217 453l24 -8q-6 -18 -17 -45.5t-23.5 -57t-22.5 -52t-15 -30.5l-25 11q5 10 15.5 33t23 51.5t23.5 55t17 42.5z" />
    <glyph glyph-name="uni063E.init" unicode="&#x63e;" horiz-adv-x="275" 
d="M0 -5l5 36q64 0 97 11t45 35t12 64q0 28 -6 61t-17.5 72t-27.5 84l34 13q16 -41 27.5 -82t18 -77.5t6.5 -63.5q0 -39 -9 -67.5t-31 -47.5t-59.5 -28.5t-94.5 -9.5zM186 517q-13 0 -22.5 9t-9.5 21q0 13 9.5 22.5t22.5 9.5t22 -9.5t9 -22.5q0 -12 -9 -21t-22 -9zM75 517
q-13 0 -22.5 9t-9.5 21q0 13 9 22.5t23 9.5q12 0 21 -9.5t9 -22.5q0 -12 -9 -21t-21 -9zM172 -175q-13 0 -22 9t-9 22t9 22t22 9t22 -9t9 -22t-9 -22t-22 -9zM61 -175q-13 0 -22.5 9t-9.5 22t9.5 22t22.5 9t21.5 -9t8.5 -22t-9 -22t-21 -9z" />
    <glyph glyph-name="uni063E.medi" unicode="&#x63e;" horiz-adv-x="356" 
d="M0 -5l5 36q37 0 66.5 6.5t52 29.5t40 71t31.5 130l36 -7q-6 -33 -11.5 -56t-8.5 -42t-3 -40q0 -20 4.5 -37t19.5 -29t45.5 -19t83.5 -7q9 0 13 -5t4 -12q0 -6 -6 -12.5t-16 -6.5q-52 0 -87 7.5t-54.5 22.5t-26.5 37.5t-5 50.5h9q-15 -39 -33.5 -62.5t-41.5 -35.5t-52 -16
t-65 -4zM262 406q-14 0 -23 9t-9 22q0 12 9 21.5t23 9.5q12 0 21 -9.5t9 -21.5q0 -13 -9 -22t-21 -9zM150 406q-13 0 -22.5 9t-9.5 22q0 12 9.5 21.5t22.5 9.5t22 -9.5t9 -21.5q0 -13 -9.5 -22t-21.5 -9zM245 -184q-13 0 -22.5 9t-9.5 21q0 13 9.5 22.5t22.5 9.5t22 -9.5
t9 -22.5q0 -12 -9.5 -21t-21.5 -9zM133 -184q-13 0 -22 9t-9 21q0 13 9 22.5t22 9.5t22 -9.5t9 -22.5q0 -12 -9 -21t-22 -9z" />
    <glyph glyph-name="uni063E.fina" unicode="&#x63e;" horiz-adv-x="752" 
d="M46 -18q0 25 4 52.5t15 61t31 76.5l33 -14q-15 -31 -25 -61t-15.5 -58t-5.5 -53q0 -42 16.5 -75.5t50 -57t84 -36t117.5 -12.5q71 0 125.5 15.5t92.5 40.5t57.5 54.5t19.5 56.5q0 19 -14.5 35t-38 29t-51 24l-52.5 21l11 35q55 -24 92.5 -40.5t64.5 -26.5t50 -14t48 -4
q11 0 14 -5t3 -12q0 -6 -5.5 -12.5t-21.5 -6.5q-8 0 -23 1.5t-31 5t-26 7.5q10 -12 12.5 -24t2.5 -20q0 -30 -20.5 -64t-62 -63.5t-103.5 -48.5t-147 -19t-153.5 22t-108.5 69t-40 121zM298 263q-13 0 -22 9t-9 21q0 13 9 22.5t22 9.5t22 -9.5t9 -22.5q0 -12 -9 -21t-22 -9z
M187 263q-13 0 -22.5 9t-9.5 21q0 13 9.5 22.5t22.5 9.5t21.5 -9.5t8.5 -22.5q0 -12 -9 -21t-21 -9z" />
    <glyph glyph-name="uni063F.init" unicode="&#x63f;" horiz-adv-x="275" 
d="M0 -5l5 36q64 0 97 11t45 35t12 64q0 28 -6 61t-17.5 72t-27.5 84l34 13q16 -41 27.5 -82t18 -77.5t6.5 -63.5q0 -39 -9 -67.5t-31 -47.5t-59.5 -28.5t-94.5 -9.5zM130 605q-12 0 -21.5 9.5t-9.5 22.5q0 12 9.5 21t21.5 9q13 0 22.5 -9t9.5 -21q0 -13 -9.5 -22.5
t-22.5 -9.5zM75 517q-12 0 -21.5 9t-9.5 22t9.5 22t21.5 9q13 0 22 -9t9 -22t-9 -22t-22 -9zM186 517q-12 0 -21.5 9t-9.5 22t9.5 22t21.5 9q13 0 22.5 -9t9.5 -22t-9.5 -22t-22.5 -9zM172 -175q-13 0 -22 9t-9 22t9 22t22 9t22 -9t9 -22t-9 -22t-22 -9zM61 -175
q-13 0 -22.5 9t-9.5 22t9.5 22t22.5 9t21.5 -9t8.5 -22t-9 -22t-21 -9z" />
    <glyph glyph-name="uni063F.medi" unicode="&#x63f;" horiz-adv-x="356" 
d="M0 -5l5 36q37 0 66.5 6.5t52 29.5t40 71t31.5 130l36 -7q-6 -33 -11.5 -56t-8.5 -42t-3 -40q0 -20 4.5 -37t19.5 -29t45.5 -19t83.5 -7q9 0 13 -5t4 -12q0 -6 -6 -12.5t-16 -6.5q-52 0 -87 7.5t-54.5 22.5t-26.5 37.5t-5 50.5h9q-15 -39 -33.5 -62.5t-41.5 -35.5t-52 -16
t-65 -4zM205 494q-12 0 -21 9.5t-9 22.5t9 22t21 9q13 0 22.5 -9t9.5 -22t-9.5 -22.5t-22.5 -9.5zM150 406q-12 0 -21.5 9.5t-9.5 21.5q0 13 9.5 22t21.5 9q13 0 22.5 -9t9.5 -22q0 -12 -9.5 -21.5t-22.5 -9.5zM261 406q-12 0 -21 9.5t-9 21.5q0 13 9 22t21 9q13 0 22.5 -9
t9.5 -22q0 -12 -9.5 -21.5t-22.5 -9.5zM245 -184q-13 0 -22.5 9t-9.5 21q0 13 9.5 22.5t22.5 9.5t22 -9.5t9 -22.5q0 -12 -9.5 -21t-21.5 -9zM133 -184q-13 0 -22 9t-9 21q0 13 9 22.5t22 9.5t22 -9.5t9 -22.5q0 -12 -9 -21t-22 -9z" />
    <glyph glyph-name="uni063F.fina" unicode="&#x63f;" horiz-adv-x="752" 
d="M46 -18q0 25 4 52.5t15 61t31 76.5l33 -14q-15 -31 -25 -61t-15.5 -58t-5.5 -53q0 -42 16.5 -75.5t50 -57t84 -36t117.5 -12.5q71 0 125.5 15.5t92.5 40.5t57.5 54.5t19.5 56.5q0 19 -14.5 35t-38 29t-51 24l-52.5 21l11 35q55 -24 92.5 -40.5t64.5 -26.5t50 -14t48 -4
q11 0 14 -5t3 -12q0 -6 -5.5 -12.5t-21.5 -6.5q-8 0 -23 1.5t-31 5t-26 7.5q10 -12 12.5 -24t2.5 -20q0 -30 -20.5 -64t-62 -63.5t-103.5 -48.5t-147 -19t-153.5 22t-108.5 69t-40 121zM242 351q-12 0 -21.5 9.5t-9.5 21.5q0 13 9.5 22t21.5 9q13 0 22.5 -9t9.5 -22
q0 -12 -9.5 -21.5t-22.5 -9.5zM187 263q-12 0 -21.5 9t-9.5 22t9.5 22t21.5 9q13 0 22 -9t9 -22t-9 -22t-22 -9zM298 263q-12 0 -21.5 9t-9.5 22t9.5 22t21.5 9q13 0 22.5 -9t9.5 -22t-9.5 -22t-22.5 -9z" />
    <glyph glyph-name="uni066E.init" unicode="&#x66e;" horiz-adv-x="253" 
d="M0 -5l5 36q54 0 82.5 11.5t40 35.5t11.5 63q0 28 -6 61t-17.5 72t-27.5 84l34 13q16 -41 27.5 -82t18 -77t6.5 -64q0 -31 -5.5 -55.5t-17.5 -43t-32.5 -30.5t-49.5 -18t-69 -6z" />
    <glyph glyph-name="uni066E.medi" unicode="&#x66e;" horiz-adv-x="350" 
d="M0 -5l5 36q41 0 69 6t48 28t36 70.5t33 132.5l36 -7q-7 -33 -12 -56t-8 -42t-3 -40q0 -26 10 -47t42 -33t99 -12q9 0 12.5 -5t3.5 -12q0 -6 -6 -12.5t-15 -6.5q-64 0 -103 14t-55 40t-13 64h9q-15 -39 -32 -62.5t-38 -35.5t-50 -16t-68 -4z" />
    <glyph glyph-name="uni066E.fina" unicode="&#x66e;" horiz-adv-x="1044" 
d="M406 -21l26 36q105 0 182.5 14.5t133.5 41t94 62.5t63 78l31 -15q-11 -27 -16 -47t-5 -36q0 -24 11.5 -42.5t41 -29t81.5 -10.5q9 0 13 -5t4 -12q0 -6 -6 -12.5t-16 -6.5q-62 0 -100 16.5t-53 47.5t-8 76l10 -4q-30 -32 -70.5 -60t-96.5 -48.5t-134.5 -32t-185.5 -11.5z
M406 -21q-87 0 -154.5 11t-113 34.5t-69 60.5t-23.5 89q0 23 3.5 47.5t9.5 49t13 46.5l32 -9q-5 -18 -10 -38.5t-8.5 -42.5t-3.5 -44q0 -62 38.5 -99t116.5 -53t195 -16l20 -22z" />
    <glyph glyph-name="uni066F.init" unicode="&#x66f;" horiz-adv-x="434" 
d="M0 -5l5 36q43 0 82 1t74 5t63 11.5t48 19.5q19 10 36 29t27.5 54.5t10.5 93.5q0 49 -13.5 96t-40 77t-64.5 30q-28 0 -55 -24.5t-44 -61.5t-17 -75q0 -39 16 -60t43.5 -28.5t61.5 -7.5t68 7.5t55 17.5l4 -31q-16 -11 -38 -17.5t-46 -9t-48 -2.5q-42 0 -76.5 11.5
t-54.5 38.5t-20 73q0 35 12 71t33 67t49.5 49.5t60.5 18.5q48 0 81 -34.5t50.5 -90.5t17.5 -121q0 -63 -18 -111.5t-66 -83.5q-19 -13 -45.5 -22t-63 -15.5t-83 -9t-105.5 -2.5z" />
    <glyph glyph-name="uni066F.medi" unicode="&#x66f;" horiz-adv-x="490" 
d="M0 -5l5 36q28 0 56.5 2t55.5 7t52.5 11.5t48.5 15.5q41 16 72.5 36.5t50 49t18.5 68.5q0 30 -14 63t-39.5 56.5t-62.5 23.5q-29 0 -57 -20t-46 -53t-18 -73q0 -41 18.5 -69.5t47.5 -47.5t60 -33l-42 -13q-24 12 -51.5 32t-47.5 52t-20 80q0 37 13.5 70t35.5 58t50 38.5
t57 13.5q44 0 77.5 -25.5t53 -65.5t19.5 -85q0 -35 -11.5 -63t-32 -49.5t-48.5 -38.5t-61 -32q-26 -12 -54.5 -20t-59.5 -14t-62.5 -8.5t-63.5 -2.5zM490 -5q-44 0 -95 7t-98 18.5t-79 25.5l34 21q24 -6 58.5 -14.5t81 -15t103.5 -6.5q9 0 13 -5t4 -12q0 -6 -6.5 -12.5
t-15.5 -6.5z" />
    <glyph glyph-name="uni066F.fina" unicode="&#x66f;" horiz-adv-x="808" 
d="M328 -272q-65 0 -117 13.5t-89 41.5t-56.5 72.5t-19.5 107.5q0 11 3 39t15 69t39 89l32 -16q-14 -23 -26 -51t-19 -59t-7 -65q0 -78 32 -122.5t89.5 -63.5t132.5 -19q37 0 79.5 5t83.5 17.5t77 35t62 57.5t37 86q5 21 7.5 48t2.5 49q0 63 -15.5 112.5t-41.5 77.5t-59 28
q-23 0 -44 -15t-38 -39.5t-26.5 -53t-9.5 -56.5t11.5 -45t31 -25.5t46 -11.5t55.5 -3h216q9 0 13 -5t4 -12q0 -6 -6 -12.5t-15 -6.5h-223q-32 0 -62 4.5t-53.5 17t-38 35t-14.5 59.5q0 33 12 69t33.5 67t50 50t61.5 19q44 0 77 -33t52 -91t19 -134q0 -28 -4.5 -59.5
t-12.5 -58.5q-19 -66 -60 -108t-95 -64.5t-112 -31t-110 -8.5z" />
    <glyph glyph-name="uni0672.fina" unicode="&#x672;" horiz-adv-x="267" 
d="M267 -5q-64 0 -98 13.5t-47 49t-16 99.5l-18 487h35l18 -472q3 -60 11.5 -90.5t36 -40.5t83.5 -10q9 0 13 -5t4 -12q0 -6 -6 -12.5t-16 -6.5zM-66 720l-22 14q12 21 28 31.5t34 10.5q23 0 40.5 -11t36.5 -11q12 0 29 3t25 7l10 -8q-45 6 -73.5 33t-28.5 63q0 38 29 59
t66 21q12 0 24.5 -2t22.5 -6l-6 -26q-10 3 -20 4.5t-20 1.5q-34 0 -51 -15.5t-17 -36.5q0 -22 14 -38.5t35.5 -27t45.5 -14.5l-26 -5q27 7 44.5 14t34.5 15l9 -24q-9 -6 -27.5 -13.5t-40.5 -15t-43 -12.5t-37 -5q-25 0 -42.5 11.5t-34.5 11.5q-13 0 -22 -9t-17 -20z" />
    <glyph glyph-name="uni0673.fina" unicode="&#x673;" horiz-adv-x="269" 
d="M269 -5q-64 0 -98 13.5t-47 49t-16 99.5l-20 557h35l20 -542q3 -60 11.5 -90.5t36 -40.5t83.5 -10q9 0 13 -5t4 -12q0 -6 -6 -12.5t-16 -6.5zM-24 -293l-22 14q13 21 28.5 31.5t33.5 10.5q23 0 41 -11t37 -11q11 0 28.5 3t25.5 7l9 -8q-44 6 -73 33t-29 63q0 38 29 59
t66 21q12 0 24.5 -2t22.5 -6l-5 -26q-10 3 -20.5 4.5t-20.5 1.5q-34 0 -50.5 -15.5t-16.5 -36.5q0 -22 14 -38.5t35.5 -27t44.5 -14.5l-25 -5q27 7 44 14t34 15l10 -24q-10 -6 -28.5 -13.5t-40 -15t-43 -12.5t-36.5 -5q-26 0 -43.5 11.5t-33.5 11.5q-14 0 -23 -9t-17 -20z
" />
    <glyph glyph-name="uni0675.fina" unicode="&#x675;" horiz-adv-x="429" 
d="M429 -5h-162q-63 0 -96.5 13.5t-46.5 49t-16 99.5l-20 557h35l20 -542q3 -60 11.5 -90.5t35.5 -40.5t82 -10h162q9 0 13 -5t4 -12q0 -6 -6 -12.5t-16 -6.5zM200 589l-7 29q26 6 44 10.5l38 9.5l24 -10q-44 6 -73 33.5t-29 61.5q0 27 13.5 45.5t35.5 27.5t45 9
q13 0 25.5 -2t22.5 -6l-5 -26q-10 3 -21 4.5t-22 1.5q-33 0 -49 -16t-16 -37t14 -38t35.5 -27t44.5 -14l-40 -5q27 7 50.5 14.5t42.5 14.5l9 -26q-24 -9 -56 -19t-65 -19t-61 -16z" />
    <glyph glyph-name="uni0676.fina" unicode="&#x676;" horiz-adv-x="475" 
d="M56 -230l-7 35q61 10 116 28.5t97 49.5t66 79.5t24 116.5q0 100 -34 151t-80 51q-29 0 -56.5 -22.5t-45 -59t-17.5 -76.5q0 -31 11.5 -49.5t32.5 -27.5t47.5 -12t55.5 -3h214q9 0 13 -5t4 -12q0 -6 -6.5 -12.5t-15.5 -6.5h-216q-44 0 -84.5 9.5t-66 35.5t-25.5 77
q0 37 12.5 72.5t35 64.5t51 46t59.5 17q43 0 76 -28t51.5 -81.5t18.5 -130.5q0 -81 -36.5 -144.5t-110 -105.5t-184.5 -57zM292 399l-6 28q26 6 44 11t38 10l24 -10q-45 6 -73.5 33.5t-28.5 61.5q0 27 13.5 45.5t35 27.5t45.5 9q13 0 25.5 -2t22.5 -6l-6 -26
q-10 3 -20.5 4.5t-21.5 1.5q-33 0 -49.5 -16t-16.5 -38q0 -21 14 -37.5t35.5 -26.5t45.5 -14l-40 -5q27 7 50.5 14.5t42.5 14.5l9 -26q-24 -9 -56.5 -19t-65.5 -19t-61 -16z" />
    <glyph glyph-name="uni0677.fina" unicode="&#x677;" horiz-adv-x="552" 
d="M133 -230l-7 35q61 10 116 28.5t97 49.5t66 79.5t24 116.5q0 100 -34 151t-80 51q-29 0 -56.5 -22.5t-45 -59t-17.5 -76.5q0 -31 11.5 -49.5t32.5 -27.5t47.5 -12t55.5 -3h214q9 0 13 -5t4 -12q0 -6 -6.5 -12.5t-15.5 -6.5h-216q-44 0 -84.5 9.5t-66 35.5t-25.5 77
q0 37 12.5 72.5t35 64.5t51 46t59.5 17q43 0 76 -28t51.5 -81.5t18.5 -130.5q0 -81 -36.5 -144.5t-110 -105.5t-184.5 -57zM371 399l-6 28q26 6 44 11t38 10l24 -10q-45 6 -73.5 33.5t-28.5 61.5q0 27 13.5 45.5t35 27.5t45.5 9q13 0 25.5 -2t22.5 -6l-6 -26
q-10 3 -20.5 4.5t-21.5 1.5q-33 0 -49.5 -16t-16.5 -38q0 -21 14 -37.5t35.5 -26.5t45.5 -14l-40 -5q27 7 50.5 14.5t42.5 14.5l9 -26q-24 -9 -56.5 -19t-65.5 -19t-61 -16zM54 388l-5 26q64 6 106 23.5t63 43.5t21 54q0 20 -11 37.5t-35 17.5q-21 0 -34 -14t-13 -33
q0 -29 26 -45.5t56 -22.5l-15 -21q-43 9 -69 32.5t-26 56.5q0 31 22 52.5t54 21.5q29 0 51 -20.5t22 -59.5q0 -41 -27 -72.5t-74.5 -51t-111.5 -25.5z" />
    <glyph glyph-name="uni0678.init" unicode="&#x678;" horiz-adv-x="350" 
d="M0 -5l5 36q54 0 82.5 11.5t40 35.5t11.5 63q0 28 -6 61t-17.5 72t-27.5 84l34 13q16 -41 27.5 -82t18 -77t6.5 -64q0 -31 -5.5 -55.5t-17.5 -43t-32.5 -30.5t-49.5 -18t-69 -6zM161 589l-6 29q26 6 44 10.5l38 9.5l24 -10q-45 6 -73.5 33.5t-28.5 61.5q0 27 13.5 45.5
t35 27.5t45.5 9q13 0 25.5 -2t22.5 -6l-6 -26q-10 3 -20.5 4.5t-21.5 1.5q-33 0 -49.5 -16t-16.5 -37t14 -38t35.5 -27t45.5 -14l-40 -5q27 7 50.5 14.5t42.5 14.5l9 -26q-24 -9 -56.5 -19t-65.5 -19t-61 -16z" />
    <glyph glyph-name="uni0678.medi" unicode="&#x678;" horiz-adv-x="343" 
d="M0 -5l5 36q41 0 69 6t48 28t36 70.5t33 132.5l36 -7q-7 -33 -12 -56t-8 -42t-3 -40q0 -26 10 -47t42 -33t99 -12q9 0 12.5 -5t3.5 -12q0 -6 -6 -12.5t-15 -6.5q-64 0 -103 14t-55 40t-13 64h9q-15 -39 -32 -62.5t-38 -35.5t-50 -16t-68 -4zM157 420l-6 29q26 6 44 10.5
l38 9.5l24 -10q-45 6 -73.5 33.5t-28.5 61.5q0 27 13.5 45.5t35 27.5t45.5 9q13 0 25.5 -2t22.5 -6l-6 -26q-10 3 -20.5 4.5t-21.5 1.5q-33 0 -49.5 -16t-16.5 -37t14 -38t35.5 -27t45.5 -14l-40 -5q27 7 50.5 14.5t42.5 14.5l9 -26q-24 -9 -56.5 -19t-65.5 -19t-61 -16z
" />
    <glyph glyph-name="uni0678.fina" unicode="&#x678;" horiz-adv-x="752" 
d="M46 -18q0 25 4 52.5t15 61t31 76.5l33 -14q-15 -31 -25 -61t-15.5 -58t-5.5 -53q0 -42 16.5 -75.5t50 -57t84 -36t117.5 -12.5q71 0 125.5 15.5t92.5 40.5t57.5 54.5t19.5 56.5q0 19 -14.5 35t-38 29t-51 24l-52.5 21l11 35q55 -24 92.5 -40.5t64.5 -26.5t50 -14t48 -4
q11 0 14 -5t3 -12q0 -6 -5.5 -12.5t-21.5 -6.5q-8 0 -23 1.5t-31 5t-26 7.5q10 -12 12.5 -24t2.5 -20q0 -30 -20.5 -64t-62 -63.5t-103.5 -48.5t-147 -19t-153.5 22t-108.5 69t-40 121zM508 216l-6 29q26 6 44 10.5l38 9.5l24 -10q-45 6 -73.5 33.5t-28.5 61.5
q0 27 13.5 45.5t35 27.5t45.5 9q13 0 25.5 -2t22.5 -6l-6 -26q-10 3 -20.5 4.5t-21.5 1.5q-33 0 -49.5 -16t-16.5 -37t14 -38t35.5 -27t45.5 -14l-40 -5q27 7 50.5 14.5t42.5 14.5l9 -26q-24 -9 -56.5 -19t-65.5 -19t-61 -16z" />
    <glyph glyph-name="uni067C.init" unicode="&#x67c;" horiz-adv-x="275" 
d="M0 -5l5 36q64 0 97 11t45 35t12 64q0 28 -6 61t-17.5 72t-27.5 84l34 13q16 -41 27.5 -82t18 -77.5t6.5 -63.5q0 -39 -9 -67.5t-31 -47.5t-59.5 -28.5t-94.5 -9.5zM125 -118q-33 0 -56 23.5t-23 56.5t23 56.5t56 23.5t56.5 -23.5t23.5 -56.5t-23 -56.5t-57 -23.5z
M125 -90q21 0 36.5 15.5t15.5 36.5q0 23 -15 37.5t-37 14.5q-21 0 -36 -14.5t-15 -37.5q0 -21 15 -36.5t36 -15.5zM186 517q-13 0 -22.5 9t-9.5 21q0 13 9.5 22.5t22.5 9.5t22 -9.5t9 -22.5q0 -12 -9 -21t-22 -9zM75 517q-13 0 -22.5 9t-9.5 21q0 13 9 22.5t23 9.5
q12 0 21 -9.5t9 -22.5q0 -12 -9 -21t-21 -9z" />
    <glyph glyph-name="uni067C.medi" unicode="&#x67c;" horiz-adv-x="350" 
d="M108 -127q-33 0 -56.5 23.5t-23.5 56.5t23.5 56.5t56.5 23.5t56.5 -23.5t23.5 -56.5t-23.5 -56.5t-56.5 -23.5zM108 -99q21 0 36.5 15.5t15.5 36.5q0 22 -15.5 37t-36.5 15q-22 0 -37 -15t-15 -37q0 -21 15 -36.5t37 -15.5zM0 -5l5 36q41 0 69 6t48 28t36 70.5t33 132.5
l36 -7q-7 -33 -12 -56t-8 -42t-3 -40q0 -26 10 -47t42 -33t99 -12q8 0 12 -5t4 -12q0 -6 -5.5 -12.5t-15.5 -6.5q-64 0 -103 14t-55 40t-13 64h9q-15 -39 -32 -62.5t-38 -35.5t-50 -16t-68 -4zM259 406q-13 0 -22 9t-9 22q0 12 9 21.5t23 9.5q12 0 21 -9.5t9 -21.5
q0 -13 -9 -22t-22 -9zM148 406q-13 0 -22.5 9t-9.5 22q0 12 9.5 21.5t22.5 9.5t22 -9.5t9 -21.5q0 -13 -9.5 -22t-21.5 -9z" />
    <glyph glyph-name="uni067C.fina" unicode="&#x67c;" horiz-adv-x="1044" 
d="M518 -150q-33 0 -56 23.5t-23 56.5t23 56.5t56 23.5t57 -23.5t24 -56.5t-23.5 -56.5t-57.5 -23.5zM518 -122q21 0 37 15.5t16 36.5q0 22 -15.5 37t-37.5 15q-21 0 -36 -15t-15 -37q0 -21 15 -36.5t36 -15.5zM406 -21l26 36q105 0 182.5 14.5t133.5 41t94 62.5t63 78
l31 -15q-11 -27 -16 -47t-5 -36q0 -24 11.5 -42.5t41 -29t81.5 -10.5q9 0 13 -5t4 -12q0 -6 -6 -12.5t-16 -6.5q-62 0 -100 16.5t-53 47.5t-8 76l10 -4q-30 -32 -70.5 -60t-96.5 -48.5t-134.5 -32t-185.5 -11.5zM406 -21q-87 0 -154.5 11t-113 34.5t-69 60.5t-23.5 89
q0 23 3.5 47t9.5 49t13 47l32 -9q-5 -18 -10 -38.5t-8.5 -42.5t-3.5 -44q0 -62 38.5 -99t116.5 -53t195 -16l20 -22zM535 427q-13 0 -22.5 9t-9.5 21q0 13 9.5 22.5t22.5 9.5t22 -9.5t9 -22.5q0 -12 -9.5 -21t-21.5 -9zM423 427q-13 0 -22 9t-9 21q0 13 9 22.5t23 9.5
q12 0 21 -9.5t9 -22.5q0 -12 -9 -21t-22 -9z" />
    <glyph glyph-name="uni067D.init" unicode="&#x67d;" horiz-adv-x="275" 
d="M0 -5l5 36q64 0 97 11t45 35t12 64q0 28 -6 61t-17.5 72t-27.5 84l34 13q16 -41 27.5 -82t18 -77.5t6.5 -63.5q0 -39 -9 -67.5t-31 -47.5t-59.5 -28.5t-94.5 -9.5zM131 517q-13 0 -22.5 9t-9.5 21q0 13 9.5 22.5t22.5 9.5t22 -9.5t9 -22.5q0 -12 -9.5 -21t-21.5 -9z
M75 605q-13 0 -22.5 9t-9.5 22t9.5 22t22.5 9t22 -9t9 -22t-9.5 -22t-21.5 -9zM186 605q-13 0 -22.5 9t-9.5 22t9.5 22t22.5 9t22 -9t9 -22t-9 -22t-22 -9z" />
    <glyph glyph-name="uni067D.medi" unicode="&#x67d;" horiz-adv-x="356" 
d="M0 -5l5 36q37 0 66.5 6.5t52 29.5t40 71t31.5 130l36 -7q-6 -33 -11.5 -56t-8.5 -42t-3 -40q0 -20 4.5 -37t19.5 -29t45.5 -19t83.5 -7q9 0 13 -5t4 -12q0 -6 -6 -12.5t-16 -6.5q-52 0 -87 7.5t-54.5 22.5t-26.5 37.5t-5 50.5h9q-15 -39 -33.5 -62.5t-41.5 -35.5t-52 -16
t-65 -4zM206 406q-13 0 -22 9t-9 22q0 12 9 21.5t22 9.5t22 -9.5t9 -21.5q0 -13 -9 -22t-22 -9zM150 494q-13 0 -22.5 9.5t-9.5 21.5q0 13 9.5 22.5t22.5 9.5t22 -9.5t9 -22.5q0 -12 -9 -21.5t-22 -9.5zM262 494q-14 0 -23 9.5t-9 21.5q0 13 9 22.5t23 9.5q12 0 21 -9.5
t9 -22.5q0 -12 -9 -21.5t-21 -9.5z" />
    <glyph glyph-name="uni067D.fina" unicode="&#x67d;" horiz-adv-x="1044" 
d="M406 -21l26 36q105 0 182.5 14.5t133.5 41t94 62.5t63 78l31 -15q-11 -27 -16 -47t-5 -36q0 -24 11.5 -42.5t41 -29t81.5 -10.5q9 0 13 -5t4 -12q0 -6 -6 -12.5t-16 -6.5q-62 0 -100 16.5t-53 47.5t-8 76l10 -4q-30 -32 -70.5 -60t-96.5 -48.5t-134.5 -32t-185.5 -11.5z
M406 -21q-87 0 -154.5 11t-113 34.5t-69 60.5t-23.5 89q0 23 3.5 47.5t9.5 49t13 46.5l32 -9q-5 -18 -10 -38.5t-8.5 -42.5t-3.5 -44q0 -62 38.5 -99t116.5 -53t195 -16l20 -22zM480 427q-13 0 -22.5 9t-9.5 21q0 13 9.5 22.5t22.5 9.5t22 -9.5t9 -22.5q0 -12 -9 -21t-22 -9
zM424 515q-13 0 -22.5 9t-9.5 22q0 12 9.5 21.5t22.5 9.5t22 -9.5t9 -21.5q0 -13 -9 -22t-22 -9zM535 515q-13 0 -22 9t-9 22q0 12 9 21.5t22 9.5t22 -9.5t9 -21.5q0 -13 -9 -22t-22 -9z" />
    <glyph glyph-name="uni0681.init" unicode="&#x681;" horiz-adv-x="568" 
d="M0 -5l5 36q58 0 108 8t98 24.5t98 41.5t106 60q-44 34 -86 59.5t-85 39.5t-91 14q-16 0 -31 -1t-30.5 -4t-34.5 -8l-7 34q26 8 52 11.5t51 3.5q53 0 94.5 -13.5t74.5 -32.5t60.5 -38.5t52 -33t49.5 -13.5h25l3 -33q-33 0 -63 -11.5t-61.5 -29t-68 -37t-81.5 -37.5
t-103.5 -29t-134.5 -11zM60 436l-6 28q26 6 44 11t38 10l24 -10q-45 6 -73.5 33.5t-28.5 61.5q0 27 13.5 45.5t35 27.5t45.5 9q13 0 25.5 -2t22.5 -6l-6 -26q-10 3 -20.5 4.5t-21.5 1.5q-33 0 -49.5 -16t-16.5 -38q0 -21 14 -37.5t35.5 -26.5t45.5 -14l-40 -5
q27 7 50.5 14.5t42.5 14.5l9 -26q-24 -9 -56.5 -19t-65.5 -19t-61 -16z" />
    <glyph glyph-name="uni0681.medi" unicode="&#x681;" horiz-adv-x="613" 
d="M613 -5q-42 0 -77 3t-62.5 16t-46.5 42t-29 80l28 14q12 -57 36 -82t62.5 -31t93.5 -6q9 0 12.5 -5t3.5 -12q0 -6 -6 -12.5t-15 -6.5zM0 -5l5 36q58 0 108 8t98 24.5t98 41.5t106 60q-44 34 -86 59.5t-85 39.5t-91 14q-16 0 -31 -1t-30.5 -4t-34.5 -8l-7 34q26 8 52 11.5
t51 3.5q53 0 94.5 -13.5t74.5 -32.5t60.5 -38.5t52 -33t49.5 -13.5h25l3 -33q-33 0 -63 -11.5t-61.5 -29t-68 -37t-81.5 -37.5t-103.5 -29t-134.5 -11zM63 435l-6 28q26 6 44 11t38 10l24 -10q-45 6 -73.5 33.5t-28.5 61.5q0 27 13.5 45.5t35 27.5t45.5 9q13 0 25.5 -2
t22.5 -6l-6 -26q-10 3 -20.5 4.5t-21.5 1.5q-33 0 -49.5 -16t-16.5 -38q0 -21 14 -37.5t35.5 -26.5t45.5 -14l-40 -5q27 7 50.5 14.5t42.5 14.5l9 -26q-24 -9 -56.5 -19t-65.5 -19t-61 -16z" />
    <glyph glyph-name="uni0681.fina" unicode="&#x681;" horiz-adv-x="650" 
d="M650 -5q-59 0 -104.5 7.5t-77.5 31.5t-50.5 71t-21.5 126l30 13q3 -72 18 -115t43.5 -64t70 -27.5t96.5 -6.5q9 0 13 -5t4 -12q0 -6 -6 -12.5t-15 -6.5zM368 -394q-67 0 -126.5 16.5t-104.5 50t-71 83.5t-26 117q0 69 26.5 126.5t71 103.5t100.5 79.5t116.5 56
t117.5 31.5l-1 -9q-36 6 -69.5 17t-66.5 24t-70.5 21.5t-82.5 8.5q-41 0 -67.5 -7t-46.5 -13l-6 33q22 9 55 16t70 7q40 0 75.5 -8t69 -19.5t67 -24t68.5 -21t73 -9.5h9l1 -38q-46 0 -98.5 -11.5t-105 -33.5t-101 -54t-86.5 -73.5t-60 -92t-22 -109.5q0 -60 24 -104t65 -72
t95 -42t113 -14q57 0 101.5 11t80.5 23l12 -30q-41 -18 -92 -29t-108 -11zM234 501l-6 28q26 6 44 11t38 10l24 -10q-45 6 -73.5 33.5t-28.5 61.5q0 27 13.5 45.5t35 27.5t45.5 9q13 0 25.5 -2t22.5 -6l-6 -26q-10 3 -20.5 4.5t-21.5 1.5q-33 0 -49.5 -16t-16.5 -38
q0 -21 14 -37.5t35.5 -26.5t45.5 -14l-40 -5q27 7 50.5 14.5t42.5 14.5l9 -26q-24 -9 -56.5 -19t-65.5 -19t-61 -16z" />
    <glyph glyph-name="uni0682.init" unicode="&#x682;" horiz-adv-x="568" 
d="M0 -5l5 36q58 0 108 8t98 24.5t98 41.5t106 60q-44 34 -86 59.5t-85 39.5t-91 14q-16 0 -31 -1t-30.5 -4t-34.5 -8l-7 34q26 8 52 11.5t51 3.5q53 0 94.5 -13.5t74.5 -32.5t60.5 -38.5t52 -33t49.5 -13.5h25l3 -33q-33 0 -63 -11.5t-61.5 -29t-68 -37t-81.5 -37.5
t-103.5 -29t-134.5 -11zM154 443q-13 0 -22.5 9t-9.5 21q0 13 9.5 22.5t22.5 9.5t22 -9.5t9 -22.5q0 -12 -9 -21t-22 -9zM153 555q-13 0 -22.5 9t-9.5 22q0 12 9.5 21.5t22.5 9.5t22 -9.5t9 -21.5q0 -13 -9 -22t-22 -9z" />
    <glyph glyph-name="uni0682.medi" unicode="&#x682;" horiz-adv-x="613" 
d="M613 -5q-42 0 -77 3t-62.5 16t-46.5 42t-29 80l28 14q12 -57 36 -82t62.5 -31t93.5 -6q9 0 12.5 -5t3.5 -12q0 -6 -6 -12.5t-15 -6.5zM0 -5l5 36q58 0 108 8t98 24.5t98 41.5t106 60q-44 34 -86 59.5t-85 39.5t-91 14q-16 0 -31 -1t-30.5 -4t-34.5 -8l-7 34q26 8 52 11.5
t51 3.5q53 0 94.5 -13.5t74.5 -32.5t60.5 -38.5t52 -33t49.5 -13.5h25l3 -33q-33 0 -63 -11.5t-61.5 -29t-68 -37t-81.5 -37.5t-103.5 -29t-134.5 -11zM157 442q-13 0 -22.5 9t-9.5 21q0 13 9.5 22.5t22.5 9.5t22 -9.5t9 -22.5q0 -12 -9 -21t-22 -9zM156 554q-13 0 -22.5 9
t-9.5 22q0 12 9.5 21.5t22.5 9.5t22 -9.5t9 -21.5q0 -13 -9 -22t-22 -9z" />
    <glyph glyph-name="uni0682.fina" unicode="&#x682;" horiz-adv-x="650" 
d="M650 -5q-59 0 -104.5 7.5t-77.5 31.5t-50.5 71t-21.5 126l30 13q3 -72 18 -115t43.5 -64t70 -27.5t96.5 -6.5q9 0 13 -5t4 -12q0 -6 -6 -12.5t-15 -6.5zM368 -394q-67 0 -126.5 16.5t-104.5 50t-71 83.5t-26 117q0 69 26.5 126.5t71 103.5t100.5 79.5t116.5 56
t117.5 31.5l-1 -9q-36 6 -69.5 17t-66.5 24t-70.5 21.5t-82.5 8.5q-41 0 -67.5 -7t-46.5 -13l-6 33q22 9 55 16t70 7q40 0 75.5 -8t69 -19.5t67 -24t68.5 -21t73 -9.5h9l1 -38q-46 0 -98.5 -11.5t-105 -33.5t-101 -54t-86.5 -73.5t-60 -92t-22 -109.5q0 -60 24 -104t65 -72
t95 -42t113 -14q57 0 101.5 11t80.5 23l12 -30q-41 -18 -92 -29t-108 -11zM328 508q-13 0 -22.5 9t-9.5 21q0 13 9.5 22.5t22.5 9.5t22 -9.5t9 -22.5q0 -12 -9 -21t-22 -9zM327 620q-13 0 -22.5 9t-9.5 22q0 12 9.5 21.5t22.5 9.5t22 -9.5t9 -21.5q0 -13 -9 -22t-22 -9z" />
    <glyph glyph-name="uni0685.init" unicode="&#x685;" horiz-adv-x="568" 
d="M0 -5l5 36q58 0 108 8t98 24.5t98 41.5t106 60q-44 34 -86 59.5t-85 39.5t-91 14q-16 0 -31 -1t-30.5 -4t-34.5 -8l-7 34q26 8 52 11.5t51 3.5q53 0 94.5 -13.5t74.5 -32.5t60.5 -38.5t52 -33t49.5 -13.5h25l3 -33q-33 0 -63 -11.5t-61.5 -29t-68 -37t-81.5 -37.5
t-103.5 -29t-134.5 -11zM155 531q-12 0 -21.5 9.5t-9.5 21.5q0 13 9.5 22t21.5 9q13 0 22.5 -9t9.5 -22q0 -12 -9.5 -21.5t-22.5 -9.5zM100 443q-12 0 -21.5 9t-9.5 22t9.5 22t21.5 9q13 0 22 -9t9 -22t-9 -22t-22 -9zM211 443q-12 0 -21.5 9t-9.5 22t9.5 22t21.5 9
q13 0 22.5 -9t9.5 -22t-9.5 -22t-22.5 -9z" />
    <glyph glyph-name="uni0685.medi" unicode="&#x685;" horiz-adv-x="613" 
d="M613 -5q-42 0 -77 3t-62.5 16t-46.5 42t-29 80l28 14q12 -57 36 -82t62.5 -31t93.5 -6q9 0 12.5 -5t3.5 -12q0 -6 -6 -12.5t-15 -6.5zM0 -5l5 36q58 0 108 8t98 24.5t98 41.5t106 60q-44 34 -86 59.5t-85 39.5t-91 14q-16 0 -31 -1t-30.5 -4t-34.5 -8l-7 34q26 8 52 11.5
t51 3.5q53 0 94.5 -13.5t74.5 -32.5t60.5 -38.5t52 -33t49.5 -13.5h25l3 -33q-33 0 -63 -11.5t-61.5 -29t-68 -37t-81.5 -37.5t-103.5 -29t-134.5 -11zM158 530q-12 0 -21.5 9.5t-9.5 21.5q0 13 9.5 22t21.5 9q13 0 22.5 -9t9.5 -22q0 -12 -9.5 -21.5t-22.5 -9.5zM103 442
q-12 0 -21.5 9t-9.5 22t9.5 22t21.5 9q13 0 22 -9t9 -22t-9 -22t-22 -9zM214 442q-12 0 -21.5 9t-9.5 22t9.5 22t21.5 9q13 0 22.5 -9t9.5 -22t-9.5 -22t-22.5 -9z" />
    <glyph glyph-name="uni0685.fina" unicode="&#x685;" horiz-adv-x="650" 
d="M650 -5q-59 0 -104.5 7.5t-77.5 31.5t-50.5 71t-21.5 126l30 13q3 -72 18 -115t43.5 -64t70 -27.5t96.5 -6.5q9 0 13 -5t4 -12q0 -6 -6 -12.5t-15 -6.5zM368 -394q-67 0 -126.5 16.5t-104.5 50t-71 83.5t-26 117q0 69 26.5 126.5t71 103.5t100.5 79.5t116.5 56
t117.5 31.5l-1 -9q-36 6 -69.5 17t-66.5 24t-70.5 21.5t-82.5 8.5q-41 0 -67.5 -7t-46.5 -13l-6 33q22 9 55 16t70 7q40 0 75.5 -8t69 -19.5t67 -24t68.5 -21t73 -9.5h9l1 -38q-46 0 -98.5 -11.5t-105 -33.5t-101 -54t-86.5 -73.5t-60 -92t-22 -109.5q0 -60 24 -104t65 -72
t95 -42t113 -14q57 0 101.5 11t80.5 23l12 -30q-41 -18 -92 -29t-108 -11zM329 596q-12 0 -21.5 9.5t-9.5 21.5q0 13 9.5 22t21.5 9q13 0 22.5 -9t9.5 -22q0 -12 -9.5 -21.5t-22.5 -9.5zM274 508q-12 0 -21.5 9t-9.5 22t9.5 22t21.5 9q13 0 22 -9t9 -22t-9 -22t-22 -9z
M385 508q-12 0 -21.5 9t-9.5 22t9.5 22t21.5 9q13 0 22.5 -9t9.5 -22t-9.5 -22t-22.5 -9z" />
    <glyph glyph-name="uni0689.fina" unicode="&#x689;" horiz-adv-x="513" 
d="M215 -137q-33 0 -56.5 24t-23.5 57t23.5 56t56.5 23t56.5 -23t23.5 -56t-23.5 -57t-56.5 -24zM215 -109q21 0 36.5 15.5t15.5 37.5q0 21 -15 36.5t-37 15.5q-21 0 -36.5 -15.5t-15.5 -36.5q0 -22 15.5 -37.5t36.5 -15.5zM189 31q51 0 81.5 13t44 37t13.5 56q0 20 -7 47
t-22.5 62.5t-42.5 79.5t-65 97l29 21q48 -66 77 -119t44.5 -95t21.5 -74q9 -42 26.5 -70t48.5 -41.5t79 -13.5q9 0 13 -5t4 -12q0 -6 -6 -12.5t-15 -6.5q-55 0 -90.5 16t-55 47t-27.5 76l20 1q0 -33 -14 -65.5t-51 -53.5t-105 -21q-29 0 -58.5 4.5t-55 13t-43.5 20.5l17 32
q27 -18 66 -26t73 -8z" />
    <glyph glyph-name="uni068A.fina" unicode="&#x68a;" horiz-adv-x="513" 
d="M189 31q51 0 81.5 13t44 37t13.5 56q0 20 -7 47t-22.5 62.5t-42.5 79.5t-65 97l29 21q48 -66 77 -119t44.5 -95t21.5 -74q9 -42 26.5 -70t48.5 -41.5t79 -13.5q9 0 13 -5t4 -12q0 -6 -6 -12.5t-15 -6.5q-55 0 -90.5 16t-55 47t-27.5 76l20 1q0 -33 -14 -65.5t-51 -53.5
t-105 -21q-29 0 -58.5 4.5t-55 13t-43.5 20.5l17 32q27 -18 66 -26t73 -8zM194 -175q-13 0 -22.5 9t-9.5 22q0 12 9.5 21.5t22.5 9.5t22 -9.5t9 -21.5q0 -13 -9 -22t-22 -9z" />
    <glyph glyph-name="uni068B.fina" unicode="&#x68b;" horiz-adv-x="513" 
d="M189 31q51 0 81.5 13t44 37t13.5 56q0 20 -7 47t-22.5 62.5t-42.5 79.5t-65 97l29 21q48 -66 77 -119t44.5 -95t21.5 -74q9 -42 26.5 -70t48.5 -41.5t79 -13.5q9 0 13 -5t4 -12q0 -6 -6 -12.5t-15 -6.5q-55 0 -90.5 16t-55 47t-27.5 76l20 1q0 -33 -14 -65.5t-51 -53.5
t-105 -21q-29 0 -58.5 4.5t-55 13t-43.5 20.5l17 32q27 -18 66 -26t73 -8zM178 583q-14 0 -34.5 1t-39 3t-30.5 3l1 26q31 -3 57.5 -5t47.5 -2q38 0 63 9t37 23.5t12 30.5q0 19 -10 31t-29 12q-25 0 -48 -16.5t-41.5 -41.5t-32.5 -49l-25 4q17 32 40 61.5t51 48.5t59 19
q29 0 45.5 -18.5t16.5 -48.5q0 -25 -15 -46t-46 -33t-79 -12zM130 643l-6 194h25l6 -172zM194 -175q-13 0 -22.5 9t-9.5 22q0 12 9.5 21.5t22.5 9.5t22 -9.5t9 -21.5q0 -13 -9 -22t-22 -9z" />
    <glyph glyph-name="uni068F.fina" unicode="&#x68f;" horiz-adv-x="513" 
d="M189 31q51 0 81.5 13t44 37t13.5 56q0 20 -7 47t-22.5 62.5t-42.5 79.5t-65 97l29 21q48 -66 77 -119t44.5 -95t21.5 -74q9 -42 26.5 -70t48.5 -41.5t79 -13.5q9 0 13 -5t4 -12q0 -6 -6 -12.5t-15 -6.5q-55 0 -90.5 16t-55 47t-27.5 76l20 1q0 -33 -14 -65.5t-51 -53.5
t-105 -21q-29 0 -58.5 4.5t-55 13t-43.5 20.5l17 32q27 -18 66 -26t73 -8zM194 576q-13 0 -22.5 9t-9.5 21q0 13 9.5 22.5t22.5 9.5t22 -9.5t9 -22.5q0 -12 -9 -21t-22 -9zM138 664q-13 0 -22.5 9t-9.5 22q0 12 9.5 21.5t22.5 9.5t22 -9.5t9 -21.5q0 -13 -9 -22t-22 -9z
M249 664q-13 0 -22 9t-9 22q0 12 9 21.5t22 9.5t22 -9.5t9 -21.5q0 -13 -9 -22t-22 -9z" />
    <glyph glyph-name="uni0690.fina" unicode="&#x690;" horiz-adv-x="513" 
d="M189 31q51 0 81.5 13t44 37t13.5 56q0 20 -7 47t-22.5 62.5t-42.5 79.5t-65 97l29 21q48 -66 77 -119t44.5 -95t21.5 -74q9 -42 26.5 -70t48.5 -41.5t79 -13.5q9 0 13 -5t4 -12q0 -6 -6 -12.5t-15 -6.5q-55 0 -90.5 16t-55 47t-27.5 76l20 1q0 -33 -14 -65.5t-51 -53.5
t-105 -21q-29 0 -58.5 4.5t-55 13t-43.5 20.5l17 32q27 -18 66 -26t73 -8zM140 687q-13 0 -22.5 9t-9.5 22q0 12 9 21.5t23 9.5q12 0 21 -9.5t9 -21.5q0 -13 -9 -22t-21 -9zM138 576q-13 0 -22.5 9t-9.5 21q0 13 9.5 22.5t22.5 9.5t22 -9.5t9 -22.5q0 -12 -9 -21t-22 -9z
M251 687q-13 0 -22.5 9t-9.5 22q0 12 9.5 21.5t22.5 9.5t22 -9.5t9 -21.5q0 -13 -9.5 -22t-21.5 -9zM249 576q-13 0 -22 9t-9 21q0 13 9 22.5t22 9.5t22 -9.5t9 -22.5q0 -12 -9 -21t-22 -9z" />
    <glyph glyph-name="uni0692.fina" unicode="&#x692;" horiz-adv-x="417" 
d="M4 -230l-13 34q58 21 104.5 51.5t79.5 69t51 82t18 89.5t-21.5 102t-55.5 111l34 18q18 -32 32.5 -63.5t25 -61t16.5 -57.5q14 -52 49.5 -83t96.5 -31q9 0 13 -5t4 -12q0 -6 -6 -12.5t-15 -6.5q-43 0 -74.5 13t-51.5 36.5t-29 53.5l15 -4q0 -60 -23.5 -112t-63 -93
t-88 -71t-98.5 -48zM154 484q-7 16 -18 39t-23.5 49.5t-25 50t-21.5 39.5l24 13q6 -10 18 -32t25 -48t24.5 -50.5t17.5 -39.5l10 -18zM185 487l-25 8q6 17 17 45t23.5 57.5t23 52t14.5 30.5l26 -11q-5 -10 -16 -33t-23.5 -51.5t-23 -55t-16.5 -42.5z" />
    <glyph glyph-name="uni0693.fina" unicode="&#x693;" horiz-adv-x="417" 
d="M235 -219q-33 0 -56 23.5t-23 56.5t23 56.5t56 23.5t57 -23.5t24 -56.5t-24 -56.5t-57 -23.5zM235 -191q21 0 37 15.5t16 36.5q0 22 -15.5 37t-37.5 15q-21 0 -36 -15t-15 -37q0 -21 15 -36.5t36 -15.5zM4 -230l-13 34q58 21 104.5 51.5t79.5 69t51 82t18 89.5t-21.5 102
t-55.5 111l34 18q18 -32 32.5 -63.5t25 -61t16.5 -57.5q14 -52 49.5 -83t96.5 -31q9 0 13 -5t4 -12q0 -6 -6 -12.5t-15 -6.5q-43 0 -74.5 13t-51.5 36.5t-29 53.5l15 -4q0 -60 -23.5 -112t-63 -93t-88 -71t-98.5 -48z" />
    <glyph glyph-name="uni0694.fina" unicode="&#x694;" horiz-adv-x="417" 
d="M4 -230l-13 34q58 21 104.5 51.5t79.5 69t51 82t18 89.5t-21.5 102t-55.5 111l34 18q18 -32 32.5 -63.5t25 -61t16.5 -57.5q14 -52 49.5 -83t96.5 -31q9 0 13 -5t4 -12q0 -6 -6 -12.5t-15 -6.5q-43 0 -74.5 13t-51.5 36.5t-29 53.5l15 -4q0 -60 -23.5 -112t-63 -93
t-88 -71t-98.5 -48zM122 -387q-13 0 -22.5 9t-9.5 22q0 12 9.5 21.5t22.5 9.5t22 -9.5t9 -21.5q0 -13 -9 -22t-22 -9z" />
    <glyph glyph-name="uni0695.fina" unicode="&#x695;" horiz-adv-x="417" 
d="M61 -84q-7 17 -19.5 44t-26.5 53.5t-24 43.5l19 11q5 -8 14.5 -25.5t20 -38.5t19.5 -40t14 -31l8 -14zM86 -81l-19 5q4 15 13 37t19 45.5t18 41.5t12 24l20 -9q-4 -8 -12.5 -26.5t-18.5 -41t-18.5 -43.5t-13.5 -33zM4 -230l-13 34q58 21 104.5 51.5t79.5 69t51 82
t18 89.5t-21.5 102t-55.5 111l34 18q18 -32 32.5 -63.5t25 -61t16.5 -57.5q14 -52 49.5 -83t96.5 -31q9 0 13 -5t4 -12q0 -6 -6 -12.5t-15 -6.5q-43 0 -74.5 13t-51.5 36.5t-29 53.5l15 -4q0 -60 -23.5 -112t-63 -93t-88 -71t-98.5 -48z" />
    <glyph glyph-name="uni0696.fina" unicode="&#x696;" horiz-adv-x="417" 
d="M4 -230l-13 34q58 21 104.5 51.5t79.5 69t51 82t18 89.5t-21.5 102t-55.5 111l34 18q18 -32 32.5 -63.5t25 -61t16.5 -57.5q14 -52 49.5 -83t96.5 -31q9 0 13 -5t4 -12q0 -6 -6 -12.5t-15 -6.5q-43 0 -74.5 13t-51.5 36.5t-29 53.5l15 -4q0 -60 -23.5 -112t-63 -93
t-88 -71t-98.5 -48zM51 19q-13 0 -22.5 9t-9.5 21q0 13 9.5 22.5t22.5 9.5t22 -9.5t9 -22.5q0 -12 -9 -21t-22 -9zM122 -387q-13 0 -22.5 9t-9.5 22q0 12 9.5 21.5t22.5 9.5t22 -9.5t9 -21.5q0 -13 -9 -22t-22 -9z" />
    <glyph glyph-name="uni0697.fina" unicode="&#x697;" horiz-adv-x="417" 
d="M4 -230l-13 34q58 21 104.5 51.5t79.5 69t51 82t18 89.5t-21.5 102t-55.5 111l34 18q18 -32 32.5 -63.5t25 -61t16.5 -57.5q14 -52 49.5 -83t96.5 -31q9 0 13 -5t4 -12q0 -6 -6 -12.5t-15 -6.5q-43 0 -74.5 13t-51.5 36.5t-29 53.5l15 -4q0 -60 -23.5 -112t-63 -93
t-88 -71t-98.5 -48zM226 480q-13 0 -22 9t-9 21q0 13 9 22.5t22 9.5t22 -9.5t9 -22.5q0 -12 -9 -21t-22 -9zM115 480q-13 0 -22.5 9t-9.5 21q0 13 9.5 22.5t22.5 9.5t21.5 -9.5t8.5 -22.5q0 -12 -9 -21t-21 -9z" />
    <glyph glyph-name="uni0699.fina" unicode="&#x699;" horiz-adv-x="417" 
d="M4 -230l-13 34q58 21 104.5 51.5t79.5 69t51 82t18 89.5t-21.5 102t-55.5 111l34 18q18 -32 32.5 -63.5t25 -61t16.5 -57.5q14 -52 49.5 -83t96.5 -31q9 0 13 -5t4 -12q0 -6 -6 -12.5t-15 -6.5q-43 0 -74.5 13t-51.5 36.5t-29 53.5l15 -4q0 -60 -23.5 -112t-63 -93
t-88 -71t-98.5 -48zM117 591q-13 0 -22.5 9t-9.5 22q0 12 9 21.5t23 9.5q12 0 21 -9.5t9 -21.5q0 -13 -9 -22t-21 -9zM115 480q-13 0 -22.5 9t-9.5 21q0 13 9.5 22.5t22.5 9.5t22 -9.5t9 -22.5q0 -12 -9 -21t-22 -9zM228 591q-13 0 -22.5 9t-9.5 22q0 12 9.5 21.5t22.5 9.5
t22 -9.5t9 -21.5q0 -13 -9.5 -22t-21.5 -9zM226 480q-13 0 -22 9t-9 21q0 13 9 22.5t22 9.5t22 -9.5t9 -22.5q0 -12 -9 -21t-22 -9z" />
    <glyph glyph-name="uni069A.init" unicode="&#x69a;" horiz-adv-x="750" 
d="M0 -5l5 36q37 0 60 5.5t38.5 26.5t28.5 66t31 124l33 -9q-4 -17 -9 -39.5t-9 -46.5t-4 -46q0 -48 24 -64.5t73 -16.5q35 0 57 8t35.5 32t23.5 70t20 122l34 -6q-4 -25 -8.5 -52.5t-7 -51.5t-2.5 -43q0 -31 10.5 -48.5t33 -24t59.5 -6.5q28 0 52.5 7t40.5 31t16 76
q0 51 -15.5 104t-32.5 108l36 14q11 -36 22 -74t18 -75.5t7 -72.5q0 -47 -12.5 -77.5t-33.5 -47t-47.5 -23t-54.5 -6.5q-52 0 -78.5 14t-36 38t-14.5 52h17q-12 -39 -29 -62t-44 -32.5t-70 -9.5q-30 0 -57.5 8t-45 32.5t-18.5 74.5l13 1q-14 -51 -35.5 -75.5t-51.5 -32.5
t-72 -8zM366 -175q-13 0 -22.5 9t-9.5 22q0 12 9.5 21.5t22.5 9.5t22 -9.5t9 -21.5q0 -13 -9 -22t-22 -9zM411 461q-13 0 -22.5 9t-9.5 21q0 13 9.5 22.5t22.5 9.5t22 -9.5t9 -22.5q0 -12 -9 -21t-22 -9z" />
    <glyph glyph-name="uni069A.medi" unicode="&#x69a;" horiz-adv-x="821" 
d="M0 -5l5 36q32 0 54 3t39 22.5t32 65.5t33 131l33 -9q-6 -25 -14 -62t-8 -68t9.5 -49.5t29.5 -26t53 -7.5t55.5 6.5t37.5 29t26.5 69.5t22.5 127l35 -6q-3 -18 -8 -45.5t-8.5 -54t-3.5 -43.5q0 -28 8.5 -46.5t31 -27.5t61.5 -9q60 0 84.5 23.5t24.5 78.5q0 23 -1 58
t-3.5 71t-5.5 62l35 3q4 -98 12 -156.5t25 -88.5t48 -40t82 -11q9 0 13 -5t4 -12q0 -6 -6 -12.5t-15 -6.5q-38 0 -66.5 7t-49 21t-33 34.5t-17.5 46.5l5 -1q-7 -45 -27.5 -68t-49.5 -31.5t-62 -8.5q-43 0 -69.5 11.5t-39.5 34.5t-17 58h13q-12 -35 -28.5 -58.5t-44 -34.5
t-72.5 -11q-26 0 -53 8.5t-44.5 33t-17.5 73.5l13 1q-15 -51 -36 -75.5t-52 -32.5t-73 -8zM365 -175q-13 0 -22.5 9t-9.5 22q0 12 9.5 21.5t22.5 9.5t22 -9.5t9 -21.5q0 -13 -9 -22t-22 -9zM424 461q-13 0 -22.5 9t-9.5 21q0 13 9.5 22.5t22.5 9.5t22 -9.5t9 -22.5
q0 -12 -9 -21t-22 -9z" />
    <glyph glyph-name="uni069A.fina" unicode="&#x69a;" horiz-adv-x="1190" 
d="M304 -230q-50 0 -96.5 13t-82.5 39.5t-57.5 66t-21.5 93.5q0 25 4 52.5t15 61t31 76.5l33 -14q-15 -31 -25 -61t-15.5 -58t-5.5 -53q0 -63 32.5 -103t84 -59t108.5 -19q75 0 122.5 21t74 53.5t36.5 71.5t10 75t-6 74t-15 78t-20 79l37 11q14 -57 21.5 -89t15.5 -60
q10 -34 21.5 -53t30 -27t47.5 -8q26 0 45 5.5t33 27t25.5 69.5t22.5 133l35 -6q-5 -35 -10 -62t-7.5 -47t-2.5 -37q0 -28 6 -46.5t27.5 -27.5t67.5 -9q51 0 76 25.5t25 76.5q0 23 -1.5 58.5t-4 72.5t-4.5 63l34 3q6 -84 10.5 -141t16.5 -91.5t39 -50t79 -16.5q9 0 12.5 -5
t3.5 -12q0 -6 -6 -12.5t-15 -6.5q-42 0 -72 12.5t-48.5 34t-25.5 49.5l7 -1q-7 -31 -23.5 -52t-43 -32t-61.5 -11q-50 0 -76.5 11.5t-37 34.5t-12.5 58l14 1q-11 -41 -28 -63.5t-42 -32t-60 -9.5q-33 0 -53.5 8.5t-32.5 22.5t-18 31.5t-10 35.5l22 -36q1 -57 -12 -109
t-45 -92t-87.5 -63t-140.5 -23zM813 -174q-13 0 -22.5 9t-9.5 22q0 12 9.5 21.5t22.5 9.5t22 -9.5t9 -21.5q0 -13 -9 -22t-22 -9zM801 461q-13 0 -22.5 9t-9.5 21q0 13 9.5 22.5t22.5 9.5t22 -9.5t9 -22.5q0 -12 -9 -21t-22 -9z" />
    <glyph glyph-name="uni069B.init" unicode="&#x69b;" horiz-adv-x="750" 
d="M0 -5l5 36q37 0 60 5.5t38.5 26.5t28.5 66t31 124l33 -9q-4 -17 -9 -39.5t-9 -46.5t-4 -46q0 -48 24 -64.5t73 -16.5q35 0 57 8t35.5 32t23.5 70t20 122l34 -6q-4 -25 -8.5 -52.5t-7 -51.5t-2.5 -43q0 -31 10.5 -48.5t33 -24t59.5 -6.5q28 0 52.5 7t40.5 31t16 76
q0 51 -15.5 104t-32.5 108l36 14q11 -36 22 -74t18 -75.5t7 -72.5q0 -47 -12.5 -77.5t-33.5 -47t-47.5 -23t-54.5 -6.5q-52 0 -78.5 14t-36 38t-14.5 52h17q-12 -39 -29 -62t-44 -32.5t-70 -9.5q-30 0 -57.5 8t-45 32.5t-18.5 74.5l13 1q-14 -51 -35.5 -75.5t-51.5 -32.5
t-72 -8zM365 -265q-13 0 -22.5 9t-9.5 22t9.5 22t22.5 9t22 -9t9 -22t-9 -22t-22 -9zM309 -176q-13 0 -22.5 9t-9.5 21q0 13 9.5 22.5t22.5 9.5t22 -9.5t9 -22.5q0 -12 -9 -21t-22 -9zM420 -176q-13 0 -22 9t-9 21q0 13 9 22.5t22 9.5t22 -9.5t9 -22.5q0 -12 -9 -21t-22 -9z
" />
    <glyph glyph-name="uni069B.medi" unicode="&#x69b;" horiz-adv-x="821" 
d="M0 -5l5 36q32 0 54 3t39 22.5t32 65.5t33 131l33 -9q-6 -25 -14 -62t-8 -68t9.5 -49.5t29.5 -26t53 -7.5t55.5 6.5t37.5 29t26.5 69.5t22.5 127l35 -6q-3 -18 -8 -45.5t-8.5 -54t-3.5 -43.5q0 -28 8.5 -46.5t31 -27.5t61.5 -9q60 0 84.5 23.5t24.5 78.5q0 23 -1 58
t-3.5 71t-5.5 62l35 3q4 -98 12 -156.5t25 -88.5t48 -40t82 -11q9 0 13 -5t4 -12q0 -6 -6 -12.5t-15 -6.5q-38 0 -66.5 7t-49 21t-33 34.5t-17.5 46.5l5 -1q-7 -45 -27.5 -68t-49.5 -31.5t-62 -8.5q-43 0 -69.5 11.5t-39.5 34.5t-17 58h13q-12 -35 -28.5 -58.5t-44 -34.5
t-72.5 -11q-26 0 -53 8.5t-44.5 33t-17.5 73.5l13 1q-15 -51 -36 -75.5t-52 -32.5t-73 -8zM364 -265q-13 0 -22.5 9t-9.5 22t9.5 22t22.5 9t22 -9t9 -22t-9 -22t-22 -9zM308 -176q-13 0 -22.5 9t-9.5 21q0 13 9.5 22.5t22.5 9.5t22 -9.5t9 -22.5q0 -12 -9 -21t-22 -9z
M419 -176q-13 0 -22 9t-9 21q0 13 9 22.5t22 9.5t22 -9.5t9 -22.5q0 -12 -9 -21t-22 -9z" />
    <glyph glyph-name="uni069B.fina" unicode="&#x69b;" horiz-adv-x="1190" 
d="M304 -230q-50 0 -96.5 13t-82.5 39.5t-57.5 66t-21.5 93.5q0 25 4 52.5t15 61t31 76.5l33 -14q-15 -31 -25 -61t-15.5 -58t-5.5 -53q0 -63 32.5 -103t84 -59t108.5 -19q75 0 122.5 21t74 53.5t36.5 71.5t10 75t-6 74t-15 78t-20 79l37 11q14 -57 21.5 -89t15.5 -60
q10 -34 21.5 -53t30 -27t47.5 -8q26 0 45 5.5t33 27t25.5 69.5t22.5 133l35 -6q-5 -35 -10 -62t-7.5 -47t-2.5 -37q0 -28 6 -46.5t27.5 -27.5t67.5 -9q51 0 76 25.5t25 76.5q0 23 -1.5 58.5t-4 72.5t-4.5 63l34 3q6 -84 10.5 -141t16.5 -91.5t39 -50t79 -16.5q9 0 12.5 -5
t3.5 -12q0 -6 -6 -12.5t-15 -6.5q-42 0 -72 12.5t-48.5 34t-25.5 49.5l7 -1q-7 -31 -23.5 -52t-43 -32t-61.5 -11q-50 0 -76.5 11.5t-37 34.5t-12.5 58l14 1q-11 -41 -28 -63.5t-42 -32t-60 -9.5q-33 0 -53.5 8.5t-32.5 22.5t-18 31.5t-10 35.5l22 -36q1 -57 -12 -109
t-45 -92t-87.5 -63t-140.5 -23zM812 -264q-13 0 -22.5 9t-9.5 22t9.5 22t22.5 9t22 -9t9 -22t-9 -22t-22 -9zM756 -175q-13 0 -22.5 9t-9.5 21q0 13 9.5 22.5t22.5 9.5t22 -9.5t9 -22.5q0 -12 -9 -21t-22 -9zM867 -175q-13 0 -22 9t-9 21q0 13 9 22.5t22 9.5t22 -9.5
t9 -22.5q0 -12 -9 -21t-22 -9z" />
    <glyph glyph-name="uni069D.init" unicode="&#x69d;" horiz-adv-x="894" 
d="M467 -18q-61 0 -116.5 5.5t-98.5 19.5t-68.5 38t-28.5 62l10 1q-16 -50 -38.5 -74t-52.5 -31.5t-74 -7.5l5 36q40 0 64.5 7t41.5 30.5t31 72t32 129.5l33 -8q-4 -19 -10.5 -43t-11 -48t-4.5 -42q0 -27 15.5 -48t49.5 -35t89 -21t134 -7q81 0 144.5 10t106 30t65 50
t22.5 70q0 35 -17 61t-46.5 40t-70.5 14q-47 0 -94.5 -24t-94 -64t-90.5 -89t-84 -98l-34 10q54 69 105 125t100.5 95t97.5 60t96 21q50 0 87 -17t58 -50t21 -80q0 -62 -38.5 -106.5t-120.5 -69t-215 -24.5zM546 -188q-13 0 -22.5 9t-9.5 22t9.5 22t22.5 9t22 -9t9 -22
t-9.5 -22t-21.5 -9zM434 -188q-13 0 -22 9t-9 22t9 22t22 9t22 -9t9 -22t-9 -22t-22 -9z" />
    <glyph glyph-name="uni069D.medi" unicode="&#x69d;" horiz-adv-x="949" 
d="M949 -5q-24 0 -61 4.5t-76 17t-68 35.5l32 19q47 -24 95.5 -32t81.5 -8q9 0 13 -5t4 -12q0 -6 -6 -12.5t-15 -6.5zM467 -18q-61 0 -116.5 5.5t-98.5 19.5t-68.5 38t-28.5 62l10 1q-16 -50 -38.5 -74t-52.5 -31.5t-74 -7.5l5 36q40 0 64.5 7t41.5 30.5t31 72t32 129.5
l33 -8q-4 -19 -10.5 -43t-11 -48t-4.5 -42q0 -27 15.5 -48t49.5 -35t89 -21t134 -7q81 0 144.5 10t106 30t65 50t22.5 70q0 35 -17 61t-46.5 40t-70.5 14q-47 0 -94.5 -24t-94 -64t-90.5 -89t-84 -98l-34 10q54 69 105 125t100.5 95t97.5 60t96 21q50 0 87 -17t58 -50
t21 -80q0 -62 -38.5 -106.5t-120.5 -69t-215 -24.5zM546 -188q-13 0 -22.5 9t-9.5 22t9.5 22t22.5 9t22 -9t9 -22t-9.5 -22t-21.5 -9zM434 -188q-13 0 -22 9t-9 22t9 22t22 9t22 -9t9 -22t-9 -22t-22 -9z" />
    <glyph glyph-name="uni069D.fina" unicode="&#x69d;" horiz-adv-x="1343" 
d="M1343 -5q-23 0 -60.5 4.5t-76 17t-68.5 35.5l32 19q47 -24 95.5 -32t82.5 -8q9 0 13 -5t4 -12q0 -6 -6.5 -12.5t-15.5 -6.5zM304 -230q-56 0 -103 14.5t-81.5 42.5t-54 67t-19.5 88q0 25 4 52.5t15 61t31 76.5l33 -14q-15 -31 -25 -61t-15.5 -58t-5.5 -53q0 -56 29.5 -97
t80 -62.5t115.5 -21.5q74 0 122 21t74.5 54.5t36.5 73.5t10 77q0 50 -12.5 108.5t-28.5 117.5l37 11q9 -38 15 -64t10 -43.5t8 -30.5q9 -27 26.5 -47t49 -33.5t80.5 -20t120 -6.5q47 0 95.5 4t93.5 14t79.5 28.5t55 46t20.5 66.5q0 29 -13.5 55.5t-42.5 44t-76 17.5
q-44 0 -89.5 -21t-90.5 -58.5t-91 -87.5t-94 -109l-33 9q42 55 83 102t81 84t79.5 63t79 40t79.5 14q57 0 92.5 -21t53 -55t17.5 -74q0 -57 -30.5 -94.5t-83.5 -60.5t-120 -33t-140 -10q-76 0 -127.5 7.5t-84 21t-51.5 31t-31 38.5l22 -18q2 -60 -10.5 -114t-44.5 -95
t-88 -64.5t-142 -23.5zM952 -183q-13 0 -22.5 9t-9.5 22t9.5 22t22.5 9t22 -9t9 -22t-9.5 -22t-21.5 -9zM840 -183q-13 0 -22 9t-9 22t9 22t22 9t22 -9t9 -22t-9 -22t-22 -9z" />
    <glyph glyph-name="uni069E.init" unicode="&#x69e;" horiz-adv-x="894" 
d="M467 -18q-61 0 -116.5 5.5t-98.5 19.5t-68.5 38t-28.5 62l10 1q-16 -50 -38.5 -74t-52.5 -31.5t-74 -7.5l5 36q40 0 64.5 7t41.5 30.5t31 72t32 129.5l33 -8q-4 -19 -10.5 -43t-11 -48t-4.5 -42q0 -27 15.5 -48t49.5 -35t89 -21t134 -7q81 0 144.5 10t106 30t65 50
t22.5 70q0 35 -17 61t-46.5 40t-70.5 14q-47 0 -94.5 -24t-94 -64t-90.5 -89t-84 -98l-34 10q54 69 105 125t100.5 95t97.5 60t96 21q50 0 87 -17t58 -50t21 -80q0 -62 -38.5 -106.5t-120.5 -69t-215 -24.5zM647 546q-12 0 -21.5 9.5t-9.5 21.5q0 13 9.5 22t21.5 9
q13 0 22.5 -9t9.5 -22q0 -12 -9.5 -21.5t-22.5 -9.5zM592 458q-12 0 -21.5 9t-9.5 22t9.5 22t21.5 9q13 0 22 -9t9 -22t-9 -22t-22 -9zM703 458q-12 0 -21.5 9t-9.5 22t9.5 22t21.5 9q13 0 22.5 -9t9.5 -22t-9.5 -22t-22.5 -9z" />
    <glyph glyph-name="uni069E.medi" unicode="&#x69e;" horiz-adv-x="949" 
d="M949 -5q-24 0 -61 4.5t-76 17t-68 35.5l32 19q47 -24 95.5 -32t81.5 -8q9 0 13 -5t4 -12q0 -6 -6 -12.5t-15 -6.5zM467 -18q-61 0 -116.5 5.5t-98.5 19.5t-68.5 38t-28.5 62l10 1q-16 -50 -38.5 -74t-52.5 -31.5t-74 -7.5l5 36q40 0 64.5 7t41.5 30.5t31 72t32 129.5
l33 -8q-4 -19 -10.5 -43t-11 -48t-4.5 -42q0 -27 15.5 -48t49.5 -35t89 -21t134 -7q81 0 144.5 10t106 30t65 50t22.5 70q0 35 -17 61t-46.5 40t-70.5 14q-47 0 -94.5 -24t-94 -64t-90.5 -89t-84 -98l-34 10q54 69 105 125t100.5 95t97.5 60t96 21q50 0 87 -17t58 -50
t21 -80q0 -62 -38.5 -106.5t-120.5 -69t-215 -24.5zM647 546q-12 0 -21.5 9.5t-9.5 21.5q0 13 9.5 22t21.5 9q13 0 22.5 -9t9.5 -22q0 -12 -9.5 -21.5t-22.5 -9.5zM592 458q-12 0 -21.5 9t-9.5 22t9.5 22t21.5 9q13 0 22 -9t9 -22t-9 -22t-22 -9zM703 458q-12 0 -21.5 9
t-9.5 22t9.5 22t21.5 9q13 0 22.5 -9t9.5 -22t-9.5 -22t-22.5 -9z" />
    <glyph glyph-name="uni069E.fina" unicode="&#x69e;" horiz-adv-x="1343" 
d="M1343 -5q-23 0 -60.5 4.5t-76 17t-68.5 35.5l32 19q47 -24 95.5 -32t82.5 -8q9 0 13 -5t4 -12q0 -6 -6.5 -12.5t-15.5 -6.5zM304 -230q-56 0 -103 14.5t-81.5 42.5t-54 67t-19.5 88q0 25 4 52.5t15 61t31 76.5l33 -14q-15 -31 -25 -61t-15.5 -58t-5.5 -53q0 -56 29.5 -97
t80 -62.5t115.5 -21.5q74 0 122 21t74.5 54.5t36.5 73.5t10 77q0 50 -12.5 108.5t-28.5 117.5l37 11q9 -38 15 -64t10 -43.5t8 -30.5q9 -27 26.5 -47t49 -33.5t80.5 -20t120 -6.5q47 0 95.5 4t93.5 14t79.5 28.5t55 46t20.5 66.5q0 29 -13.5 55.5t-42.5 44t-76 17.5
q-44 0 -89.5 -21t-90.5 -58.5t-91 -87.5t-94 -109l-33 9q42 55 83 102t81 84t79.5 63t79 40t79.5 14q57 0 92.5 -21t53 -55t17.5 -74q0 -57 -30.5 -94.5t-83.5 -60.5t-120 -33t-140 -10q-76 0 -127.5 7.5t-84 21t-51.5 31t-31 38.5l22 -18q2 -60 -10.5 -114t-44.5 -95
t-88 -64.5t-142 -23.5zM1044 552q-12 0 -21.5 9.5t-9.5 21.5q0 13 9.5 22t21.5 9q13 0 22.5 -9t9.5 -22q0 -12 -9.5 -21.5t-22.5 -9.5zM989 464q-12 0 -21.5 9t-9.5 22t9.5 22t21.5 9q13 0 22 -9t9 -22t-9 -22t-22 -9zM1100 464q-12 0 -21.5 9t-9.5 22t9.5 22t21.5 9
q13 0 22.5 -9t9.5 -22t-9.5 -22t-22.5 -9z" />
    <glyph glyph-name="uni069F.init" unicode="&#x69f;" horiz-adv-x="669" 
d="M0 -5l5 36h271q73 0 129.5 9.5t96 28.5t59.5 47t20 67q0 30 -14.5 56t-44 42.5t-74.5 16.5q-49 0 -99 -26t-97.5 -68t-90 -90t-78.5 -92l-43 -9q48 64 97.5 122t101 103t104.5 70.5t109 25.5t92.5 -21t54 -55t17.5 -75q0 -52 -34 -96.5t-115 -68.5q-42 -12 -93.5 -17
t-117 -5.5t-151.5 -0.5h-105zM95 70l-20 644h36l20 -600zM404 551q-12 0 -21.5 9.5t-9.5 21.5q0 13 9.5 22t21.5 9q13 0 22.5 -9t9.5 -22q0 -12 -9.5 -21.5t-22.5 -9.5zM349 463q-12 0 -21.5 9t-9.5 22t9.5 22t21.5 9q13 0 22 -9t9 -22t-9 -22t-22 -9zM460 463
q-12 0 -21.5 9t-9.5 22t9.5 22t21.5 9q13 0 22.5 -9t9.5 -22t-9.5 -22t-22.5 -9z" />
    <glyph glyph-name="uni069F.medi" unicode="&#x69f;" horiz-adv-x="710" 
d="M710 -5q-24 0 -61 4.5t-76 17t-68 35.5l32 19q47 -24 95.5 -32t81.5 -8q9 0 13 -5t4 -12q0 -6 -6 -12.5t-15 -6.5zM0 -5l5 36h271q73 0 129.5 9.5t96 28.5t59.5 47t20 67q0 30 -14.5 56t-44 42.5t-74.5 16.5q-49 0 -99 -26t-97.5 -68t-90 -90t-78.5 -92l-43 -9
q48 64 97.5 122t101 103t104.5 70.5t109 25.5t92.5 -21t54 -55t17.5 -75q0 -52 -34 -96.5t-115 -68.5q-42 -12 -93.5 -17t-117 -5.5t-151.5 -0.5h-105zM95 70l-20 644h36l20 -600zM404 551q-12 0 -21.5 9.5t-9.5 21.5q0 13 9.5 22t21.5 9q13 0 22.5 -9t9.5 -22
q0 -12 -9.5 -21.5t-22.5 -9.5zM349 463q-12 0 -21.5 9t-9.5 22t9.5 22t21.5 9q13 0 22 -9t9 -22t-9 -22t-22 -9zM460 463q-12 0 -21.5 9t-9.5 22t9.5 22t21.5 9q13 0 22.5 -9t9.5 -22t-9.5 -22t-22.5 -9z" />
    <glyph glyph-name="uni069F.fina" unicode="&#x69f;" horiz-adv-x="845" 
d="M845 -5q-23 0 -60 4.5t-76 17t-69 35.5l32 19q47 -24 95.5 -32t82.5 -8q9 0 13 -5t4 -12q0 -6 -6 -12.5t-16 -6.5zM360 -13q-45 0 -92.5 2t-91.5 4.5t-80 6t-60 6.5l4 35q28 -3 66 -6.5t83 -6t90.5 -4t87.5 -1.5q76 0 139.5 8.5t109.5 27t72 49t26 75.5q0 33 -15.5 59
t-45 41.5t-72.5 15.5q-49 0 -96.5 -24t-93.5 -64.5t-90 -89.5t-85 -98l-43 -9q53 72 104.5 131t102.5 101.5t101.5 65.5t102.5 23q55 0 91.5 -19.5t55 -53.5t18.5 -77q0 -70 -46.5 -113.5t-133.5 -64t-209 -20.5zM229 77l-20 637h36l20 -598zM536 552q-12 0 -21.5 9.5
t-9.5 21.5q0 13 9.5 22t21.5 9q13 0 22.5 -9t9.5 -22q0 -12 -9.5 -21.5t-22.5 -9.5zM481 464q-12 0 -21.5 9t-9.5 22t9.5 22t21.5 9q13 0 22 -9t9 -22t-9 -22t-22 -9zM592 464q-12 0 -21.5 9t-9.5 22t9.5 22t21.5 9q13 0 22.5 -9t9.5 -22t-9.5 -22t-22.5 -9z" />
    <glyph glyph-name="uni06A0.init" unicode="&#x6a0;" horiz-adv-x="448" 
d="M0 -5l5 36q56 0 95.5 2.5t70 7t57.5 8.5q-43 13 -78.5 37t-57 61t-21.5 84q0 52 24.5 94t67.5 66.5t99 24.5q25 0 49.5 -5t44.5 -11l-8 -33q-18 5 -41 9t-45 4q-43 0 -78.5 -18.5t-56.5 -52t-21 -77.5q0 -37 15.5 -65t39 -47t50 -30.5t48.5 -17t34 -6.5q19 5 31 8
t22.5 6.5t26 10t41.5 16.5l12 -32q-67 -26 -131 -44t-134.5 -27t-160.5 -9zM261 636q-12 0 -21.5 9.5t-9.5 21.5q0 13 9.5 22t21.5 9q13 0 22.5 -9t9.5 -22q0 -12 -9.5 -21.5t-22.5 -9.5zM206 548q-12 0 -21.5 9t-9.5 22t9.5 22t21.5 9q13 0 22 -9t9 -22t-9 -22t-22 -9z
M317 548q-12 0 -21.5 9t-9.5 22t9.5 22t21.5 9q13 0 22.5 -9t9.5 -22t-9.5 -22t-22.5 -9z" />
    <glyph glyph-name="uni06A0.medi" unicode="&#x6a0;" horiz-adv-x="486" 
d="M0 -5l5 36q56 0 109 16t99 43t80 60t53.5 67t19.5 64q0 15 -10 32t-34.5 29t-67.5 12q-42 0 -77 -11.5t-57.5 -26t-30.5 -25.5q29 -27 58 -58t57 -62.5t52 -63.5q28 -26 58 -41.5t60 -23t59 -9.5t57 -2q9 0 13 -5t4 -12q0 -6 -6 -12.5t-15 -6.5q-45 0 -89 7t-85 26
t-78 55q-24 31 -52.5 64t-58 64t-57.5 54q-2 3 -4.5 7.5t-4 10t-1.5 8.5q0 12 17 29t46 32.5t65 26t75 10.5q45 0 77 -13t49 -35.5t17 -50.5q0 -37 -21 -77.5t-58.5 -79t-88 -70t-110.5 -50t-124 -18.5zM243 606q-12 0 -21.5 9.5t-9.5 21.5q0 13 9.5 22t21.5 9q13 0 22.5 -9
t9.5 -22q0 -12 -9.5 -21.5t-22.5 -9.5zM188 518q-12 0 -21.5 9t-9.5 22t9.5 22t21.5 9q13 0 22 -9t9 -22t-9 -22t-22 -9zM299 518q-12 0 -21.5 9t-9.5 22t9.5 22t21.5 9q13 0 22.5 -9t9.5 -22t-9.5 -22t-22.5 -9z" />
    <glyph glyph-name="uni06A0.fina" unicode="&#x6a0;" horiz-adv-x="504" 
d="M307 -394q-43 0 -92 9t-92 32.5t-70 66.5t-27 110q0 60 26 108.5t66.5 87t86 71t86 62t66.5 60.5t26 66q0 12 -8 29.5t-32 31.5t-73 14q-38 0 -71 -10.5t-57.5 -25.5t-33.5 -27q26 -23 52.5 -52t53 -59.5t49.5 -60.5q30 -30 58 -48t57 -26.5t61 -11t69 -2.5q9 0 13 -5
t4 -12q0 -6 -6 -12.5t-15 -6.5q-59 0 -106 8.5t-86 31t-75 62.5q-18 23 -43 54t-53 61.5t-55 53.5q-3 3 -5.5 7.5t-3.5 9.5t-1 8q0 12 17 29t45.5 32.5t64.5 26t73 10.5q69 0 105.5 -29t36.5 -73t-25.5 -80.5t-66 -68.5t-86.5 -64.5t-86 -68t-66 -78.5t-26 -98
q0 -46 17.5 -81.5t50 -58.5t77.5 -35t100 -12q36 0 72.5 4.5t70.5 13.5t60 22l13 -31q-33 -14 -70.5 -24.5t-74.5 -15.5t-71 -5zM282 606q-12 0 -21.5 9.5t-9.5 21.5q0 13 9.5 22t21.5 9q13 0 22.5 -9t9.5 -22q0 -12 -9.5 -21.5t-22.5 -9.5zM227 518q-12 0 -21.5 9t-9.5 22
t9.5 22t21.5 9q13 0 22 -9t9 -22t-9 -22t-22 -9zM338 518q-12 0 -21.5 9t-9.5 22t9.5 22t21.5 9q13 0 22.5 -9t9.5 -22t-9.5 -22t-22.5 -9z" />
    <glyph glyph-name="uni06A1.init" unicode="&#x6a1;" horiz-adv-x="434" 
d="M0 -5l5 36q43 0 82 1t74 5t63 11.5t48 19.5q19 10 36 29t27.5 54.5t10.5 93.5q0 49 -13.5 96t-40 77t-64.5 30q-28 0 -55 -24.5t-44 -61.5t-17 -75q0 -39 16 -60t43.5 -28.5t61.5 -7.5t68 7.5t55 17.5l4 -31q-16 -11 -38 -17.5t-46 -9t-48 -2.5q-42 0 -76.5 11.5
t-54.5 38.5t-20 73q0 35 12 71t33 67t49.5 49.5t60.5 18.5q48 0 81 -34.5t50.5 -90.5t17.5 -121q0 -63 -18 -111.5t-66 -83.5q-19 -13 -45.5 -22t-63 -15.5t-83 -9t-105.5 -2.5z" />
    <glyph glyph-name="uni06A1.medi" unicode="&#x6a1;" horiz-adv-x="490" 
d="M0 -5l5 36q28 0 56.5 2t55.5 7t52.5 11.5t48.5 15.5q41 16 72.5 36.5t50 49t18.5 68.5q0 30 -14 63t-39.5 56.5t-62.5 23.5q-29 0 -57 -20t-46 -53t-18 -73q0 -41 18.5 -69.5t47.5 -47.5t60 -33l-42 -13q-24 12 -51.5 32t-47.5 52t-20 80q0 37 13.5 70t35.5 58t50 38.5
t57 13.5q44 0 77.5 -25.5t53 -65.5t19.5 -85q0 -35 -11.5 -63t-32 -49.5t-48.5 -38.5t-61 -32q-26 -12 -54.5 -20t-59.5 -14t-62.5 -8.5t-63.5 -2.5zM490 -5q-44 0 -95 7t-98 18.5t-79 25.5l34 21q24 -6 58.5 -14.5t81 -15t103.5 -6.5q9 0 13 -5t4 -12q0 -6 -6.5 -12.5
t-15.5 -6.5z" />
    <glyph glyph-name="uni06A1.fina" unicode="&#x6a1;" horiz-adv-x="1082" 
d="M406 -21l26 36q44 0 96.5 3t106 9t100.5 15.5t81 23.5q41 17 72.5 38t49 49.5t17.5 65.5q0 20 -7.5 45t-22 47.5t-36 37.5t-50.5 15t-57 -21t-46 -55t-18 -74q0 -34 18 -62t47 -48.5t62 -34.5l-45 -14q-24 12 -51 33t-46 52t-19 73q0 38 13 71.5t35.5 59.5t50.5 40.5
t57 14.5q43 0 76.5 -26.5t53.5 -67.5t20 -85q0 -32 -11.5 -59t-31.5 -49.5t-47.5 -40t-59.5 -32.5q-36 -16 -86.5 -28t-109.5 -19t-120 -10t-118 -3zM1082 -5q-50 0 -98.5 6.5t-91.5 18.5t-77 26l34 20q24 -5 55 -14t75 -15t107 -6q10 0 13.5 -5t3.5 -12q0 -6 -6 -12.5
t-15 -6.5zM406 -21q-87 0 -154.5 11t-113 34.5t-69 60.5t-23.5 89q0 23 3.5 47.5t9.5 49t13 46.5l32 -9q-5 -18 -10 -38.5t-8.5 -42.5t-3.5 -44q0 -62 38.5 -99t116.5 -53t195 -16l20 -22z" />
    <glyph glyph-name="fehDotMovedbelowar.init" unicode="&#x6a2;" horiz-adv-x="434" 
d="M0 -5l5 36q43 0 82 1t74 5t63 11.5t48 19.5q19 10 36 29t27.5 54.5t10.5 93.5q0 49 -13.5 96t-40 77t-64.5 30q-28 0 -55 -24.5t-44 -61.5t-17 -75q0 -39 16 -60t43.5 -28.5t61.5 -7.5t68 7.5t55 17.5l4 -31q-16 -11 -38 -17.5t-46 -9t-48 -2.5q-42 0 -76.5 11.5
t-54.5 38.5t-20 73q0 35 12 71t33 67t49.5 49.5t60.5 18.5q48 0 81 -34.5t50.5 -90.5t17.5 -121q0 -63 -18 -111.5t-66 -83.5q-19 -13 -45.5 -22t-63 -15.5t-83 -9t-105.5 -2.5zM208 -175q-13 0 -22.5 9t-9.5 22q0 12 9.5 21.5t22.5 9.5t22 -9.5t9 -21.5q0 -13 -9 -22
t-22 -9z" />
    <glyph glyph-name="fehDotMovedbelowar.medi" unicode="&#x6a2;" horiz-adv-x="490" 
d="M0 -5l5 36q28 0 56.5 2t55.5 7t52.5 11.5t48.5 15.5q41 16 72.5 36.5t50 49t18.5 68.5q0 30 -14 63t-39.5 56.5t-62.5 23.5q-29 0 -57 -20t-46 -53t-18 -73q0 -41 18.5 -69.5t47.5 -47.5t60 -33l-42 -13q-24 12 -51.5 32t-47.5 52t-20 80q0 37 13.5 70t35.5 58t50 38.5
t57 13.5q44 0 77.5 -25.5t53 -65.5t19.5 -85q0 -35 -11.5 -63t-32 -49.5t-48.5 -38.5t-61 -32q-26 -12 -54.5 -20t-59.5 -14t-62.5 -8.5t-63.5 -2.5zM490 -5q-44 0 -95 7t-98 18.5t-79 25.5l34 21q24 -6 58.5 -14.5t81 -15t103.5 -6.5q9 0 13 -5t4 -12q0 -6 -6.5 -12.5
t-15.5 -6.5zM228 -175q-13 0 -22.5 9t-9.5 22q0 12 9.5 21.5t22.5 9.5t22 -9.5t9 -21.5q0 -13 -9 -22t-22 -9z" />
    <glyph glyph-name="fehDotMovedbelowar.fina" unicode="&#x6a2;" horiz-adv-x="1082" 
d="M406 -21l26 36q44 0 96.5 3t106 9t100.5 15.5t81 23.5q41 17 72.5 38t49 49.5t17.5 65.5q0 20 -7.5 45t-22 47.5t-36 37.5t-50.5 15t-57 -21t-46 -55t-18 -74q0 -34 18 -62t47 -48.5t62 -34.5l-45 -14q-24 12 -51 33t-46 52t-19 73q0 38 13 71.5t35.5 59.5t50.5 40.5
t57 14.5q43 0 76.5 -26.5t53.5 -67.5t20 -85q0 -32 -11.5 -59t-31.5 -49.5t-47.5 -40t-59.5 -32.5q-36 -16 -86.5 -28t-109.5 -19t-120 -10t-118 -3zM1082 -5q-50 0 -98.5 6.5t-91.5 18.5t-77 26l34 20q24 -5 55 -14t75 -15t107 -6q10 0 13.5 -5t3.5 -12q0 -6 -6 -12.5
t-15 -6.5zM406 -21q-87 0 -154.5 11t-113 34.5t-69 60.5t-23.5 89q0 23 3.5 47.5t9.5 49t13 46.5l32 -9q-5 -18 -10 -38.5t-8.5 -42.5t-3.5 -44q0 -62 38.5 -99t116.5 -53t195 -16l20 -22zM453 -195q-13 0 -22.5 9t-9.5 22q0 12 9.5 21.5t22.5 9.5t22 -9.5t9 -21.5
q0 -13 -9 -22t-22 -9z" />
    <glyph glyph-name="uni06A3.init" unicode="&#x6a3;" horiz-adv-x="434" 
d="M0 -5l5 36q43 0 82 1t74 5t63 11.5t48 19.5q19 10 36 29t27.5 54.5t10.5 93.5q0 49 -13.5 96t-40 77t-64.5 30q-28 0 -55 -24.5t-44 -61.5t-17 -75q0 -39 16 -60t43.5 -28.5t61.5 -7.5t68 7.5t55 17.5l4 -31q-16 -11 -38 -17.5t-46 -9t-48 -2.5q-42 0 -76.5 11.5
t-54.5 38.5t-20 73q0 35 12 71t33 67t49.5 49.5t60.5 18.5q48 0 81 -34.5t50.5 -90.5t17.5 -121q0 -63 -18 -111.5t-66 -83.5q-19 -13 -45.5 -22t-63 -15.5t-83 -9t-105.5 -2.5zM225 614q-13 0 -22.5 9t-9.5 21q0 13 9.5 22.5t22.5 9.5t22 -9.5t9 -22.5q0 -12 -9 -21t-22 -9
zM208 -175q-13 0 -22.5 9t-9.5 22q0 12 9.5 21.5t22.5 9.5t22 -9.5t9 -21.5q0 -13 -9 -22t-22 -9z" />
    <glyph glyph-name="uni06A3.medi" unicode="&#x6a3;" horiz-adv-x="490" 
d="M0 -5l5 36q28 0 56.5 2t55.5 7t52.5 11.5t48.5 15.5q41 16 72.5 36.5t50 49t18.5 68.5q0 30 -14 63t-39.5 56.5t-62.5 23.5q-29 0 -57 -20t-46 -53t-18 -73q0 -41 18.5 -69.5t47.5 -47.5t60 -33l-42 -13q-24 12 -51.5 32t-47.5 52t-20 80q0 37 13.5 70t35.5 58t50 38.5
t57 13.5q44 0 77.5 -25.5t53 -65.5t19.5 -85q0 -35 -11.5 -63t-32 -49.5t-48.5 -38.5t-61 -32q-26 -12 -54.5 -20t-59.5 -14t-62.5 -8.5t-63.5 -2.5zM490 -5q-44 0 -95 7t-98 18.5t-79 25.5l34 21q24 -6 58.5 -14.5t81 -15t103.5 -6.5q9 0 13 -5t4 -12q0 -6 -6.5 -12.5
t-15.5 -6.5zM227 528q-13 0 -22.5 9t-9.5 21q0 13 9.5 22.5t22.5 9.5t22 -9.5t9 -22.5q0 -12 -9 -21t-22 -9zM228 -175q-13 0 -22.5 9t-9.5 22q0 12 9.5 21.5t22.5 9.5t22 -9.5t9 -21.5q0 -13 -9 -22t-22 -9z" />
    <glyph glyph-name="uni06A3.fina" unicode="&#x6a3;" horiz-adv-x="1082" 
d="M406 -21l26 36q44 0 96.5 3t106 9t100.5 15.5t81 23.5q41 17 72.5 38t49 49.5t17.5 65.5q0 20 -7.5 45t-22 47.5t-36 37.5t-50.5 15t-57 -21t-46 -55t-18 -74q0 -34 18 -62t47 -48.5t62 -34.5l-45 -14q-24 12 -51 33t-46 52t-19 73q0 38 13 71.5t35.5 59.5t50.5 40.5
t57 14.5q43 0 76.5 -26.5t53.5 -67.5t20 -85q0 -32 -11.5 -59t-31.5 -49.5t-47.5 -40t-59.5 -32.5q-36 -16 -86.5 -28t-109.5 -19t-120 -10t-118 -3zM1082 -5q-50 0 -98.5 6.5t-91.5 18.5t-77 26l34 20q24 -5 55 -14t75 -15t107 -6q10 0 13.5 -5t3.5 -12q0 -6 -6 -12.5
t-15 -6.5zM406 -21q-87 0 -154.5 11t-113 34.5t-69 60.5t-23.5 89q0 23 3.5 47.5t9.5 49t13 46.5l32 -9q-5 -18 -10 -38.5t-8.5 -42.5t-3.5 -44q0 -62 38.5 -99t116.5 -53t195 -16l20 -22zM835 528q-13 0 -22.5 9t-9.5 21q0 13 9.5 22.5t22.5 9.5t22 -9.5t9 -22.5
q0 -12 -9 -21t-22 -9zM453 -195q-13 0 -22.5 9t-9.5 22q0 12 9.5 21.5t22.5 9.5t22 -9.5t9 -21.5q0 -13 -9 -22t-22 -9z" />
    <glyph glyph-name="uni06A5.init" unicode="&#x6a5;" horiz-adv-x="434" 
d="M0 -5l5 36q43 0 82 1t74 5t63 11.5t48 19.5q19 10 36 29t27.5 54.5t10.5 93.5q0 49 -13.5 96t-40 77t-64.5 30q-28 0 -55 -24.5t-44 -61.5t-17 -75q0 -39 16 -60t43.5 -28.5t61.5 -7.5t68 7.5t55 17.5l4 -31q-16 -11 -38 -17.5t-46 -9t-48 -2.5q-42 0 -76.5 11.5
t-54.5 38.5t-20 73q0 35 12 71t33 67t49.5 49.5t60.5 18.5q48 0 81 -34.5t50.5 -90.5t17.5 -121q0 -63 -18 -111.5t-66 -83.5q-19 -13 -45.5 -22t-63 -15.5t-83 -9t-105.5 -2.5zM207 -265q-13 0 -22.5 9t-9.5 22t9.5 22t22.5 9t22 -9t9 -22t-9 -22t-22 -9zM151 -176
q-13 0 -22.5 9t-9.5 21q0 13 9.5 22.5t22.5 9.5t22 -9.5t9 -22.5q0 -12 -9 -21t-22 -9zM262 -176q-13 0 -22 9t-9 21q0 13 9 22.5t22 9.5t22 -9.5t9 -22.5q0 -12 -9 -21t-22 -9z" />
    <glyph glyph-name="uni06A5.medi" unicode="&#x6a5;" horiz-adv-x="490" 
d="M0 -5l5 36q28 0 56.5 2t55.5 7t52.5 11.5t48.5 15.5q41 16 72.5 36.5t50 49t18.5 68.5q0 30 -14 63t-39.5 56.5t-62.5 23.5q-29 0 -57 -20t-46 -53t-18 -73q0 -41 18.5 -69.5t47.5 -47.5t60 -33l-42 -13q-24 12 -51.5 32t-47.5 52t-20 80q0 37 13.5 70t35.5 58t50 38.5
t57 13.5q44 0 77.5 -25.5t53 -65.5t19.5 -85q0 -35 -11.5 -63t-32 -49.5t-48.5 -38.5t-61 -32q-26 -12 -54.5 -20t-59.5 -14t-62.5 -8.5t-63.5 -2.5zM490 -5q-44 0 -95 7t-98 18.5t-79 25.5l34 21q24 -6 58.5 -14.5t81 -15t103.5 -6.5q9 0 13 -5t4 -12q0 -6 -6.5 -12.5
t-15.5 -6.5zM227 -265q-13 0 -22.5 9t-9.5 22t9.5 22t22.5 9t22 -9t9 -22t-9 -22t-22 -9zM171 -176q-13 0 -22.5 9t-9.5 21q0 13 9.5 22.5t22.5 9.5t22 -9.5t9 -22.5q0 -12 -9 -21t-22 -9zM282 -176q-13 0 -22 9t-9 21q0 13 9 22.5t22 9.5t22 -9.5t9 -22.5q0 -12 -9 -21
t-22 -9z" />
    <glyph glyph-name="uni06A5.fina" unicode="&#x6a5;" horiz-adv-x="1082" 
d="M406 -21l26 36q44 0 96.5 3t106 9t100.5 15.5t81 23.5q41 17 72.5 38t49 49.5t17.5 65.5q0 20 -7.5 45t-22 47.5t-36 37.5t-50.5 15t-57 -21t-46 -55t-18 -74q0 -34 18 -62t47 -48.5t62 -34.5l-45 -14q-24 12 -51 33t-46 52t-19 73q0 38 13 71.5t35.5 59.5t50.5 40.5
t57 14.5q43 0 76.5 -26.5t53.5 -67.5t20 -85q0 -32 -11.5 -59t-31.5 -49.5t-47.5 -40t-59.5 -32.5q-36 -16 -86.5 -28t-109.5 -19t-120 -10t-118 -3zM1082 -5q-50 0 -98.5 6.5t-91.5 18.5t-77 26l34 20q24 -5 55 -14t75 -15t107 -6q10 0 13.5 -5t3.5 -12q0 -6 -6 -12.5
t-15 -6.5zM406 -21q-87 0 -154.5 11t-113 34.5t-69 60.5t-23.5 89q0 23 3.5 47.5t9.5 49t13 46.5l32 -9q-5 -18 -10 -38.5t-8.5 -42.5t-3.5 -44q0 -62 38.5 -99t116.5 -53t195 -16l20 -22zM452 -285q-13 0 -22.5 9t-9.5 22t9.5 22t22.5 9t22 -9t9 -22t-9 -22t-22 -9z
M396 -196q-13 0 -22.5 9t-9.5 21q0 13 9.5 22.5t22.5 9.5t22 -9.5t9 -22.5q0 -12 -9 -21t-22 -9zM507 -196q-13 0 -22 9t-9 21q0 13 9 22.5t22 9.5t22 -9.5t9 -22.5q0 -12 -9 -21t-22 -9z" />
    <glyph glyph-name="uni06A7.fina" unicode="&#x6a7;" horiz-adv-x="808" 
d="M328 -272q-65 0 -117 13.5t-89 41.5t-56.5 72.5t-19.5 107.5q0 11 3 39t15 69t39 89l32 -16q-14 -23 -26 -51t-19 -59t-7 -65q0 -78 32 -122.5t89.5 -63.5t132.5 -19q37 0 79.5 5t83.5 17.5t77 35t62 57.5t37 86q5 21 7.5 48t2.5 49q0 63 -15.5 112.5t-41.5 77.5t-59 28
q-23 0 -44 -15t-38 -39.5t-26.5 -53t-9.5 -56.5t11.5 -45t31 -25.5t46 -11.5t55.5 -3h216q9 0 13 -5t4 -12q0 -6 -6 -12.5t-15 -6.5h-223q-32 0 -62 4.5t-53.5 17t-38 35t-14.5 59.5q0 33 12 69t33.5 67t50 50t61.5 19q44 0 77 -33t52 -91t19 -134q0 -28 -4.5 -59.5
t-12.5 -58.5q-19 -66 -60 -108t-95 -64.5t-112 -31t-110 -8.5zM567 445q-13 0 -22.5 9t-9.5 21q0 13 9.5 22.5t22.5 9.5t22 -9.5t9 -22.5q0 -12 -9 -21t-22 -9z" />
    <glyph glyph-name="uni06A8.init" unicode="&#x6a8;" horiz-adv-x="434" 
d="M0 -5l5 36q43 0 82 1t74 5t63 11.5t48 19.5q19 10 36 29t27.5 54.5t10.5 93.5q0 49 -13.5 96t-40 77t-64.5 30q-28 0 -55 -24.5t-44 -61.5t-17 -75q0 -39 16 -60t43.5 -28.5t61.5 -7.5t68 7.5t55 17.5l4 -31q-16 -11 -38 -17.5t-46 -9t-48 -2.5q-42 0 -76.5 11.5
t-54.5 38.5t-20 73q0 35 12 71t33 67t49.5 49.5t60.5 18.5q48 0 81 -34.5t50.5 -90.5t17.5 -121q0 -63 -18 -111.5t-66 -83.5q-19 -13 -45.5 -22t-63 -15.5t-83 -9t-105.5 -2.5zM226 702q-12 0 -21.5 9.5t-9.5 21.5q0 13 9.5 22t21.5 9q13 0 22.5 -9t9.5 -22
q0 -12 -9.5 -21.5t-22.5 -9.5zM171 614q-12 0 -21.5 9t-9.5 22t9.5 22t21.5 9q13 0 22 -9t9 -22t-9 -22t-22 -9zM282 614q-12 0 -21.5 9t-9.5 22t9.5 22t21.5 9q13 0 22.5 -9t9.5 -22t-9.5 -22t-22.5 -9z" />
    <glyph glyph-name="uni06A8.medi" unicode="&#x6a8;" horiz-adv-x="490" 
d="M0 -5l5 36q28 0 56.5 2t55.5 7t52.5 11.5t48.5 15.5q41 16 72.5 36.5t50 49t18.5 68.5q0 30 -14 63t-39.5 56.5t-62.5 23.5q-29 0 -57 -20t-46 -53t-18 -73q0 -41 18.5 -69.5t47.5 -47.5t60 -33l-42 -13q-24 12 -51.5 32t-47.5 52t-20 80q0 37 13.5 70t35.5 58t50 38.5
t57 13.5q44 0 77.5 -25.5t53 -65.5t19.5 -85q0 -35 -11.5 -63t-32 -49.5t-48.5 -38.5t-61 -32q-26 -12 -54.5 -20t-59.5 -14t-62.5 -8.5t-63.5 -2.5zM490 -5q-44 0 -95 7t-98 18.5t-79 25.5l34 21q24 -6 58.5 -14.5t81 -15t103.5 -6.5q9 0 13 -5t4 -12q0 -6 -6.5 -12.5
t-15.5 -6.5zM228 616q-12 0 -21.5 9.5t-9.5 21.5q0 13 9.5 22t21.5 9q13 0 22.5 -9t9.5 -22q0 -12 -9.5 -21.5t-22.5 -9.5zM173 528q-12 0 -21.5 9t-9.5 22t9.5 22t21.5 9q13 0 22 -9t9 -22t-9 -22t-22 -9zM284 528q-12 0 -21.5 9t-9.5 22t9.5 22t21.5 9q13 0 22.5 -9
t9.5 -22t-9.5 -22t-22.5 -9z" />
    <glyph glyph-name="uni06A8.fina" unicode="&#x6a8;" horiz-adv-x="808" 
d="M328 -272q-65 0 -117 13.5t-89 41.5t-56.5 72.5t-19.5 107.5q0 11 3 39t15 69t39 89l32 -16q-14 -23 -26 -51t-19 -59t-7 -65q0 -78 32 -122.5t89.5 -63.5t132.5 -19q37 0 79.5 5t83.5 17.5t77 35t62 57.5t37 86q5 21 7.5 48t2.5 49q0 63 -15.5 112.5t-41.5 77.5t-59 28
q-23 0 -44 -15t-38 -39.5t-26.5 -53t-9.5 -56.5t11.5 -45t31 -25.5t46 -11.5t55.5 -3h216q9 0 13 -5t4 -12q0 -6 -6 -12.5t-15 -6.5h-223q-32 0 -62 4.5t-53.5 17t-38 35t-14.5 59.5q0 33 12 69t33.5 67t50 50t61.5 19q44 0 77 -33t52 -91t19 -134q0 -28 -4.5 -59.5
t-12.5 -58.5q-19 -66 -60 -108t-95 -64.5t-112 -31t-110 -8.5zM568 533q-12 0 -21.5 9.5t-9.5 21.5q0 13 9.5 22t21.5 9q13 0 22.5 -9t9.5 -22q0 -12 -9.5 -21.5t-22.5 -9.5zM513 445q-12 0 -21.5 9t-9.5 22t9.5 22t21.5 9q13 0 22 -9t9 -22t-9 -22t-22 -9zM624 445
q-12 0 -21.5 9t-9.5 22t9.5 22t21.5 9q13 0 22.5 -9t9.5 -22t-9.5 -22t-22.5 -9z" />
    <glyph glyph-name="uni06AA.init" unicode="&#x6aa;" horiz-adv-x="734" 
d="M0 -5l5 36h254q92 0 162.5 4.5t118 16t72 30.5t24.5 47q0 17 -8.5 33.5t-33 32t-72 27.5t-125.5 21q-106 11 -170 20.5t-92.5 28t-29.5 52.5q0 37 29 71t80 63t118.5 52.5t144.5 40.5l7 -33q-119 -27 -195 -61t-112 -68t-36 -61q0 -21 25 -33t81.5 -20t151.5 -19
q62 -6 111 -16.5t84.5 -27t54.5 -40.5t19 -58q0 -46 -32 -73.5t-88.5 -41.5t-130.5 -19t-157 -5h-260z" />
    <glyph glyph-name="uni06AA.medi" unicode="&#x6aa;" horiz-adv-x="817" 
d="M817 -5q-23 0 -60.5 4.5t-76 17t-68.5 35.5l32 19q47 -24 95.5 -32t82.5 -8q9 0 13 -5t4 -12q0 -6 -6 -12.5t-16 -6.5zM0 -5l5 36h254q92 0 162.5 4.5t118 16t72 30.5t24.5 47q0 17 -8.5 33.5t-33 32t-72 27.5t-125.5 21q-106 11 -170 20.5t-92.5 28t-29.5 52.5
q0 37 29 71t80 63t118.5 52.5t144.5 40.5l7 -33q-119 -27 -195 -61t-112 -68t-36 -61q0 -21 25 -33t81.5 -20t151.5 -19q62 -6 111 -16.5t84.5 -27t54.5 -40.5t19 -58q0 -46 -32 -73.5t-88.5 -41.5t-130.5 -19t-157 -5h-260z" />
    <glyph glyph-name="uni06AA.fina" unicode="&#x6aa;" horiz-adv-x="1091" 
d="M1091 -5q-24 0 -61 4.5t-76 17t-68 35.5l32 19q47 -24 95.5 -32t81.5 -8q9 0 13 -5t4 -12q0 -6 -6 -12.5t-15 -6.5zM536 -15q-42 0 -101 1t-124.5 3t-128 5.5t-111.5 9.5l3 35q49 -5 112 -9t128 -6t123 -3t98 -1q92 0 162.5 7t118 21t72 34.5t24.5 46.5q0 17 -8.5 33.5
t-33 32t-72 27.5t-125.5 21q-107 11 -170.5 20.5t-92 28t-29.5 52.5q0 37 28.5 71t80 63t119 52.5t144.5 40.5l7 -33q-120 -27 -195.5 -61t-112 -68t-36.5 -61q0 -21 25.5 -33t82 -20t151.5 -19q61 -6 110.5 -16.5t85 -27t54.5 -40.5t19 -58q0 -45 -32 -74t-88.5 -45.5
t-130.5 -23t-157 -6.5z" />
    <glyph glyph-name="uni06AB.init" unicode="&#x6ab;" horiz-adv-x="383" 
d="M304 498q-33 0 -56.5 23.5t-23.5 56.5t23.5 56.5t56.5 23.5t56.5 -23.5t23.5 -56.5t-23.5 -56.5t-56.5 -23.5zM304 526q21 0 36.5 15.5t15.5 36.5q0 22 -15 37t-37 15q-21 0 -36.5 -15t-15.5 -37q0 -21 15.5 -36.5t36.5 -15.5zM0 -5l5 36h75q53 0 90 7t60 21t34 36t11 52
q0 41 -29 90.5t-80 101.5q-37 40 -64.5 64.5t-45 39.5t-26 22.5t-8.5 12.5q0 10 2 18t5.5 14t9.5 9q24 21 57.5 42.5t76 45.5t92 49t105.5 52l15 -33q-61 -27 -113 -53.5t-94.5 -51t-76 -47t-56.5 -43.5l3 15q46 -42 92 -85t84.5 -87t61.5 -88.5t23 -88.5q0 -38 -14.5 -66.5
t-43.5 -47t-72.5 -28t-101.5 -9.5h-77z" />
    <glyph glyph-name="uni06AB.medi" unicode="&#x6ab;" horiz-adv-x="463" 
d="M308 500q-33 0 -56.5 23.5t-23.5 56.5t23.5 56.5t56.5 23.5t56.5 -23.5t23.5 -56.5t-23.5 -56.5t-56.5 -23.5zM308 528q21 0 36.5 15.5t15.5 36.5q0 22 -15.5 37t-36.5 15t-36.5 -15t-15.5 -37q0 -21 15.5 -36.5t36.5 -15.5zM0 -5l5 36h77q71 0 113 13t61 38t19 63
q0 27 -18.5 61t-47 69.5t-60.5 69.5t-61 62t-47.5 48t-18.5 25q0 9 2.5 16.5t6 13.5t8.5 10q25 20 58.5 41.5t74.5 45.5t91 49.5t107 51.5l15 -33q-56 -25 -106 -50.5t-94 -50.5t-79 -48.5t-61 -44.5l3 15q38 -37 79 -79t79 -85.5t67.5 -86t42.5 -81.5q13 -38 33.5 -68
t49.5 -47.5t69 -17.5q9 0 13 -5t4 -12q0 -6 -6 -12.5t-16 -6.5q-36 0 -70 15.5t-61 49.5t-43 86l19 -12q-4 -42 -23.5 -69.5t-51.5 -42.5t-72.5 -21t-85.5 -6h-75z" />
    <glyph glyph-name="uni06AB.fina" unicode="&#x6ab;" horiz-adv-x="967" 
d="M813 502q-33 0 -56.5 23.5t-23.5 56.5t23.5 56t56.5 23t56.5 -23t23.5 -56t-23.5 -56.5t-56.5 -23.5zM813 530q21 0 36.5 15t15.5 37t-15 37t-37 15q-21 0 -36.5 -15t-15.5 -37t15.5 -37t36.5 -15zM406 -21l26 36q74 0 137 7.5t110 23.5t73.5 40.5t26.5 58.5t-18.5 70
t-47.5 71.5t-61 68t-60.5 58.5t-47 44t-18.5 23q0 9 2 16.5t6 13.5t8 10q29 24 79 55t115.5 65.5t136.5 67.5l15 -33q-65 -29 -132 -64t-121 -68.5t-86 -61.5l3 15q37 -36 76.5 -71.5t76 -75t66.5 -85t49 -100.5q10 -28 24 -52.5t32 -42.5t42 -28t53 -10q10 0 13.5 -5
t3.5 -12q0 -6 -6 -12.5t-15 -6.5q-37 0 -69.5 15.5t-59.5 49.5t-44 86l17 -12q-4 -41 -31.5 -70t-78.5 -48t-125 -28t-170 -9zM406 -21q-87 0 -154.5 11t-113 34.5t-69 60.5t-23.5 89q0 23 3.5 47.5t9.5 49t13 46.5l32 -9q-5 -18 -10 -38.5t-8.5 -42.5t-3.5 -44
q0 -62 38.5 -99t116.5 -53t195 -16l20 -22z" />
    <glyph glyph-name="uni06AC.init" unicode="&#x6ac;" horiz-adv-x="383" 
d="M0 -5l5 36h75q53 0 90 7t60 21t34 36t11 52q0 41 -29 90.5t-80 101.5q-37 40 -64.5 64.5t-45 39.5t-26 22.5t-8.5 12.5q0 10 2 18t5.5 14t9.5 9q24 21 57.5 42.5t76 45.5t92 49t105.5 52l15 -33q-61 -27 -113 -53.5t-94.5 -51t-76 -47t-56.5 -43.5l3 15q46 -42 92 -85
t84.5 -87t61.5 -88.5t23 -88.5q0 -38 -14.5 -66.5t-43.5 -47t-72.5 -28t-101.5 -9.5h-77zM163 760q-13 0 -22.5 9t-9.5 21q0 13 9.5 22.5t22.5 9.5t22 -9.5t9 -22.5q0 -12 -9 -21t-22 -9z" />
    <glyph glyph-name="uni06AC.medi" unicode="&#x6ac;" horiz-adv-x="463" 
d="M0 -5l5 36h77q71 0 113 13t61 38t19 63q0 27 -18.5 61t-47 69.5t-60.5 69.5t-61 62t-47.5 48t-18.5 25q0 9 2.5 16.5t6 13.5t8.5 10q25 20 58.5 41.5t74.5 45.5t91 49.5t107 51.5l15 -33q-56 -25 -106 -50.5t-94 -50.5t-79 -48.5t-61 -44.5l3 15q38 -37 79 -79t79 -85.5
t67.5 -86t42.5 -81.5q13 -38 33.5 -68t49.5 -47.5t69 -17.5q9 0 13 -5t4 -12q0 -6 -6 -12.5t-16 -6.5q-36 0 -70 15.5t-61 49.5t-43 86l19 -12q-4 -42 -23.5 -69.5t-51.5 -42.5t-72.5 -21t-85.5 -6h-75zM141 760q-13 0 -22.5 9t-9.5 21q0 13 9.5 22.5t22.5 9.5t22 -9.5
t9 -22.5q0 -12 -9 -21t-22 -9z" />
    <glyph glyph-name="uni06AC.fina" unicode="&#x6ac;" horiz-adv-x="876" 
d="M406 -21l26 36q82 0 141 8t96.5 26.5t54.5 49t15 74.5l-19 541h35l20 -534q2 -52 9 -85t29 -48.5t67 -15.5q9 0 13 -5t4 -12q0 -6 -6 -12.5t-15 -6.5q-34 0 -61 9.5t-43 33.5t-17 69h13q-11 -39 -42 -64t-78.5 -39t-108.5 -19.5t-133 -5.5zM364 204l-9 30q56 14 85 26.5
t40 23.5t11 19q0 15 -15.5 27t-36 24.5t-36.5 28t-16 37.5q0 14 9.5 32.5t36.5 41t78 46.5l14 -27q-45 -20 -76 -46t-31 -47q0 -15 16 -27.5t36.5 -25t36 -28t15.5 -36.5q0 -13 -7.5 -25.5t-25.5 -25t-48.5 -24.5t-76.5 -24zM406 -21q-87 0 -154.5 11t-113 34.5t-69 60.5
t-23.5 89q0 23 3.5 47.5t9.5 49t13 46.5l32 -9q-5 -18 -10 -38.5t-8.5 -42.5t-3.5 -44q0 -62 38.5 -99t116.5 -53t195 -16l20 -22zM452 663q-13 0 -22.5 9t-9.5 21q0 13 9.5 22.5t22.5 9.5t22 -9.5t9 -22.5q0 -12 -9 -21t-22 -9z" />
    <glyph glyph-name="uni06AE.init" unicode="&#x6ae;" horiz-adv-x="383" 
d="M0 -5l5 36h75q53 0 90 7t60 21t34 36t11 52q0 41 -29 90.5t-80 101.5q-37 40 -64.5 64.5t-45 39.5t-26 22.5t-8.5 12.5q0 10 2 18t5.5 14t9.5 9q24 21 57.5 42.5t76 45.5t92 49t105.5 52l15 -33q-61 -27 -113 -53.5t-94.5 -51t-76 -47t-56.5 -43.5l3 15q46 -42 92 -85
t84.5 -87t61.5 -88.5t23 -88.5q0 -38 -14.5 -66.5t-43.5 -47t-72.5 -28t-101.5 -9.5h-77zM158 -260q-13 0 -22.5 9t-9.5 22t9.5 22t22.5 9t22 -9t9 -22t-9 -22t-22 -9zM102 -171q-13 0 -22.5 9t-9.5 21q0 13 9.5 22.5t22.5 9.5t22 -9.5t9 -22.5q0 -12 -9 -21t-22 -9z
M213 -171q-13 0 -22 9t-9 21q0 13 9 22.5t22 9.5t22 -9.5t9 -22.5q0 -12 -9 -21t-22 -9z" />
    <glyph glyph-name="uni06AE.medi" unicode="&#x6ae;" horiz-adv-x="463" 
d="M0 -5l5 36h77q71 0 113 13t61 38t19 63q0 27 -18.5 61t-47 69.5t-60.5 69.5t-61 62t-47.5 48t-18.5 25q0 9 2.5 16.5t6 13.5t8.5 10q25 20 58.5 41.5t74.5 45.5t91 49.5t107 51.5l15 -33q-56 -25 -106 -50.5t-94 -50.5t-79 -48.5t-61 -44.5l3 15q38 -37 79 -79t79 -85.5
t67.5 -86t42.5 -81.5q13 -38 33.5 -68t49.5 -47.5t69 -17.5q9 0 13 -5t4 -12q0 -6 -6 -12.5t-16 -6.5q-36 0 -70 15.5t-61 49.5t-43 86l19 -12q-4 -42 -23.5 -69.5t-51.5 -42.5t-72.5 -21t-85.5 -6h-75zM158 -260q-13 0 -22.5 9t-9.5 22t9.5 22t22.5 9t22 -9t9 -22t-9 -22
t-22 -9zM102 -171q-13 0 -22.5 9t-9.5 21q0 13 9.5 22.5t22.5 9.5t22 -9.5t9 -22.5q0 -12 -9 -21t-22 -9zM213 -171q-13 0 -22 9t-9 21q0 13 9 22.5t22 9.5t22 -9.5t9 -22.5q0 -12 -9 -21t-22 -9z" />
    <glyph glyph-name="uni06AE.fina" unicode="&#x6ae;" horiz-adv-x="876" 
d="M406 -21l26 36q82 0 141 8t96.5 26.5t54.5 49t15 74.5l-19 541h35l20 -534q2 -52 9 -85t29 -48.5t67 -15.5q9 0 13 -5t4 -12q0 -6 -6 -12.5t-15 -6.5q-34 0 -61 9.5t-43 33.5t-17 69h13q-11 -39 -42 -64t-78.5 -39t-108.5 -19.5t-133 -5.5zM364 204l-9 30q56 14 85 26.5
t40 23.5t11 19q0 15 -15.5 27t-36 24.5t-36.5 28t-16 37.5q0 14 9.5 32.5t36.5 41t78 46.5l14 -27q-45 -20 -76 -46t-31 -47q0 -15 16 -27.5t36.5 -25t36 -28t15.5 -36.5q0 -13 -7.5 -25.5t-25.5 -25t-48.5 -24.5t-76.5 -24zM406 -21q-87 0 -154.5 11t-113 34.5t-69 60.5
t-23.5 89q0 23 3.5 47.5t9.5 49t13 46.5l32 -9q-5 -18 -10 -38.5t-8.5 -42.5t-3.5 -44q0 -62 38.5 -99t116.5 -53t195 -16l20 -22zM430 -281q-13 0 -22.5 9t-9.5 22t9.5 22t22.5 9t22 -9t9 -22t-9 -22t-22 -9zM374 -192q-13 0 -22.5 9t-9.5 21q0 13 9.5 22.5t22.5 9.5
t22 -9.5t9 -22.5q0 -12 -9 -21t-22 -9zM485 -192q-13 0 -22 9t-9 21q0 13 9 22.5t22 9.5t22 -9.5t9 -22.5q0 -12 -9 -21t-22 -9z" />
    <glyph glyph-name="uni06B0.init" unicode="&#x6b0;" horiz-adv-x="383" 
d="M305 499q-33 0 -56 24t-23 57t23 56t56 23t57 -23t24 -56t-24 -57t-57 -24zM305 527q21 0 36.5 15.5t15.5 37.5q0 21 -15 36.5t-37 15.5q-21 0 -36 -15.5t-15 -36.5q0 -22 15 -37.5t36 -15.5zM-2 583l-16 25q36 25 84 54t110 63t139 73l13 -28q-76 -39 -137 -72.5
t-108 -62t-85 -52.5zM0 -5l5 36h75q53 0 90 7t60 21t34 36t11 52q0 41 -29 90.5t-80 101.5q-37 40 -64.5 64.5t-45 39.5t-26 22.5t-8.5 12.5q0 10 2 18t5.5 14t9.5 9q24 21 57.5 42.5t76 45.5t92 49t105.5 52l15 -33q-61 -27 -113 -53.5t-94.5 -51t-76 -47t-56.5 -43.5l3 15
q46 -42 92 -85t84.5 -87t61.5 -88.5t23 -88.5q0 -38 -14.5 -66.5t-43.5 -47t-72.5 -28t-101.5 -9.5h-77z" />
    <glyph glyph-name="uni06B0.medi" unicode="&#x6b0;" horiz-adv-x="463" 
d="M306 500q-33 0 -56.5 23.5t-23.5 56.5t23.5 56.5t56.5 23.5t56.5 -23.5t23.5 -56.5t-23.5 -56.5t-56.5 -23.5zM306 528q21 0 36.5 15t15.5 37t-15.5 37t-36.5 15t-36.5 -15t-15.5 -37t15.5 -37t36.5 -15zM1 583l-17 25q36 25 84 54t110 63t139 73l13 -28
q-76 -39 -136.5 -72.5t-108 -62t-84.5 -52.5zM0 -5l5 36h77q71 0 113 13t61 38t19 63q0 27 -18.5 61t-47 69.5t-60.5 69.5t-61 62t-47.5 48t-18.5 25q0 9 2.5 16.5t6 13.5t8.5 10q25 20 58.5 41.5t74.5 45.5t91 49.5t107 51.5l15 -33q-56 -25 -106 -50.5t-94 -50.5
t-79 -48.5t-61 -44.5l3 15q38 -37 79 -79t79 -85.5t67.5 -86t42.5 -81.5q13 -38 33.5 -68t49.5 -47.5t69 -17.5q9 0 13 -5t4 -12q0 -6 -6 -12.5t-16 -6.5q-36 0 -70 15.5t-61 49.5t-43 86l19 -12q-4 -42 -23.5 -69.5t-51.5 -42.5t-72.5 -21t-85.5 -6h-75z" />
    <glyph glyph-name="uni06B0.fina" unicode="&#x6b0;" horiz-adv-x="967" 
d="M810 500q-33 0 -56 23.5t-23 56.5t23 56.5t56 23.5t56.5 -23.5t23.5 -56.5t-23.5 -56.5t-56.5 -23.5zM810 528q21 0 36.5 15.5t15.5 36.5q0 22 -15 37t-37 15q-21 0 -36 -15t-15 -37q0 -21 15 -36.5t36 -15.5zM506 583l-16 25q35 25 83.5 54t110.5 63t139 73l12 -28
q-75 -39 -136 -72.5t-108 -62t-85 -52.5zM406 -21l26 36q74 0 137 7.5t110 23.5t73.5 40.5t26.5 58.5t-18.5 70t-47.5 71.5t-61 68t-60.5 58.5t-47 44t-18.5 23q0 9 2 16.5t6 13.5t8 10q29 24 79 55t115.5 65.5t136.5 67.5l15 -33q-65 -29 -132 -64t-121 -68.5t-86 -61.5
l3 15q37 -36 76.5 -71.5t76 -75t66.5 -85t49 -100.5q10 -28 24 -52.5t32 -42.5t42 -28t53 -10q10 0 13.5 -5t3.5 -12q0 -6 -6 -12.5t-15 -6.5q-37 0 -69.5 15.5t-59.5 49.5t-44 86l17 -12q-4 -41 -31.5 -70t-78.5 -48t-125 -28t-170 -9zM406 -21q-87 0 -154.5 11t-113 34.5
t-69 60.5t-23.5 89q0 23 3.5 47.5t9.5 49t13 46.5l32 -9q-5 -18 -10 -38.5t-8.5 -42.5t-3.5 -44q0 -62 38.5 -99t116.5 -53t195 -16l20 -22z" />
    <glyph glyph-name="uni06B2.init" unicode="&#x6b2;" horiz-adv-x="383" 
d="M-2 583l-16 25q36 25 84 54t110 63t139 73l13 -28q-76 -39 -137 -72.5t-108 -62t-85 -52.5zM0 -5l5 36h75q53 0 90 7t60 21t34 36t11 52q0 41 -29 90.5t-80 101.5q-37 40 -64.5 64.5t-45 39.5t-26 22.5t-8.5 12.5q0 10 2 18t5.5 14t9.5 9q24 21 57.5 42.5t76 45.5t92 49
t105.5 52l15 -33q-61 -27 -113 -53.5t-94.5 -51t-76 -47t-56.5 -43.5l3 15q46 -42 92 -85t84.5 -87t61.5 -88.5t23 -88.5q0 -38 -14.5 -66.5t-43.5 -47t-72.5 -28t-101.5 -9.5h-77zM224 -170q-13 0 -22.5 9t-9.5 22t9.5 22t22.5 9t22 -9t9 -22t-9.5 -22t-21.5 -9zM112 -170
q-13 0 -22 9t-9 22t9 22t22 9t22 -9t9 -22t-9 -22t-22 -9z" />
    <glyph glyph-name="uni06B2.medi" unicode="&#x6b2;" horiz-adv-x="463" 
d="M1 583l-17 25q36 25 84 54t110 63t139 73l13 -28q-76 -39 -136.5 -72.5t-108 -62t-84.5 -52.5zM0 -5l5 36h77q71 0 113 13t61 38t19 63q0 27 -18.5 61t-47 69.5t-60.5 69.5t-61 62t-47.5 48t-18.5 25q0 9 2.5 16.5t6 13.5t8.5 10q25 20 58.5 41.5t74.5 45.5t91 49.5
t107 51.5l15 -33q-56 -25 -106 -50.5t-94 -50.5t-79 -48.5t-61 -44.5l3 15q38 -37 79 -79t79 -85.5t67.5 -86t42.5 -81.5q13 -38 33.5 -68t49.5 -47.5t69 -17.5q9 0 13 -5t4 -12q0 -6 -6 -12.5t-16 -6.5q-36 0 -70 15.5t-61 49.5t-43 86l19 -12q-4 -42 -23.5 -69.5
t-51.5 -42.5t-72.5 -21t-85.5 -6h-75zM224 -170q-13 0 -22.5 9t-9.5 22t9.5 22t22.5 9t22 -9t9 -22t-9.5 -22t-21.5 -9zM112 -170q-13 0 -22 9t-9 22t9 22t22 9t22 -9t9 -22t-9 -22t-22 -9z" />
    <glyph glyph-name="uni06B2.fina" unicode="&#x6b2;" horiz-adv-x="967" 
d="M506 583l-16 25q35 25 83.5 54t110.5 63t139 73l12 -28q-75 -39 -136 -72.5t-108 -62t-85 -52.5zM406 -21l26 36q74 0 137 7.5t110 23.5t73.5 40.5t26.5 58.5t-18.5 70t-47.5 71.5t-61 68t-60.5 58.5t-47 44t-18.5 23q0 9 2 16.5t6 13.5t8 10q29 24 79 55t115.5 65.5
t136.5 67.5l15 -33q-65 -29 -132 -64t-121 -68.5t-86 -61.5l3 15q37 -36 76.5 -71.5t76 -75t66.5 -85t49 -100.5q10 -28 24 -52.5t32 -42.5t42 -28t53 -10q10 0 13.5 -5t3.5 -12q0 -6 -6 -12.5t-15 -6.5q-37 0 -69.5 15.5t-59.5 49.5t-44 86l17 -12q-4 -41 -31.5 -70
t-78.5 -48t-125 -28t-170 -9zM406 -21q-87 0 -154.5 11t-113 34.5t-69 60.5t-23.5 89q0 23 3.5 47.5t9.5 49t13 46.5l32 -9q-5 -18 -10 -38.5t-8.5 -42.5t-3.5 -44q0 -62 38.5 -99t116.5 -53t195 -16l20 -22zM471 -191q-13 0 -22.5 9t-9.5 22t9.5 22t22.5 9t22 -9t9 -22
t-9.5 -22t-21.5 -9zM359 -191q-13 0 -22 9t-9 22t9 22t22 9t22 -9t9 -22t-9 -22t-22 -9z" />
    <glyph glyph-name="uni06B4.init" unicode="&#x6b4;" horiz-adv-x="383" 
d="M76 865q-13 0 -21 8.5t-8 19.5t8 19.5t21 8.5q11 0 19 -8.5t8 -19.5t-8 -19.5t-19 -8.5zM66 739q-13 0 -21 8.5t-8 19.5q0 12 8 20t21 8q11 0 19 -8t8 -20q0 -11 -8 -19.5t-19 -8.5zM176 791q-12 0 -20.5 8.5t-8.5 19.5t8.5 19.5t20.5 8.5q11 0 19 -8.5t8 -19.5t-8 -19.5
t-19 -8.5zM-2 583l-16 25q36 25 84 54t110 63t139 73l13 -28q-76 -39 -137 -72.5t-108 -62t-85 -52.5zM0 -5l5 36h75q53 0 90 7t60 21t34 36t11 52q0 41 -29 90.5t-80 101.5q-37 40 -64.5 64.5t-45 39.5t-26 22.5t-8.5 12.5q0 10 2 18t5.5 14t9.5 9q24 21 57.5 42.5t76 45.5
t92 49t105.5 52l15 -33q-61 -27 -113 -53.5t-94.5 -51t-76 -47t-56.5 -43.5l3 15q46 -42 92 -85t84.5 -87t61.5 -88.5t23 -88.5q0 -38 -14.5 -66.5t-43.5 -47t-72.5 -28t-101.5 -9.5h-77z" />
    <glyph glyph-name="uni06B4.medi" unicode="&#x6b4;" horiz-adv-x="463" 
d="M75 866q-13 0 -21 8.5t-8 19.5t8 19.5t21 8.5q11 0 19 -8.5t8 -19.5t-8 -19.5t-19 -8.5zM65 740q-13 0 -21 8.5t-8 19.5t8 19.5t21 8.5q11 0 19 -8.5t8 -19.5t-8 -19.5t-19 -8.5zM175 792q-12 0 -20.5 8.5t-8.5 19.5t8.5 19.5t20.5 8.5q11 0 19 -8.5t8 -19.5t-8 -19.5
t-19 -8.5zM1 583l-17 25q36 25 84 54t110 63t139 73l13 -28q-76 -39 -136.5 -72.5t-108 -62t-84.5 -52.5zM0 -5l5 36h77q71 0 113 13t61 38t19 63q0 27 -18.5 61t-47 69.5t-60.5 69.5t-61 62t-47.5 48t-18.5 25q0 9 2.5 16.5t6 13.5t8.5 10q25 20 58.5 41.5t74.5 45.5
t91 49.5t107 51.5l15 -33q-56 -25 -106 -50.5t-94 -50.5t-79 -48.5t-61 -44.5l3 15q38 -37 79 -79t79 -85.5t67.5 -86t42.5 -81.5q13 -38 33.5 -68t49.5 -47.5t69 -17.5q9 0 13 -5t4 -12q0 -6 -6 -12.5t-16 -6.5q-36 0 -70 15.5t-61 49.5t-43 86l19 -12q-4 -42 -23.5 -69.5
t-51.5 -42.5t-72.5 -21t-85.5 -6h-75z" />
    <glyph glyph-name="uni06B4.fina" unicode="&#x6b4;" horiz-adv-x="967" 
d="M571 866q-12 0 -20 8.5t-8 19.5q0 12 8 20t20 8t20 -8t8 -20q0 -11 -8 -19.5t-20 -8.5zM561 740q-12 0 -20 8.5t-8 20.5q0 11 8 19t20 8t20 -8t8 -19q0 -12 -8 -20.5t-20 -8.5zM672 792q-13 0 -21 8.5t-8 19.5q0 12 8 20t21 8q11 0 19 -8t8 -20q0 -11 -8 -19.5t-19 -8.5z
M506 583l-16 25q35 25 83.5 54t110.5 63t139 73l12 -28q-75 -39 -136 -72.5t-108 -62t-85 -52.5zM406 -21l26 36q74 0 137 7.5t110 23.5t73.5 40.5t26.5 58.5t-18.5 70t-47.5 71.5t-61 68t-60.5 58.5t-47 44t-18.5 23q0 9 2 16.5t6 13.5t8 10q29 24 79 55t115.5 65.5
t136.5 67.5l15 -33q-65 -29 -132 -64t-121 -68.5t-86 -61.5l3 15q37 -36 76.5 -71.5t76 -75t66.5 -85t49 -100.5q10 -28 24 -52.5t32 -42.5t42 -28t53 -10q10 0 13.5 -5t3.5 -12q0 -6 -6 -12.5t-15 -6.5q-37 0 -69.5 15.5t-59.5 49.5t-44 86l17 -12q-4 -41 -31.5 -70
t-78.5 -48t-125 -28t-170 -9zM406 -21q-87 0 -154.5 11t-113 34.5t-69 60.5t-23.5 89q0 23 3.5 47.5t9.5 49t13 46.5l32 -9q-5 -18 -10 -38.5t-8.5 -42.5t-3.5 -44q0 -62 38.5 -99t116.5 -53t195 -16l20 -22z" />
    <glyph glyph-name="uni06B5.init" unicode="&#x6b5;" horiz-adv-x="219" 
d="M0 -5l5 36q59 0 85 14t32 47t4 89l-19 533h35l20 -529q2 -51 -3.5 -87t-22.5 -58.5t-49.5 -33.5t-86.5 -11zM107 847q-7 16 -18 39t-23.5 49.5t-25 50t-21.5 39.5l24 13q6 -10 18 -32t25 -48t24.5 -50.5t17.5 -39.5l10 -18zM138 850l-25 8q6 17 17 45t23.5 57.5t23 52
t14.5 30.5l26 -11q-5 -10 -16 -33t-23.5 -51.5t-23 -55t-16.5 -42.5z" />
    <glyph glyph-name="uni06B5.medi" unicode="&#x6b5;" horiz-adv-x="279" 
d="M0 -5l5 36q62 0 88 19.5t31 59t3 95.5l-17 509h37l16 -507q3 -68 14.5 -106.5t37 -54t69.5 -15.5q9 0 13 -5t4 -12q0 -6 -6 -12.5t-16 -6.5q-43 0 -70.5 15t-42.5 40t-21 53h13q-7 -33 -24 -57t-49 -37.5t-85 -13.5zM112 847q-7 16 -18 39t-23.5 49.5t-25 50t-21.5 39.5
l24 13q6 -10 18 -32t25 -48t24.5 -50.5t17.5 -39.5l10 -18zM143 850l-25 8q6 17 17 45t23.5 57.5t23 52t14.5 30.5l26 -11q-5 -10 -16 -33t-23.5 -51.5t-23 -55t-16.5 -42.5z" />
    <glyph glyph-name="uni06B5.fina" unicode="&#x6b5;" horiz-adv-x="731" 
d="M46 -18q0 25 4 52.5t15 61t31 76.5l33 -14q-15 -31 -25 -61t-15.5 -58t-5.5 -53q0 -58 29.5 -98t78 -61.5t103.5 -21.5q93 0 150 44.5t83 121.5t22 175l-18 568h36l17 -532q2 -44 22 -78t53.5 -53.5t75.5 -19.5q9 0 13 -5t4 -12q0 -6 -6 -12.5t-15 -6.5q-30 0 -56 9.5
t-46 25t-33.5 35t-17.5 40.5l7 -2q-3 -62 -18.5 -121t-49 -107.5t-89 -76.5t-136.5 -28q-49 0 -93.5 13.5t-79 40.5t-54 66.5t-19.5 91.5zM294 590q-7 16 -18 39t-23.5 49.5t-25 50t-21.5 39.5l24 13q6 -10 18 -32t25 -48t24.5 -50.5t17.5 -39.5l10 -18zM325 593l-25 8
q6 17 17 45t23.5 57.5t23 52t14.5 30.5l26 -11q-5 -10 -16 -33t-23.5 -51.5t-23 -55t-16.5 -42.5z" />
    <glyph glyph-name="uni06B6.init" unicode="&#x6b6;" horiz-adv-x="219" 
d="M0 -5l5 36q59 0 85 14t32 47t4 89l-19 533h35l20 -529q2 -51 -3.5 -87t-22.5 -58.5t-49.5 -33.5t-86.5 -11zM122 843q-13 0 -22.5 9t-9.5 21q0 13 9.5 22.5t22.5 9.5t22 -9.5t9 -22.5q0 -12 -9 -21t-22 -9z" />
    <glyph glyph-name="uni06B6.medi" unicode="&#x6b6;" horiz-adv-x="279" 
d="M0 -5l5 36q62 0 88 19.5t31 59t3 95.5l-17 509h37l16 -507q3 -68 14.5 -106.5t37 -54t69.5 -15.5q9 0 13 -5t4 -12q0 -6 -6 -12.5t-16 -6.5q-43 0 -70.5 15t-42.5 40t-21 53h13q-7 -33 -24 -57t-49 -37.5t-85 -13.5zM127 843q-13 0 -22.5 9t-9.5 21q0 13 9.5 22.5
t22.5 9.5t22 -9.5t9 -22.5q0 -12 -9 -21t-22 -9z" />
    <glyph glyph-name="uni06B6.fina" unicode="&#x6b6;" horiz-adv-x="731" 
d="M46 -18q0 25 4 52.5t15 61t31 76.5l33 -14q-15 -31 -25 -61t-15.5 -58t-5.5 -53q0 -58 29.5 -98t78 -61.5t103.5 -21.5q93 0 150 44.5t83 121.5t22 175l-18 568h36l17 -532q2 -44 22 -78t53.5 -53.5t75.5 -19.5q9 0 13 -5t4 -12q0 -6 -6 -12.5t-15 -6.5q-30 0 -56 9.5
t-46 25t-33.5 35t-17.5 40.5l7 -2q-3 -62 -18.5 -121t-49 -107.5t-89 -76.5t-136.5 -28q-49 0 -93.5 13.5t-79 40.5t-54 66.5t-19.5 91.5zM310 586q-13 0 -22.5 9t-9.5 21q0 13 9.5 22.5t22.5 9.5t22 -9.5t9 -22.5q0 -12 -9 -21t-22 -9z" />
    <glyph glyph-name="uni06B7.init" unicode="&#x6b7;" horiz-adv-x="219" 
d="M0 -5l5 36q59 0 85 14t32 47t4 89l-19 533h35l20 -529q2 -51 -3.5 -87t-22.5 -58.5t-49.5 -33.5t-86.5 -11zM123 931q-12 0 -21.5 9.5t-9.5 21.5q0 13 9.5 22t21.5 9q13 0 22.5 -9t9.5 -22q0 -12 -9.5 -21.5t-22.5 -9.5zM68 843q-12 0 -21.5 9t-9.5 22t9.5 22t21.5 9
q13 0 22 -9t9 -22t-9 -22t-22 -9zM179 843q-12 0 -21.5 9t-9.5 22t9.5 22t21.5 9q13 0 22.5 -9t9.5 -22t-9.5 -22t-22.5 -9z" />
    <glyph glyph-name="uni06B7.medi" unicode="&#x6b7;" horiz-adv-x="279" 
d="M0 -5l5 36q62 0 88 19.5t31 59t3 95.5l-17 509h37l16 -507q3 -68 14.5 -106.5t37 -54t69.5 -15.5q9 0 13 -5t4 -12q0 -6 -6 -12.5t-16 -6.5q-43 0 -70.5 15t-42.5 40t-21 53h13q-7 -33 -24 -57t-49 -37.5t-85 -13.5zM128 931q-12 0 -21.5 9.5t-9.5 21.5q0 13 9.5 22
t21.5 9q13 0 22.5 -9t9.5 -22q0 -12 -9.5 -21.5t-22.5 -9.5zM73 843q-12 0 -21.5 9t-9.5 22t9.5 22t21.5 9q13 0 22 -9t9 -22t-9 -22t-22 -9zM184 843q-12 0 -21.5 9t-9.5 22t9.5 22t21.5 9q13 0 22.5 -9t9.5 -22t-9.5 -22t-22.5 -9z" />
    <glyph glyph-name="uni06B7.fina" unicode="&#x6b7;" horiz-adv-x="731" 
d="M46 -18q0 25 4 52.5t15 61t31 76.5l33 -14q-15 -31 -25 -61t-15.5 -58t-5.5 -53q0 -58 29.5 -98t78 -61.5t103.5 -21.5q93 0 150 44.5t83 121.5t22 175l-18 568h36l17 -532q2 -44 22 -78t53.5 -53.5t75.5 -19.5q9 0 13 -5t4 -12q0 -6 -6 -12.5t-15 -6.5q-30 0 -56 9.5
t-46 25t-33.5 35t-17.5 40.5l7 -2q-3 -62 -18.5 -121t-49 -107.5t-89 -76.5t-136.5 -28q-49 0 -93.5 13.5t-79 40.5t-54 66.5t-19.5 91.5zM311 674q-12 0 -21.5 9.5t-9.5 21.5q0 13 9.5 22t21.5 9q13 0 22.5 -9t9.5 -22q0 -12 -9.5 -21.5t-22.5 -9.5zM256 586q-12 0 -21.5 9
t-9.5 22t9.5 22t21.5 9q13 0 22 -9t9 -22t-9 -22t-22 -9zM367 586q-12 0 -21.5 9t-9.5 22t9.5 22t21.5 9q13 0 22.5 -9t9.5 -22t-9.5 -22t-22.5 -9z" />
    <glyph glyph-name="uni06B8.init" unicode="&#x6b8;" horiz-adv-x="219" 
d="M0 -5l5 36q59 0 85 14t32 47t4 89l-19 533h35l20 -529q2 -51 -3.5 -87t-22.5 -58.5t-49.5 -33.5t-86.5 -11zM97 -260q-13 0 -22.5 9t-9.5 22t9.5 22t22.5 9t22 -9t9 -22t-9 -22t-22 -9zM41 -171q-13 0 -22.5 9t-9.5 21q0 13 9.5 22.5t22.5 9.5t22 -9.5t9 -22.5
q0 -12 -9 -21t-22 -9zM152 -171q-13 0 -22 9t-9 21q0 13 9 22.5t22 9.5t22 -9.5t9 -22.5q0 -12 -9 -21t-22 -9z" />
    <glyph glyph-name="uni06B8.medi" unicode="&#x6b8;" horiz-adv-x="279" 
d="M0 -5l5 36q62 0 88 19.5t31 59t3 95.5l-17 509h37l16 -507q3 -68 14.5 -106.5t37 -54t69.5 -15.5q9 0 13 -5t4 -12q0 -6 -6 -12.5t-16 -6.5q-43 0 -70.5 15t-42.5 40t-21 53h13q-7 -33 -24 -57t-49 -37.5t-85 -13.5zM133 -260q-13 0 -22.5 9t-9.5 22t9.5 22t22.5 9t22 -9
t9 -22t-9 -22t-22 -9zM77 -171q-13 0 -22.5 9t-9.5 21q0 13 9.5 22.5t22.5 9.5t22 -9.5t9 -22.5q0 -12 -9 -21t-22 -9zM188 -171q-13 0 -22 9t-9 21q0 13 9 22.5t22 9.5t22 -9.5t9 -22.5q0 -12 -9 -21t-22 -9z" />
    <glyph glyph-name="uni06B8.fina" unicode="&#x6b8;" horiz-adv-x="731" 
d="M46 -18q0 25 4 52.5t15 61t31 76.5l33 -14q-15 -31 -25 -61t-15.5 -58t-5.5 -53q0 -58 29.5 -98t78 -61.5t103.5 -21.5q93 0 150 44.5t83 121.5t22 175l-18 568h36l17 -532q2 -44 22 -78t53.5 -53.5t75.5 -19.5q9 0 13 -5t4 -12q0 -6 -6 -12.5t-15 -6.5q-30 0 -56 9.5
t-46 25t-33.5 35t-17.5 40.5l7 -2q-3 -62 -18.5 -121t-49 -107.5t-89 -76.5t-136.5 -28q-49 0 -93.5 13.5t-79 40.5t-54 66.5t-19.5 91.5zM292 -490q-13 0 -22.5 9t-9.5 22t9.5 22t22.5 9t22 -9t9 -22t-9 -22t-22 -9zM236 -401q-13 0 -22.5 9t-9.5 21q0 13 9.5 22.5
t22.5 9.5t22 -9.5t9 -22.5q0 -12 -9 -21t-22 -9zM347 -401q-13 0 -22 9t-9 21q0 13 9 22.5t22 9.5t22 -9.5t9 -22.5q0 -12 -9 -21t-22 -9z" />
    <glyph glyph-name="uni06B9.init" unicode="&#x6b9;" horiz-adv-x="253" 
d="M0 -5l5 36q54 0 82.5 11.5t40 35.5t11.5 63q0 28 -6 61t-17.5 72t-27.5 84l34 13q16 -41 27.5 -82t18 -77t6.5 -64q0 -31 -5.5 -55.5t-17.5 -43t-32.5 -30.5t-49.5 -18t-69 -6zM101 517q-13 0 -22.5 9t-9.5 21q0 13 9.5 22.5t22.5 9.5t22 -9.5t9 -22.5q0 -12 -9 -21
t-22 -9zM101 -175q-13 0 -22.5 9t-9.5 22q0 12 9.5 21.5t22.5 9.5t22 -9.5t9 -21.5q0 -13 -9 -22t-22 -9z" />
    </font>
</defs>
</svg>
