<?xml version="1.0" standalone="no"?>
<!DOCTYPE svg PUBLIC "-//W3C//DTD SVG 1.1//EN" "http://www.w3.org/Graphics/SVG/1.1/DTD/svg11.dtd" >
<svg xmlns="http://www.w3.org/2000/svg" xmlns:xlink="http://www.w3.org/1999/xlink" version="1.1">
<metadata>
Created by FontForge 20170731 at Thu Nov 12 05:28:44 2020
 By Aleksey,,,
Copyright 2015-2020 Google LLC. All Rights Reserved.
</metadata>
<defs>
<font id="NotoSansArabic-Light" horiz-adv-x="0" >
  <font-face 
    font-family="Noto Sans Arabic Light"
    font-weight="300"
    font-stretch="normal"
    units-per-em="1000"
    panose-1="0 0 0 0 0 0 0 0 0 0"
    ascent="800"
    descent="-200"
    bbox="-217 -573 2349 1095"
    underline-thickness="50"
    underline-position="-175"
    unicode-range="U+000D-FEFC"
  />
<missing-glyph horiz-adv-x="600" 
d="M101 0v714h398v-714h-398zM138 38h323v639h-323v-639z" />
    <glyph glyph-name="uniFC43" unicode="&#xfedf;&#xfef0;" horiz-adv-x="980" arabic-form="isolated" 
d="M746 -5l7 53q58 0 83 13t30 44t3 85l-19 524h52l20 -518q2 -52 -3.5 -89.5t-24 -62.5t-54 -37t-94.5 -12zM40 -11q0 24 4.5 51.5t15 60.5t27.5 73l48 -20q-13 -29 -22.5 -57.5t-14 -54t-4.5 -48.5q0 -42 17.5 -74t50.5 -54t80.5 -33t107.5 -11q66 0 119 13.5t91.5 36
t59 49.5t20.5 54q0 17 -13 31t-35.5 26t-50 22.5t-56.5 20.5l14 53q54 -23 92.5 -38t66.5 -24.5t50.5 -13.5t44.5 -4q14 0 19.5 -7.5t5.5 -17.5t-8.5 -19t-26.5 -9q-8 0 -19.5 1t-24 3.5t-20.5 4.5q6 -11 8 -20.5t2 -17.5q0 -33 -22 -67.5t-66.5 -63.5t-109.5 -47.5
t-151 -18.5q-83 0 -151 23.5t-108.5 72t-40.5 124.5z" />
    <glyph glyph-name="uniFC86" unicode="&#xfee0;&#xfef0;" horiz-adv-x="1033" arabic-form="final" 
d="M746 -5l7 53q60 0 85 16.5t29.5 51.5t2.5 89l-17 509h54l16 -507q2 -61 14.5 -96t38 -49t64.5 -14q13 0 19 -7t6 -18q0 -10 -9 -19t-23 -9q-42 0 -70 14.5t-43 38.5t-20 50l15 -1q-8 -32 -27 -54.5t-53 -35t-89 -12.5zM40 -11q0 24 4.5 51.5t15 60.5t27.5 73l48 -20
q-13 -29 -22.5 -57.5t-14 -54t-4.5 -48.5q0 -42 17.5 -74t50.5 -54t80.5 -33t107.5 -11q66 0 119 13.5t91.5 36t59 49.5t20.5 54q0 17 -13 31t-35.5 26t-50 22.5t-56.5 20.5l14 53q54 -23 92.5 -38t66.5 -24.5t50.5 -13.5t44.5 -4q14 0 19.5 -7.5t5.5 -17.5t-8.5 -19
t-26.5 -9q-8 0 -19.5 1t-24 3.5t-20.5 4.5q6 -11 8 -20.5t2 -17.5q0 -33 -22 -67.5t-66.5 -63.5t-109.5 -47.5t-151 -18.5q-83 0 -151 23.5t-108.5 72t-40.5 124.5z" />
    <glyph glyph-name="uniFD82" unicode="&#xfee0;&#xfea4;&#xfef0;" horiz-adv-x="1655" arabic-form="final" 
d="M1368 -5l7 53q60 0 85 16.5t29.5 51.5t2.5 89l-17 509h54l16 -507q2 -61 14.5 -96t38 -49t64.5 -14q13 0 19 -7t6 -18q0 -10 -9 -19t-23 -9q-42 0 -70 14.5t-43 38.5t-20 50l15 -1q-8 -32 -27 -54.5t-53 -35t-89 -12.5zM1368 -5q-42 0 -77 4t-62.5 18t-46.5 42.5
t-29 78.5l39 21q13 -50 35 -73.5t58 -30.5t90 -7q13 0 19 -7t6 -18q0 -10 -9 -19t-23 -9zM746 -5l7 53q56 0 106 8t98 24t95.5 40t98.5 56q-38 30 -77 52.5t-81 34.5t-89 12q-16 0 -30.5 -1t-29.5 -3.5t-34 -7.5l-10 50q26 8 52.5 11.5t51.5 3.5q53 0 94.5 -13t75 -31.5
t62 -37.5t55 -32t53.5 -13h23l5 -48q-37 0 -69 -11.5t-64.5 -29.5t-69.5 -38t-82.5 -38t-104.5 -29.5t-136 -11.5zM40 -11q0 24 4.5 51.5t15 60.5t27.5 73l48 -20q-13 -29 -22.5 -57.5t-14 -54t-4.5 -48.5q0 -42 17.5 -74t50.5 -54t80.5 -33t107.5 -11q66 0 119 13.5
t91.5 36t59 49.5t20.5 54q0 17 -13 31t-35.5 26t-50 22.5t-56.5 20.5l14 53q54 -23 92.5 -38t66.5 -24.5t50.5 -13.5t44.5 -4q14 0 19.5 -7.5t5.5 -17.5t-8.5 -19t-26.5 -9q-8 0 -19.5 1t-24 3.5t-20.5 4.5q6 -11 8 -20.5t2 -17.5q0 -33 -22 -67.5t-66.5 -63.5t-109.5 -47.5
t-151 -18.5q-83 0 -151 23.5t-108.5 72t-40.5 124.5z" />
    <glyph glyph-name="uniFDF2" unicode="&#x627;&#xfedf;&#xfee0;&#xfeea;" horiz-adv-x="1233" arabic-form="isolated" 
d="M476 -5q-40 0 -72.5 8.5t-55 30.5t-32.5 64q-52 -13 -101 -11t-88.5 17.5t-63 43.5t-23.5 68q0 53 34 99.5t92 80t129 44.5l-4 76h53l17 -348q3 -49 15 -75t38.5 -35.5t71.5 -9.5q60 0 85 16.5t29.5 51.5t2.5 89l-13 363h54l12 -361q2 -61 14.5 -96t39 -49t66.5 -14
q58 0 83 13t30 44t3 85l-19 524h52l20 -518q2 -52 -3.5 -89.5t-24 -62.5t-54.5 -37t-97 -12q-36 0 -61 11t-41 29t-24 39q-16 -37 -52.5 -58t-111.5 -21zM309 147l-12 239q-58 -7 -104.5 -32.5t-73.5 -59.5t-27 -69q0 -30 21 -48.5t54 -27.5t70.5 -9t71.5 7zM1105 0l-20 714
h53l20 -714h-53zM544 609q-36 0 -50 24t-14 57q0 11 1.5 24.5t4.5 29.5l35 10q-3 -18 -4.5 -32.5t-1.5 -25.5q0 -21 7.5 -34.5t26.5 -13.5q17 0 29 16.5t13 61.5v46l35 13v-71q0 -14 8 -24.5t27 -10.5q21 0 29 13.5t8 36.5q0 19 -4 37.5t-11 35.5l32 11q9 -16 14.5 -40.5
t5.5 -46.5q0 -33 -17 -58.5t-54 -25.5q-28 0 -45.5 15.5t-17.5 38.5l18 -4q0 -34 -20.5 -58.5t-54.5 -24.5zM584 822l-6 173h38l6 -173h-38z" />
    <glyph glyph-name="uniFEF5" unicode="&#xfedf;&#xfe82;" horiz-adv-x="665" arabic-form="isolated" 
d="M387 532q0 27 -3 60.5t-7.5 64.5t-8.5 52l55 8q3 -20 7 -52.5t7 -67.5t3 -62q0 -43 -6 -84t-18 -80.5t-30 -76.5l-8 -16q-32 -63 -81.5 -119.5t-116.5 -105.5h173q40 0 61.5 11.5t29.5 29t8 36.5q0 35 -29.5 76.5t-84 90t-129.5 106.5t-166 126l31 43q93 -70 163 -125.5
t120 -100t82 -82.5t46.5 -71.5t14.5 -66.5q0 -20 -6.5 -42t-23 -41t-47 -31t-78.5 -12h-236v59q101 72 162 148t88.5 157.5t27.5 167.5zM181 639q-28 0 -52 10.5t-44 20.5t-38 10q-17 0 -31.5 -9t-30.5 -25l-27 23q20 24 42 38.5t48 14.5q24 0 45 -10t43 -20.5t47 -10.5
q18 0 34.5 7.5t37.5 22.5l21 -29q-29 -25 -52 -34t-43 -9z" />
    <glyph glyph-name="uniFEF6" unicode="&#xfee0;&#xfe82;" horiz-adv-x="600" arabic-form="final" 
d="M600 -5q-47 0 -77.5 10t-48.5 31.5t-26 56.5t-10 86l-19 535h52l19 -507q3 -57 9.5 -92t30.5 -51t77 -16q13 0 19 -7t6 -18q0 -10 -9 -19t-23 -9zM180 -8q-27 0 -54.5 4.5t-38.5 6.5l8 52q70 -13 131.5 -5.5t107.5 40.5t72 95.5t26 157.5l34 -72q-6 -71 -27.5 -120
t-52.5 -80.5t-67 -48.5t-72 -23.5t-67 -6.5zM408 143q-28 47 -60 93t-69.5 93t-82.5 95t-99 97l35 37q59 -55 105 -105.5t83 -97.5t67 -90.5t55 -85.5zM221 639q-28 0 -52 10.5t-44 20.5t-38 10q-17 0 -31.5 -9t-30.5 -25l-27 23q20 24 42 38.5t48 14.5q24 0 45 -10
t43 -20.5t47 -10.5q18 0 34.5 7.5t37.5 22.5l21 -29q-29 -25 -52 -34t-43 -9z" />
    <glyph glyph-name="uniFEF7" unicode="&#xfedf;&#xfe84;" horiz-adv-x="575" arabic-form="isolated" 
d="M387 532q0 27 -3 60.5t-7.5 64.5t-8.5 52l55 8q3 -20 7 -52.5t7 -67.5t3 -62q0 -43 -6 -84t-18 -80.5t-30 -76.5l-8 -16q-32 -63 -81.5 -119.5t-116.5 -105.5h173q40 0 61.5 11.5t29.5 29t8 36.5q0 35 -29.5 76.5t-84 90t-129.5 106.5t-166 126l31 43q93 -70 163 -125.5
t120 -100t82 -82.5t46.5 -71.5t14.5 -66.5q0 -20 -6.5 -42t-23 -41t-47 -31t-78.5 -12h-236v59q101 72 162 148t88.5 157.5t27.5 167.5zM21 644l-9 38q26 6 43.5 10.5t37.5 9.5l13 -14q-38 6 -64.5 33t-26.5 61q0 28 13.5 47t36 28.5t47.5 9.5q12 0 24.5 -2t23.5 -6l-7 -35
q-10 3 -20 4.5t-21 1.5q-29 0 -44 -13.5t-15 -33.5q0 -21 13.5 -37t33.5 -25.5t39 -11.5l-40 -5q27 7 50.5 14.5t42.5 14.5l11 -35q-24 -9 -56.5 -19t-65 -19t-60.5 -16z" />
    <glyph glyph-name="uniFEF8" unicode="&#xfee0;&#xfe84;" horiz-adv-x="560" arabic-form="final" 
d="M560 -5q-47 0 -77.5 10t-48.5 31.5t-26 56.5t-10 86l-19 535h52l19 -507q3 -57 9.5 -92t30.5 -51t77 -16q13 0 19 -7t6 -18q0 -10 -9 -19t-23 -9zM140 -8q-27 0 -54.5 4.5t-38.5 6.5l8 52q70 -13 131.5 -5.5t107.5 40.5t72 95.5t26 157.5l34 -72q-6 -71 -27.5 -120
t-52.5 -80.5t-67 -48.5t-72 -23.5t-67 -6.5zM368 143q-28 47 -60 93t-69.5 93t-82.5 95t-99 97l35 37q59 -55 105 -105.5t83 -97.5t67 -90.5t55 -85.5zM59 644l-9 38q26 6 43.5 10.5t37.5 9.5l13 -14q-38 6 -64.5 33t-26.5 61q0 28 13.5 47t36 28.5t47.5 9.5q12 0 24.5 -2
t23.5 -6l-7 -35q-10 3 -20 4.5t-21 1.5q-29 0 -44 -13.5t-15 -33.5q0 -21 13.5 -37t33.5 -25.5t39 -11.5l-40 -5q27 7 50.5 14.5t42.5 14.5l11 -35q-24 -9 -56.5 -19t-65 -19t-60.5 -16z" />
    <glyph glyph-name="uniFEF9" unicode="&#xfedf;&#xfe88;" horiz-adv-x="575" arabic-form="isolated" 
d="M387 532q0 27 -3 60.5t-7.5 64.5t-8.5 52l55 8q3 -20 7 -52.5t7 -67.5t3 -62q0 -43 -6 -84t-18 -80.5t-30 -76.5l-8 -16q-32 -63 -81.5 -119.5t-116.5 -105.5h173q40 0 61.5 11.5t29.5 29t8 36.5q0 35 -29.5 76.5t-84 90t-129.5 106.5t-166 126l31 43q93 -70 163 -125.5
t120 -100t82 -82.5t46.5 -71.5t14.5 -66.5q0 -20 -6.5 -42t-23 -41t-47 -31t-78.5 -12h-236v59q101 72 162 148t88.5 157.5t27.5 167.5zM94 -295l-9 38q26 6 43.5 10.5t37.5 9.5l13 -14q-38 6 -64.5 33t-26.5 61q0 28 13.5 47t36 28.5t47.5 9.5q12 0 24.5 -2t23.5 -6l-7 -35
q-10 3 -20 4.5t-21 1.5q-29 0 -44 -13.5t-15 -33.5q0 -21 13.5 -37t33.5 -25.5t39 -11.5l-40 -5q27 7 50.5 14.5t42.5 14.5l11 -35q-24 -9 -56.5 -19t-65 -19t-60.5 -16z" />
    <glyph glyph-name="uniFEFA" unicode="&#xfee0;&#xfe88;" horiz-adv-x="560" arabic-form="final" 
d="M560 -5q-47 0 -77.5 10t-48.5 31.5t-26 56.5t-10 86l-19 535h52l19 -507q3 -57 9.5 -92t30.5 -51t77 -16q13 0 19 -7t6 -18q0 -10 -9 -19t-23 -9zM140 -8q-27 0 -54.5 4.5t-38.5 6.5l8 52q70 -13 131.5 -5.5t107.5 40.5t72 95.5t26 157.5l34 -72q-6 -71 -27.5 -120
t-52.5 -80.5t-67 -48.5t-72 -23.5t-67 -6.5zM368 143q-28 47 -60 93t-69.5 93t-82.5 95t-99 97l35 37q59 -55 105 -105.5t83 -97.5t67 -90.5t55 -85.5zM94 -295l-9 38q26 6 43.5 10.5t37.5 9.5l13 -14q-38 6 -64.5 33t-26.5 61q0 28 13.5 47t36 28.5t47.5 9.5q12 0 24.5 -2
t23.5 -6l-7 -35q-10 3 -20 4.5t-21 1.5q-29 0 -44 -13.5t-15 -33.5q0 -21 13.5 -37t33.5 -25.5t39 -11.5l-40 -5q27 7 50.5 14.5t42.5 14.5l11 -35q-24 -9 -56.5 -19t-65 -19t-60.5 -16z" />
    <glyph glyph-name="uniFEFB" unicode="&#xfedf;&#xfe8e;" horiz-adv-x="575" arabic-form="isolated" 
d="M387 532q0 27 -3 60.5t-7.5 64.5t-8.5 52l55 8q3 -20 7 -52.5t7 -67.5t3 -62q0 -43 -6 -84t-18 -80.5t-30 -76.5l-8 -16q-32 -63 -81.5 -119.5t-116.5 -105.5h173q40 0 61.5 11.5t29.5 29t8 36.5q0 35 -29.5 76.5t-84 90t-129.5 106.5t-166 126l31 43q93 -70 163 -125.5
t120 -100t82 -82.5t46.5 -71.5t14.5 -66.5q0 -20 -6.5 -42t-23 -41t-47 -31t-78.5 -12h-236v59q101 72 162 148t88.5 157.5t27.5 167.5z" />
    <glyph glyph-name="uniFEFC" unicode="&#xfee0;&#xfe8e;" horiz-adv-x="560" arabic-form="final" 
d="M560 -5q-47 0 -77.5 10t-48.5 31.5t-26 56.5t-10 86l-19 535h52l19 -507q3 -57 9.5 -92t30.5 -51t77 -16q13 0 19 -7t6 -18q0 -10 -9 -19t-23 -9zM140 -8q-27 0 -54.5 4.5t-38.5 6.5l8 52q70 -13 131.5 -5.5t107.5 40.5t72 95.5t26 157.5l34 -72q-6 -71 -27.5 -120
t-52.5 -80.5t-67 -48.5t-72 -23.5t-67 -6.5zM368 143q-28 47 -60 93t-69.5 93t-82.5 95t-99 97l35 37q59 -55 105 -105.5t83 -97.5t67 -90.5t55 -85.5z" />
    <glyph glyph-name="lam_alefMaksura_meemar" unicode="&#xfedf;&#xfbe9;&#xfee2;" horiz-adv-x="1060" 
d="M826 -5l7 53q58 0 83 13t30 44t3 85l-19 524h52l20 -518q2 -52 -3.5 -89.5t-24 -62.5t-54 -37t-94.5 -12zM567 -5l7 53q52 0 81 9.5t41 31.5t12 60q0 27 -7 61t-19 73t-28 81l52 19q15 -37 26.5 -78t18.5 -79t7 -66q0 -34 -6.5 -61t-20.5 -46.5t-36.5 -32t-54 -19
t-73.5 -6.5zM87 -393q-21 79 -36 152t-23 131.5t-8 92.5q0 72 23 130.5t59.5 103t78.5 75t81 45.5t65 15q23 0 39 -12.5t33 -48.5t41 -106q19 -54 36 -83.5t40 -41.5t57 -12q14 0 20 -7t6 -18q0 -10 -9 -19t-23 -9q-48 0 -79 19t-47 48l17 17q-5 -34 -21 -54t-38.5 -29
t-46.5 -9t-53.5 9.5t-60.5 30.5t-60 57.5t-53 89.5l9 -3q-31 -41 -46 -90.5t-15 -101.5q0 -29 6 -71.5t15 -91.5t21 -99.5t23 -96.5zM356 40q24 0 38.5 10t18.5 28t-4 42l-30 85t-22 53.5t-19.5 28t-20.5 8.5q-13 0 -32 -6.5t-40.5 -18.5t-42.5 -28.5t-39 -38.5v10
q24 -60 58 -98.5t70 -56.5t65 -18z" />
    <glyph glyph-name="lam_alefWaslaar" unicode="&#xfedf;&#xfb51;" horiz-adv-x="494" 
d="M149 661q-23 0 -53 2t-56 5.5t-40 5.5l5 36q15 -2 39.5 -5t52.5 -5t52 -2q59 0 79 17.5t20 39.5t-13 31.5t-32 9.5q-23 0 -44 -14t-38.5 -37t-30.5 -50l-38 2q15 32 36.5 63.5t51 52.5t66.5 21q34 0 57 -19.5t23 -56.5q0 -24 -12.5 -46t-42.5 -36.5t-82 -14.5zM387 532
q0 27 -3 60.5t-7.5 64.5t-8.5 52l55 8q3 -20 7 -52.5t7 -67.5t3 -62q0 -43 -6 -84t-18 -80.5t-30 -76.5l-8 -16q-32 -63 -81.5 -119.5t-116.5 -105.5h173q40 0 61.5 11.5t29.5 29t8 36.5q0 35 -29.5 76.5t-84 90t-129.5 106.5t-166 126l31 43q93 -70 163 -125.5t120 -100
t82 -82.5t46.5 -71.5t14.5 -66.5q0 -20 -6.5 -42t-23 -41t-47 -31t-78.5 -12h-236v59q101 72 162 148t88.5 157.5t27.5 167.5z" />
    <glyph glyph-name="lam_alefWaslaar.fina" unicode="&#xfee0;&#xfb51;" horiz-adv-x="586" 
d="M149 661q-23 0 -53 2t-56 5.5t-40 5.5l5 36q15 -2 39.5 -5t52.5 -5t52 -2q59 0 79 17.5t20 39.5t-13 31.5t-32 9.5q-23 0 -44 -14t-38.5 -37t-30.5 -50l-38 2q15 32 36.5 63.5t51 52.5t66.5 21q34 0 57 -19.5t23 -56.5q0 -24 -12.5 -46t-42.5 -36.5t-82 -14.5zM560 -5
q-47 0 -77.5 10t-48.5 31.5t-26 56.5t-10 86l-19 535h52l19 -507q3 -57 9.5 -92t30.5 -51t77 -16q13 0 19 -7t6 -18q0 -10 -9 -19t-23 -9zM140 -8q-27 0 -54.5 4.5t-38.5 6.5l8 52q70 -13 131.5 -5.5t107.5 40.5t72 95.5t26 157.5l34 -72q-6 -71 -27.5 -120t-52.5 -80.5
t-67 -48.5t-72 -23.5t-67 -6.5zM368 143q-28 47 -60 93t-69.5 93t-82.5 95t-99 97l35 37q59 -55 105 -105.5t83 -97.5t67 -90.5t55 -85.5z" />
    <glyph glyph-name="uni0620.init" unicode="&#x620;" horiz-adv-x="284" 
d="M0 -5l7 53q62 0 95 9t46 31t13 61q0 27 -7 61t-19 73t-28 81l52 19q15 -37 26.5 -78t18.5 -79t7 -66q0 -43 -10.5 -74t-35 -51t-65 -30t-100.5 -10zM133 -119q-35 0 -59 24.5t-24 59.5q0 34 24 58.5t59 24.5q34 0 58.5 -24.5t24.5 -58.5q0 -35 -24.5 -59.5t-58.5 -24.5z
M133 -82q19 0 33.5 13.5t14.5 33.5t-14 33.5t-34 13.5t-34 -13.5t-14 -33.5t14 -33.5t34 -13.5z" />
    <glyph glyph-name="uni0620.medi" unicode="&#x620;" horiz-adv-x="363" 
d="M0 -5l7 53q42 0 71 7t48.5 29.5t33.5 68t28 121.5l52 -10q-6 -27 -11 -50t-8 -43t-3 -39q0 -18 3.5 -33.5t17.5 -26.5t45 -17.5t85 -6.5q14 0 20 -7t6 -18q0 -10 -9 -19t-23 -9q-56 0 -91 7.5t-54.5 21.5t-26.5 35.5t-7 48.5l16 -1q-15 -36 -33.5 -58.5t-42 -34
t-54 -15.5t-70.5 -4zM117 -122q-35 0 -59 24.5t-24 58.5q0 35 24 59t59 24q34 0 58.5 -24t24.5 -59q0 -34 -24.5 -58.5t-58.5 -24.5zM117 -86q19 0 33.5 14t14.5 33q0 20 -14 34t-34 14t-34 -14t-14 -34q0 -19 14 -33t34 -14z" />
    <glyph glyph-name="uni0620.fina" unicode="&#x620;" horiz-adv-x="746" 
d="M333 -362q-34 0 -58.5 24.5t-24.5 59.5q0 34 24.5 58.5t58.5 24.5q35 0 59.5 -24.5t24.5 -58.5q0 -35 -24.5 -59.5t-59.5 -24.5zM333 -325q20 0 34 13.5t14 33.5t-14 33.5t-34 13.5q-19 0 -33 -13.5t-14 -33.5t14 -33.5t33 -13.5zM40 -11q0 24 4.5 51.5t15 60.5t27.5 73
l48 -20q-13 -29 -22.5 -57.5t-14 -54t-4.5 -48.5q0 -42 17.5 -74t50.5 -54t80.5 -33t107.5 -11q66 0 119 13.5t91.5 36t59 49.5t20.5 54q0 17 -13 31t-35.5 26t-50 22.5t-56.5 20.5l14 53q54 -23 92.5 -38t66.5 -24.5t50.5 -13.5t44.5 -4q14 0 19.5 -7.5t5.5 -17.5t-8.5 -19
t-26.5 -9q-8 0 -19.5 1t-24 3.5t-20.5 4.5q6 -11 8 -20.5t2 -17.5q0 -33 -22 -67.5t-66.5 -63.5t-109.5 -47.5t-151 -18.5q-83 0 -151 23.5t-108.5 72t-40.5 124.5z" />
    <glyph glyph-name="uni063B.init" unicode="&#x63b;" horiz-adv-x="394" 
d="M239 734q-16 0 -26.5 10.5t-10.5 25.5q0 14 10.5 25t26.5 11q14 0 24.5 -11t10.5 -25q0 -15 -10.5 -25.5t-24.5 -10.5zM127 681q-16 0 -26.5 11t-10.5 25q0 15 10.5 25.5t26.5 10.5q14 0 24.5 -10.5t10.5 -25.5q0 -14 -10.5 -25t-24.5 -11zM0 -5l7 53h82q55 0 91 7
t57 19.5t30 31t9 42.5q0 34 -25 78t-77 97q-34 35 -61.5 59t-47 40.5t-30 26t-10.5 15.5q0 12 2 22t6 18t10 13q23 21 55.5 42.5t75 45t93.5 49t110 54.5l22 -48q-68 -32 -120.5 -58t-93 -49.5t-72 -44t-56.5 -41.5l7 23q53 -45 100 -88.5t83 -86t57 -85t21 -85.5
q0 -32 -12 -59.5t-40 -47.5t-74.5 -31.5t-116.5 -11.5h-82z" />
    <glyph glyph-name="uni063B.medi" unicode="&#x63b;" horiz-adv-x="480" 
d="M213 734q-16 0 -26.5 10.5t-10.5 25.5q0 14 10.5 25t26.5 11q14 0 24.5 -11t10.5 -25q0 -15 -10.5 -25.5t-24.5 -10.5zM101 681q-16 0 -26.5 11t-10.5 25q0 15 10.5 25.5t26.5 10.5q14 0 24.5 -10.5t10.5 -25.5q0 -14 -10.5 -25t-24.5 -11zM0 -5l7 53h77q76 0 117 11.5
t57.5 33t16.5 51.5q0 26 -18 58t-46.5 65.5t-60.5 66t-60.5 59.5t-46.5 46.5t-18 25.5q0 11 2 21t6 18.5t10 13.5q23 20 57 42.5t77 46.5t93.5 49.5t106.5 51.5l22 -48q-53 -25 -102.5 -50t-93.5 -49t-81 -47.5t-65 -45.5l4 22q41 -38 81.5 -77t78 -80t67.5 -83.5t48 -85.5
q16 -38 39 -63.5t52 -39t60 -13.5q13 0 19 -7t6 -18q0 -10 -9 -19t-23 -9q-33 0 -68 13t-65 43.5t-48 82.5l23 -12q-8 -37 -27.5 -61t-51 -38.5t-72.5 -21t-93 -6.5h-78z" />
    <glyph glyph-name="uni063B.fina" unicode="&#x63b;" horiz-adv-x="970" 
d="M730 735q-16 0 -26.5 10.5t-10.5 25.5q0 14 10.5 25t26.5 11q14 0 24.5 -11t10.5 -25q0 -15 -10.5 -25.5t-24.5 -10.5zM618 682q-16 0 -26.5 11t-10.5 25q0 15 10.5 25.5t26.5 10.5q14 0 24.5 -10.5t10.5 -25.5q0 -14 -10.5 -25t-24.5 -11zM400 -21l26 53q82 0 145 7.5
t106 22.5t65.5 35.5t22.5 46.5q0 30 -18 63.5t-46.5 67t-60.5 65t-60.5 57.5t-46.5 44t-18 24q0 11 2 21t6 18.5t10 13.5q28 25 79 56.5t117 65.5t138 68l22 -48q-65 -30 -130.5 -63.5t-120.5 -66t-91 -62.5l4 22q41 -37 80.5 -72.5t75.5 -73.5t66.5 -82.5t52.5 -97.5
q12 -29 28.5 -50.5t35.5 -36t41 -22t46 -7.5q13 0 19 -7t6 -18q0 -10 -9 -19t-23 -9q-33 0 -67 13t-64 43.5t-49 82.5l22 -12q-8 -36 -35 -62.5t-76.5 -44.5t-123.5 -27t-177 -9zM400 -21q-88 0 -155 11.5t-112.5 35t-69 61t-23.5 90.5q0 24 4 49t10 50.5t13 48.5l48 -12
q-5 -17 -10 -37.5t-8.5 -42t-3.5 -42.5q0 -58 34.5 -93t108 -50.5t190.5 -15.5l20 -32z" />
    <glyph glyph-name="uni063C.init" unicode="&#x63c;" horiz-adv-x="394" 
d="M0 -5l7 53h82q55 0 91 7t57 19.5t30 31t9 42.5q0 34 -25 78t-77 97q-34 35 -61.5 59t-47 40.5t-30 26t-10.5 15.5q0 12 2 22t6 18t10 13q23 21 55.5 42.5t75 45t93.5 49t110 54.5l22 -48q-68 -32 -120.5 -58t-93 -49.5t-72 -44t-56.5 -41.5l7 23q53 -45 100 -88.5t83 -86
t57 -85t21 -85.5q0 -32 -12 -59.5t-40 -47.5t-74.5 -31.5t-116.5 -11.5h-82zM160 -274q-16 0 -27 11t-11 26q0 16 11 27.5t27 11.5t27 -11.5t11 -27.5q0 -15 -11.5 -26t-26.5 -11zM100 -178q-16 0 -27.5 11t-11.5 27q0 15 11 26.5t28 11.5q15 0 26 -11.5t11 -26.5
q0 -16 -11 -27t-26 -11zM220 -178q-16 0 -27 11t-11 27q0 15 11 26.5t27 11.5t27 -11.5t11 -26.5q0 -16 -11.5 -27t-26.5 -11z" />
    <glyph glyph-name="uni063C.medi" unicode="&#x63c;" horiz-adv-x="480" 
d="M0 -5l7 53h77q76 0 117 11.5t57.5 33t16.5 51.5q0 26 -18 58t-46.5 65.5t-60.5 66t-60.5 59.5t-46.5 46.5t-18 25.5q0 11 2 21t6 18.5t10 13.5q23 20 57 42.5t77 46.5t93.5 49.5t106.5 51.5l22 -48q-53 -25 -102.5 -50t-93.5 -49t-81 -47.5t-65 -45.5l4 22
q41 -38 81.5 -77t78 -80t67.5 -83.5t48 -85.5q16 -38 39 -63.5t52 -39t60 -13.5q13 0 19 -7t6 -18q0 -10 -9 -19t-23 -9q-33 0 -68 13t-65 43.5t-48 82.5l23 -12q-8 -37 -27.5 -61t-51 -38.5t-72.5 -21t-93 -6.5h-78zM160 -274q-16 0 -27 11t-11 26q0 16 11 27.5t27 11.5
t27 -11.5t11 -27.5q0 -15 -11.5 -26t-26.5 -11zM100 -178q-16 0 -27.5 11t-11.5 27q0 15 11 26.5t28 11.5q15 0 26 -11.5t11 -26.5q0 -16 -11 -27t-26 -11zM220 -178q-16 0 -27 11t-11 27q0 15 11 26.5t27 11.5t27 -11.5t11 -26.5q0 -16 -11.5 -27t-26.5 -11z" />
    <glyph glyph-name="uni063C.fina" unicode="&#x63c;" horiz-adv-x="970" 
d="M400 -21l26 53q82 0 145 7.5t106 22.5t65.5 35.5t22.5 46.5q0 30 -18 63.5t-46.5 67t-60.5 65t-60.5 57.5t-46.5 44t-18 24q0 11 2 21t6 18.5t10 13.5q28 25 79 56.5t117 65.5t138 68l22 -48q-65 -30 -130.5 -63.5t-120.5 -66t-91 -62.5l4 22q41 -37 80.5 -72.5
t75.5 -73.5t66.5 -82.5t52.5 -97.5q12 -29 28.5 -50.5t35.5 -36t41 -22t46 -7.5q13 0 19 -7t6 -18q0 -10 -9 -19t-23 -9q-33 0 -67 13t-64 43.5t-49 82.5l22 -12q-8 -36 -35 -62.5t-76.5 -44.5t-123.5 -27t-177 -9zM400 -21q-88 0 -155 11.5t-112.5 35t-69 61t-23.5 90.5
q0 24 4 49t10 50.5t13 48.5l48 -12q-5 -17 -10 -37.5t-8.5 -42t-3.5 -42.5q0 -58 34.5 -93t108 -50.5t190.5 -15.5l20 -32zM410 -295q-16 0 -27 11t-11 26q0 16 11 27.5t27 11.5t27 -11.5t11 -27.5q0 -15 -11.5 -26t-26.5 -11zM350 -199q-16 0 -27.5 11t-11.5 27
q0 15 11 26.5t28 11.5q15 0 26 -11.5t11 -26.5q0 -16 -11 -27t-26 -11zM470 -199q-16 0 -27 11t-11 27q0 15 11 26.5t27 11.5t27 -11.5t11 -26.5q0 -16 -11.5 -27t-26.5 -11z" />
    <glyph glyph-name="uni063D.init" unicode="&#x63d;" horiz-adv-x="259" 
d="M0 -5l7 53q52 0 81 9.5t41 31.5t12 60q0 27 -7 61t-19 73t-28 81l52 19q15 -37 26.5 -78t18.5 -79t7 -66q0 -34 -6.5 -61t-20.5 -46.5t-36.5 -32t-54 -19t-73.5 -6.5zM124 718q7 -15 18 -38.5t23.5 -49.5t25 -49.5t21.5 -39.5l-33 -17q-6 10 -17.5 31t-24 46t-23.5 48.5
t-18 38.5l-13 26zM83 714l32 -11q-6 -17 -17.5 -44.5t-24 -56.5t-22.5 -51.5t-15 -30.5l-33 14q5 10 16 33t23.5 51t23.5 54t17 42zM168 -182q-16 0 -27 11t-11 27q0 15 11 26.5t27 11.5t27 -11.5t11 -26.5q0 -16 -11.5 -27t-26.5 -11zM47 -182q-16 0 -27 11t-11 27
q0 15 11 26.5t27 11.5t27 -11.5t11 -26.5q0 -16 -11.5 -27t-26.5 -11z" />
    <glyph glyph-name="uni063D.medi" unicode="&#x63d;" horiz-adv-x="348" 
d="M0 -5l7 53q41 0 68 6.5t44 28.5t30.5 67.5t28.5 123.5l52 -10q-6 -27 -11 -50t-8 -43t-3 -39q0 -24 9.5 -43t40.5 -30t96 -11q14 0 20 -7t6 -18q0 -10 -9 -19t-23 -9q-65 0 -103 13t-54.5 38.5t-16.5 61.5l16 -1q-15 -36 -32.5 -58.5t-39 -34t-50.5 -15.5t-68 -4z
M179 604q7 -15 18 -38.5t23.5 -49.5t25 -49.5t21.5 -39.5l-33 -17q-6 10 -17.5 31t-24 46t-23.5 48.5t-18 38.5l-13 26zM138 600l32 -11q-6 -17 -17.5 -44.5t-24 -56.5t-22.5 -51.5t-15 -30.5l-33 14q5 10 16 33t23.5 51t23.5 54t17 42zM237 -182q-16 0 -27 11t-11 27
q0 15 11 26.5t27 11.5t27 -11.5t11 -26.5q0 -16 -11.5 -27t-26.5 -11zM116 -182q-16 0 -27 11t-11 27q0 15 11 26.5t27 11.5t27 -11.5t11 -26.5q0 -16 -11.5 -27t-26.5 -11z" />
    <glyph glyph-name="uni063D.fina" unicode="&#x63d;" horiz-adv-x="746" 
d="M40 -11q0 24 4.5 51.5t15 60.5t27.5 73l48 -20q-13 -29 -22.5 -57.5t-14 -54t-4.5 -48.5q0 -42 17.5 -74t50.5 -54t80.5 -33t107.5 -11q66 0 119 13.5t91.5 36t59 49.5t20.5 54q0 17 -13 31t-35.5 26t-50 22.5t-56.5 20.5l14 53q54 -23 92.5 -38t66.5 -24.5t50.5 -13.5
t44.5 -4q14 0 19.5 -7.5t5.5 -17.5t-8.5 -19t-26.5 -9q-8 0 -19.5 1t-24 3.5t-20.5 4.5q6 -11 8 -20.5t2 -17.5q0 -33 -22 -67.5t-66.5 -63.5t-109.5 -47.5t-151 -18.5q-83 0 -151 23.5t-108.5 72t-40.5 124.5zM245 464q7 -15 18 -38.5t23.5 -49.5t25 -49.5t21.5 -39.5
l-33 -17q-6 10 -17.5 31t-24 46t-23.5 48.5t-18 38.5l-13 26zM204 460l32 -11q-6 -17 -17.5 -44.5t-24 -56.5t-22.5 -51.5t-15 -30.5l-33 14q5 10 16 33t23.5 51t23.5 54t17 42z" />
    <glyph glyph-name="uni063E.init" unicode="&#x63e;" horiz-adv-x="284" 
d="M0 -5l7 53q62 0 95 9t46 31t13 61q0 27 -7 61t-19 73t-28 81l52 19q15 -37 26.5 -78t18.5 -79t7 -66q0 -43 -10.5 -74t-35 -51t-65 -30t-100.5 -10zM198 513q-16 0 -27 11t-11 27q0 15 11 26.5t27 11.5t27 -11.5t11 -26.5q0 -16 -11.5 -27t-26.5 -11zM77 513
q-16 0 -27 11t-11 27q0 15 11 26.5t27 11.5t27 -11.5t11 -26.5q0 -16 -11.5 -27t-26.5 -11zM177 -182q-16 0 -27 11t-11 27q0 15 11 26.5t27 11.5t27 -11.5t11 -26.5q0 -16 -11.5 -27t-26.5 -11zM56 -182q-16 0 -27 11t-11 27q0 15 11 26.5t27 11.5t27 -11.5t11 -26.5
q0 -16 -11.5 -27t-26.5 -11z" />
    <glyph glyph-name="uni063E.medi" unicode="&#x63e;" horiz-adv-x="363" 
d="M0 -5l7 53q42 0 71 7t48.5 29.5t33.5 68t28 121.5l52 -10q-6 -27 -11 -50t-8 -43t-3 -39q0 -18 3.5 -33.5t17.5 -26.5t45 -17.5t85 -6.5q13 0 19.5 -7.5t6.5 -17.5t-9 -19t-23 -9q-56 0 -91 7.5t-54.5 21.5t-26.5 35.5t-7 48.5l16 -1q-15 -36 -33.5 -58.5t-42 -34
t-54 -15.5t-70.5 -4zM264 399q-16 0 -27.5 11t-11.5 26q0 16 11 27.5t28 11.5q15 0 26 -11.5t11 -27.5q0 -15 -11 -26t-26 -11zM143 399q-16 0 -27.5 11t-11.5 26q0 16 11 27.5t28 11.5q15 0 26 -11.5t11 -27.5q0 -15 -11 -26t-26 -11zM248 -188q-16 0 -27.5 11t-11.5 27
q0 15 11 26.5t28 11.5q15 0 26 -11.5t11 -26.5q0 -16 -11 -27t-26 -11zM127 -188q-16 0 -27.5 11t-11.5 27q0 15 11 26.5t28 11.5q15 0 26 -11.5t11 -26.5q0 -16 -11 -27t-26 -11z" />
    <glyph glyph-name="uni063E.fina" unicode="&#x63e;" horiz-adv-x="746" 
d="M40 -11q0 24 4.5 51.5t15 60.5t27.5 73l48 -20q-13 -29 -22.5 -57.5t-14 -54t-4.5 -48.5q0 -42 17.5 -74t50.5 -54t80.5 -33t107.5 -11q66 0 119 13.5t91.5 36t59 49.5t20.5 54q0 17 -13 31t-35.5 26t-50 22.5t-56.5 20.5l14 53q54 -23 92.5 -38t66.5 -24.5t50.5 -13.5
t44.5 -4q14 0 19.5 -7.5t5.5 -17.5t-8.5 -19t-26.5 -9q-8 0 -19.5 1t-24 3.5t-20.5 4.5q6 -11 8 -20.5t2 -17.5q0 -33 -22 -67.5t-66.5 -63.5t-109.5 -47.5t-151 -18.5q-83 0 -151 23.5t-108.5 72t-40.5 124.5zM294 259q-16 0 -27 11t-11 27q0 15 11 26.5t27 11.5t27 -11.5
t11 -26.5q0 -16 -11.5 -27t-26.5 -11zM173 259q-16 0 -27 11t-11 27q0 15 11 26.5t27 11.5t27 -11.5t11 -26.5q0 -16 -11.5 -27t-26.5 -11z" />
    <glyph glyph-name="uni063F.init" unicode="&#x63f;" horiz-adv-x="284" 
d="M0 -5l7 53q62 0 95 9t46 31t13 61q0 27 -7 61t-19 73t-28 81l52 19q15 -37 26.5 -78t18.5 -79t7 -66q0 -43 -10.5 -74t-35 -51t-65 -30t-100.5 -10zM138 610q-16 0 -27 11t-11 26q0 16 11 27.5t27 11.5q15 0 26.5 -11.5t11.5 -27.5q0 -15 -11.5 -26t-26.5 -11zM78 513
q-16 0 -27 11t-11 27t11 27t27 11q15 0 26.5 -11t11.5 -27t-11.5 -27t-26.5 -11zM198 513q-15 0 -26.5 11t-11.5 27t11.5 27t26.5 11q16 0 27 -11t11 -27t-11 -27t-27 -11zM177 -182q-16 0 -27 11t-11 27q0 15 11 26.5t27 11.5t27 -11.5t11 -26.5q0 -16 -11.5 -27t-26.5 -11
zM56 -182q-16 0 -27 11t-11 27q0 15 11 26.5t27 11.5t27 -11.5t11 -26.5q0 -16 -11.5 -27t-26.5 -11z" />
    <glyph glyph-name="uni063F.medi" unicode="&#x63f;" horiz-adv-x="363" 
d="M0 -5l7 53q42 0 71 7t48.5 29.5t33.5 68t28 121.5l52 -10q-6 -27 -11 -50t-8 -43t-3 -39q0 -18 3.5 -33.5t17.5 -26.5t45 -17.5t85 -6.5q13 0 19.5 -7.5t6.5 -17.5t-9 -19t-23 -9q-56 0 -91 7.5t-54.5 21.5t-26.5 35.5t-7 48.5l16 -1q-15 -36 -33.5 -58.5t-42 -34
t-54 -15.5t-70.5 -4zM203 495q-15 0 -26.5 11t-11.5 27t11.5 27t26.5 11q16 0 27 -11t11 -27t-11 -27t-27 -11zM143 399q-15 0 -26.5 11t-11.5 26q0 16 11.5 27.5t26.5 11.5q16 0 27 -11.5t11 -27.5q0 -15 -11 -26t-27 -11zM264 399q-16 0 -27 11t-11 26q0 16 11 27.5
t27 11.5q15 0 26.5 -11.5t11.5 -27.5q0 -15 -11.5 -26t-26.5 -11zM248 -188q-16 0 -27.5 11t-11.5 27q0 15 11 26.5t28 11.5q15 0 26 -11.5t11 -26.5q0 -16 -11 -27t-26 -11zM127 -188q-16 0 -27.5 11t-11.5 27q0 15 11 26.5t28 11.5q15 0 26 -11.5t11 -26.5q0 -16 -11 -27
t-26 -11z" />
    <glyph glyph-name="uni063F.fina" unicode="&#x63f;" horiz-adv-x="746" 
d="M40 -11q0 24 4.5 51.5t15 60.5t27.5 73l48 -20q-13 -29 -22.5 -57.5t-14 -54t-4.5 -48.5q0 -42 17.5 -74t50.5 -54t80.5 -33t107.5 -11q66 0 119 13.5t91.5 36t59 49.5t20.5 54q0 17 -13 31t-35.5 26t-50 22.5t-56.5 20.5l14 53q54 -23 92.5 -38t66.5 -24.5t50.5 -13.5
t44.5 -4q14 0 19.5 -7.5t5.5 -17.5t-8.5 -19t-26.5 -9q-8 0 -19.5 1t-24 3.5t-20.5 4.5q6 -11 8 -20.5t2 -17.5q0 -33 -22 -67.5t-66.5 -63.5t-109.5 -47.5t-151 -18.5q-83 0 -151 23.5t-108.5 72t-40.5 124.5zM234 356q-16 0 -27 11t-11 26q0 16 11 27.5t27 11.5
q15 0 26.5 -11.5t11.5 -27.5q0 -15 -11.5 -26t-26.5 -11zM174 259q-16 0 -27 11t-11 27t11 27t27 11q15 0 26.5 -11t11.5 -27t-11.5 -27t-26.5 -11zM294 259q-15 0 -26.5 11t-11.5 27t11.5 27t26.5 11q16 0 27 -11t11 -27t-11 -27t-27 -11z" />
    <glyph glyph-name="uni066E.init" unicode="&#x66e;" horiz-adv-x="259" 
d="M0 -5l7 53q52 0 81 9.5t41 31.5t12 60q0 27 -7 61t-19 73t-28 81l52 19q15 -37 26.5 -78t18.5 -79t7 -66q0 -34 -6.5 -61t-20.5 -46.5t-36.5 -32t-54 -19t-73.5 -6.5z" />
    <glyph glyph-name="uni066E.medi" unicode="&#x66e;" horiz-adv-x="348" 
d="M0 -5l7 53q41 0 68 6.5t44 28.5t30.5 67.5t28.5 123.5l52 -10q-6 -27 -11 -50t-8 -43t-3 -39q0 -24 9.5 -43t40.5 -30t96 -11q14 0 20 -7t6 -18q0 -10 -9 -19t-23 -9q-65 0 -103 13t-54.5 38.5t-16.5 61.5l16 -1q-15 -36 -32.5 -58.5t-39 -34t-50.5 -15.5t-68 -4z" />
    <glyph glyph-name="uni066E.fina" unicode="&#x66e;" horiz-adv-x="1063" 
d="M400 -21l26 53q89 0 163 12t134 36t107 59t79 81l43 -23q-10 -26 -14 -43.5t-4 -31.5q0 -21 11 -37.5t41 -26.5t83 -10q14 0 20 -7t6 -18q0 -10 -9 -19t-23 -9q-63 0 -105 15.5t-60 46t-11 76.5l13 -5q-34 -34 -80 -61t-106.5 -47t-138 -30.5t-175.5 -10.5zM400 -21
q-88 0 -155 11.5t-112.5 35t-69 61t-23.5 90.5q0 24 4 49t10 50.5t13 48.5l48 -12q-5 -17 -10 -37.5t-8.5 -42t-3.5 -42.5q0 -58 34.5 -93t108 -50.5t190.5 -15.5l20 -32z" />
    <glyph glyph-name="uni066F.init" unicode="&#x66f;" horiz-adv-x="439" 
d="M0 -5l7 53q36 0 72 1t70 4t61.5 9t46.5 15q25 12 43.5 31t28 53.5t9.5 89.5q0 47 -12.5 89.5t-36.5 70t-59 27.5q-26 0 -49.5 -22t-38 -55.5t-14.5 -67.5q0 -32 13 -51t37.5 -26.5t58.5 -7.5q32 0 64 6.5t53 16.5l4 -45q-16 -11 -37 -17.5t-44.5 -9.5t-46.5 -3
q-45 0 -80 13.5t-54.5 41t-19.5 70.5q0 36 12 73t33.5 68t51 50t63.5 19q50 0 84 -34.5t51.5 -91t17.5 -120.5q0 -67 -20.5 -117.5t-73.5 -85.5q-20 -13 -49 -22t-66 -14.5t-82 -8t-98 -2.5z" />
    <glyph glyph-name="uni066F.medi" unicode="&#x66f;" horiz-adv-x="492" 
d="M0 -5l7 53q27 0 54.5 1.5t54.5 5.5t52 9t46 13q39 15 69.5 34.5t49 47t18.5 65.5q0 27 -12.5 56.5t-36 51t-55.5 21.5q-27 0 -52.5 -18.5t-41.5 -49t-16 -65.5q0 -38 18 -65t45 -46t56 -31l-62 -19q-21 12 -46.5 32.5t-44 52.5t-18.5 77q0 39 14 72.5t37 58.5t52 39
t60 14q46 0 81 -26t54.5 -66.5t19.5 -85.5q0 -38 -13 -68.5t-36 -54t-54.5 -41.5t-67.5 -31q-24 -10 -52 -17t-58 -11.5t-61 -6.5t-61 -2zM492 -5q-46 0 -98 7t-99 18t-79 25l47 31q26 -5 63 -11.5t81.5 -11.5t91.5 -5q13 0 19 -7t6 -18q0 -10 -9 -19t-23 -9z" />
    <glyph glyph-name="uni066F.fina" unicode="&#x66f;" horiz-adv-x="808" 
d="M327 -272q-63 0 -115 13.5t-91 42t-60 73t-21 107.5q0 12 3.5 40t15.5 68.5t38 87.5l47 -22q-14 -27 -25 -54t-17.5 -54.5t-6.5 -56.5q0 -72 32 -113.5t88 -59.5t126 -18q41 0 82.5 6t79.5 18.5t69.5 33.5t54.5 51t32 71q7 24 10.5 54.5t3.5 51.5q0 60 -14.5 105.5
t-38.5 70.5t-53 25q-21 0 -39.5 -13t-33 -34t-23 -47t-8.5 -51t10 -40t28 -22.5t43.5 -10.5t55.5 -3h215q13 0 19 -7t6 -18q0 -10 -9 -19t-23 -9h-229q-32 0 -62 5.5t-54 19t-38 36.5t-14 59q-1 35 11.5 71t34.5 67t51.5 50t63.5 19q45 0 79.5 -31t54.5 -89.5t20 -141.5
q0 -27 -7 -64.5t-19 -70.5q-21 -59 -60.5 -97.5t-91 -60t-108.5 -30.5t-113 -9z" />
    <glyph glyph-name="uni0672.fina" unicode="&#x672;" horiz-adv-x="276" 
d="M276 -5q-70 0 -107 15.5t-51.5 51.5t-17.5 99l-18 483h53l18 -462q2 -56 10.5 -85t35.5 -39t83 -10q14 0 20 -7t6 -18q0 -10 -9 -19t-23 -9zM-55 721l-29 17q12 24 30 35.5t36 11.5q24 0 41.5 -11.5t35.5 -11.5q12 0 27 2.5t23 6.5l2 -11q-37 7 -64 33.5t-27 61.5
q0 41 30 62.5t68 21.5q12 0 24.5 -2t22.5 -6l-6 -35q-10 3 -20 4.5t-20 1.5q-30 0 -45.5 -13t-15.5 -33q0 -22 14 -38t34 -25.5t39 -11.5l-30 -7q27 7 46 14.5t36 15.5l12 -33q-9 -5 -27 -13t-40.5 -15.5t-44.5 -12.5t-39 -5q-25 0 -43 11t-34 11q-12 0 -20 -7.5t-16 -18.5z
" />
    <glyph glyph-name="uni0673.fina" unicode="&#x673;" horiz-adv-x="278" 
d="M278 -5q-70 0 -107.5 15.5t-51.5 51.5t-17 99l-20 553h53l20 -532q2 -56 10.5 -85t35.5 -39t83 -10q14 0 20 -7t6 -18q0 -10 -9 -19t-23 -9zM-22 -293l-29 17q13 24 30.5 35.5t35.5 11.5q24 0 41.5 -11.5t36.5 -11.5q11 0 26 2.5t24 6.5l2 -11q-38 7 -64.5 33.5
t-26.5 61.5q0 41 30 62.5t68 21.5q11 0 23.5 -2t23.5 -6l-7 -35q-10 3 -19.5 4.5t-20.5 1.5q-30 0 -45 -13t-15 -33q0 -22 13.5 -38t33.5 -25.5t39 -11.5l-29 -7q27 7 45.5 14.5t36.5 15.5l12 -33q-9 -5 -27.5 -13t-40.5 -15.5t-44 -12.5t-39 -5q-26 0 -44 11t-33 11
q-13 0 -21 -7.5t-16 -18.5z" />
    <glyph glyph-name="uni0675.fina" unicode="&#x675;" horiz-adv-x="423" 
d="M423 -5h-147q-69 0 -106 15.5t-51 52t-17 98.5l-20 553h53l20 -532q2 -55 10.5 -84t34.5 -39.5t82 -10.5h147q14 0 20 -7t6 -18q0 -10 -9 -19t-23 -9zM207 585l-9 38q26 6 43.5 10.5t37.5 9.5l13 -14q-38 7 -64.5 34t-26.5 60q0 28 13.5 47.5t36 29t47.5 9.5
q12 0 24.5 -2t23.5 -6l-7 -35l-20 4t-21 2q-29 0 -44 -13.5t-15 -33.5q0 -21 13.5 -37t33.5 -25.5t39 -12.5l-40 -4q27 7 50.5 14.5t42.5 14.5l11 -36q-24 -9 -56 -19t-65 -19t-61 -16z" />
    <glyph glyph-name="uni0676.fina" unicode="&#x676;" horiz-adv-x="474" 
d="M57 -230l-11 53q61 9 114 26t93 46.5t62.5 76.5t22.5 114q0 88 -30.5 137t-74.5 49q-26 0 -50 -20.5t-39.5 -53.5t-15.5 -70q0 -26 10.5 -41.5t29.5 -24t44.5 -11.5t55.5 -3h213q13 0 19 -7t6 -18q0 -10 -9 -19t-23 -9h-225q-44 0 -83.5 11t-64.5 37.5t-25 75.5
q0 39 13 75.5t35 66t51.5 47t62.5 17.5q44 0 78 -27.5t53.5 -81.5t19.5 -134q0 -85 -37 -150t-110.5 -106t-184.5 -56zM295 395l-9 38q26 6 43.5 10.5t37.5 9.5l13 -14q-38 6 -64.5 33t-26.5 61q0 28 13.5 47t36 28.5t47.5 9.5q12 0 24.5 -2t23.5 -6l-7 -35q-10 3 -20 4.5
t-21 1.5q-29 0 -44 -13.5t-15 -33.5q0 -21 13.5 -37t33.5 -25.5t39 -11.5l-40 -5q27 7 50.5 14.5t42.5 14.5l11 -35q-24 -9 -56.5 -19t-65 -19t-60.5 -16z" />
    <glyph glyph-name="uni0677.fina" unicode="&#x677;" horiz-adv-x="544" 
d="M127 -230l-11 53q61 9 114 26t93 46.5t62.5 76.5t22.5 114q0 88 -30.5 137t-74.5 49q-26 0 -50 -20.5t-39.5 -53.5t-15.5 -70q0 -26 10.5 -41.5t29.5 -24t44.5 -11.5t55.5 -3h213q13 0 19 -7t6 -18q0 -10 -9 -19t-23 -9h-225q-44 0 -83.5 11t-64.5 37.5t-25 75.5
q0 39 13 75.5t35 66t51.5 47t62.5 17.5q44 0 78 -27.5t53.5 -81.5t19.5 -134q0 -85 -37 -150t-110.5 -106t-184.5 -56zM371 395l-9 38q26 6 43.5 10.5t37.5 9.5l13 -14q-38 6 -64.5 33t-26.5 61q0 28 13.5 47t36 28.5t47.5 9.5q12 0 24.5 -2t23.5 -6l-7 -35q-10 3 -20 4.5
t-21 1.5q-29 0 -44 -13.5t-15 -33.5q0 -21 13.5 -37t33.5 -25.5t39 -11.5l-40 -5q27 7 50.5 14.5t42.5 14.5l11 -35q-24 -9 -56.5 -19t-65 -19t-60.5 -16zM53 388l-7 34q66 6 108 23t62.5 41.5t20.5 50.5q0 20 -10 35.5t-31 15.5q-18 0 -30 -13t-12 -30q0 -25 22 -42t50 -23
l-21 -25q-39 10 -63.5 33t-24.5 57q0 32 23 55.5t58 23.5q33 0 54 -23.5t21 -60.5q0 -42 -27.5 -74.5t-77 -52t-115.5 -25.5z" />
    <glyph glyph-name="uni0678.init" unicode="&#x678;" horiz-adv-x="350" 
d="M0 -5l7 53q52 0 81 9.5t41 31.5t12 60q0 27 -7 61t-19 73t-28 81l52 19q15 -37 26.5 -78t18.5 -79t7 -66q0 -34 -6.5 -61t-20.5 -46.5t-36.5 -32t-54 -19t-73.5 -6.5zM164 585l-9 38q26 6 43.5 10.5t37.5 9.5l13 -14q-38 7 -64.5 34t-26.5 60q0 28 13.5 47.5t36 29
t47.5 9.5q12 0 24.5 -2t23.5 -6l-7 -35l-20 4t-21 2q-29 0 -44 -13.5t-15 -33.5q0 -21 13.5 -37t33.5 -25.5t39 -12.5l-40 -4q27 7 50.5 14.5t42.5 14.5l11 -36q-24 -9 -56.5 -19t-65 -19t-60.5 -16z" />
    <glyph glyph-name="uni0678.medi" unicode="&#x678;" horiz-adv-x="343" 
d="M0 -5l7 53q41 0 68 6.5t44 28.5t30.5 67.5t28.5 123.5l52 -10q-6 -27 -11 -50t-8 -43t-3 -39q0 -24 9.5 -43t40.5 -30t96 -11q14 0 20 -7t6 -18q0 -10 -9 -19t-23 -9q-65 0 -103 13t-54.5 38.5t-16.5 61.5l16 -1q-15 -36 -32.5 -58.5t-39 -34t-50.5 -15.5t-68 -4z
M160 416l-9 38q26 6 43.5 10.5t37.5 9.5l13 -14q-38 7 -64.5 34t-26.5 60q0 28 13.5 47.5t36 29t47.5 9.5q12 0 24.5 -2t23.5 -6l-7 -35l-20 4t-21 2q-29 0 -44 -13.5t-15 -33.5q0 -21 13.5 -37t33.5 -25.5t39 -12.5l-40 -4q27 7 50.5 14.5t42.5 14.5l11 -36
q-24 -9 -56.5 -19t-65 -19t-60.5 -16z" />
    <glyph glyph-name="uni0678.fina" unicode="&#x678;" horiz-adv-x="746" 
d="M40 -11q0 24 4.5 51.5t15 60.5t27.5 73l48 -20q-13 -29 -22.5 -57.5t-14 -54t-4.5 -48.5q0 -42 17.5 -74t50.5 -54t80.5 -33t107.5 -11q66 0 119 13.5t91.5 36t59 49.5t20.5 54q0 17 -13 31t-35.5 26t-50 22.5t-56.5 20.5l14 53q54 -23 92.5 -38t66.5 -24.5t50.5 -13.5
t44.5 -4q14 0 19.5 -7.5t5.5 -17.5t-8.5 -19t-26.5 -9q-8 0 -19.5 1t-24 3.5t-20.5 4.5q6 -11 8 -20.5t2 -17.5q0 -33 -22 -67.5t-66.5 -63.5t-109.5 -47.5t-151 -18.5q-83 0 -151 23.5t-108.5 72t-40.5 124.5zM506 212l-9 38q26 6 43.5 10.5t37.5 9.5l13 -14
q-38 7 -64.5 34t-26.5 60q0 28 13.5 47.5t36 29t47.5 9.5q12 0 24.5 -2t23.5 -6l-7 -35l-20 4t-21 2q-29 0 -44 -13.5t-15 -33.5q0 -21 13.5 -37t33.5 -25.5t39 -12.5l-40 -4q27 7 50.5 14.5t42.5 14.5l11 -36q-24 -9 -56.5 -19t-65 -19t-60.5 -16z" />
    <glyph glyph-name="uni067C.init" unicode="&#x67c;" horiz-adv-x="284" 
d="M0 -5l7 53q62 0 95 9t46 31t13 61q0 27 -7 61t-19 73t-28 81l52 19q15 -37 26.5 -78t18.5 -79t7 -66q0 -43 -10.5 -74t-35 -51t-65 -30t-100.5 -10zM129 -119q-35 0 -59 24.5t-24 59.5q0 34 24 58.5t58 24.5q35 0 59.5 -24.5t24.5 -58.5q0 -35 -24.5 -59.5t-58.5 -24.5z
M129 -82q19 0 33.5 13.5t14.5 33.5t-14.5 33.5t-33.5 13.5q-20 0 -34 -13.5t-14 -33.5t14 -33.5t34 -13.5zM198 513q-16 0 -27 11t-11 27q0 15 11 26.5t27 11.5t27 -11.5t11 -26.5q0 -16 -11.5 -27t-26.5 -11zM77 513q-16 0 -27 11t-11 27q0 15 11 26.5t27 11.5t27 -11.5
t11 -26.5q0 -16 -11.5 -27t-26.5 -11z" />
    <glyph glyph-name="uni067C.medi" unicode="&#x67c;" horiz-adv-x="348" 
d="M107 -125q-35 0 -59 24t-24 59t24 59t59 24t59.5 -24t24.5 -59q0 -34 -24.5 -58.5t-59.5 -24.5zM107 -89q20 0 34 14t14 33q0 20 -14 34t-34 14t-33.5 -14t-13.5 -34q0 -19 13.5 -33t33.5 -14zM0 -5l7 53q41 0 68 6.5t44 28.5t30.5 67.5t28.5 123.5l52 -10
q-6 -27 -11 -50t-8 -43t-3 -39q0 -24 9.5 -43t40.5 -30t96 -11q13 0 19.5 -7.5t6.5 -17.5t-9 -19t-23 -9q-65 0 -103 13t-54.5 38.5t-16.5 61.5l16 -1q-15 -36 -32.5 -58.5t-39 -34t-50.5 -15.5t-68 -4zM259 399q-16 0 -27.5 11t-11.5 26q0 16 11 27.5t28 11.5
q15 0 26 -11.5t11 -27.5q0 -15 -11 -26t-26 -11zM138 399q-16 0 -27.5 11t-11.5 26q0 16 11 27.5t28 11.5q15 0 26 -11.5t11 -27.5q0 -15 -11 -26t-26 -11z" />
    <glyph glyph-name="uni067C.fina" unicode="&#x67c;" horiz-adv-x="1063" 
d="M519 -148q-35 0 -59 24t-24 59t24 59t59 24t59.5 -24t24.5 -59q0 -34 -24.5 -58.5t-59.5 -24.5zM519 -112q20 0 34 14t14 33q0 20 -14 34t-34 14t-33.5 -14t-13.5 -34q0 -19 13.5 -33t33.5 -14zM400 -21l26 53q89 0 163 12t134 36t107 59t79 81l43 -23q-10 -26 -14 -43.5
t-4 -31.5q0 -21 11 -37.5t41 -26.5t83 -10q13 0 19.5 -7.5t6.5 -17.5t-9 -19t-23 -9q-63 0 -105 15.5t-60 46t-11 76.5l13 -5q-34 -34 -80 -61t-106.5 -47t-138 -30.5t-175.5 -10.5zM400 -21q-88 0 -155 11.5t-112.5 35t-69 61t-23.5 90.5q0 24 3.5 49t10 50.5t13.5 48.5
l48 -12q-5 -17 -10 -37.5t-8.5 -42t-3.5 -42.5q0 -58 34.5 -93t108 -50.5t190.5 -15.5l20 -32zM544 417q-16 0 -27.5 11t-11.5 27q0 15 11 26.5t28 11.5q15 0 26 -11.5t11 -26.5q0 -16 -11 -27t-26 -11zM423 417q-16 0 -27.5 11t-11.5 27q0 15 11 26.5t28 11.5
q15 0 26 -11.5t11 -26.5q0 -16 -11 -27t-26 -11z" />
    <glyph glyph-name="uni067D.init" unicode="&#x67d;" horiz-adv-x="284" 
d="M0 -5l7 53q62 0 95 9t46 31t13 61q0 27 -7 61t-19 73t-28 81l52 19q15 -37 26.5 -78t18.5 -79t7 -66q0 -43 -10.5 -74t-35 -51t-65 -30t-100.5 -10zM138 513q-16 0 -27 11t-11 27q0 15 11 26.5t27 11.5t27 -11.5t11 -26.5q0 -16 -11.5 -27t-26.5 -11zM78 610
q-16 0 -27.5 11t-11.5 26q0 16 11 27.5t28 11.5q15 0 26 -11.5t11 -27.5q0 -15 -11 -26t-26 -11zM198 610q-16 0 -27 11t-11 26q0 16 11 27.5t27 11.5t27 -11.5t11 -27.5q0 -15 -11.5 -26t-26.5 -11z" />
    <glyph glyph-name="uni067D.medi" unicode="&#x67d;" horiz-adv-x="363" 
d="M0 -5l7 53q42 0 71 7t48.5 29.5t33.5 68t28 121.5l52 -10q-6 -27 -11 -50t-8 -43t-3 -39q0 -18 3.5 -33.5t17.5 -26.5t45 -17.5t85 -6.5q13 0 19.5 -7.5t6.5 -17.5t-9 -19t-23 -9q-56 0 -91 7.5t-54.5 21.5t-26.5 35.5t-7 48.5l16 -1q-15 -36 -33.5 -58.5t-42 -34
t-54 -15.5t-70.5 -4zM204 399q-16 0 -27.5 11t-11.5 26q0 16 11 27.5t28 11.5q15 0 26 -11.5t11 -27.5q0 -15 -11 -26t-26 -11zM143 495q-16 0 -27 11t-11 27q0 15 11 26.5t27 11.5t27 -11.5t11 -26.5q0 -16 -11.5 -27t-26.5 -11zM264 495q-16 0 -27.5 11t-11.5 27
q0 15 11 26.5t28 11.5q15 0 26 -11.5t11 -26.5q0 -16 -11 -27t-26 -11z" />
    <glyph glyph-name="uni067D.fina" unicode="&#x67d;" horiz-adv-x="1063" 
d="M400 -21l26 53q89 0 163 12t134 36t107 59t79 81l43 -23q-10 -26 -14 -43.5t-4 -31.5q0 -21 11 -37.5t41 -26.5t83 -10q14 0 20 -7t6 -18q0 -10 -9 -19t-23 -9q-63 0 -105 15.5t-60 46t-11 76.5l13 -5q-34 -34 -80 -61t-106.5 -47t-138 -30.5t-175.5 -10.5zM400 -21
q-88 0 -155 11.5t-112.5 35t-69 61t-23.5 90.5q0 24 4 49t10 50.5t13 48.5l48 -12q-5 -17 -10 -37.5t-8.5 -42t-3.5 -42.5q0 -58 34.5 -93t108 -50.5t190.5 -15.5l20 -32zM484 417q-16 0 -27 11t-11 27q0 15 11 26.5t27 11.5t27 -11.5t11 -26.5q0 -16 -11.5 -27t-26.5 -11z
M424 514q-16 0 -27.5 11t-11.5 26q0 16 11 27.5t28 11.5q15 0 26 -11.5t11 -27.5q0 -15 -11 -26t-26 -11zM544 514q-16 0 -27 11t-11 26q0 16 11 27.5t27 11.5t27 -11.5t11 -27.5q0 -15 -11.5 -26t-26.5 -11z" />
    <glyph glyph-name="uni0681.init" unicode="&#x681;" horiz-adv-x="576" 
d="M0 -5l7 53q56 0 106 8t98 24t95.5 40t98.5 56q-38 30 -77 52.5t-81 34.5t-89 12q-16 0 -30.5 -1t-29.5 -3.5t-34 -7.5l-10 50q26 8 52.5 11.5t51.5 3.5q53 0 94.5 -13t75 -31.5t62 -37.5t55 -32t53.5 -13h23l5 -48q-37 0 -69 -11.5t-64.5 -29.5t-69.5 -38t-82.5 -38
t-104.5 -29.5t-136 -11.5zM67 446l-9 38q26 6 43.5 10.5t37.5 9.5l13 -14q-38 6 -64.5 33t-26.5 61q0 28 13.5 47t36 28.5t47.5 9.5q12 0 24.5 -2t23.5 -6l-7 -35q-10 3 -20 4.5t-21 1.5q-29 0 -44 -13.5t-15 -33.5q0 -21 13.5 -37t33.5 -25.5t39 -11.5l-40 -5
q27 7 50.5 14.5t42.5 14.5l11 -35q-24 -9 -56.5 -19t-65 -19t-60.5 -16z" />
    <glyph glyph-name="uni0681.medi" unicode="&#x681;" horiz-adv-x="622" 
d="M622 -5q-42 0 -77 4t-62.5 18t-46.5 42.5t-29 78.5l39 21q13 -50 35 -73.5t58 -30.5t90 -7q13 0 19 -7t6 -18q0 -10 -9 -19t-23 -9zM0 -5l7 53q56 0 106 8t98 24t95.5 40t98.5 56q-38 30 -77 52.5t-81 34.5t-89 12q-16 0 -30.5 -1t-29.5 -3.5t-34 -7.5l-10 50
q26 8 52.5 11.5t51.5 3.5q53 0 94.5 -13t75 -31.5t62 -37.5t55 -32t53.5 -13h23l5 -48q-37 0 -69 -11.5t-64.5 -29.5t-69.5 -38t-82.5 -38t-104.5 -29.5t-136 -11.5zM65 446l-9 38q26 6 43.5 10.5t37.5 9.5l13 -14q-38 6 -64.5 33t-26.5 61q0 28 13.5 47t36 28.5t47.5 9.5
q12 0 24.5 -2t23.5 -6l-7 -35q-10 3 -20 4.5t-21 1.5q-29 0 -44 -13.5t-15 -33.5q0 -21 13.5 -37t33.5 -25.5t39 -11.5l-40 -5q27 7 50.5 14.5t42.5 14.5l11 -35q-24 -9 -56.5 -19t-65 -19t-60.5 -16z" />
    <glyph glyph-name="uni0681.fina" unicode="&#x681;" horiz-adv-x="650" 
d="M650 -5q-53 0 -97.5 7t-78.5 30.5t-54.5 71t-23.5 129.5l43 20q4 -70 20 -111t43.5 -61t66.5 -26.5t87 -6.5q14 0 20 -7t6 -18q0 -10 -9 -19t-23 -9zM365 -394q-68 0 -129 16.5t-107 50t-73 84t-27 117.5q0 65 23 120.5t63 102t92.5 82t113 61t122.5 39.5l-4 -11
q-33 7 -64 17.5t-62.5 21.5t-67.5 18.5t-78 7.5q-37 0 -62 -6.5t-45 -12.5l-9 49q24 9 56.5 16t68.5 7q42 0 77.5 -8t68.5 -20t67.5 -24.5t73 -21t85.5 -9.5h9l1 -54q-46 0 -99 -11.5t-106 -33t-102 -53t-86.5 -72.5t-59.5 -91.5t-22 -108.5q0 -57 23 -98.5t63.5 -68.5
t93 -39.5t110.5 -12.5q54 0 101 10.5t88 25.5l18 -44q-47 -22 -102 -34t-113 -12zM230 511l-9 38q26 6 43.5 10.5t37.5 9.5l13 -14q-38 6 -64.5 33t-26.5 61q0 28 13.5 47t36 28.5t47.5 9.5q12 0 24.5 -2t23.5 -6l-7 -35q-10 3 -20 4.5t-21 1.5q-29 0 -44 -13.5t-15 -33.5
q0 -21 13.5 -37t33.5 -25.5t39 -11.5l-40 -5q27 7 50.5 14.5t42.5 14.5l11 -35q-24 -9 -56.5 -19t-65 -19t-60.5 -16z" />
    <glyph glyph-name="uni0682.init" unicode="&#x682;" horiz-adv-x="576" 
d="M0 -5l7 53q56 0 106 8t98 24t95.5 40t98.5 56q-38 30 -77 52.5t-81 34.5t-89 12q-16 0 -30.5 -1t-29.5 -3.5t-34 -7.5l-10 50q26 8 52.5 11.5t51.5 3.5q53 0 94.5 -13t75 -31.5t62 -37.5t55 -32t53.5 -13h23l5 -48q-37 0 -69 -11.5t-64.5 -29.5t-69.5 -38t-82.5 -38
t-104.5 -29.5t-136 -11.5zM159 447q-16 0 -27 11t-11 27q0 15 11 26.5t27 11.5t27 -11.5t11 -26.5q0 -16 -11.5 -27t-26.5 -11zM158 566q-16 0 -27 11t-11 26q0 16 11 27.5t27 11.5t27 -11.5t11 -27.5q0 -15 -11.5 -26t-26.5 -11z" />
    <glyph glyph-name="uni0682.medi" unicode="&#x682;" horiz-adv-x="622" 
d="M622 -5q-42 0 -77 4t-62.5 18t-46.5 42.5t-29 78.5l39 21q13 -50 35 -73.5t58 -30.5t90 -7q13 0 19 -7t6 -18q0 -10 -9 -19t-23 -9zM0 -5l7 53q56 0 106 8t98 24t95.5 40t98.5 56q-38 30 -77 52.5t-81 34.5t-89 12q-16 0 -30.5 -1t-29.5 -3.5t-34 -7.5l-10 50
q26 8 52.5 11.5t51.5 3.5q53 0 94.5 -13t75 -31.5t62 -37.5t55 -32t53.5 -13h23l5 -48q-37 0 -69 -11.5t-64.5 -29.5t-69.5 -38t-82.5 -38t-104.5 -29.5t-136 -11.5zM157 447q-16 0 -27 11t-11 27q0 15 11 26.5t27 11.5t27 -11.5t11 -26.5q0 -16 -11.5 -27t-26.5 -11z
M156 566q-16 0 -27 11t-11 26q0 16 11 27.5t27 11.5t27 -11.5t11 -27.5q0 -15 -11.5 -26t-26.5 -11z" />
    <glyph glyph-name="uni0682.fina" unicode="&#x682;" horiz-adv-x="650" 
d="M650 -5q-53 0 -97.5 7t-78.5 30.5t-54.5 71t-23.5 129.5l43 20q4 -70 20 -111t43.5 -61t66.5 -26.5t87 -6.5q14 0 20 -7t6 -18q0 -10 -9 -19t-23 -9zM365 -394q-68 0 -129 16.5t-107 50t-73 84t-27 117.5q0 65 23 120.5t63 102t92.5 82t113 61t122.5 39.5l-4 -11
q-33 7 -64 17.5t-62.5 21.5t-67.5 18.5t-78 7.5q-37 0 -62 -6.5t-45 -12.5l-9 49q24 9 56.5 16t68.5 7q42 0 77.5 -8t68.5 -20t67.5 -24.5t73 -21t85.5 -9.5h9l1 -54q-46 0 -99 -11.5t-106 -33t-102 -53t-86.5 -72.5t-59.5 -91.5t-22 -108.5q0 -57 23 -98.5t63.5 -68.5
t93 -39.5t110.5 -12.5q54 0 101 10.5t88 25.5l18 -44q-47 -22 -102 -34t-113 -12zM322 512q-16 0 -27 11t-11 27q0 15 11 26.5t27 11.5t27 -11.5t11 -26.5q0 -16 -11.5 -27t-26.5 -11zM321 631q-16 0 -27 11t-11 26q0 16 11 27.5t27 11.5t27 -11.5t11 -27.5q0 -15 -11.5 -26
t-26.5 -11z" />
    <glyph glyph-name="uni0685.init" unicode="&#x685;" horiz-adv-x="576" 
d="M0 -5l7 53q56 0 106 8t98 24t95.5 40t98.5 56q-38 30 -77 52.5t-81 34.5t-89 12q-16 0 -30.5 -1t-29.5 -3.5t-34 -7.5l-10 50q26 8 52.5 11.5t51.5 3.5q53 0 94.5 -13t75 -31.5t62 -37.5t55 -32t53.5 -13h23l5 -48q-37 0 -69 -11.5t-64.5 -29.5t-69.5 -38t-82.5 -38
t-104.5 -29.5t-136 -11.5zM161 544q-16 0 -27 11t-11 26q0 16 11 27.5t27 11.5q15 0 26.5 -11.5t11.5 -27.5q0 -15 -11.5 -26t-26.5 -11zM101 447q-16 0 -27 11t-11 27t11 27t27 11q15 0 26.5 -11t11.5 -27t-11.5 -27t-26.5 -11zM221 447q-15 0 -26.5 11t-11.5 27t11.5 27
t26.5 11q16 0 27 -11t11 -27t-11 -27t-27 -11z" />
    <glyph glyph-name="uni0685.medi" unicode="&#x685;" horiz-adv-x="622" 
d="M622 -5q-42 0 -77 4t-62.5 18t-46.5 42.5t-29 78.5l39 21q13 -50 35 -73.5t58 -30.5t90 -7q13 0 19 -7t6 -18q0 -10 -9 -19t-23 -9zM0 -5l7 53q56 0 106 8t98 24t95.5 40t98.5 56q-38 30 -77 52.5t-81 34.5t-89 12q-16 0 -30.5 -1t-29.5 -3.5t-34 -7.5l-10 50
q26 8 52.5 11.5t51.5 3.5q53 0 94.5 -13t75 -31.5t62 -37.5t55 -32t53.5 -13h23l5 -48q-37 0 -69 -11.5t-64.5 -29.5t-69.5 -38t-82.5 -38t-104.5 -29.5t-136 -11.5zM159 544q-16 0 -27 11t-11 26q0 16 11 27.5t27 11.5q15 0 26.5 -11.5t11.5 -27.5q0 -15 -11.5 -26
t-26.5 -11zM99 447q-16 0 -27 11t-11 27t11 27t27 11q15 0 26.5 -11t11.5 -27t-11.5 -27t-26.5 -11zM219 447q-15 0 -26.5 11t-11.5 27t11.5 27t26.5 11q16 0 27 -11t11 -27t-11 -27t-27 -11z" />
    <glyph glyph-name="uni0685.fina" unicode="&#x685;" horiz-adv-x="650" 
d="M650 -5q-53 0 -97.5 7t-78.5 30.5t-54.5 71t-23.5 129.5l43 20q4 -70 20 -111t43.5 -61t66.5 -26.5t87 -6.5q14 0 20 -7t6 -18q0 -10 -9 -19t-23 -9zM365 -394q-68 0 -129 16.5t-107 50t-73 84t-27 117.5q0 65 23 120.5t63 102t92.5 82t113 61t122.5 39.5l-4 -11
q-33 7 -64 17.5t-62.5 21.5t-67.5 18.5t-78 7.5q-37 0 -62 -6.5t-45 -12.5l-9 49q24 9 56.5 16t68.5 7q42 0 77.5 -8t68.5 -20t67.5 -24.5t73 -21t85.5 -9.5h9l1 -54q-46 0 -99 -11.5t-106 -33t-102 -53t-86.5 -72.5t-59.5 -91.5t-22 -108.5q0 -57 23 -98.5t63.5 -68.5
t93 -39.5t110.5 -12.5q54 0 101 10.5t88 25.5l18 -44q-47 -22 -102 -34t-113 -12zM324 609q-16 0 -27 11t-11 26q0 16 11 27.5t27 11.5q15 0 26.5 -11.5t11.5 -27.5q0 -15 -11.5 -26t-26.5 -11zM264 512q-16 0 -27 11t-11 27t11 27t27 11q15 0 26.5 -11t11.5 -27t-11.5 -27
t-26.5 -11zM384 512q-15 0 -26.5 11t-11.5 27t11.5 27t26.5 11q16 0 27 -11t11 -27t-11 -27t-27 -11z" />
    <glyph glyph-name="uni0689.fina" unicode="&#x689;" horiz-adv-x="520" 
d="M215 -136q-35 0 -59 24.5t-24 59.5q0 34 24 58.5t59 24.5q34 0 58.5 -24.5t24.5 -58.5q0 -35 -24.5 -59.5t-58.5 -24.5zM215 -99q19 0 33.5 13.5t14.5 33.5t-14 33.5t-34 13.5t-34 -13.5t-14 -33.5t14 -33.5t34 -13.5zM199 48q51 0 81 12t43.5 34.5t13.5 51.5
q0 20 -8.5 47.5t-25 62.5t-42 77t-59.5 91l44 29q45 -63 74 -116t46 -96t25 -78q11 -43 28.5 -68.5t44 -36t62.5 -10.5q14 0 20 -7t6 -18q0 -10 -9 -19t-23 -9q-46 0 -80 15t-55 45t-29 76l27 13q0 -36 -15 -70.5t-55 -56.5t-114 -22q-31 0 -62 5t-57.5 14.5t-45.5 23.5
l25 45q25 -16 63 -25.5t77 -9.5z" />
    <glyph glyph-name="uni068A.fina" unicode="&#x68a;" horiz-adv-x="520" 
d="M199 48q51 0 81 12t43.5 34.5t13.5 51.5q0 20 -8.5 47.5t-25 62.5t-42 77t-59.5 91l44 29q45 -63 74 -116t46 -96t25 -78q11 -43 28.5 -68.5t44 -36t62.5 -10.5q14 0 20 -7t6 -18q0 -10 -9 -19t-23 -9q-46 0 -80 15t-55 45t-29 76l27 13q0 -36 -15 -70.5t-55 -56.5
t-114 -22q-31 0 -62 5t-57.5 14.5t-45.5 23.5l25 45q25 -16 63 -25.5t77 -9.5zM210 -180q-16 0 -27.5 11t-11.5 26q0 16 11 27.5t28 11.5q15 0 26 -11.5t11 -27.5q0 -15 -11 -26t-26 -11z" />
    <glyph glyph-name="uni068B.fina" unicode="&#x68b;" horiz-adv-x="520" 
d="M199 48q51 0 81 12t43.5 34.5t13.5 51.5q0 20 -8.5 47.5t-25 62.5t-42 77t-59.5 91l44 29q45 -63 74 -116t46 -96t25 -78q11 -43 28.5 -68.5t44 -36t62.5 -10.5q14 0 20 -7t6 -18q0 -10 -9 -19t-23 -9q-46 0 -80 15t-55 45t-29 76l27 13q0 -36 -15 -70.5t-55 -56.5
t-114 -22q-31 0 -62 5t-57.5 14.5t-45.5 23.5l25 45q25 -16 63 -25.5t77 -9.5zM196 585q-16 0 -37.5 1.5t-41.5 3.5t-32 3l2 38q26 -3 55 -5.5t53 -2.5q36 0 59 7.5t34.5 20t11.5 26.5q0 17 -10 27t-27 10q-23 0 -44.5 -15.5t-38.5 -37.5t-29 -40l-36 3q17 33 41 62
t52.5 47.5t59.5 18.5q32 0 51 -20t19 -52q0 -23 -14 -45t-45 -36t-83 -14zM140 648l-6 193h36l7 -170zM210 -180q-16 0 -27.5 11t-11.5 26q0 16 11 27.5t28 11.5q15 0 26 -11.5t11 -27.5q0 -15 -11 -26t-26 -11z" />
    <glyph glyph-name="uni068F.fina" unicode="&#x68f;" horiz-adv-x="520" 
d="M199 48q51 0 81 12t43.5 34.5t13.5 51.5q0 20 -8.5 47.5t-25 62.5t-42 77t-59.5 91l44 29q45 -63 74 -116t46 -96t25 -78q11 -43 28.5 -68.5t44 -36t62.5 -10.5q14 0 20 -7t6 -18q0 -10 -9 -19t-23 -9q-46 0 -80 15t-55 45t-29 76l27 13q0 -36 -15 -70.5t-55 -56.5
t-114 -22q-31 0 -62 5t-57.5 14.5t-45.5 23.5l25 45q25 -16 63 -25.5t77 -9.5zM205 570q-16 0 -27 11t-11 27q0 15 11 26.5t27 11.5t27 -11.5t11 -26.5q0 -16 -11.5 -27t-26.5 -11zM145 667q-16 0 -27.5 11t-11.5 26q0 16 11 27.5t28 11.5q15 0 26 -11.5t11 -27.5
q0 -15 -11 -26t-26 -11zM265 667q-16 0 -27 11t-11 26q0 16 11 27.5t27 11.5t27 -11.5t11 -27.5q0 -15 -11.5 -26t-26.5 -11z" />
    <glyph glyph-name="uni0690.fina" unicode="&#x690;" horiz-adv-x="520" 
d="M199 48q51 0 81 12t43.5 34.5t13.5 51.5q0 20 -8.5 47.5t-25 62.5t-42 77t-59.5 91l44 29q45 -63 74 -116t46 -96t25 -78q11 -43 28.5 -68.5t44 -36t62.5 -10.5q14 0 20 -7t6 -18q0 -10 -9 -19t-23 -9q-46 0 -80 15t-55 45t-29 76l27 13q0 -36 -15 -70.5t-55 -56.5
t-114 -22q-31 0 -62 5t-57.5 14.5t-45.5 23.5l25 45q25 -16 63 -25.5t77 -9.5zM146 687q-16 0 -27.5 11t-11.5 26q0 16 11 27.5t28 11.5q15 0 26 -11.5t11 -27.5q0 -15 -11 -26t-26 -11zM145 570q-16 0 -27.5 11t-11.5 27q0 15 11 26.5t28 11.5q15 0 26 -11.5t11 -26.5
q0 -16 -11 -27t-26 -11zM266 687q-16 0 -27 11t-11 26q0 16 11 27.5t27 11.5t27 -11.5t11 -27.5q0 -15 -11.5 -26t-26.5 -11zM265 570q-16 0 -27 11t-11 27q0 15 11 26.5t27 11.5t27 -11.5t11 -26.5q0 -16 -11.5 -27t-26.5 -11z" />
    <glyph glyph-name="uni0692.fina" unicode="&#x692;" horiz-adv-x="409" 
d="M4 -231l-19 50q64 22 111 53t78.5 68t47 78t15.5 82q0 47 -21.5 101t-51.5 106l48 25q18 -33 32.5 -65.5t25.5 -62.5t18 -56q13 -49 44 -74.5t84 -25.5q13 0 19 -7t6 -18q0 -10 -9 -19t-23 -9q-43 0 -73 14t-47.5 38.5t-25.5 53.5l21 -9q0 -63 -25.5 -115.5t-67.5 -93.5
t-91 -69.5t-96 -44.5zM147 484q-7 16 -18 39t-23.5 49t-25 49.5t-21.5 39.5l33 18q6 -10 17.5 -31.5t24 -46.5t23.5 -48.5t18 -38.5l13 -26zM188 488l-32 11q6 18 17.5 45.5t24 56.5t23 51.5t14.5 30.5l33 -14q-5 -10 -16 -33t-23.5 -51t-23.5 -54t-17 -43z" />
    <glyph glyph-name="uni0693.fina" unicode="&#x693;" horiz-adv-x="409" 
d="M238 -221q-35 0 -59 24.5t-24 58.5q0 35 24 59t59 24q34 0 58.5 -24t24.5 -59q0 -34 -24.5 -58.5t-58.5 -24.5zM238 -185q19 0 33.5 14t14.5 33q0 20 -14 34t-34 14t-34 -14t-14 -34q0 -19 14 -33t34 -14zM4 -231l-19 50q64 22 111 53t78.5 68t47 78t15.5 82
q0 47 -21.5 101t-51.5 106l48 25q18 -33 32.5 -65.5t25.5 -62.5t18 -56q13 -49 44 -74.5t84 -25.5q13 0 19 -7t6 -18q0 -10 -9 -19t-23 -9q-43 0 -73 14t-47.5 38.5t-25.5 53.5l21 -9q0 -63 -25.5 -115.5t-67.5 -93.5t-91 -69.5t-96 -44.5z" />
    <glyph glyph-name="uni0694.fina" unicode="&#x694;" horiz-adv-x="409" 
d="M4 -231l-19 50q64 22 111 53t78.5 68t47 78t15.5 82q0 47 -21.5 101t-51.5 106l48 25q18 -33 32.5 -65.5t25.5 -62.5t18 -56q13 -49 44 -74.5t84 -25.5q13 0 19 -7t6 -18q0 -10 -9 -19t-23 -9q-43 0 -73 14t-47.5 38.5t-25.5 53.5l21 -9q0 -63 -25.5 -115.5t-67.5 -93.5
t-91 -69.5t-96 -44.5zM108 -392q-16 0 -27.5 11t-11.5 26q0 16 11 27.5t28 11.5q15 0 26 -11.5t11 -27.5q0 -15 -11 -26t-26 -11z" />
    <glyph glyph-name="uni0695.fina" unicode="&#x695;" horiz-adv-x="409" 
d="M55 -74q-7 17 -19.5 43t-26.5 52.5t-24 43.5l26 14q5 -8 14 -24.5t19 -36t19 -38t15 -30.5l11 -20zM89 -70l-26 8q5 14 14 36t19 44.5t18 40t12 23.5l26 -11q-4 -8 -12.5 -26t-18.5 -40t-19 -42.5t-13 -32.5zM4 -231l-19 50q64 22 111 53t78.5 68t47 78t15.5 82
q0 47 -21.5 101t-51.5 106l48 25q18 -33 32.5 -65.5t25.5 -62.5t18 -56q13 -49 44 -74.5t84 -25.5q13 0 19 -7t6 -18q0 -10 -9 -19t-23 -9q-43 0 -73 14t-47.5 38.5t-25.5 53.5l21 -9q0 -63 -25.5 -115.5t-67.5 -93.5t-91 -69.5t-96 -44.5z" />
    <glyph glyph-name="uni0696.fina" unicode="&#x696;" horiz-adv-x="409" 
d="M4 -231l-19 50q64 22 111 53t78.5 68t47 78t15.5 82q0 47 -21.5 101t-51.5 106l48 25q18 -33 32.5 -65.5t25.5 -62.5t18 -56q13 -49 44 -74.5t84 -25.5q13 0 19 -7t6 -18q0 -10 -9 -19t-23 -9q-43 0 -73 14t-47.5 38.5t-25.5 53.5l21 -9q0 -63 -25.5 -115.5t-67.5 -93.5
t-91 -69.5t-96 -44.5zM59 9q-16 0 -27.5 11t-11.5 27q0 15 11 26.5t28 11.5q15 0 26 -11.5t11 -26.5q0 -16 -11 -27t-26 -11zM108 -392q-16 0 -27.5 11t-11.5 26q0 16 11 27.5t28 11.5q15 0 26 -11.5t11 -27.5q0 -15 -11 -26t-26 -11z" />
    <glyph glyph-name="uni0697.fina" unicode="&#x697;" horiz-adv-x="409" 
d="M4 -231l-19 50q64 22 111 53t78.5 68t47 78t15.5 82q0 47 -21.5 101t-51.5 106l48 25q18 -33 32.5 -65.5t25.5 -62.5t18 -56q13 -49 44 -74.5t84 -25.5q13 0 19 -7t6 -18q0 -10 -9 -19t-23 -9q-43 0 -73 14t-47.5 38.5t-25.5 53.5l21 -9q0 -63 -25.5 -115.5t-67.5 -93.5
t-91 -69.5t-96 -44.5zM229 470q-16 0 -27 11t-11 27q0 15 11 26.5t27 11.5t27 -11.5t11 -26.5q0 -16 -11.5 -27t-26.5 -11zM108 470q-16 0 -27 11t-11 27q0 15 11 26.5t27 11.5t27 -11.5t11 -26.5q0 -16 -11.5 -27t-26.5 -11z" />
    <glyph glyph-name="uni0699.fina" unicode="&#x699;" horiz-adv-x="409" 
d="M4 -231l-19 50q64 22 111 53t78.5 68t47 78t15.5 82q0 47 -21.5 101t-51.5 106l48 25q18 -33 32.5 -65.5t25.5 -62.5t18 -56q13 -49 44 -74.5t84 -25.5q13 0 19 -7t6 -18q0 -10 -9 -19t-23 -9q-43 0 -73 14t-47.5 38.5t-25.5 53.5l21 -9q0 -63 -25.5 -115.5t-67.5 -93.5
t-91 -69.5t-96 -44.5zM110 587q-16 0 -27.5 11t-11.5 26q0 16 11 27.5t28 11.5q15 0 26 -11.5t11 -27.5q0 -15 -11 -26t-26 -11zM109 470q-16 0 -27.5 11t-11.5 27q0 15 11 26.5t28 11.5q15 0 26 -11.5t11 -26.5q0 -16 -11 -27t-26 -11zM230 587q-16 0 -27 11t-11 26
q0 16 11 27.5t27 11.5t27 -11.5t11 -27.5q0 -15 -11.5 -26t-26.5 -11zM229 470q-16 0 -27 11t-11 27q0 15 11 26.5t27 11.5t27 -11.5t11 -26.5q0 -16 -11.5 -27t-26.5 -11z" />
    <glyph glyph-name="uni069A.init" unicode="&#x69a;" horiz-adv-x="763" 
d="M0 -5l7 53q35 0 57 5.5t36.5 25.5t27.5 63t30 119l49 -13q-4 -17 -9 -39t-9 -45.5t-4 -44.5q0 -40 22 -55.5t71 -15.5q33 0 54 7t34 29t23 67t21 119l49 -9q-3 -22 -7.5 -49t-7.5 -51.5t-3 -42.5q0 -25 9 -40.5t30.5 -22.5t59.5 -7q28 0 51.5 7t38 29.5t14.5 67.5
q0 46 -16.5 101t-35.5 110l53 20q12 -34 23 -73.5t18.5 -78t7.5 -71.5q0 -46 -12 -78t-33.5 -51t-50 -27.5t-61.5 -8.5q-50 0 -78 13t-40 36.5t-16 54.5h23q-15 -41 -33.5 -63.5t-47 -31.5t-74.5 -9q-28 0 -55.5 8t-46.5 32.5t-21 72.5l19 3q-15 -51 -37.5 -75.5t-54 -32.5
t-75.5 -8zM374 -180q-16 0 -27.5 11t-11.5 26q0 16 11 27.5t28 11.5q15 0 26 -11.5t11 -27.5q0 -15 -11 -26t-26 -11zM418 451q-16 0 -27.5 11t-11.5 27q0 15 11 26.5t28 11.5q15 0 26 -11.5t11 -26.5q0 -16 -11 -27t-26 -11z" />
    <glyph glyph-name="uni069A.medi" unicode="&#x69a;" horiz-adv-x="832" 
d="M0 -5l7 53q32 0 53.5 4t37 23t29.5 62.5t31 123.5l49 -13q-6 -25 -14 -61.5t-8 -66.5q0 -25 8.5 -41t28.5 -23.5t53 -7.5q32 0 53 6t35.5 27.5t25 66.5t21.5 122l51 -9q-3 -18 -7.5 -44.5t-8.5 -53t-4 -43.5q0 -23 8 -39t29.5 -24.5t60.5 -8.5q56 0 80 22.5t24 73.5
q0 23 -1.5 54.5t-4 66t-5.5 65.5l49 4q5 -92 12.5 -148t23.5 -85.5t45 -40.5t76 -12q14 0 20 -7t6 -18q0 -10 -9 -19t-23 -9q-37 0 -64.5 8t-47.5 23t-32.5 36t-17.5 46l10 -3q-9 -45 -30.5 -68.5t-51.5 -32.5t-64 -9q-44 0 -71 11.5t-41 34t-18 58.5h21q-15 -39 -33 -61.5
t-47 -32.5t-76 -10q-26 0 -53.5 8.5t-46.5 32.5t-20 72l19 3q-15 -51 -37.5 -75.5t-54.5 -32.5t-76 -8zM374 -180q-16 0 -27.5 11t-11.5 26q0 16 11 27.5t28 11.5q15 0 26 -11.5t11 -27.5q0 -15 -11 -26t-26 -11zM427 451q-16 0 -27.5 11t-11.5 27q0 15 11 26.5t28 11.5
q15 0 26 -11.5t11 -26.5q0 -16 -11 -27t-26 -11z" />
    <glyph glyph-name="uni069A.fina" unicode="&#x69a;" horiz-adv-x="1220" 
d="M308 -231q-53 0 -101 14t-85.5 42t-59.5 68.5t-22 95.5q0 24 4.5 51.5t15 60.5t27.5 73l48 -20q-13 -29 -22.5 -57.5t-14 -54t-4.5 -48.5q0 -59 30.5 -97t80.5 -56.5t106 -18.5q73 0 120 19t73.5 49t37 66t10.5 70q0 39 -6 77.5t-16 77.5t-21 78l53 15q15 -57 22 -86.5
t14 -53.5q10 -35 23 -53.5t31.5 -25.5t46.5 -7q24 0 41.5 5.5t31.5 26t25 66.5t21 126l51 -9q-5 -29 -9.5 -55.5t-7.5 -48.5t-3 -39q0 -23 6.5 -39t27 -24.5t64.5 -8.5q50 0 74 24t24 72q0 23 -1 55t-3.5 67t-6.5 66l49 4q6 -83 11.5 -138t18.5 -88t39.5 -47t73.5 -15
q14 0 20 -7t6 -18q0 -10 -9 -19t-23 -9q-43 0 -74 14t-50 37.5t-26 53.5l11 -3q-8 -36 -27.5 -58.5t-48 -33t-63.5 -10.5q-48 0 -75 11.5t-39.5 34.5t-15.5 58h22q-13 -39 -31.5 -61.5t-44 -32.5t-62.5 -10q-32 0 -53.5 8.5t-34.5 22.5t-19.5 31.5t-10.5 35.5l29 -42
q-1 -54 -15 -104.5t-47.5 -90.5t-91 -63.5t-145.5 -23.5zM827 -178q-16 0 -27.5 11t-11.5 26q0 16 11 27.5t28 11.5q15 0 26 -11.5t11 -27.5q0 -15 -11 -26t-26 -11zM810 451q-16 0 -27.5 11t-11.5 27q0 15 11 26.5t28 11.5q15 0 26 -11.5t11 -26.5q0 -16 -11 -27t-26 -11z
" />
    <glyph glyph-name="uni069B.init" unicode="&#x69b;" horiz-adv-x="763" 
d="M0 -5l7 53q35 0 57 5.5t36.5 25.5t27.5 63t30 119l49 -13q-4 -17 -9 -39t-9 -45.5t-4 -44.5q0 -40 22 -55.5t71 -15.5q33 0 54 7t34 29t23 67t21 119l49 -9q-3 -22 -7.5 -49t-7.5 -51.5t-3 -42.5q0 -25 9 -40.5t30.5 -22.5t59.5 -7q28 0 51.5 7t38 29.5t14.5 67.5
q0 46 -16.5 101t-35.5 110l53 20q12 -34 23 -73.5t18.5 -78t7.5 -71.5q0 -46 -12 -78t-33.5 -51t-50 -27.5t-61.5 -8.5q-50 0 -78 13t-40 36.5t-16 54.5h23q-15 -41 -33.5 -63.5t-47 -31.5t-74.5 -9q-28 0 -55.5 8t-46.5 32.5t-21 72.5l19 3q-15 -51 -37.5 -75.5t-54 -32.5
t-75.5 -8zM373 -279q-16 0 -27 11t-11 26q0 16 11 27.5t27 11.5t27 -11.5t11 -27.5q0 -15 -11.5 -26t-26.5 -11zM313 -183q-16 0 -27.5 11t-11.5 27q0 15 11 26.5t28 11.5q15 0 26 -11.5t11 -26.5q0 -16 -11 -27t-26 -11zM433 -183q-16 0 -27 11t-11 27q0 15 11 26.5
t27 11.5t27 -11.5t11 -26.5q0 -16 -11.5 -27t-26.5 -11z" />
    <glyph glyph-name="uni069B.medi" unicode="&#x69b;" horiz-adv-x="832" 
d="M0 -5l7 53q32 0 53.5 4t37 23t29.5 62.5t31 123.5l49 -13q-6 -25 -14 -61.5t-8 -66.5q0 -25 8.5 -41t28.5 -23.5t53 -7.5q32 0 53 6t35.5 27.5t25 66.5t21.5 122l51 -9q-3 -18 -7.5 -44.5t-8.5 -53t-4 -43.5q0 -23 8 -39t29.5 -24.5t60.5 -8.5q56 0 80 22.5t24 73.5
q0 23 -1.5 54.5t-4 66t-5.5 65.5l49 4q5 -92 12.5 -148t23.5 -85.5t45 -40.5t76 -12q14 0 20 -7t6 -18q0 -10 -9 -19t-23 -9q-37 0 -64.5 8t-47.5 23t-32.5 36t-17.5 46l10 -3q-9 -45 -30.5 -68.5t-51.5 -32.5t-64 -9q-44 0 -71 11.5t-41 34t-18 58.5h21q-15 -39 -33 -61.5
t-47 -32.5t-76 -10q-26 0 -53.5 8.5t-46.5 32.5t-20 72l19 3q-15 -51 -37.5 -75.5t-54.5 -32.5t-76 -8zM373 -279q-16 0 -27 11t-11 26q0 16 11 27.5t27 11.5t27 -11.5t11 -27.5q0 -15 -11.5 -26t-26.5 -11zM313 -183q-16 0 -27.5 11t-11.5 27q0 15 11 26.5t28 11.5
q15 0 26 -11.5t11 -26.5q0 -16 -11 -27t-26 -11zM433 -183q-16 0 -27 11t-11 27q0 15 11 26.5t27 11.5t27 -11.5t11 -26.5q0 -16 -11.5 -27t-26.5 -11z" />
    <glyph glyph-name="uni069B.fina" unicode="&#x69b;" horiz-adv-x="1220" 
d="M308 -231q-53 0 -101 14t-85.5 42t-59.5 68.5t-22 95.5q0 24 4.5 51.5t15 60.5t27.5 73l48 -20q-13 -29 -22.5 -57.5t-14 -54t-4.5 -48.5q0 -59 30.5 -97t80.5 -56.5t106 -18.5q73 0 120 19t73.5 49t37 66t10.5 70q0 39 -6 77.5t-16 77.5t-21 78l53 15q15 -57 22 -86.5
t14 -53.5q10 -35 23 -53.5t31.5 -25.5t46.5 -7q24 0 41.5 5.5t31.5 26t25 66.5t21 126l51 -9q-5 -29 -9.5 -55.5t-7.5 -48.5t-3 -39q0 -23 6.5 -39t27 -24.5t64.5 -8.5q50 0 74 24t24 72q0 23 -1 55t-3.5 67t-6.5 66l49 4q6 -83 11.5 -138t18.5 -88t39.5 -47t73.5 -15
q14 0 20 -7t6 -18q0 -10 -9 -19t-23 -9q-43 0 -74 14t-50 37.5t-26 53.5l11 -3q-8 -36 -27.5 -58.5t-48 -33t-63.5 -10.5q-48 0 -75 11.5t-39.5 34.5t-15.5 58h22q-13 -39 -31.5 -61.5t-44 -32.5t-62.5 -10q-32 0 -53.5 8.5t-34.5 22.5t-19.5 31.5t-10.5 35.5l29 -42
q-1 -54 -15 -104.5t-47.5 -90.5t-91 -63.5t-145.5 -23.5zM826 -276q-16 0 -27 11t-11 26q0 16 11 27.5t27 11.5t27 -11.5t11 -27.5q0 -15 -11.5 -26t-26.5 -11zM766 -180q-16 0 -27.5 11t-11.5 27q0 15 11 26.5t28 11.5q15 0 26 -11.5t11 -26.5q0 -16 -11 -27t-26 -11z
M886 -180q-16 0 -27 11t-11 27q0 15 11 26.5t27 11.5t27 -11.5t11 -26.5q0 -16 -11.5 -27t-26.5 -11z" />
    <glyph glyph-name="uni069D.init" unicode="&#x69d;" horiz-adv-x="898" 
d="M474 -18q-72 0 -128.5 6t-97.5 19.5t-64 36t-28 56.5l15 4q-19 -49 -44 -72t-55.5 -30t-71.5 -7l7 53q38 0 62 8.5t40 31.5t29 67.5t29 116.5l48 -12q-5 -20 -11 -43t-10 -44t-4 -36q0 -26 14 -45t47 -32t89.5 -19t140.5 -6q76 0 135 9.5t99 28t61 46.5t21 64
q0 31 -14.5 55t-41.5 38.5t-67 14.5q-47 0 -94.5 -24.5t-92.5 -63.5t-85 -84t-73 -87l-54 7q46 63 95 118.5t99.5 97.5t103 65.5t105.5 23.5q51 0 89 -19t59.5 -54t21.5 -82q0 -61 -37 -107.5t-119.5 -73t-217.5 -26.5zM550 -195q-16 0 -27 11t-11 27q0 15 11 26.5t27 11.5
t27 -11.5t11 -26.5q0 -16 -11.5 -27t-26.5 -11zM429 -195q-16 0 -27 11t-11 27q0 15 11 26.5t27 11.5t27 -11.5t11 -26.5q0 -16 -11.5 -27t-26.5 -11z" />
    <glyph glyph-name="uni069D.medi" unicode="&#x69d;" horiz-adv-x="949" 
d="M949 -5q-24 0 -62 5t-77.5 18t-68.5 37l50 27q43 -20 87.5 -27t77.5 -7q13 0 19 -7t6 -18q0 -10 -9 -19t-23 -9zM474 -18q-72 0 -128.5 6t-97.5 19.5t-64 36t-28 56.5l15 4q-19 -49 -44 -72t-55.5 -30t-71.5 -7l7 53q38 0 62 8.5t40 31.5t29 67.5t29 116.5l48 -12
q-5 -20 -11 -43t-10 -44t-4 -36q0 -26 14 -45t47 -32t89.5 -19t140.5 -6q76 0 135 9.5t99 28t61 46.5t21 64q0 31 -14.5 55t-41.5 38.5t-67 14.5q-47 0 -94.5 -24.5t-92.5 -63.5t-85 -84t-73 -87l-54 7q46 63 95 118.5t99.5 97.5t103 65.5t105.5 23.5q51 0 89 -19t59.5 -54
t21.5 -82q0 -61 -37 -107.5t-119.5 -73t-217.5 -26.5zM550 -195q-16 0 -27 11t-11 27q0 15 11 26.5t27 11.5t27 -11.5t11 -26.5q0 -16 -11.5 -27t-26.5 -11zM429 -195q-16 0 -27 11t-11 27q0 15 11 26.5t27 11.5t27 -11.5t11 -26.5q0 -16 -11.5 -27t-26.5 -11z" />
    <glyph glyph-name="uni069D.fina" unicode="&#x69d;" horiz-adv-x="1347" 
d="M1347 -5q-25 0 -63 5t-77.5 18t-68.5 37l51 27q42 -20 86.5 -27t77.5 -7q14 0 20 -7t6 -18q0 -10 -9 -19t-23 -9zM308 -231q-57 0 -105.5 15t-85 44t-57 69t-20.5 92q0 24 4.5 51.5t15 60.5t27.5 73l48 -20q-13 -29 -22.5 -57.5t-14 -54t-4.5 -48.5q0 -55 28.5 -93.5
t78 -58.5t110.5 -20q72 0 119 19.5t74 51t37.5 70t10.5 75.5q0 50 -13.5 106t-29.5 115l53 15q10 -38 16 -63t10 -41.5t8 -28.5q9 -26 27.5 -45t51 -31.5t81.5 -18.5t118 -6q50 0 96.5 4.5t87.5 15t71.5 27.5t47.5 42t17 59q0 26 -12.5 51t-39 41.5t-70.5 16.5
q-46 0 -92 -22.5t-90 -60t-85.5 -83.5t-78.5 -94l-53 7q36 50 74 95.5t78 84t81.5 66.5t84 44t86.5 16q56 0 93 -21.5t56 -57t19 -78.5q0 -52 -26.5 -90.5t-75.5 -64t-118 -38.5t-154 -13q-76 0 -128 8.5t-85.5 22.5t-52 32t-27.5 38l29 -31q-1 -55 -15 -106.5t-47 -92.5
t-91 -65t-146 -24zM961 -190q-16 0 -27 11t-11 27q0 15 11 26.5t27 11.5t27 -11.5t11 -26.5q0 -16 -11.5 -27t-26.5 -11zM840 -190q-16 0 -27 11t-11 27q0 15 11 26.5t27 11.5t27 -11.5t11 -26.5q0 -16 -11.5 -27t-26.5 -11z" />
    <glyph glyph-name="uni069E.init" unicode="&#x69e;" horiz-adv-x="898" 
d="M474 -18q-72 0 -128.5 6t-97.5 19.5t-64 36t-28 56.5l15 4q-19 -49 -44 -72t-55.5 -30t-71.5 -7l7 53q38 0 62 8.5t40 31.5t29 67.5t29 116.5l48 -12q-5 -20 -11 -43t-10 -44t-4 -36q0 -26 14 -45t47 -32t89.5 -19t140.5 -6q76 0 135 9.5t99 28t61 46.5t21 64
q0 31 -14.5 55t-41.5 38.5t-67 14.5q-47 0 -94.5 -24.5t-92.5 -63.5t-85 -84t-73 -87l-54 7q46 63 95 118.5t99.5 97.5t103 65.5t105.5 23.5q51 0 89 -19t59.5 -54t21.5 -82q0 -61 -37 -107.5t-119.5 -73t-217.5 -26.5zM651 560q-16 0 -27 11t-11 26q0 16 11 27.5t27 11.5
q15 0 26.5 -11.5t11.5 -27.5q0 -15 -11.5 -26t-26.5 -11zM591 463q-16 0 -27 11t-11 27t11 27t27 11q15 0 26.5 -11t11.5 -27t-11.5 -27t-26.5 -11zM711 463q-15 0 -26.5 11t-11.5 27t11.5 27t26.5 11q16 0 27 -11t11 -27t-11 -27t-27 -11z" />
    <glyph glyph-name="uni069E.medi" unicode="&#x69e;" horiz-adv-x="949" 
d="M949 -5q-24 0 -62 5t-77.5 18t-68.5 37l50 27q43 -20 87.5 -27t77.5 -7q13 0 19 -7t6 -18q0 -10 -9 -19t-23 -9zM474 -18q-72 0 -128.5 6t-97.5 19.5t-64 36t-28 56.5l15 4q-19 -49 -44 -72t-55.5 -30t-71.5 -7l7 53q38 0 62 8.5t40 31.5t29 67.5t29 116.5l48 -12
q-5 -20 -11 -43t-10 -44t-4 -36q0 -26 14 -45t47 -32t89.5 -19t140.5 -6q76 0 135 9.5t99 28t61 46.5t21 64q0 31 -14.5 55t-41.5 38.5t-67 14.5q-47 0 -94.5 -24.5t-92.5 -63.5t-85 -84t-73 -87l-54 7q46 63 95 118.5t99.5 97.5t103 65.5t105.5 23.5q51 0 89 -19t59.5 -54
t21.5 -82q0 -61 -37 -107.5t-119.5 -73t-217.5 -26.5zM651 560q-16 0 -27 11t-11 26q0 16 11 27.5t27 11.5q15 0 26.5 -11.5t11.5 -27.5q0 -15 -11.5 -26t-26.5 -11zM591 463q-16 0 -27 11t-11 27t11 27t27 11q15 0 26.5 -11t11.5 -27t-11.5 -27t-26.5 -11zM711 463
q-15 0 -26.5 11t-11.5 27t11.5 27t26.5 11q16 0 27 -11t11 -27t-11 -27t-27 -11z" />
    <glyph glyph-name="uni069E.fina" unicode="&#x69e;" horiz-adv-x="1347" 
d="M1347 -5q-25 0 -63 5t-77.5 18t-68.5 37l51 27q42 -20 86.5 -27t77.5 -7q14 0 20 -7t6 -18q0 -10 -9 -19t-23 -9zM308 -231q-57 0 -105.5 15t-85 44t-57 69t-20.5 92q0 24 4.5 51.5t15 60.5t27.5 73l48 -20q-13 -29 -22.5 -57.5t-14 -54t-4.5 -48.5q0 -55 28.5 -93.5
t78 -58.5t110.5 -20q72 0 119 19.5t74 51t37.5 70t10.5 75.5q0 50 -13.5 106t-29.5 115l53 15q10 -38 16 -63t10 -41.5t8 -28.5q9 -26 27.5 -45t51 -31.5t81.5 -18.5t118 -6q50 0 96.5 4.5t87.5 15t71.5 27.5t47.5 42t17 59q0 26 -12.5 51t-39 41.5t-70.5 16.5
q-46 0 -92 -22.5t-90 -60t-85.5 -83.5t-78.5 -94l-53 7q36 50 74 95.5t78 84t81.5 66.5t84 44t86.5 16q56 0 93 -21.5t56 -57t19 -78.5q0 -52 -26.5 -90.5t-75.5 -64t-118 -38.5t-154 -13q-76 0 -128 8.5t-85.5 22.5t-52 32t-27.5 38l29 -31q-1 -55 -15 -106.5t-47 -92.5
t-91 -65t-146 -24zM1050 566q-16 0 -27 11t-11 26q0 16 11 27.5t27 11.5q15 0 26.5 -11.5t11.5 -27.5q0 -15 -11.5 -26t-26.5 -11zM990 469q-16 0 -27 11t-11 27t11 27t27 11q15 0 26.5 -11t11.5 -27t-11.5 -27t-26.5 -11zM1110 469q-15 0 -26.5 11t-11.5 27t11.5 27
t26.5 11q16 0 27 -11t11 -27t-11 -27t-27 -11z" />
    <glyph glyph-name="uni069F.init" unicode="&#x69f;" horiz-adv-x="672" 
d="M0 -5l7 53h248q78 0 137 9t99 26.5t60.5 44t20.5 62.5q0 25 -13.5 49t-40.5 39.5t-69 15.5q-49 0 -98 -25.5t-94.5 -66t-84.5 -85t-69 -83.5l-60 -4q42 60 89.5 116.5t100 102t108 72t112.5 26.5q56 0 93.5 -21.5t56.5 -57t19 -78.5q0 -50 -34 -96t-115 -71
q-42 -13 -94.5 -19t-119.5 -7.5t-154 -1.5h-105zM95 79l-20 635h53l20 -581zM406 563q-16 0 -27 11t-11 26q0 16 11 27.5t27 11.5q15 0 26.5 -11.5t11.5 -27.5q0 -15 -11.5 -26t-26.5 -11zM346 466q-16 0 -27 11t-11 27t11 27t27 11q15 0 26.5 -11t11.5 -27t-11.5 -27
t-26.5 -11zM466 466q-15 0 -26.5 11t-11.5 27t11.5 27t26.5 11q16 0 27 -11t11 -27t-11 -27t-27 -11z" />
    <glyph glyph-name="uni069F.medi" unicode="&#x69f;" horiz-adv-x="710" 
d="M710 -5q-24 0 -62 5t-77.5 18t-68.5 37l50 27q43 -20 87.5 -27t77.5 -7q13 0 19 -7t6 -18q0 -10 -9 -19t-23 -9zM0 -5l7 53h248q78 0 137 9t99 26.5t60.5 44t20.5 62.5q0 25 -13.5 49t-40.5 39.5t-69 15.5q-49 0 -98 -25.5t-94.5 -66t-84.5 -85t-69 -83.5l-60 -4
q42 60 89.5 116.5t100 102t108 72t112.5 26.5q56 0 93.5 -21.5t56.5 -57t19 -78.5q0 -50 -34 -96t-115 -71q-42 -13 -94.5 -19t-119.5 -7.5t-154 -1.5h-105zM95 79l-20 635h53l20 -581zM406 563q-16 0 -27 11t-11 26q0 16 11 27.5t27 11.5q15 0 26.5 -11.5t11.5 -27.5
q0 -15 -11.5 -26t-26.5 -11zM346 466q-16 0 -27 11t-11 27t11 27t27 11q15 0 26.5 -11t11.5 -27t-11.5 -27t-26.5 -11zM466 466q-15 0 -26.5 11t-11.5 27t11.5 27t26.5 11q16 0 27 -11t11 -27t-11 -27t-27 -11z" />
    <glyph glyph-name="uni069F.fina" unicode="&#x69f;" horiz-adv-x="840" 
d="M840 -5q-24 0 -62 5t-77.5 18t-68.5 37l50 27q43 -20 87.5 -27t77.5 -7q13 0 19 -7t6 -18q0 -10 -9 -19t-23 -9zM364 -13q-52 0 -102 2t-94 4.5t-79 6t-59 6.5l6 51q28 -3 66 -6.5t83 -5.5t93 -3.5t97 -1.5q72 0 131 8.5t101.5 26.5t65.5 46t23 67q0 29 -13.5 53.5
t-41 40t-68.5 15.5q-48 0 -95.5 -24.5t-92.5 -64t-84.5 -84.5t-73.5 -87l-59 -4q45 64 94 121.5t101 101.5t105.5 69t108.5 25t93 -21t57.5 -56.5t19.5 -79.5q0 -66 -42 -112t-127 -70t-214 -24zM223 86l-20 628h53l20 -578zM530 566q-16 0 -27 11t-11 26q0 16 11 27.5
t27 11.5q15 0 26.5 -11.5t11.5 -27.5q0 -15 -11.5 -26t-26.5 -11zM470 469q-16 0 -27 11t-11 27t11 27t27 11q15 0 26.5 -11t11.5 -27t-11.5 -27t-26.5 -11zM590 469q-15 0 -26.5 11t-11.5 27t11.5 27t26.5 11q16 0 27 -11t11 -27t-11 -27t-27 -11z" />
    <glyph glyph-name="uni06A0.init" unicode="&#x6a0;" horiz-adv-x="469" 
d="M0 -5l7 53q59 0 96.5 2t62.5 5.5t44 6.5q-33 11 -64.5 34.5t-51.5 59t-20 82.5q0 54 25 96t69.5 66.5t101.5 24.5q25 0 50 -4.5t46 -11.5l-11 -50q-19 5 -41.5 9t-43.5 4q-40 0 -72.5 -17t-52 -46.5t-19.5 -70.5q0 -33 14 -58.5t35.5 -43.5t46 -29.5t46.5 -17t36 -6.5
q17 5 28 8t22.5 7t28 11t43.5 18l18 -47q-67 -27 -133 -46t-141 -29t-170 -10zM264 643q-16 0 -27 11t-11 26q0 16 11 27.5t27 11.5q15 0 26.5 -11.5t11.5 -27.5q0 -15 -11.5 -26t-26.5 -11zM204 546q-16 0 -27 11t-11 27t11 27t27 11q15 0 26.5 -11t11.5 -27t-11.5 -27
t-26.5 -11zM324 546q-15 0 -26.5 11t-11.5 27t11.5 27t26.5 11q16 0 27 -11t11 -27t-11 -27t-27 -11z" />
    <glyph glyph-name="uni06A0.medi" unicode="&#x6a0;" horiz-adv-x="499" 
d="M0 -5l7 53q58 0 111 14.5t98 39t78.5 54.5t52 61.5t18.5 60.5q0 14 -9.5 30t-32.5 26.5t-64 10.5q-34 0 -66 -9.5t-55.5 -22.5t-34.5 -24q28 -26 55 -53t54 -56t53 -60q26 -23 55.5 -37t60.5 -21.5t62.5 -10.5t62.5 -3q13 0 19 -7t6 -18q0 -10 -9 -19t-23 -9
q-49 0 -98 8.5t-93 28.5t-81 55q-21 27 -46.5 56t-53.5 57t-55 50q-4 3 -8 11t-6 16.5t-2 12.5q0 14 17.5 32.5t47.5 35.5t68 28.5t79 11.5q49 0 82.5 -14.5t50 -38.5t16.5 -53q0 -40 -21 -81.5t-60 -80t-91 -69t-114.5 -48.5t-130.5 -18zM257 614q-16 0 -27 11t-11 26
q0 16 11 27.5t27 11.5q15 0 26.5 -11.5t11.5 -27.5q0 -15 -11.5 -26t-26.5 -11zM197 517q-16 0 -27 11t-11 27t11 27t27 11q15 0 26.5 -11t11.5 -27t-11.5 -27t-26.5 -11zM317 517q-15 0 -26.5 11t-11.5 27t11.5 27t26.5 11q16 0 27 -11t11 -27t-11 -27t-27 -11z" />
    <glyph glyph-name="uni06A0.fina" unicode="&#x6a0;" horiz-adv-x="514" 
d="M303 -394q-43 0 -92.5 9t-92.5 32.5t-70.5 66t-27.5 109.5q0 64 26 113t66.5 87.5t86 70.5t86 60.5t66 58t25.5 64.5q0 12 -8 28t-30 28t-64 12q-32 0 -63 -8.5t-55.5 -22t-36.5 -25.5q27 -23 52.5 -49t51 -54t51.5 -59q28 -24 54.5 -39.5t55.5 -24t62.5 -12t74.5 -3.5
q13 0 19 -7t6 -18q0 -10 -9 -19t-23 -9q-68 0 -117.5 10.5t-88 32.5t-74.5 57q-18 23 -41.5 50.5t-50 55t-54.5 49.5q-4 4 -7.5 11.5t-6 16t-2.5 12.5q0 14 18 32.5t48 35.5t67.5 28.5t77.5 11.5q70 0 107.5 -31.5t37.5 -76.5q0 -47 -26 -84.5t-66 -70t-85.5 -64.5
t-85.5 -66.5t-66 -76.5t-26 -97q0 -46 19.5 -79t52 -53t74 -30t84.5 -10q36 0 72.5 5t72.5 14.5t68 23.5l17 -43q-31 -15 -70 -27.5t-80 -19t-80 -6.5zM288 614q-16 0 -27 11t-11 26q0 16 11 27.5t27 11.5q15 0 26.5 -11.5t11.5 -27.5q0 -15 -11.5 -26t-26.5 -11zM228 517
q-16 0 -27 11t-11 27t11 27t27 11q15 0 26.5 -11t11.5 -27t-11.5 -27t-26.5 -11zM348 517q-15 0 -26.5 11t-11.5 27t11.5 27t26.5 11q16 0 27 -11t11 -27t-11 -27t-27 -11z" />
    <glyph glyph-name="uni06A1.init" unicode="&#x6a1;" horiz-adv-x="439" 
d="M0 -5l7 53q36 0 72 1t70 4t61.5 9t46.5 15q25 12 43.5 31t28 53.5t9.5 89.5q0 47 -12.5 89.5t-36.5 70t-59 27.5q-26 0 -49.5 -22t-38 -55.5t-14.5 -67.5q0 -32 13 -51t37.5 -26.5t58.5 -7.5q32 0 64 6.5t53 16.5l4 -45q-16 -11 -37 -17.5t-44.5 -9.5t-46.5 -3
q-45 0 -80 13.5t-54.5 41t-19.5 70.5q0 36 12 73t33.5 68t51 50t63.5 19q50 0 84 -34.5t51.5 -91t17.5 -120.5q0 -67 -20.5 -117.5t-73.5 -85.5q-20 -13 -49 -22t-66 -14.5t-82 -8t-98 -2.5z" />
    <glyph glyph-name="uni06A1.medi" unicode="&#x6a1;" horiz-adv-x="492" 
d="M0 -5l7 53q27 0 54.5 1.5t54.5 5.5t52 9t46 13q39 15 69.5 34.5t49 47t18.5 65.5q0 27 -12.5 56.5t-36 51t-55.5 21.5q-27 0 -52.5 -18.5t-41.5 -49t-16 -65.5q0 -38 18 -65t45 -46t56 -31l-62 -19q-21 12 -46.5 32.5t-44 52.5t-18.5 77q0 39 14 72.5t37 58.5t52 39
t60 14q46 0 81 -26t54.5 -66.5t19.5 -85.5q0 -38 -13 -68.5t-36 -54t-54.5 -41.5t-67.5 -31q-24 -10 -52 -17t-58 -11.5t-61 -6.5t-61 -2zM492 -5q-46 0 -98 7t-99 18t-79 25l47 31q26 -5 63 -11.5t81.5 -11.5t91.5 -5q13 0 19 -7t6 -18q0 -10 -9 -19t-23 -9z" />
    <glyph glyph-name="uni06A1.fina" unicode="&#x6a1;" horiz-adv-x="1088" 
d="M400 -21l26 53q56 0 112 3t108.5 9t96 14t71.5 19q39 14 69.5 34t48.5 47t18 63q0 19 -7 41.5t-20.5 43t-33 34t-43.5 13.5q-27 0 -52.5 -19.5t-41.5 -50.5t-16 -66q0 -34 17.5 -60t44.5 -45.5t57 -31.5l-64 -21q-21 12 -46 33t-43 52t-18 73q0 38 13.5 72.5t37 60.5
t52.5 40.5t60 14.5q45 0 80 -27t55 -68.5t20 -85.5q0 -36 -13 -65.5t-35.5 -53.5t-53.5 -42t-67 -32q-31 -13 -78.5 -22.5t-106 -16t-122 -10t-126.5 -3.5zM1088 -5q-50 0 -99 6.5t-93.5 17.5t-80.5 26l47 30q26 -5 61 -11.5t78 -11t94 -4.5q13 0 19 -7t6 -18q0 -10 -9 -19
t-23 -9zM400 -21q-88 0 -155 11.5t-112.5 35t-69 61t-23.5 90.5q0 24 4 49t10 50.5t13 48.5l48 -12q-5 -17 -10 -37.5t-8.5 -42t-3.5 -42.5q0 -58 34.5 -93t108 -50.5t190.5 -15.5l20 -32z" />
    <glyph glyph-name="fehDotMovedbelowar.init" unicode="&#x6a2;" horiz-adv-x="439" 
d="M0 -5l7 53q36 0 72 1t70 4t61.5 9t46.5 15q25 12 43.5 31t28 53.5t9.5 89.5q0 47 -12.5 89.5t-36.5 70t-59 27.5q-26 0 -49.5 -22t-38 -55.5t-14.5 -67.5q0 -32 13 -51t37.5 -26.5t58.5 -7.5q32 0 64 6.5t53 16.5l4 -45q-16 -11 -37 -17.5t-44.5 -9.5t-46.5 -3
q-45 0 -80 13.5t-54.5 41t-19.5 70.5q0 36 12 73t33.5 68t51 50t63.5 19q50 0 84 -34.5t51.5 -91t17.5 -120.5q0 -67 -20.5 -117.5t-73.5 -85.5q-20 -13 -49 -22t-66 -14.5t-82 -8t-98 -2.5zM206 -180q-16 0 -27.5 11t-11.5 26q0 16 11 27.5t28 11.5q15 0 26 -11.5t11 -27.5
q0 -15 -11 -26t-26 -11z" />
    <glyph glyph-name="fehDotMovedbelowar.medi" unicode="&#x6a2;" horiz-adv-x="492" 
d="M0 -5l7 53q27 0 54.5 1.5t54.5 5.5t52 9t46 13q39 15 69.5 34.5t49 47t18.5 65.5q0 27 -12.5 56.5t-36 51t-55.5 21.5q-27 0 -52.5 -18.5t-41.5 -49t-16 -65.5q0 -38 18 -65t45 -46t56 -31l-62 -19q-21 12 -46.5 32.5t-44 52.5t-18.5 77q0 39 14 72.5t37 58.5t52 39
t60 14q46 0 81 -26t54.5 -66.5t19.5 -85.5q0 -38 -13 -68.5t-36 -54t-54.5 -41.5t-67.5 -31q-24 -10 -52 -17t-58 -11.5t-61 -6.5t-61 -2zM492 -5q-46 0 -98 7t-99 18t-79 25l47 31q26 -5 63 -11.5t81.5 -11.5t91.5 -5q13 0 19 -7t6 -18q0 -10 -9 -19t-23 -9zM234 -180
q-16 0 -27.5 11t-11.5 26q0 16 11 27.5t28 11.5q15 0 26 -11.5t11 -27.5q0 -15 -11 -26t-26 -11z" />
    <glyph glyph-name="fehDotMovedbelowar.fina" unicode="&#x6a2;" horiz-adv-x="1088" 
d="M400 -21l26 53q56 0 112 3t108.5 9t96 14t71.5 19q39 14 69.5 34t48.5 47t18 63q0 19 -7 41.5t-20.5 43t-33 34t-43.5 13.5q-27 0 -52.5 -19.5t-41.5 -50.5t-16 -66q0 -34 17.5 -60t44.5 -45.5t57 -31.5l-64 -21q-21 12 -46 33t-43 52t-18 73q0 38 13.5 72.5t37 60.5
t52.5 40.5t60 14.5q45 0 80 -27t55 -68.5t20 -85.5q0 -36 -13 -65.5t-35.5 -53.5t-53.5 -42t-67 -32q-31 -13 -78.5 -22.5t-106 -16t-122 -10t-126.5 -3.5zM1088 -5q-50 0 -99 6.5t-93.5 17.5t-80.5 26l47 30q26 -5 61 -11.5t78 -11t94 -4.5q13 0 19 -7t6 -18q0 -10 -9 -19
t-23 -9zM400 -21q-88 0 -155 11.5t-112.5 35t-69 61t-23.5 90.5q0 24 4 49t10 50.5t13 48.5l48 -12q-5 -17 -10 -37.5t-8.5 -42t-3.5 -42.5q0 -58 34.5 -93t108 -50.5t190.5 -15.5l20 -32zM456 -200q-16 0 -27.5 11t-11.5 26q0 16 11 27.5t28 11.5q15 0 26 -11.5t11 -27.5
q0 -15 -11 -26t-26 -11z" />
    <glyph glyph-name="uni06A3.init" unicode="&#x6a3;" horiz-adv-x="439" 
d="M0 -5l7 53q36 0 72 1t70 4t61.5 9t46.5 15q25 12 43.5 31t28 53.5t9.5 89.5q0 47 -12.5 89.5t-36.5 70t-59 27.5q-26 0 -49.5 -22t-38 -55.5t-14.5 -67.5q0 -32 13 -51t37.5 -26.5t58.5 -7.5q32 0 64 6.5t53 16.5l4 -45q-16 -11 -37 -17.5t-44.5 -9.5t-46.5 -3
q-45 0 -80 13.5t-54.5 41t-19.5 70.5q0 36 12 73t33.5 68t51 50t63.5 19q50 0 84 -34.5t51.5 -91t17.5 -120.5q0 -67 -20.5 -117.5t-73.5 -85.5q-20 -13 -49 -22t-66 -14.5t-82 -8t-98 -2.5zM225 610q-16 0 -27.5 11t-11.5 27q0 15 11 26.5t28 11.5q15 0 26 -11.5t11 -26.5
q0 -16 -11 -27t-26 -11zM206 -180q-16 0 -27.5 11t-11.5 26q0 16 11 27.5t28 11.5q15 0 26 -11.5t11 -27.5q0 -15 -11 -26t-26 -11z" />
    <glyph glyph-name="uni06A3.medi" unicode="&#x6a3;" horiz-adv-x="492" 
d="M0 -5l7 53q27 0 54.5 1.5t54.5 5.5t52 9t46 13q39 15 69.5 34.5t49 47t18.5 65.5q0 27 -12.5 56.5t-36 51t-55.5 21.5q-27 0 -52.5 -18.5t-41.5 -49t-16 -65.5q0 -38 18 -65t45 -46t56 -31l-62 -19q-21 12 -46.5 32.5t-44 52.5t-18.5 77q0 39 14 72.5t37 58.5t52 39
t60 14q46 0 81 -26t54.5 -66.5t19.5 -85.5q0 -38 -13 -68.5t-36 -54t-54.5 -41.5t-67.5 -31q-24 -10 -52 -17t-58 -11.5t-61 -6.5t-61 -2zM492 -5q-46 0 -98 7t-99 18t-79 25l47 31q26 -5 63 -11.5t81.5 -11.5t91.5 -5q13 0 19 -7t6 -18q0 -10 -9 -19t-23 -9zM235 524
q-16 0 -27.5 11t-11.5 27q0 15 11 26.5t28 11.5q15 0 26 -11.5t11 -26.5q0 -16 -11 -27t-26 -11zM234 -180q-16 0 -27.5 11t-11.5 26q0 16 11 27.5t28 11.5q15 0 26 -11.5t11 -27.5q0 -15 -11 -26t-26 -11z" />
    <glyph glyph-name="uni06A3.fina" unicode="&#x6a3;" horiz-adv-x="1088" 
d="M400 -21l26 53q56 0 112 3t108.5 9t96 14t71.5 19q39 14 69.5 34t48.5 47t18 63q0 19 -7 41.5t-20.5 43t-33 34t-43.5 13.5q-27 0 -52.5 -19.5t-41.5 -50.5t-16 -66q0 -34 17.5 -60t44.5 -45.5t57 -31.5l-64 -21q-21 12 -46 33t-43 52t-18 73q0 38 13.5 72.5t37 60.5
t52.5 40.5t60 14.5q45 0 80 -27t55 -68.5t20 -85.5q0 -36 -13 -65.5t-35.5 -53.5t-53.5 -42t-67 -32q-31 -13 -78.5 -22.5t-106 -16t-122 -10t-126.5 -3.5zM1088 -5q-50 0 -99 6.5t-93.5 17.5t-80.5 26l47 30q26 -5 61 -11.5t78 -11t94 -4.5q13 0 19 -7t6 -18q0 -10 -9 -19
t-23 -9zM400 -21q-88 0 -155 11.5t-112.5 35t-69 61t-23.5 90.5q0 24 4 49t10 50.5t13 48.5l48 -12q-5 -17 -10 -37.5t-8.5 -42t-3.5 -42.5q0 -58 34.5 -93t108 -50.5t190.5 -15.5l20 -32zM841 524q-16 0 -27.5 11t-11.5 27q0 15 11 26.5t28 11.5q15 0 26 -11.5t11 -26.5
q0 -16 -11 -27t-26 -11zM456 -200q-16 0 -27.5 11t-11.5 26q0 16 11 27.5t28 11.5q15 0 26 -11.5t11 -27.5q0 -15 -11 -26t-26 -11z" />
    <glyph glyph-name="uni06A5.init" unicode="&#x6a5;" horiz-adv-x="439" 
d="M0 -5l7 53q36 0 72 1t70 4t61.5 9t46.5 15q25 12 43.5 31t28 53.5t9.5 89.5q0 47 -12.5 89.5t-36.5 70t-59 27.5q-26 0 -49.5 -22t-38 -55.5t-14.5 -67.5q0 -32 13 -51t37.5 -26.5t58.5 -7.5q32 0 64 6.5t53 16.5l4 -45q-16 -11 -37 -17.5t-44.5 -9.5t-46.5 -3
q-45 0 -80 13.5t-54.5 41t-19.5 70.5q0 36 12 73t33.5 68t51 50t63.5 19q50 0 84 -34.5t51.5 -91t17.5 -120.5q0 -67 -20.5 -117.5t-73.5 -85.5q-20 -13 -49 -22t-66 -14.5t-82 -8t-98 -2.5zM205 -279q-16 0 -27 11t-11 26q0 16 11 27.5t27 11.5t27 -11.5t11 -27.5
q0 -15 -11.5 -26t-26.5 -11zM145 -183q-16 0 -27.5 11t-11.5 27q0 15 11 26.5t28 11.5q15 0 26 -11.5t11 -26.5q0 -16 -11 -27t-26 -11zM265 -183q-16 0 -27 11t-11 27q0 15 11 26.5t27 11.5t27 -11.5t11 -26.5q0 -16 -11.5 -27t-26.5 -11z" />
    <glyph glyph-name="uni06A5.medi" unicode="&#x6a5;" horiz-adv-x="492" 
d="M0 -5l7 53q27 0 54.5 1.5t54.5 5.5t52 9t46 13q39 15 69.5 34.5t49 47t18.5 65.5q0 27 -12.5 56.5t-36 51t-55.5 21.5q-27 0 -52.5 -18.5t-41.5 -49t-16 -65.5q0 -38 18 -65t45 -46t56 -31l-62 -19q-21 12 -46.5 32.5t-44 52.5t-18.5 77q0 39 14 72.5t37 58.5t52 39
t60 14q46 0 81 -26t54.5 -66.5t19.5 -85.5q0 -38 -13 -68.5t-36 -54t-54.5 -41.5t-67.5 -31q-24 -10 -52 -17t-58 -11.5t-61 -6.5t-61 -2zM492 -5q-46 0 -98 7t-99 18t-79 25l47 31q26 -5 63 -11.5t81.5 -11.5t91.5 -5q13 0 19 -7t6 -18q0 -10 -9 -19t-23 -9zM233 -279
q-16 0 -27 11t-11 26q0 16 11 27.5t27 11.5t27 -11.5t11 -27.5q0 -15 -11.5 -26t-26.5 -11zM173 -183q-16 0 -27.5 11t-11.5 27q0 15 11 26.5t28 11.5q15 0 26 -11.5t11 -26.5q0 -16 -11 -27t-26 -11zM293 -183q-16 0 -27 11t-11 27q0 15 11 26.5t27 11.5t27 -11.5t11 -26.5
q0 -16 -11.5 -27t-26.5 -11z" />
    <glyph glyph-name="uni06A5.fina" unicode="&#x6a5;" horiz-adv-x="1088" 
d="M400 -21l26 53q56 0 112 3t108.5 9t96 14t71.5 19q39 14 69.5 34t48.5 47t18 63q0 19 -7 41.5t-20.5 43t-33 34t-43.5 13.5q-27 0 -52.5 -19.5t-41.5 -50.5t-16 -66q0 -34 17.5 -60t44.5 -45.5t57 -31.5l-64 -21q-21 12 -46 33t-43 52t-18 73q0 38 13.5 72.5t37 60.5
t52.5 40.5t60 14.5q45 0 80 -27t55 -68.5t20 -85.5q0 -36 -13 -65.5t-35.5 -53.5t-53.5 -42t-67 -32q-31 -13 -78.5 -22.5t-106 -16t-122 -10t-126.5 -3.5zM1088 -5q-50 0 -99 6.5t-93.5 17.5t-80.5 26l47 30q26 -5 61 -11.5t78 -11t94 -4.5q13 0 19 -7t6 -18q0 -10 -9 -19
t-23 -9zM400 -21q-88 0 -155 11.5t-112.5 35t-69 61t-23.5 90.5q0 24 4 49t10 50.5t13 48.5l48 -12q-5 -17 -10 -37.5t-8.5 -42t-3.5 -42.5q0 -58 34.5 -93t108 -50.5t190.5 -15.5l20 -32zM455 -299q-16 0 -27 11t-11 26q0 16 11 27.5t27 11.5t27 -11.5t11 -27.5
q0 -15 -11.5 -26t-26.5 -11zM395 -203q-16 0 -27.5 11t-11.5 27q0 15 11 26.5t28 11.5q15 0 26 -11.5t11 -26.5q0 -16 -11 -27t-26 -11zM515 -203q-16 0 -27 11t-11 27q0 15 11 26.5t27 11.5t27 -11.5t11 -26.5q0 -16 -11.5 -27t-26.5 -11z" />
    <glyph glyph-name="uni06A7.fina" unicode="&#x6a7;" horiz-adv-x="808" 
d="M327 -272q-63 0 -115 13.5t-91 42t-60 73t-21 107.5q0 12 3.5 40t15.5 68.5t38 87.5l47 -22q-14 -27 -25 -54t-17.5 -54.5t-6.5 -56.5q0 -72 32 -113.5t88 -59.5t126 -18q41 0 82.5 6t79.5 18.5t69.5 33.5t54.5 51t32 71q7 24 10.5 54.5t3.5 51.5q0 60 -14.5 105.5
t-38.5 70.5t-53 25q-21 0 -39.5 -13t-33 -34t-23 -47t-8.5 -51t10 -40t28 -22.5t43.5 -10.5t55.5 -3h215q13 0 19 -7t6 -18q0 -10 -9 -19t-23 -9h-229q-32 0 -62 5.5t-54 19t-38 36.5t-14 59q-1 35 11.5 71t34.5 67t51.5 50t63.5 19q45 0 79.5 -31t54.5 -89.5t20 -141.5
q0 -27 -7 -64.5t-19 -70.5q-21 -59 -60.5 -97.5t-91 -60t-108.5 -30.5t-113 -9zM568 441q-16 0 -27.5 11t-11.5 27q0 15 11 26.5t28 11.5q15 0 26 -11.5t11 -26.5q0 -16 -11 -27t-26 -11z" />
    <glyph glyph-name="uni06A8.init" unicode="&#x6a8;" horiz-adv-x="439" 
d="M0 -5l7 53q36 0 72 1t70 4t61.5 9t46.5 15q25 12 43.5 31t28 53.5t9.5 89.5q0 47 -12.5 89.5t-36.5 70t-59 27.5q-26 0 -49.5 -22t-38 -55.5t-14.5 -67.5q0 -32 13 -51t37.5 -26.5t58.5 -7.5q32 0 64 6.5t53 16.5l4 -45q-16 -11 -37 -17.5t-44.5 -9.5t-46.5 -3
q-45 0 -80 13.5t-54.5 41t-19.5 70.5q0 36 12 73t33.5 68t51 50t63.5 19q50 0 84 -34.5t51.5 -91t17.5 -120.5q0 -67 -20.5 -117.5t-73.5 -85.5q-20 -13 -49 -22t-66 -14.5t-82 -8t-98 -2.5zM227 707q-16 0 -27 11t-11 26q0 16 11 27.5t27 11.5q15 0 26.5 -11.5t11.5 -27.5
q0 -15 -11.5 -26t-26.5 -11zM167 610q-16 0 -27 11t-11 27t11 27t27 11q15 0 26.5 -11t11.5 -27t-11.5 -27t-26.5 -11zM287 610q-15 0 -26.5 11t-11.5 27t11.5 27t26.5 11q16 0 27 -11t11 -27t-11 -27t-27 -11z" />
    <glyph glyph-name="uni06A8.medi" unicode="&#x6a8;" horiz-adv-x="492" 
d="M0 -5l7 53q27 0 54.5 1.5t54.5 5.5t52 9t46 13q39 15 69.5 34.5t49 47t18.5 65.5q0 27 -12.5 56.5t-36 51t-55.5 21.5q-27 0 -52.5 -18.5t-41.5 -49t-16 -65.5q0 -38 18 -65t45 -46t56 -31l-62 -19q-21 12 -46.5 32.5t-44 52.5t-18.5 77q0 39 14 72.5t37 58.5t52 39
t60 14q46 0 81 -26t54.5 -66.5t19.5 -85.5q0 -38 -13 -68.5t-36 -54t-54.5 -41.5t-67.5 -31q-24 -10 -52 -17t-58 -11.5t-61 -6.5t-61 -2zM492 -5q-46 0 -98 7t-99 18t-79 25l47 31q26 -5 63 -11.5t81.5 -11.5t91.5 -5q13 0 19 -7t6 -18q0 -10 -9 -19t-23 -9zM237 621
q-16 0 -27 11t-11 26q0 16 11 27.5t27 11.5q15 0 26.5 -11.5t11.5 -27.5q0 -15 -11.5 -26t-26.5 -11zM177 524q-16 0 -27 11t-11 27t11 27t27 11q15 0 26.5 -11t11.5 -27t-11.5 -27t-26.5 -11zM297 524q-15 0 -26.5 11t-11.5 27t11.5 27t26.5 11q16 0 27 -11t11 -27t-11 -27
t-27 -11z" />
    <glyph glyph-name="uni06A8.fina" unicode="&#x6a8;" horiz-adv-x="808" 
d="M327 -272q-63 0 -115 13.5t-91 42t-60 73t-21 107.5q0 12 3.5 40t15.5 68.5t38 87.5l47 -22q-14 -27 -25 -54t-17.5 -54.5t-6.5 -56.5q0 -72 32 -113.5t88 -59.5t126 -18q41 0 82.5 6t79.5 18.5t69.5 33.5t54.5 51t32 71q7 24 10.5 54.5t3.5 51.5q0 60 -14.5 105.5
t-38.5 70.5t-53 25q-21 0 -39.5 -13t-33 -34t-23 -47t-8.5 -51t10 -40t28 -22.5t43.5 -10.5t55.5 -3h215q13 0 19 -7t6 -18q0 -10 -9 -19t-23 -9h-229q-32 0 -62 5.5t-54 19t-38 36.5t-14 59q-1 35 11.5 71t34.5 67t51.5 50t63.5 19q45 0 79.5 -31t54.5 -89.5t20 -141.5
q0 -27 -7 -64.5t-19 -70.5q-21 -59 -60.5 -97.5t-91 -60t-108.5 -30.5t-113 -9zM570 538q-16 0 -27 11t-11 26q0 16 11 27.5t27 11.5q15 0 26.5 -11.5t11.5 -27.5q0 -15 -11.5 -26t-26.5 -11zM510 441q-16 0 -27 11t-11 27t11 27t27 11q15 0 26.5 -11t11.5 -27t-11.5 -27
t-26.5 -11zM630 441q-15 0 -26.5 11t-11.5 27t11.5 27t26.5 11q16 0 27 -11t11 -27t-11 -27t-27 -11z" />
    <glyph glyph-name="uni06AA.init" unicode="&#x6aa;" horiz-adv-x="745" 
d="M0 -5l7 53h264q89 0 157 3.5t114.5 12.5t70.5 25.5t24 42.5q0 15 -8.5 30.5t-33.5 30t-72 25.5t-123 18q-107 10 -171 20t-93 30t-29 55q0 39 29 73.5t81 63.5t119 52.5t143 40.5l11 -47q-110 -25 -183.5 -56.5t-110.5 -62.5t-37 -57q0 -18 23.5 -28.5t76.5 -18
t142 -16.5q74 -7 127.5 -19t88.5 -29.5t51.5 -42t16.5 -56.5q0 -46 -29.5 -74.5t-84 -43t-130.5 -20t-169 -5.5h-272z" />
    <glyph glyph-name="uni06AA.medi" unicode="&#x6aa;" horiz-adv-x="825" 
d="M825 -5q-24 0 -62 5t-77.5 18t-68.5 37l50 27q43 -20 87.5 -27t77.5 -7q13 0 19 -7t6 -18q0 -10 -9 -19t-23 -9zM0 -5l7 53h264q89 0 157 3.5t114.5 12.5t70.5 25.5t24 42.5q0 15 -8.5 30.5t-33.5 30t-72 25.5t-123 18q-107 10 -171 20t-93 30t-29 55q0 39 29 73.5
t81 63.5t119 52.5t143 40.5l11 -47q-110 -25 -183.5 -56.5t-110.5 -62.5t-37 -57q0 -18 23.5 -28.5t76.5 -18t142 -16.5q74 -7 127.5 -19t88.5 -29.5t51.5 -42t16.5 -56.5q0 -46 -29.5 -74.5t-84 -43t-130.5 -20t-169 -5.5h-272z" />
    <glyph glyph-name="uni06AA.fina" unicode="&#x6aa;" horiz-adv-x="1091" 
d="M1091 -5q-24 0 -62 5t-77.5 18t-68.5 37l50 27q43 -20 87.5 -27t77.5 -7q13 0 19 -7t6 -18q0 -10 -9 -19t-23 -9zM540 -15q-44 0 -105 1t-128 3t-130.5 6t-111.5 9l4 52q50 -4 111 -7.5t125 -6t125 -3.5t109 -1q89 0 157 5t114.5 16.5t70.5 29.5t24 43q0 15 -8.5 30.5
t-33.5 30t-72 25.5t-123 18q-107 10 -171 20t-93 30t-29 55q0 39 29 73.5t81 63.5t119 52.5t143 40.5l11 -47q-110 -25 -183.5 -56.5t-110.5 -62.5t-37 -57q0 -18 23.5 -28.5t76.5 -18t142 -16.5q74 -7 127.5 -19t88.5 -29.5t51.5 -42t16.5 -56.5q0 -45 -29.5 -75t-84 -47
t-130.5 -24t-169 -7z" />
    <glyph glyph-name="uni06AB.init" unicode="&#x6ab;" horiz-adv-x="394" 
d="M315 483q-34 0 -58.5 24.5t-24.5 58.5q0 35 24.5 59t58.5 24q35 0 59.5 -24t24.5 -59q0 -34 -24.5 -58.5t-59.5 -24.5zM315 519q20 0 34 14t14 33q0 20 -14 34t-34 14q-19 0 -33 -14t-14 -34q0 -19 14 -33t33 -14zM0 -5l7 53h82q55 0 91 7t57 19.5t30 31t9 42.5
q0 34 -25 78t-77 97q-34 35 -61.5 59t-47 40.5t-30 26t-10.5 15.5q0 12 2 22t6 18t10 13q23 21 55.5 42.5t75 45t93.5 49t110 54.5l22 -48q-68 -32 -120.5 -58t-93 -49.5t-72 -44t-56.5 -41.5l7 23q53 -45 100 -88.5t83 -86t57 -85t21 -85.5q0 -32 -12 -59.5t-40 -47.5
t-74.5 -31.5t-116.5 -11.5h-82z" />
    <glyph glyph-name="uni06AB.medi" unicode="&#x6ab;" horiz-adv-x="480" 
d="M319 484q-35 0 -59 24.5t-24 59.5q0 34 24 58.5t59 24.5q34 0 58.5 -24.5t24.5 -58.5q0 -35 -24.5 -59.5t-58.5 -24.5zM319 521q19 0 33.5 13.5t14.5 33.5t-14 33.5t-34 13.5t-34 -13.5t-14 -33.5t14 -33.5t34 -13.5zM0 -5l7 53h77q76 0 117 11.5t57.5 33t16.5 51.5
q0 26 -18 58t-46.5 65.5t-60.5 66t-60.5 59.5t-46.5 46.5t-18 25.5q0 11 2 21t6 18.5t10 13.5q23 20 57 42.5t77 46.5t93.5 49.5t106.5 51.5l22 -48q-53 -25 -102.5 -50t-93.5 -49t-81 -47.5t-65 -45.5l4 22q41 -38 81.5 -77t78 -80t67.5 -83.5t48 -85.5q16 -38 39 -63.5
t52 -39t60 -13.5q13 0 19 -7t6 -18q0 -10 -9 -19t-23 -9q-33 0 -68 13t-65 43.5t-48 82.5l23 -12q-8 -37 -27.5 -61t-51 -38.5t-72.5 -21t-93 -6.5h-78z" />
    <glyph glyph-name="uni06AB.fina" unicode="&#x6ab;" horiz-adv-x="970" 
d="M810 485q-35 0 -59 24.5t-24 59.5q0 34 24 58.5t59 24.5q34 0 58.5 -24.5t24.5 -58.5q0 -35 -24.5 -59.5t-58.5 -24.5zM810 522q19 0 33.5 13.5t14.5 33.5t-14 33.5t-34 13.5t-34 -13.5t-14 -33.5t14 -33.5t34 -13.5zM400 -21l26 53q82 0 145 7.5t106 22.5t65.5 35.5
t22.5 46.5q0 30 -18 63.5t-46.5 67t-60.5 65t-60.5 57.5t-46.5 44t-18 24q0 11 2 21t6 18.5t10 13.5q28 25 79 56.5t117 65.5t138 68l22 -48q-65 -30 -130.5 -63.5t-120.5 -66t-91 -62.5l4 22q41 -37 80.5 -72.5t75.5 -73.5t66.5 -82.5t52.5 -97.5q12 -29 28.5 -50.5
t35.5 -36t41 -22t46 -7.5q13 0 19 -7t6 -18q0 -10 -9 -19t-23 -9q-33 0 -67 13t-64 43.5t-49 82.5l22 -12q-8 -36 -35 -62.5t-76.5 -44.5t-123.5 -27t-177 -9zM400 -21q-88 0 -155 11.5t-112.5 35t-69 61t-23.5 90.5q0 24 4 49t10 50.5t13 48.5l48 -12q-5 -17 -10 -37.5
t-8.5 -42t-3.5 -42.5q0 -58 34.5 -93t108 -50.5t190.5 -15.5l20 -32z" />
    <glyph glyph-name="uni06AC.init" unicode="&#x6ac;" horiz-adv-x="394" 
d="M0 -5l7 53h82q55 0 91 7t57 19.5t30 31t9 42.5q0 34 -25 78t-77 97q-34 35 -61.5 59t-47 40.5t-30 26t-10.5 15.5q0 12 2 22t6 18t10 13q23 21 55.5 42.5t75 45t93.5 49t110 54.5l22 -48q-68 -32 -120.5 -58t-93 -49.5t-72 -44t-56.5 -41.5l7 23q53 -45 100 -88.5t83 -86
t57 -85t21 -85.5q0 -32 -12 -59.5t-40 -47.5t-74.5 -31.5t-116.5 -11.5h-82zM179 742q-16 0 -27.5 11t-11.5 27q0 15 11 26.5t28 11.5q15 0 26 -11.5t11 -26.5q0 -16 -11 -27t-26 -11z" />
    <glyph glyph-name="uni06AC.medi" unicode="&#x6ac;" horiz-adv-x="480" 
d="M0 -5l7 53h77q76 0 117 11.5t57.5 33t16.5 51.5q0 26 -18 58t-46.5 65.5t-60.5 66t-60.5 59.5t-46.5 46.5t-18 25.5q0 11 2 21t6 18.5t10 13.5q23 20 57 42.5t77 46.5t93.5 49.5t106.5 51.5l22 -48q-53 -25 -102.5 -50t-93.5 -49t-81 -47.5t-65 -45.5l4 22
q41 -38 81.5 -77t78 -80t67.5 -83.5t48 -85.5q16 -38 39 -63.5t52 -39t60 -13.5q13 0 19 -7t6 -18q0 -10 -9 -19t-23 -9q-33 0 -68 13t-65 43.5t-48 82.5l23 -12q-8 -37 -27.5 -61t-51 -38.5t-72.5 -21t-93 -6.5h-78zM153 742q-16 0 -27.5 11t-11.5 27q0 15 11 26.5t28 11.5
q15 0 26 -11.5t11 -26.5q0 -16 -11 -27t-26 -11z" />
    <glyph glyph-name="uni06AC.fina" unicode="&#x6ac;" horiz-adv-x="893" 
d="M400 -21l26 53q88 0 149 8t97.5 26t52.5 47t14 70l-19 531h52l20 -523q2 -52 12 -83.5t33 -45.5t63 -14q13 0 19 -7t6 -18q0 -10 -9 -19t-23 -9q-39 0 -66.5 11.5t-43.5 34.5t-18 61l16 -1q-15 -36 -47 -59.5t-80 -37t-111.5 -19.5t-142.5 -6zM364 204l-12 42
q50 13 78 24t39.5 21t11.5 18q0 13 -14.5 24t-32.5 23t-32.5 27t-14.5 36q0 15 10 34t37 41t77 46l21 -38q-46 -21 -73.5 -43t-27.5 -39q0 -13 14.5 -24.5t32.5 -24t32.5 -28t14.5 -36.5q0 -13 -7 -26t-25 -26t-49 -25.5t-80 -25.5zM400 -21q-88 0 -155 11.5t-112.5 35
t-69 61t-23.5 90.5q0 24 4 49t10 50.5t13 48.5l48 -12q-5 -17 -10 -37.5t-8.5 -42t-3.5 -42.5q0 -58 34.5 -93t108 -50.5t190.5 -15.5l20 -32zM458 651q-16 0 -27.5 11t-11.5 27q0 15 11 26.5t28 11.5q15 0 26 -11.5t11 -26.5q0 -16 -11 -27t-26 -11z" />
    <glyph glyph-name="uni06AE.init" unicode="&#x6ae;" horiz-adv-x="394" 
d="M0 -5l7 53h82q55 0 91 7t57 19.5t30 31t9 42.5q0 34 -25 78t-77 97q-34 35 -61.5 59t-47 40.5t-30 26t-10.5 15.5q0 12 2 22t6 18t10 13q23 21 55.5 42.5t75 45t93.5 49t110 54.5l22 -48q-68 -32 -120.5 -58t-93 -49.5t-72 -44t-56.5 -41.5l7 23q53 -45 100 -88.5t83 -86
t57 -85t21 -85.5q0 -32 -12 -59.5t-40 -47.5t-74.5 -31.5t-116.5 -11.5h-82zM160 -274q-16 0 -27 11t-11 26q0 16 11 27.5t27 11.5t27 -11.5t11 -27.5q0 -15 -11.5 -26t-26.5 -11zM100 -178q-16 0 -27.5 11t-11.5 27q0 15 11 26.5t28 11.5q15 0 26 -11.5t11 -26.5
q0 -16 -11 -27t-26 -11zM220 -178q-16 0 -27 11t-11 27q0 15 11 26.5t27 11.5t27 -11.5t11 -26.5q0 -16 -11.5 -27t-26.5 -11z" />
    <glyph glyph-name="uni06AE.medi" unicode="&#x6ae;" horiz-adv-x="480" 
d="M0 -5l7 53h77q76 0 117 11.5t57.5 33t16.5 51.5q0 26 -18 58t-46.5 65.5t-60.5 66t-60.5 59.5t-46.5 46.5t-18 25.5q0 11 2 21t6 18.5t10 13.5q23 20 57 42.5t77 46.5t93.5 49.5t106.5 51.5l22 -48q-53 -25 -102.5 -50t-93.5 -49t-81 -47.5t-65 -45.5l4 22
q41 -38 81.5 -77t78 -80t67.5 -83.5t48 -85.5q16 -38 39 -63.5t52 -39t60 -13.5q13 0 19 -7t6 -18q0 -10 -9 -19t-23 -9q-33 0 -68 13t-65 43.5t-48 82.5l23 -12q-8 -37 -27.5 -61t-51 -38.5t-72.5 -21t-93 -6.5h-78zM160 -274q-16 0 -27 11t-11 26q0 16 11 27.5t27 11.5
t27 -11.5t11 -27.5q0 -15 -11.5 -26t-26.5 -11zM100 -178q-16 0 -27.5 11t-11.5 27q0 15 11 26.5t28 11.5q15 0 26 -11.5t11 -26.5q0 -16 -11 -27t-26 -11zM220 -178q-16 0 -27 11t-11 27q0 15 11 26.5t27 11.5t27 -11.5t11 -26.5q0 -16 -11.5 -27t-26.5 -11z" />
    <glyph glyph-name="uni06AE.fina" unicode="&#x6ae;" horiz-adv-x="893" 
d="M400 -21l26 53q88 0 149 8t97.5 26t52.5 47t14 70l-19 531h52l20 -523q2 -52 12 -83.5t33 -45.5t63 -14q13 0 19 -7t6 -18q0 -10 -9 -19t-23 -9q-39 0 -66.5 11.5t-43.5 34.5t-18 61l16 -1q-15 -36 -47 -59.5t-80 -37t-111.5 -19.5t-142.5 -6zM364 204l-12 42
q50 13 78 24t39.5 21t11.5 18q0 13 -14.5 24t-32.5 23t-32.5 27t-14.5 36q0 15 10 34t37 41t77 46l21 -38q-46 -21 -73.5 -43t-27.5 -39q0 -13 14.5 -24.5t32.5 -24t32.5 -28t14.5 -36.5q0 -13 -7 -26t-25 -26t-49 -25.5t-80 -25.5zM400 -21q-88 0 -155 11.5t-112.5 35
t-69 61t-23.5 90.5q0 24 4 49t10 50.5t13 48.5l48 -12q-5 -17 -10 -37.5t-8.5 -42t-3.5 -42.5q0 -58 34.5 -93t108 -50.5t190.5 -15.5l20 -32zM423 -295q-16 0 -27 11t-11 26q0 16 11 27.5t27 11.5t27 -11.5t11 -27.5q0 -15 -11.5 -26t-26.5 -11zM363 -199q-16 0 -27.5 11
t-11.5 27q0 15 11 26.5t28 11.5q15 0 26 -11.5t11 -26.5q0 -16 -11 -27t-26 -11zM483 -199q-16 0 -27 11t-11 27q0 15 11 26.5t27 11.5t27 -11.5t11 -26.5q0 -16 -11.5 -27t-26.5 -11z" />
    <glyph glyph-name="uni06B0.init" unicode="&#x6b0;" horiz-adv-x="394" 
d="M318 484q-35 0 -59 24.5t-24 59.5q0 34 24 58.5t59 24.5q34 0 58.5 -24.5t24.5 -58.5q0 -35 -24.5 -59.5t-58.5 -24.5zM318 521q19 0 33.5 13.5t14.5 33.5t-14 33.5t-34 13.5t-34 -13.5t-14 -33.5t14 -33.5t34 -13.5zM-1 571l-24 37q37 24 87.5 54.5t115.5 67t146 77.5
l18 -40q-80 -42 -143 -77.5t-112 -64.5t-88 -54zM0 -5l7 53h82q55 0 91 7t57 19.5t30 31t9 42.5q0 34 -25 78t-77 97q-34 35 -61.5 59t-47 40.5t-30 26t-10.5 15.5q0 12 2 22t6 18t10 13q23 21 55.5 42.5t75 45t93.5 49t110 54.5l22 -48q-68 -32 -120.5 -58t-93 -49.5
t-72 -44t-56.5 -41.5l7 23q53 -45 100 -88.5t83 -86t57 -85t21 -85.5q0 -32 -12 -59.5t-40 -47.5t-74.5 -31.5t-116.5 -11.5h-82z" />
    <glyph glyph-name="uni06B0.medi" unicode="&#x6b0;" horiz-adv-x="480" 
d="M317 484q-35 0 -59 24.5t-24 58.5q0 35 24 59t59 24q34 0 58.5 -24t24.5 -59q0 -34 -24.5 -58.5t-58.5 -24.5zM317 520q19 0 33.5 14t14.5 33q0 20 -14 34t-34 14t-34 -14t-14 -34q0 -19 14 -33t34 -14zM0 571l-24 37q37 24 87.5 54.5t116 67t145.5 77.5l19 -40
q-80 -42 -143.5 -77.5t-112.5 -64.5t-88 -54zM0 -5l7 53h77q76 0 117 11.5t57.5 33t16.5 51.5q0 26 -18 58t-46.5 65.5t-60.5 66t-60.5 59.5t-46.5 46.5t-18 25.5q0 11 2 21t6 18.5t10 13.5q23 20 57 42.5t77 46.5t93.5 49.5t106.5 51.5l22 -48q-53 -25 -102.5 -50
t-93.5 -49t-81 -47.5t-65 -45.5l4 22q41 -38 81.5 -77t78 -80t67.5 -83.5t48 -85.5q16 -38 39 -63.5t52 -39t60 -13.5q13 0 19 -7t6 -18q0 -10 -9 -19t-23 -9q-33 0 -68 13t-65 43.5t-48 82.5l23 -12q-8 -37 -27.5 -61t-51 -38.5t-72.5 -21t-93 -6.5h-78z" />
    <glyph glyph-name="uni06B0.fina" unicode="&#x6b0;" horiz-adv-x="970" 
d="M810 485q-34 0 -58.5 24.5t-24.5 59.5q0 34 24.5 58.5t58.5 24.5q35 0 59.5 -24.5t24.5 -58.5q0 -35 -24.5 -59.5t-59.5 -24.5zM810 522q20 0 34 13.5t14 33.5t-14 33.5t-34 13.5q-19 0 -33 -13.5t-14 -33.5t14 -33.5t33 -13.5zM490 571l-24 37q37 24 87.5 54.5t116 67
t145.5 77.5l18 -40q-80 -42 -143 -77.5t-112 -64.5t-88 -54zM400 -21l26 53q82 0 145 7.5t106 22.5t65.5 35.5t22.5 46.5q0 30 -18 63.5t-46.5 67t-60.5 65t-60.5 57.5t-46.5 44t-18 24q0 11 2 21t6 18.5t10 13.5q28 25 79 56.5t117 65.5t138 68l22 -48
q-65 -30 -130.5 -63.5t-120.5 -66t-91 -62.5l4 22q41 -37 80.5 -72.5t75.5 -73.5t66.5 -82.5t52.5 -97.5q12 -29 28.5 -50.5t35.5 -36t41 -22t46 -7.5q13 0 19 -7t6 -18q0 -10 -9 -19t-23 -9q-33 0 -67 13t-64 43.5t-49 82.5l22 -12q-8 -36 -35 -62.5t-76.5 -44.5
t-123.5 -27t-177 -9zM400 -21q-88 0 -155 11.5t-112.5 35t-69 61t-23.5 90.5q0 24 4 49t10 50.5t13 48.5l48 -12q-5 -17 -10 -37.5t-8.5 -42t-3.5 -42.5q0 -58 34.5 -93t108 -50.5t190.5 -15.5l20 -32z" />
    <glyph glyph-name="uni06B2.init" unicode="&#x6b2;" horiz-adv-x="394" 
d="M-1 571l-24 37q37 24 87.5 54.5t115.5 67t146 77.5l18 -40q-80 -42 -143 -77.5t-112 -64.5t-88 -54zM0 -5l7 53h82q55 0 91 7t57 19.5t30 31t9 42.5q0 34 -25 78t-77 97q-34 35 -61.5 59t-47 40.5t-30 26t-10.5 15.5q0 12 2 22t6 18t10 13q23 21 55.5 42.5t75 45t93.5 49
t110 54.5l22 -48q-68 -32 -120.5 -58t-93 -49.5t-72 -44t-56.5 -41.5l7 23q53 -45 100 -88.5t83 -86t57 -85t21 -85.5q0 -32 -12 -59.5t-40 -47.5t-74.5 -31.5t-116.5 -11.5h-82zM228 -177q-16 0 -27 11t-11 27q0 15 11 26.5t27 11.5t27 -11.5t11 -26.5q0 -16 -11.5 -27
t-26.5 -11zM107 -177q-16 0 -27 11t-11 27q0 15 11 26.5t27 11.5t27 -11.5t11 -26.5q0 -16 -11.5 -27t-26.5 -11z" />
    <glyph glyph-name="uni06B2.medi" unicode="&#x6b2;" horiz-adv-x="480" 
d="M0 571l-24 37q37 24 87.5 54.5t116 67t145.5 77.5l19 -40q-80 -42 -143.5 -77.5t-112.5 -64.5t-88 -54zM0 -5l7 53h77q76 0 117 11.5t57.5 33t16.5 51.5q0 26 -18 58t-46.5 65.5t-60.5 66t-60.5 59.5t-46.5 46.5t-18 25.5q0 11 2 21t6 18.5t10 13.5q23 20 57 42.5
t77 46.5t93.5 49.5t106.5 51.5l22 -48q-53 -25 -102.5 -50t-93.5 -49t-81 -47.5t-65 -45.5l4 22q41 -38 81.5 -77t78 -80t67.5 -83.5t48 -85.5q16 -38 39 -63.5t52 -39t60 -13.5q13 0 19 -7t6 -18q0 -10 -9 -19t-23 -9q-33 0 -68 13t-65 43.5t-48 82.5l23 -12
q-8 -37 -27.5 -61t-51 -38.5t-72.5 -21t-93 -6.5h-78zM228 -177q-16 0 -27 11t-11 27q0 15 11 26.5t27 11.5t27 -11.5t11 -26.5q0 -16 -11.5 -27t-26.5 -11zM107 -177q-16 0 -27 11t-11 27q0 15 11 26.5t27 11.5t27 -11.5t11 -26.5q0 -16 -11.5 -27t-26.5 -11z" />
    <glyph glyph-name="uni06B2.fina" unicode="&#x6b2;" horiz-adv-x="970" 
d="M490 571l-24 37q37 24 87.5 54.5t116 67t145.5 77.5l18 -40q-80 -42 -143 -77.5t-112 -64.5t-88 -54zM400 -21l26 53q82 0 145 7.5t106 22.5t65.5 35.5t22.5 46.5q0 30 -18 63.5t-46.5 67t-60.5 65t-60.5 57.5t-46.5 44t-18 24q0 11 2 21t6 18.5t10 13.5q28 25 79 56.5
t117 65.5t138 68l22 -48q-65 -30 -130.5 -63.5t-120.5 -66t-91 -62.5l4 22q41 -37 80.5 -72.5t75.5 -73.5t66.5 -82.5t52.5 -97.5q12 -29 28.5 -50.5t35.5 -36t41 -22t46 -7.5q13 0 19 -7t6 -18q0 -10 -9 -19t-23 -9q-33 0 -67 13t-64 43.5t-49 82.5l22 -12
q-8 -36 -35 -62.5t-76.5 -44.5t-123.5 -27t-177 -9zM400 -21q-88 0 -155 11.5t-112.5 35t-69 61t-23.5 90.5q0 24 4 49t10 50.5t13 48.5l48 -12q-5 -17 -10 -37.5t-8.5 -42t-3.5 -42.5q0 -58 34.5 -93t108 -50.5t190.5 -15.5l20 -32zM475 -198q-16 0 -27 11t-11 27
q0 15 11 26.5t27 11.5t27 -11.5t11 -26.5q0 -16 -11.5 -27t-26.5 -11zM354 -198q-16 0 -27 11t-11 27q0 15 11 26.5t27 11.5t27 -11.5t11 -26.5q0 -16 -11.5 -27t-26.5 -11z" />
    <glyph glyph-name="uni06B4.init" unicode="&#x6b4;" horiz-adv-x="394" 
d="M78 868q-15 0 -25.5 10.5t-10.5 25.5q0 14 10.5 25t25.5 11t25.5 -11t10.5 -25q0 -15 -10.5 -25.5t-25.5 -10.5zM68 742q-15 0 -25.5 11t-10.5 25q0 15 10.5 25.5t25.5 10.5t25.5 -10.5t10.5 -25.5q0 -14 -10.5 -25t-25.5 -11zM180 794q-15 0 -25.5 10.5t-10.5 25.5
q0 14 10.5 25t25.5 11t25.5 -11t10.5 -25q0 -15 -10.5 -25.5t-25.5 -10.5zM-1 571l-24 37q37 24 87.5 54.5t115.5 67t146 77.5l18 -40q-80 -42 -143 -77.5t-112 -64.5t-88 -54zM0 -5l7 53h82q55 0 91 7t57 19.5t30 31t9 42.5q0 34 -25 78t-77 97q-34 35 -61.5 59t-47 40.5
t-30 26t-10.5 15.5q0 12 2 22t6 18t10 13q23 21 55.5 42.5t75 45t93.5 49t110 54.5l22 -48q-68 -32 -120.5 -58t-93 -49.5t-72 -44t-56.5 -41.5l7 23q53 -45 100 -88.5t83 -86t57 -85t21 -85.5q0 -32 -12 -59.5t-40 -47.5t-74.5 -31.5t-116.5 -11.5h-82z" />
    <glyph glyph-name="uni06B4.medi" unicode="&#x6b4;" horiz-adv-x="480" 
d="M76 868q-16 0 -26.5 11t-10.5 25q0 15 10.5 25.5t26.5 10.5q14 0 24.5 -10.5t10.5 -25.5q0 -14 -10.5 -25t-24.5 -11zM66 743q-16 0 -26.5 10.5t-10.5 25.5q0 14 10.5 25t26.5 11q14 0 24.5 -11t10.5 -25q0 -15 -10.5 -25.5t-24.5 -10.5zM178 794q-16 0 -26.5 11
t-10.5 25q0 15 10.5 25.5t26.5 10.5q14 0 24.5 -10.5t10.5 -25.5q0 -14 -10.5 -25t-24.5 -11zM0 571l-24 37q37 24 87.5 54.5t116 67t145.5 77.5l19 -40q-80 -42 -143.5 -77.5t-112.5 -64.5t-88 -54zM0 -5l7 53h77q76 0 117 11.5t57.5 33t16.5 51.5q0 26 -18 58t-46.5 65.5
t-60.5 66t-60.5 59.5t-46.5 46.5t-18 25.5q0 11 2 21t6 18.5t10 13.5q23 20 57 42.5t77 46.5t93.5 49.5t106.5 51.5l22 -48q-53 -25 -102.5 -50t-93.5 -49t-81 -47.5t-65 -45.5l4 22q41 -38 81.5 -77t78 -80t67.5 -83.5t48 -85.5q16 -38 39 -63.5t52 -39t60 -13.5
q13 0 19 -7t6 -18q0 -10 -9 -19t-23 -9q-33 0 -68 13t-65 43.5t-48 82.5l23 -12q-8 -37 -27.5 -61t-51 -38.5t-72.5 -21t-93 -6.5h-78z" />
    <glyph glyph-name="uni06B4.fina" unicode="&#x6b4;" horiz-adv-x="970" 
d="M558 869q-16 0 -26.5 11t-10.5 25q0 15 10.5 25.5t26.5 10.5q14 0 24.5 -10.5t10.5 -25.5q0 -14 -10.5 -25t-24.5 -11zM548 744q-16 0 -26.5 10.5t-10.5 25.5q0 14 10.5 25t26.5 11q14 0 24.5 -11t10.5 -25q0 -15 -10.5 -25.5t-24.5 -10.5zM660 795q-16 0 -26.5 11
t-10.5 25q0 15 10.5 25.5t26.5 10.5q14 0 24.5 -10.5t10.5 -25.5q0 -14 -10.5 -25t-24.5 -11zM490 571l-24 37q37 24 87.5 54.5t116 67t145.5 77.5l18 -40q-80 -42 -143 -77.5t-112 -64.5t-88 -54zM400 -21l26 53q82 0 145 7.5t106 22.5t65.5 35.5t22.5 46.5q0 30 -18 63.5
t-46.5 67t-60.5 65t-60.5 57.5t-46.5 44t-18 24q0 11 2 21t6 18.5t10 13.5q28 25 79 56.5t117 65.5t138 68l22 -48q-65 -30 -130.5 -63.5t-120.5 -66t-91 -62.5l4 22q41 -37 80.5 -72.5t75.5 -73.5t66.5 -82.5t52.5 -97.5q12 -29 28.5 -50.5t35.5 -36t41 -22t46 -7.5
q13 0 19 -7t6 -18q0 -10 -9 -19t-23 -9q-33 0 -67 13t-64 43.5t-49 82.5l22 -12q-8 -36 -35 -62.5t-76.5 -44.5t-123.5 -27t-177 -9zM400 -21q-88 0 -155 11.5t-112.5 35t-69 61t-23.5 90.5q0 24 4 49t10 50.5t13 48.5l48 -12q-5 -17 -10 -37.5t-8.5 -42t-3.5 -42.5
q0 -58 34.5 -93t108 -50.5t190.5 -15.5l20 -32z" />
    <glyph glyph-name="uni06B5.init" unicode="&#x6b5;" horiz-adv-x="234" 
d="M0 -5l7 53q58 0 83 13t30 44t3 85l-19 524h52l20 -518q2 -52 -3.5 -89.5t-24 -62.5t-54 -37t-94.5 -12zM106 847q-7 16 -18 39t-23.5 49t-25 49.5t-21.5 39.5l33 18q6 -10 17.5 -31.5t24 -46.5t23.5 -48.5t18 -38.5l13 -26zM147 851l-32 11q6 18 17.5 45.5t24 56.5
t23 51.5t14.5 30.5l33 -14q-5 -10 -16 -33t-23.5 -51t-23.5 -54t-17 -43z" />
    <glyph glyph-name="uni06B5.medi" unicode="&#x6b5;" horiz-adv-x="287" 
d="M0 -5l7 53q60 0 85 16.5t29.5 51.5t2.5 89l-17 509h54l16 -507q2 -61 14.5 -96t38 -49t64.5 -14q13 0 19 -7t6 -18q0 -10 -9 -19t-23 -9q-42 0 -70 14.5t-43 38.5t-20 50l15 -1q-8 -32 -27 -54.5t-53 -35t-89 -12.5zM114 847q-7 16 -18 39t-23.5 49t-25 49.5t-21.5 39.5
l33 18q6 -10 17.5 -31.5t24 -46.5t23.5 -48.5t18 -38.5l13 -26zM155 851l-32 11q6 18 17.5 45.5t24 56.5t23 51.5t14.5 30.5l33 -14q-5 -10 -16 -33t-23.5 -51t-23.5 -54t-17 -43z" />
    <glyph glyph-name="uni06B5.fina" unicode="&#x6b5;" horiz-adv-x="731" 
d="M40 -11q0 24 4.5 51.5t15 60.5t27.5 73l48 -20q-13 -29 -22.5 -57.5t-14 -54t-4.5 -48.5q0 -56 28.5 -94t75 -58t100.5 -20q95 0 151 41t80.5 110t20.5 156l-19 585h53l17 -523q2 -46 20 -78t48.5 -48.5t67.5 -16.5q14 0 20 -7t6 -18q0 -10 -9 -19t-23 -9q-30 0 -54.5 9
t-42.5 24t-29.5 34t-15.5 38l15 -11q-3 -59 -20 -115.5t-52 -103t-93.5 -74t-143.5 -27.5q-51 0 -97 14.5t-81.5 42.5t-56 69t-20.5 94zM289 590q-7 16 -18 39t-23.5 49t-25 49.5t-21.5 39.5l33 18q6 -10 17.5 -31.5t24 -46.5t23.5 -48.5t18 -38.5l13 -26zM330 594l-32 11
q6 18 17.5 45.5t24 56.5t23 51.5t14.5 30.5l33 -14q-5 -10 -16 -33t-23.5 -51t-23.5 -54t-17 -43z" />
    <glyph glyph-name="uni06B6.init" unicode="&#x6b6;" horiz-adv-x="234" 
d="M0 -5l7 53q58 0 83 13t30 44t3 85l-19 524h52l20 -518q2 -52 -3.5 -89.5t-24 -62.5t-54 -37t-94.5 -12zM126 833q-16 0 -27.5 11t-11.5 27q0 15 11 26.5t28 11.5q15 0 26 -11.5t11 -26.5q0 -16 -11 -27t-26 -11z" />
    <glyph glyph-name="uni06B6.medi" unicode="&#x6b6;" horiz-adv-x="287" 
d="M0 -5l7 53q60 0 85 16.5t29.5 51.5t2.5 89l-17 509h54l16 -507q2 -61 14.5 -96t38 -49t64.5 -14q13 0 19 -7t6 -18q0 -10 -9 -19t-23 -9q-42 0 -70 14.5t-43 38.5t-20 50l15 -1q-8 -32 -27 -54.5t-53 -35t-89 -12.5zM135 833q-16 0 -27.5 11t-11.5 27q0 15 11 26.5
t28 11.5q15 0 26 -11.5t11 -26.5q0 -16 -11 -27t-26 -11z" />
    <glyph glyph-name="uni06B6.fina" unicode="&#x6b6;" horiz-adv-x="731" 
d="M40 -11q0 24 4.5 51.5t15 60.5t27.5 73l48 -20q-13 -29 -22.5 -57.5t-14 -54t-4.5 -48.5q0 -56 28.5 -94t75 -58t100.5 -20q95 0 151 41t80.5 110t20.5 156l-19 585h53l17 -523q2 -46 20 -78t48.5 -48.5t67.5 -16.5q14 0 20 -7t6 -18q0 -10 -9 -19t-23 -9q-30 0 -54.5 9
t-42.5 24t-29.5 34t-15.5 38l15 -11q-3 -59 -20 -115.5t-52 -103t-93.5 -74t-143.5 -27.5q-51 0 -97 14.5t-81.5 42.5t-56 69t-20.5 94zM310 576q-16 0 -27.5 11t-11.5 27q0 15 11 26.5t28 11.5q15 0 26 -11.5t11 -26.5q0 -16 -11 -27t-26 -11z" />
    <glyph glyph-name="uni06B7.init" unicode="&#x6b7;" horiz-adv-x="234" 
d="M0 -5l7 53q58 0 83 13t30 44t3 85l-19 524h52l20 -518q2 -52 -3.5 -89.5t-24 -62.5t-54 -37t-94.5 -12zM128 930q-16 0 -27 11t-11 26q0 16 11 27.5t27 11.5q15 0 26.5 -11.5t11.5 -27.5q0 -15 -11.5 -26t-26.5 -11zM68 833q-16 0 -27 11t-11 27t11 27t27 11
q15 0 26.5 -11t11.5 -27t-11.5 -27t-26.5 -11zM188 833q-15 0 -26.5 11t-11.5 27t11.5 27t26.5 11q16 0 27 -11t11 -27t-11 -27t-27 -11z" />
    <glyph glyph-name="uni06B7.medi" unicode="&#x6b7;" horiz-adv-x="287" 
d="M0 -5l7 53q60 0 85 16.5t29.5 51.5t2.5 89l-17 509h54l16 -507q2 -61 14.5 -96t38 -49t64.5 -14q13 0 19 -7t6 -18q0 -10 -9 -19t-23 -9q-42 0 -70 14.5t-43 38.5t-20 50l15 -1q-8 -32 -27 -54.5t-53 -35t-89 -12.5zM136 930q-16 0 -27 11t-11 26q0 16 11 27.5t27 11.5
q15 0 26.5 -11.5t11.5 -27.5q0 -15 -11.5 -26t-26.5 -11zM76 833q-16 0 -27 11t-11 27t11 27t27 11q15 0 26.5 -11t11.5 -27t-11.5 -27t-26.5 -11zM196 833q-15 0 -26.5 11t-11.5 27t11.5 27t26.5 11q16 0 27 -11t11 -27t-11 -27t-27 -11z" />
    </font>
</defs>
</svg>
