<?xml version="1.0" standalone="no"?>
<!DOCTYPE svg PUBLIC "-//W3C//DTD SVG 1.1//EN" "http://www.w3.org/Graphics/SVG/1.1/DTD/svg11.dtd" >
<svg xmlns="http://www.w3.org/2000/svg" xmlns:xlink="http://www.w3.org/1999/xlink" version="1.1">
<metadata>
Created by FontForge 20170731 at Thu Nov 12 05:28:44 2020
 By Aleksey,,,
Copyright 2015-2020 Google LLC. All Rights Reserved.
</metadata>
<defs>
<font id="NotoSansArabic-Medium" horiz-adv-x="0" >
  <font-face 
    font-family="Noto Sans Arabic Medium"
    font-weight="500"
    font-stretch="normal"
    units-per-em="1000"
    panose-1="0 0 0 0 0 0 0 0 0 0"
    ascent="800"
    descent="-200"
    bbox="-220 -573 2421 1126"
    underline-thickness="50"
    underline-position="-175"
    unicode-range="U+000D-FEFC"
  />
<missing-glyph horiz-adv-x="600" 
d="M94 0v714h411v-714h-411zM145 51h309v612h-309v-612z" />
    <glyph glyph-name="uniFC43" unicode="&#xfedf;&#xfef0;" horiz-adv-x="1026" arabic-form="isolated" 
d="M755 -5l9 99q54 0 76 10.5t26 38t2 78.5l-19 498h99l20 -495q2 -54 -4 -97t-27.5 -72.5t-65 -44.5t-116.5 -15zM29 8q0 23 4.5 51.5t14 62.5t26.5 73l87 -32q-10 -29 -18 -54t-11.5 -47t-3.5 -42q0 -40 17.5 -68.5t49 -47.5t73 -28t91.5 -9q57 0 105.5 8.5t84.5 24.5
t56.5 37t20.5 46q0 12 -9 22t-27.5 19.5t-45 19.5t-62.5 20l24 100q49 -19 88.5 -32.5t71 -21.5t56 -12t43.5 -4q26 0 37.5 -14t11.5 -33q0 -21 -16 -36.5t-43 -15.5h-13.5h-13h-13.5q2 -9 3 -15t1 -15q0 -36 -25 -70.5t-73 -63t-118.5 -46t-162.5 -17.5q-88 0 -158.5 26
t-111.5 79t-41 135z" />
    <glyph glyph-name="uniFC86" unicode="&#xfee0;&#xfef0;" horiz-adv-x="1068" arabic-form="final" 
d="M755 -5l9 99q54 0 76 10.5t26 38t2 78.5l-17 498h100l17 -497q2 -50 15 -78t37.5 -39t57.5 -11q26 0 37.5 -14t11.5 -33q0 -21 -16 -36.5t-43 -15.5q-43 0 -73.5 12.5t-48.5 36t-24 55.5l27 -1q-12 -37 -35.5 -59.5t-62.5 -33t-96 -10.5zM29 8q0 23 4.5 51.5t14 62.5
t26.5 73l87 -32q-10 -29 -18 -54t-11.5 -47t-3.5 -42q0 -40 17.5 -68.5t49 -47.5t73 -28t91.5 -9q57 0 105.5 8.5t84.5 24.5t56.5 37t20.5 46q0 12 -9 22t-27.5 19.5t-45 19.5t-62.5 20l24 100q49 -19 88.5 -32.5t71 -21.5t56 -12t43.5 -4q26 0 37.5 -14t11.5 -33
q0 -21 -16 -36.5t-43 -15.5h-13.5h-13h-13.5q2 -9 3 -15t1 -15q0 -36 -25 -70.5t-73 -63t-118.5 -46t-162.5 -17.5q-88 0 -158.5 26t-111.5 79t-41 135z" />
    <glyph glyph-name="uniFD82" unicode="&#xfee0;&#xfea4;&#xfef0;" horiz-adv-x="1710" arabic-form="final" 
d="M1397 -5l9 99q54 0 76 10.5t26 38t2 78.5l-17 498h100l17 -497q2 -50 15 -78t37.5 -39t57.5 -11q26 0 37.5 -14t11.5 -33q0 -21 -16 -36.5t-43 -15.5q-43 0 -73.5 12.5t-48.5 36t-24 55.5l27 -1q-12 -37 -35.5 -59.5t-62.5 -33t-96 -10.5zM1397 -5q-43 0 -79.5 6
t-66 21.5t-50.5 45t-33 76.5l65 43q15 -38 36 -57.5t54.5 -27.5t83.5 -8q26 0 37.5 -14t11.5 -33q0 -21 -16 -36.5t-43 -15.5zM755 -5l9 99q53 0 104 7.5t99.5 21.5t93 35t84.5 48q-27 22 -61 38t-74.5 24.5t-84.5 8.5q-16 0 -31.5 -1t-30.5 -3.5t-33 -6.5l-17 94
q28 8 56.5 12t53.5 4q52 0 95 -12.5t79 -30.5t67.5 -36t60.5 -30t60 -12h26l9 -90q-43 -1 -79.5 -13.5t-71.5 -32t-74 -41t-86.5 -40t-109.5 -31t-144 -12.5zM29 8q0 23 4.5 51.5t14 62.5t26.5 73l87 -32q-10 -29 -18 -54t-11.5 -47t-3.5 -42q0 -40 17.5 -68.5t49 -47.5
t73 -28t91.5 -9q57 0 105.5 8.5t84.5 24.5t56.5 37t20.5 46q0 12 -9 22t-27.5 19.5t-45 19.5t-62.5 20l24 100q49 -19 88.5 -32.5t71 -21.5t56 -12t43.5 -4q26 0 37.5 -14t11.5 -33q0 -21 -16 -36.5t-43 -15.5h-13.5h-13h-13.5q2 -9 3 -15t1 -15q0 -36 -25 -70.5t-73 -63
t-118.5 -46t-162.5 -17.5q-88 0 -158.5 26t-111.5 79t-41 135z" />
    <glyph glyph-name="uniFDF2" unicode="&#x627;&#xfedf;&#xfee0;&#xfeea;" horiz-adv-x="1339" arabic-form="isolated" 
d="M507 -5q-45 0 -82 9.5t-63.5 31t-40.5 58.5q-56 -13 -108.5 -10t-93.5 20.5t-65.5 50t-24.5 77.5q0 58 35 105t94.5 79t132.5 45l-3 76h98l17 -337q2 -45 15.5 -68t38 -30.5t60.5 -7.5q53 0 74.5 9.5t25.5 37t2 80.5l-13 374h100l13 -373q2 -51 15.5 -79.5t38 -39.5
t57.5 -11q53 0 75 10.5t25.5 38.5t1.5 80l-18 498h98l20 -495q2 -54 -3.5 -97t-27.5 -72.5t-65.5 -44.5t-115.5 -15q-35 0 -61 8.5t-44.5 24t-29.5 35.5q-22 -34 -64.5 -51t-113.5 -17zM304 187l-8 175q-54 -7 -92 -25.5t-58 -42.5t-20 -49q0 -21 17 -35t43.5 -20.5t57.5 -7
t60 4.5zM1179 0l-20 719h98l20 -719h-98zM574 644q-39 0 -52 26.5t-13 56.5q0 11 1.5 23.5t4.5 28.5l53 14q-3 -17 -4.5 -31.5t-1.5 -25.5q0 -17 6 -25.5t17 -8.5q14 0 23.5 15t10.5 60v30l51 18v-61q0 -13 5 -22.5t21 -9.5q17 0 22.5 10t5.5 26q0 17 -4 34.5t-11 34.5
l48 14q10 -19 16.5 -43.5t6.5 -44.5q0 -33 -18.5 -59.5t-58.5 -26.5q-30 0 -49.5 16.5t-19.5 39.5l23 -9q0 -34 -23.5 -57t-59.5 -23zM605 858l-6 175h66l6 -175h-66z" />
    <glyph glyph-name="uniFEF5" unicode="&#xfedf;&#xfe82;" horiz-adv-x="694" arabic-form="isolated" 
d="M393 536q0 25 -3 56.5t-7.5 62.5t-8.5 53l102 12q4 -20 7.5 -52.5t6 -65.5t2.5 -58q0 -49 -7.5 -94.5t-22.5 -88.5t-39 -83l-14 -22q-28 -43 -67 -82.5t-90 -75.5h108q34 0 52 7t24.5 19t6.5 26q0 25 -32 64t-88.5 87.5t-129 103t-153.5 109.5l55 78q99 -69 173 -126
t125 -103.5t82.5 -86t45.5 -73.5t14 -64q0 -25 -8 -49t-26.5 -44.5t-52 -33t-84.5 -12.5h-249v97q103 74 163.5 142.5t87.5 141t27 155.5zM199 644q-30 0 -54 10.5t-44 20.5t-37 10q-18 0 -32.5 -9t-30.5 -25l-41 36q24 30 50 46.5t54 16.5q25 0 46 -10t42.5 -20t46.5 -10
q16 0 30 5.5t34 17.5l30 -45q-33 -29 -55.5 -36.5t-38.5 -7.5z" />
    <glyph glyph-name="uniFEF6" unicode="&#xfee0;&#xfe82;" horiz-adv-x="680" arabic-form="final" 
d="M679 -5q-63 0 -103.5 10t-63.5 31.5t-32 54.5t-11 79l-21 549h100l20 -507q2 -48 9.5 -73.5t33 -35t78.5 -9.5q26 0 37.5 -14t11.5 -33q0 -21 -16 -36.5t-43 -15.5zM198 -5q-27 0 -54.5 4.5t-38.5 6.5l13 98q69 -9 131.5 -3t110 34t75 84t27.5 146l50 -131
q-12 -64 -37.5 -107.5t-59 -69.5t-71.5 -39.5t-75.5 -18t-70.5 -4.5zM415 132q-16 30 -44.5 71t-69.5 90t-92.5 102.5t-112.5 108.5l64 68q74 -70 127.5 -126t91 -101.5t62.5 -81.5t43 -67zM255 644q-30 0 -54 10.5t-44 20.5t-37 10q-18 0 -32.5 -9t-30.5 -25l-41 36
q24 30 50 46.5t54 16.5q25 0 46 -10t42.5 -20t46.5 -10q16 0 30 5.5t34 17.5l30 -45q-33 -29 -55.5 -36.5t-38.5 -7.5z" />
    <glyph glyph-name="uniFEF7" unicode="&#xfedf;&#xfe84;" horiz-adv-x="606" arabic-form="isolated" 
d="M393 536q0 25 -3 56.5t-7.5 62.5t-8.5 53l102 12q4 -20 7.5 -52.5t6 -65.5t2.5 -58q0 -49 -7.5 -94.5t-22.5 -88.5t-39 -83l-14 -22q-28 -43 -67 -82.5t-90 -75.5h108q34 0 52 7t24.5 19t6.5 26q0 25 -32 64t-88.5 87.5t-129 103t-153.5 109.5l55 78q99 -69 173 -126
t125 -103.5t82.5 -86t45.5 -73.5t14 -64q0 -25 -8 -49t-26.5 -44.5t-52 -33t-84.5 -12.5h-249v97q103 74 163.5 142.5t87.5 141t27 155.5zM27 634l-13 59q29 6 45.5 10t36.5 9l-7 -22q-26 8 -49.5 34t-23.5 60q0 31 15 52t39 31t51 10q12 0 25 -2t24 -6l-8 -56
q-10 2 -19.5 4t-20.5 2q-20 0 -32.5 -9.5t-12.5 -24.5q0 -20 13 -34.5t30.5 -22.5t28.5 -8l-45 -5q27 7 50.5 14.5t42.5 14.5l18 -55q-25 -9 -57.5 -19.5t-66.5 -19.5t-64 -16z" />
    <glyph glyph-name="uniFEF8" unicode="&#xfee0;&#xfe84;" horiz-adv-x="623" arabic-form="final" 
d="M623 -5q-63 0 -103.5 10t-63.5 31.5t-32 54.5t-11 79l-21 549h100l20 -507q2 -48 9.5 -73.5t33 -35t78.5 -9.5q26 0 37.5 -14t11.5 -33q0 -21 -16 -36.5t-43 -15.5zM142 -5q-27 0 -54.5 4.5t-38.5 6.5l13 98q69 -9 131.5 -3t110 34t75 84t27.5 146l50 -131
q-12 -64 -37.5 -107.5t-59 -69.5t-71.5 -39.5t-75.5 -18t-70.5 -4.5zM359 132q-16 30 -44.5 71t-69.5 90t-92.5 102.5t-112.5 108.5l64 68q74 -70 127.5 -126t91 -101.5t62.5 -81.5t43 -67zM53 634l-13 59q29 6 45.5 10t36.5 9l-7 -22q-26 8 -49.5 34t-23.5 60q0 31 15 52
t39 31t51 10q12 0 25 -2t24 -6l-8 -56q-10 2 -19.5 4t-20.5 2q-20 0 -32.5 -9.5t-12.5 -24.5q0 -20 13 -34.5t30.5 -22.5t28.5 -8l-45 -5q27 7 50.5 14.5t42.5 14.5l18 -55q-25 -9 -57.5 -19.5t-66.5 -19.5t-64 -16z" />
    <glyph glyph-name="uniFEF9" unicode="&#xfedf;&#xfe88;" horiz-adv-x="597" arabic-form="isolated" 
d="M393 536q0 25 -3 56.5t-7.5 62.5t-8.5 53l102 12q4 -20 7.5 -52.5t6 -65.5t2.5 -58q0 -49 -7.5 -94.5t-22.5 -88.5t-39 -83l-14 -22q-28 -43 -67 -82.5t-90 -75.5h108q34 0 52 7t24.5 19t6.5 26q0 25 -32 64t-88.5 87.5t-129 103t-153.5 109.5l55 78q99 -69 173 -126
t125 -103.5t82.5 -86t45.5 -73.5t14 -64q0 -25 -8 -49t-26.5 -44.5t-52 -33t-84.5 -12.5h-249v97q103 74 163.5 142.5t87.5 141t27 155.5zM98 -305l-13 59q29 6 45.5 10t36.5 9l-7 -22q-26 8 -49.5 34t-23.5 60q0 31 15 52t39 31t51 10q12 0 25 -2t24 -6l-8 -56
q-10 2 -19.5 4t-20.5 2q-20 0 -32.5 -9.5t-12.5 -24.5q0 -20 13 -34.5t30.5 -22.5t28.5 -8l-45 -5q27 7 50.5 14.5t42.5 14.5l18 -55q-25 -9 -57.5 -19.5t-66.5 -19.5t-64 -16z" />
    <glyph glyph-name="uniFEFA" unicode="&#xfee0;&#xfe88;" horiz-adv-x="623" arabic-form="final" 
d="M623 -5q-63 0 -103.5 10t-63.5 31.5t-32 54.5t-11 79l-21 549h100l20 -507q2 -48 9.5 -73.5t33 -35t78.5 -9.5q26 0 37.5 -14t11.5 -33q0 -21 -16 -36.5t-43 -15.5zM142 -5q-27 0 -54.5 4.5t-38.5 6.5l13 98q69 -9 131.5 -3t110 34t75 84t27.5 146l50 -131
q-12 -64 -37.5 -107.5t-59 -69.5t-71.5 -39.5t-75.5 -18t-70.5 -4.5zM359 132q-16 30 -44.5 71t-69.5 90t-92.5 102.5t-112.5 108.5l64 68q74 -70 127.5 -126t91 -101.5t62.5 -81.5t43 -67zM98 -305l-13 59q29 6 45.5 10t36.5 9l-7 -22q-26 8 -49.5 34t-23.5 60q0 31 15 52
t39 31t51 10q12 0 25 -2t24 -6l-8 -56q-10 2 -19.5 4t-20.5 2q-20 0 -32.5 -9.5t-12.5 -24.5q0 -20 13 -34.5t30.5 -22.5t28.5 -8l-45 -5q27 7 50.5 14.5t42.5 14.5l18 -55q-25 -9 -57.5 -19.5t-66.5 -19.5t-64 -16z" />
    <glyph glyph-name="uniFEFB" unicode="&#xfedf;&#xfe8e;" horiz-adv-x="597" arabic-form="isolated" 
d="M393 536q0 25 -3 56.5t-7.5 62.5t-8.5 53l102 12q4 -20 7.5 -52.5t6 -65.5t2.5 -58q0 -49 -7.5 -94.5t-22.5 -88.5t-39 -83l-14 -22q-28 -43 -67 -82.5t-90 -75.5h108q34 0 52 7t24.5 19t6.5 26q0 25 -32 64t-88.5 87.5t-129 103t-153.5 109.5l55 78q99 -69 173 -126
t125 -103.5t82.5 -86t45.5 -73.5t14 -64q0 -25 -8 -49t-26.5 -44.5t-52 -33t-84.5 -12.5h-249v97q103 74 163.5 142.5t87.5 141t27 155.5z" />
    <glyph glyph-name="uniFEFC" unicode="&#xfee0;&#xfe8e;" horiz-adv-x="623" arabic-form="final" 
d="M623 -5q-63 0 -103.5 10t-63.5 31.5t-32 54.5t-11 79l-21 549h100l20 -507q2 -48 9.5 -73.5t33 -35t78.5 -9.5q26 0 37.5 -14t11.5 -33q0 -21 -16 -36.5t-43 -15.5zM142 -5q-27 0 -54.5 4.5t-38.5 6.5l13 98q69 -9 131.5 -3t110 34t75 84t27.5 146l50 -131
q-12 -64 -37.5 -107.5t-59 -69.5t-71.5 -39.5t-75.5 -18t-70.5 -4.5zM359 132q-16 30 -44.5 71t-69.5 90t-92.5 102.5t-112.5 108.5l64 68q74 -70 127.5 -126t91 -101.5t62.5 -81.5t43 -67z" />
    <glyph glyph-name="lam_alefMaksura_meemar" unicode="&#xfedf;&#xfbe9;&#xfee2;" horiz-adv-x="1145" 
d="M874 -5l9 99q54 0 76 10.5t26 38t2 78.5l-19 498h99l20 -495q2 -54 -4 -97t-27.5 -72.5t-65 -44.5t-116.5 -15zM591 -5l10 99q48 0 75.5 6t40 24t12.5 53q0 26 -7.5 62t-20.5 75.5t-27 77.5l98 32q13 -33 24.5 -75t19.5 -84t8 -77q0 -44 -10 -76.5t-29.5 -55t-48 -36
t-65 -19.5t-80.5 -6zM78 -393q-21 78 -36 151.5t-23 132t-8 90.5q0 78 25.5 141.5t66 111.5t87 80.5t90 49t74.5 16.5q28 0 48.5 -13.5t38.5 -46.5t39 -92q20 -56 37.5 -84.5t37.5 -39t46 -10.5t37.5 -14t11.5 -33q0 -21 -16 -36.5t-43 -15.5q-42 0 -72 14.5t-53 41.5l24 22
q-11 -30 -28.5 -50t-41 -30.5t-51.5 -10.5q-31 0 -62.5 10.5t-62 30.5t-58 50t-49.5 68l18 1q-26 -37 -35 -81.5t-9 -81.5q0 -29 5.5 -72.5t15 -92t21 -96.5t21.5 -87zM374 81q18 0 29.5 7t15.5 20t-3 32q-12 33 -21.5 58.5t-19 42.5t-19 25.5t-19.5 8.5q-12 0 -29 -6
t-36 -16.5t-36 -24.5t-30 -30l-2 15q20 -42 50 -72t61.5 -45t58.5 -15z" />
    <glyph glyph-name="lam_alefWaslaar" unicode="&#xfedf;&#xfb51;" horiz-adv-x="528" 
d="M151 661q-22 0 -52.5 2t-57.5 5.5t-41 5.5l7 55q15 -2 40 -5t53 -5t51 -2q57 0 74 13t17 32t-11.5 28t-26.5 9q-16 0 -31.5 -10t-30 -29.5t-28.5 -46.5l-61 1q14 31 35 64.5t51 56t69 22.5q35 0 64 -21.5t29 -68.5q0 -26 -12.5 -50.5t-44.5 -40t-93 -15.5zM393 536
q0 25 -3 56.5t-7.5 62.5t-8.5 53l102 12q4 -20 7.5 -52.5t6 -65.5t2.5 -58q0 -49 -7.5 -94.5t-22.5 -88.5t-39 -83l-14 -22q-28 -43 -67 -82.5t-90 -75.5h108q34 0 52 7t24.5 19t6.5 26q0 25 -32 64t-88.5 87.5t-129 103t-153.5 109.5l55 78q99 -69 173 -126t125 -103.5
t82.5 -86t45.5 -73.5t14 -64q0 -25 -8 -49t-26.5 -44.5t-52 -33t-84.5 -12.5h-249v97q103 74 163.5 142.5t87.5 141t27 155.5z" />
    <glyph glyph-name="lam_alefWaslaar.fina" unicode="&#xfee0;&#xfb51;" horiz-adv-x="675" 
d="M151 661q-22 0 -52.5 2t-57.5 5.5t-41 5.5l7 55q15 -2 40 -5t53 -5t51 -2q57 0 74 13t17 32t-11.5 28t-26.5 9q-16 0 -31.5 -10t-30 -29.5t-28.5 -46.5l-61 1q14 31 35 64.5t51 56t69 22.5q35 0 64 -21.5t29 -68.5q0 -26 -12.5 -50.5t-44.5 -40t-93 -15.5zM623 -5
q-63 0 -103.5 10t-63.5 31.5t-32 54.5t-11 79l-21 549h100l20 -507q2 -48 9.5 -73.5t33 -35t78.5 -9.5q26 0 37.5 -14t11.5 -33q0 -21 -16 -36.5t-43 -15.5zM142 -5q-27 0 -54.5 4.5t-38.5 6.5l13 98q69 -9 131.5 -3t110 34t75 84t27.5 146l50 -131q-12 -64 -37.5 -107.5
t-59 -69.5t-71.5 -39.5t-75.5 -18t-70.5 -4.5zM359 132q-16 30 -44.5 71t-69.5 90t-92.5 102.5t-112.5 108.5l64 68q74 -70 127.5 -126t91 -101.5t62.5 -81.5t43 -67z" />
    <glyph glyph-name="uni0620.init" unicode="&#x620;" horiz-adv-x="317" 
d="M0 -5l10 99q59 0 92 5t46.5 23t13.5 55q0 26 -8 62t-20.5 75.5t-26.5 77.5l97 32q13 -33 25 -75t20 -84t8 -77q0 -55 -16 -92t-48.5 -59.5t-80.5 -32t-112 -9.5zM137 -122q-38 0 -65 27t-27 65t27 65.5t65 27.5t65 -27.5t27 -65.5t-27 -65t-65 -27zM137 -67q17 0 28.5 11
t11.5 26q0 17 -11.5 28t-28.5 11q-16 0 -28 -11t-12 -28q0 -15 12 -26t28 -11z" />
    <glyph glyph-name="uni0620.medi" unicode="&#x620;" horiz-adv-x="384" 
d="M0 -5l10 99q46 0 73.5 7.5t43 29t25.5 62.5t22 109l94 -17q-4 -18 -8.5 -39t-7.5 -42.5t-3 -37.5t3.5 -29.5t17 -22.5t43 -14.5t81.5 -5.5q26 0 37 -14t11 -33q0 -21 -15.5 -36.5t-42.5 -15.5q-57 0 -93 6.5t-57 20.5t-31 36t-14 52l35 -1q-16 -37 -37.5 -59.5t-48 -34.5
t-61 -16t-77.5 -4zM116 -125q-38 0 -65 27t-27 65t27 65t65 27t65 -27t27 -65t-27 -65t-65 -27zM116 -70q17 0 28.5 10.5t11.5 26.5q0 17 -11.5 27.5t-28.5 10.5t-28.5 -11t-11.5 -27t11.5 -26.5t28.5 -10.5z" />
    <glyph glyph-name="uni0620.fina" unicode="&#x620;" horiz-adv-x="755" 
d="M339 -362q-38 0 -65 27t-27 65t27 65t65 27t65.5 -27t27.5 -65t-27.5 -65t-65.5 -27zM339 -307q17 0 28.5 10.5t11.5 26.5t-11.5 27t-28.5 11q-16 0 -28 -11t-12 -27t12 -26.5t28 -10.5zM29 8q0 23 4.5 51.5t14 62.5t26.5 73l87 -32q-10 -29 -18 -54t-11.5 -47t-3.5 -42
q0 -40 17.5 -68.5t49 -47.5t73 -28t91.5 -9q57 0 105.5 8.5t84.5 24.5t56.5 37t20.5 46q0 12 -9 22t-27.5 19.5t-45 19.5t-62.5 20l24 100q49 -19 88.5 -32.5t71 -21.5t56 -12t43.5 -4q26 0 37.5 -14t11.5 -33q0 -21 -16 -36.5t-43 -15.5h-13.5h-13h-13.5q2 -9 3 -15t1 -15
q0 -36 -25 -70.5t-73 -63t-118.5 -46t-162.5 -17.5q-88 0 -158.5 26t-111.5 79t-41 135z" />
    <glyph glyph-name="uni063B.init" unicode="&#x63b;" horiz-adv-x="424" 
d="M253 728q-21 0 -36 15t-15 35t15 35.5t36 15.5q20 0 34.5 -15.5t14.5 -35.5t-14.5 -35t-34.5 -15zM139 673q-22 0 -36.5 14.5t-14.5 34.5q0 21 14.5 36t36.5 15q20 0 34.5 -15t14.5 -36q0 -20 -14.5 -34.5t-34.5 -14.5zM0 -5l10 99h108q48 0 77 5.5t44 14.5t20 20.5
t5 24.5q0 19 -16 51t-66 81q-26 26 -53 49t-50.5 42.5t-38 33t-14.5 20.5q0 15 2.5 30.5t7 28t11.5 19.5q19 20 51.5 41t76 45t98.5 51t120 58l41 -88q-73 -34 -125 -59.5t-90.5 -46t-69 -39.5t-58.5 -40l14 49q70 -55 119 -101.5t79.5 -87t45 -77t14.5 -71.5
q0 -23 -9 -49.5t-36 -50t-79.5 -38.5t-138.5 -15h-100z" />
    <glyph glyph-name="uni063B.medi" unicode="&#x63b;" horiz-adv-x="508" 
d="M229 728q-21 0 -35.5 14.5t-14.5 34.5q0 21 14.5 36t35.5 15t35.5 -15t14.5 -36q0 -20 -14.5 -34.5t-35.5 -14.5zM115 672q-21 0 -35.5 14.5t-14.5 35.5q0 20 14.5 35t35.5 15t35.5 -15t14.5 -35q0 -21 -14.5 -35.5t-35.5 -14.5zM0 -5l10 99h96q68 0 102 7.5t44.5 20.5
t10.5 28q0 22 -17 49.5t-44 57t-57 58.5t-57 53.5t-44.5 42.5t-17.5 26q0 19 3 33.5t7.5 26t11.5 18.5q19 20 54 43t81 47.5t99.5 50.5t110.5 53l41 -88q-54 -26 -103 -49.5t-92.5 -46t-80.5 -44t-67 -43.5l7 46q44 -38 83 -72.5t73 -70t63.5 -75.5t56.5 -88
q21 -37 47.5 -55t52.5 -23.5t44 -5.5q26 0 37.5 -14t11.5 -33q0 -21 -16 -36.5t-43 -15.5q-29 0 -66 9.5t-71.5 34.5t-55.5 75l37 -10q-15 -29 -35 -49t-49 -33.5t-70 -20t-98 -6.5h-100z" />
    <glyph glyph-name="uni063B.fina" unicode="&#x63b;" horiz-adv-x="968" 
d="M715 728q-21 0 -35.5 15t-14.5 35t14.5 35.5t35.5 15.5t35.5 -15.5t14.5 -35.5t-14.5 -35t-35.5 -15zM601 673q-21 0 -35.5 14.5t-14.5 34.5q0 21 14.5 36t35.5 15q20 0 35 -15t15 -36q0 -20 -15 -34.5t-35 -14.5zM400 -21l26 99q87 0 145 6t91 16.5t47.5 23t14.5 25.5
q0 22 -17.5 50t-44.5 57t-57 58t-57 53.5t-44.5 42.5t-17.5 26q0 19 3 33.5t7.5 26t11.5 18.5q26 27 78.5 58.5t122 65.5t144.5 70l41 -88q-71 -34 -134.5 -65t-116 -59.5t-92.5 -58.5l7 46q45 -38 83.5 -72.5t72.5 -70t64 -75t56 -88.5q15 -28 34.5 -44.5t39.5 -25
t38.5 -11t31.5 -2.5q26 0 37.5 -14t11.5 -34q0 -21 -16 -36t-43 -15q-29 0 -66 9t-71.5 34t-55.5 75l37 -10q-16 -31 -42 -54t-71.5 -38.5t-118 -23.5t-180.5 -8zM400 -21q-95 0 -164.5 13t-115 39t-67.5 65t-22 92q0 28 4 56t11.5 56t14.5 53l89 -21q-4 -16 -9 -37
t-8 -41.5t-3 -36.5q0 -48 26.5 -78.5t91 -45.5t178.5 -15l20 -67z" />
    <glyph glyph-name="uni063C.init" unicode="&#x63c;" horiz-adv-x="424" 
d="M0 -5l10 99h108q48 0 77 5.5t44 14.5t20 20.5t5 24.5q0 19 -16 51t-66 81q-26 26 -53 49t-50.5 42.5t-38 33t-14.5 20.5q0 15 2.5 30.5t7 28t11.5 19.5q19 20 51.5 41t76 45t98.5 51t120 58l41 -88q-73 -34 -125 -59.5t-90.5 -46t-69 -39.5t-58.5 -40l14 49
q70 -55 119 -101.5t79.5 -87t45 -77t14.5 -71.5q0 -23 -9 -49.5t-36 -50t-79.5 -38.5t-138.5 -15h-100zM174 -314q-23 0 -38.5 15.5t-15.5 36.5q0 22 15.5 38.5t38.5 16.5q21 0 36.5 -16.5t15.5 -38.5q0 -21 -15.5 -36.5t-36.5 -15.5zM103 -198q-22 0 -38 15.5t-16 37.5
t16 38t38 16t37.5 -16t15.5 -38t-15.5 -37.5t-37.5 -15.5zM245 -198q-22 0 -38 15.5t-16 37.5t16 38t38 16t37.5 -16t15.5 -38t-15.5 -37.5t-37.5 -15.5z" />
    <glyph glyph-name="uni063C.medi" unicode="&#x63c;" horiz-adv-x="508" 
d="M0 -5l10 99h96q68 0 102 7.5t44.5 20.5t10.5 28q0 22 -17 49.5t-44 57t-57 58.5t-57 53.5t-44.5 42.5t-17.5 26q0 19 3 33.5t7.5 26t11.5 18.5q19 20 54 43t81 47.5t99.5 50.5t110.5 53l41 -88q-54 -26 -103 -49.5t-92.5 -46t-80.5 -44t-67 -43.5l7 46q44 -38 83 -72.5
t73 -70t63.5 -75.5t56.5 -88q21 -37 47.5 -55t52.5 -23.5t44 -5.5q26 0 37.5 -14t11.5 -33q0 -21 -16 -36.5t-43 -15.5q-29 0 -66 9.5t-71.5 34.5t-55.5 75l37 -10q-15 -29 -35 -49t-49 -33.5t-70 -20t-98 -6.5h-100zM174 -314q-23 0 -38.5 15.5t-15.5 36.5q0 22 15.5 38.5
t38.5 16.5q21 0 36.5 -16.5t15.5 -38.5q0 -21 -15.5 -36.5t-36.5 -15.5zM103 -198q-22 0 -38 15.5t-16 37.5t16 38t38 16t37.5 -16t15.5 -38t-15.5 -37.5t-37.5 -15.5zM245 -198q-22 0 -38 15.5t-16 37.5t16 38t38 16t37.5 -16t15.5 -38t-15.5 -37.5t-37.5 -15.5z" />
    <glyph glyph-name="uni063C.fina" unicode="&#x63c;" horiz-adv-x="968" 
d="M400 -21l26 99q87 0 145 6t91 16.5t47.5 23t14.5 25.5q0 22 -17.5 50t-44.5 57t-57 58t-57 53.5t-44.5 42.5t-17.5 26q0 19 3 33.5t7.5 26t11.5 18.5q26 27 78.5 58.5t122 65.5t144.5 70l41 -88q-71 -34 -134.5 -65t-116 -59.5t-92.5 -58.5l7 46q45 -38 83.5 -72.5
t72.5 -70t64 -75t56 -88.5q15 -28 34.5 -44.5t39.5 -25t38.5 -11t31.5 -2.5q26 0 37.5 -14t11.5 -34q0 -21 -16 -36t-43 -15q-29 0 -66 9t-71.5 34t-55.5 75l37 -10q-16 -31 -42 -54t-71.5 -38.5t-118 -23.5t-180.5 -8zM400 -21q-95 0 -164.5 13t-115 39t-67.5 65t-22 92
q0 28 4 56t11.5 56t14.5 53l89 -21q-4 -16 -9 -37t-8 -41.5t-3 -36.5q0 -48 26.5 -78.5t91 -45.5t178.5 -15l20 -67zM421 -335q-23 0 -38.5 15.5t-15.5 36.5q0 22 15.5 38.5t38.5 16.5q21 0 36.5 -16.5t15.5 -38.5q0 -21 -15.5 -36.5t-36.5 -15.5zM350 -219q-22 0 -38 15.5
t-16 37.5t16 38t38 16t37.5 -16t15.5 -38t-15.5 -37.5t-37.5 -15.5zM492 -219q-22 0 -38 15.5t-16 37.5t16 38t38 16t37.5 -16t15.5 -38t-15.5 -37.5t-37.5 -15.5z" />
    <glyph glyph-name="uni063D.init" unicode="&#x63d;" horiz-adv-x="283" 
d="M0 -5l10 99q48 0 75.5 6t40 24t12.5 53q0 26 -7.5 62t-20.5 75.5t-27 77.5l98 32q13 -33 24.5 -75t19.5 -84t8 -77q0 -44 -10 -76.5t-29.5 -55t-48 -36t-65 -19.5t-80.5 -6zM157 745q7 -15 17.5 -38t23.5 -48t25.5 -48.5t21.5 -39.5l-49 -27q-7 10 -18 30t-23 43t-23 45
l-18 36l-20 41zM94 739l48 -18q-7 -17 -18 -43.5t-24 -55t-23 -50.5t-15 -30l-49 20q5 10 16 32.5t23.5 50t24 53t17.5 41.5zM189 -207q-23 0 -39.5 16.5t-16.5 38.5q0 23 16.5 39.5t39.5 16.5t39 -16.5t16 -39.5q0 -22 -16 -38.5t-39 -16.5zM42 -207q-24 0 -40 16.5
t-16 38.5q0 23 16 39.5t40 16.5q22 0 38 -16.5t16 -39.5q0 -22 -16 -38.5t-38 -16.5z" />
    <glyph glyph-name="uni063D.medi" unicode="&#x63d;" horiz-adv-x="355" 
d="M0 -5l10 99q41 0 64.5 7.5t36.5 29t22 62.5t21 109l94 -17q-4 -18 -8.5 -39t-7.5 -42.5t-3 -37.5q0 -22 9.5 -38t38.5 -25t88 -9q26 0 37.5 -14t11.5 -33q0 -21 -16 -36.5t-43 -15.5q-66 0 -105 12t-57 37.5t-24 65.5l35 -1q-16 -37 -36.5 -59.5t-44.5 -34.5t-54.5 -16
t-68.5 -4zM195 627q7 -15 17.5 -38t23.5 -48t25.5 -48.5t21.5 -39.5l-49 -27q-7 10 -18 30t-23 43t-23 45l-18 36l-20 41zM132 621l48 -18q-7 -17 -18 -43.5t-24 -55t-23 -50.5t-15 -30l-49 20q5 10 16 32.5t23.5 50t24 53t17.5 41.5zM250 -207q-23 0 -39.5 16.5t-16.5 38.5
q0 23 16.5 39.5t39.5 16.5t39 -16.5t16 -39.5q0 -22 -16 -38.5t-39 -16.5zM103 -207q-24 0 -40 16.5t-16 38.5q0 23 16 39.5t40 16.5q22 0 38 -16.5t16 -39.5q0 -22 -16 -38.5t-38 -16.5z" />
    <glyph glyph-name="uni063D.fina" unicode="&#x63d;" horiz-adv-x="755" 
d="M29 8q0 23 4.5 51.5t14 62.5t26.5 73l87 -32q-10 -29 -18 -54t-11.5 -47t-3.5 -42q0 -40 17.5 -68.5t49 -47.5t73 -28t91.5 -9q57 0 105.5 8.5t84.5 24.5t56.5 37t20.5 46q0 12 -9 22t-27.5 19.5t-45 19.5t-62.5 20l24 100q49 -19 88.5 -32.5t71 -21.5t56 -12t43.5 -4
q26 0 37.5 -14t11.5 -33q0 -21 -16 -36.5t-43 -15.5h-13.5h-13h-13.5q2 -9 3 -15t1 -15q0 -36 -25 -70.5t-73 -63t-118.5 -46t-162.5 -17.5q-88 0 -158.5 26t-111.5 79t-41 135zM245 492q7 -15 17.5 -38t23.5 -48t25.5 -48.5t21.5 -39.5l-49 -27q-7 10 -18 30t-23 43t-23 45
l-18 36l-20 41zM182 486l48 -18q-7 -17 -18 -43.5t-24 -55t-23 -50.5t-15 -30l-49 20q5 10 16 32.5t23.5 50t24 53t17.5 41.5z" />
    <glyph glyph-name="uni063E.init" unicode="&#x63e;" horiz-adv-x="317" 
d="M0 -5l10 99q59 0 92 5t46.5 23t13.5 55q0 26 -8 62t-20.5 75.5t-26.5 77.5l97 32q13 -33 25 -75t20 -84t8 -77q0 -55 -16 -92t-48.5 -59.5t-80.5 -32t-112 -9.5zM234 521q-24 0 -40 16.5t-16 38.5q0 23 16 39.5t40 16.5q22 0 38 -16.5t16 -39.5q0 -22 -16 -38.5
t-38 -16.5zM86 521q-23 0 -39.5 16.5t-16.5 38.5q0 23 16.5 40t39.5 17q22 0 38.5 -17t16.5 -40q0 -22 -16.5 -38.5t-38.5 -16.5zM203 -207q-23 0 -39.5 16.5t-16.5 38.5q0 23 16.5 39.5t39.5 16.5t39 -16.5t16 -39.5q0 -22 -16 -38.5t-39 -16.5zM56 -207q-24 0 -40 16.5
t-16 38.5q0 23 16 39.5t40 16.5q22 0 38 -16.5t16 -39.5q0 -22 -16 -38.5t-38 -16.5z" />
    <glyph glyph-name="uni063E.medi" unicode="&#x63e;" horiz-adv-x="384" 
d="M0 -5l10 99q46 0 73.5 7.5t43 29t25.5 62.5t22 109l94 -17q-4 -18 -8.5 -39t-7.5 -42.5t-3 -37.5t3.5 -29.5t17 -22.5t43 -14.5t81.5 -5.5q26 0 37 -14t11 -33q0 -21 -15.5 -36.5t-42.5 -15.5q-57 0 -93 6.5t-57 20.5t-31 36t-14 52l35 -1q-16 -37 -37.5 -59.5t-48 -34.5
t-61 -16t-77.5 -4zM283 401q-23 0 -39.5 16t-16.5 39q0 22 16 39t40 17q22 0 38.5 -17t16.5 -39q0 -23 -16.5 -39t-38.5 -16zM135 401q-23 0 -39.5 16.5t-16.5 38.5t16.5 39t39.5 17t39 -17t16 -39t-16 -38.5t-39 -16.5zM260 -207q-23 0 -39.5 16.5t-16.5 38.5q0 23 16 39.5
t40 16.5q22 0 38.5 -16.5t16.5 -39.5q0 -22 -16.5 -38.5t-38.5 -16.5zM112 -207q-23 0 -39.5 16.5t-16.5 38.5q0 23 16.5 39.5t39.5 16.5t39 -16.5t16 -39.5q0 -22 -16 -38.5t-39 -16.5z" />
    <glyph glyph-name="uni063E.fina" unicode="&#x63e;" horiz-adv-x="755" 
d="M29 8q0 23 4.5 51.5t14 62.5t26.5 73l87 -32q-10 -29 -18 -54t-11.5 -47t-3.5 -42q0 -40 17.5 -68.5t49 -47.5t73 -28t91.5 -9q57 0 105.5 8.5t84.5 24.5t56.5 37t20.5 46q0 12 -9 22t-27.5 19.5t-45 19.5t-62.5 20l24 100q49 -19 88.5 -32.5t71 -21.5t56 -12t43.5 -4
q26 0 37.5 -14t11.5 -33q0 -21 -16 -36.5t-43 -15.5h-13.5h-13h-13.5q2 -9 3 -15t1 -15q0 -36 -25 -70.5t-73 -63t-118.5 -46t-162.5 -17.5q-88 0 -158.5 26t-111.5 79t-41 135zM301 282q-23 0 -39.5 16t-16.5 39q0 22 16.5 39t39.5 17q22 0 38.5 -17t16.5 -39
q0 -23 -16.5 -39t-38.5 -16zM154 282q-24 0 -40 16.5t-16 38.5q0 23 16 39.5t39 16.5t39 -16.5t16 -39.5q0 -22 -16 -38.5t-38 -16.5z" />
    <glyph glyph-name="uni063F.init" unicode="&#x63f;" horiz-adv-x="317" 
d="M0 -5l10 99q59 0 92 5t46.5 23t13.5 55q0 26 -8 62t-20.5 75.5t-26.5 77.5l97 32q13 -33 25 -75t20 -84t8 -77q0 -55 -16 -92t-48.5 -59.5t-80.5 -32t-112 -9.5zM162 638q-22 0 -37.5 16t-15.5 38q0 21 15.5 37t37.5 16t37.5 -16t15.5 -37q0 -22 -15.5 -38t-37.5 -16z
M91 522q-23 0 -38.5 15.5t-15.5 37.5t15.5 38t38.5 16q21 0 36.5 -16t15.5 -38t-15.5 -37.5t-36.5 -15.5zM232 522q-22 0 -37.5 15.5t-15.5 37.5t15.5 38t37.5 16t37.5 -16t15.5 -38t-15.5 -37.5t-37.5 -15.5zM203 -207q-23 0 -39.5 16.5t-16.5 38.5q0 23 16.5 39.5
t39.5 16.5t39 -16.5t16 -39.5q0 -22 -16 -38.5t-39 -16.5zM56 -207q-24 0 -40 16.5t-16 38.5q0 23 16 39.5t40 16.5q22 0 38 -16.5t16 -39.5q0 -22 -16 -38.5t-38 -16.5z" />
    <glyph glyph-name="uni063F.medi" unicode="&#x63f;" horiz-adv-x="384" 
d="M0 -5l10 99q46 0 73.5 7.5t43 29t25.5 62.5t22 109l94 -17q-4 -18 -8.5 -39t-7.5 -42.5t-3 -37.5t3.5 -29.5t17 -22.5t43 -14.5t81.5 -5.5q26 0 37 -14t11 -33q0 -21 -15.5 -36.5t-42.5 -15.5q-57 0 -93 6.5t-57 20.5t-31 36t-14 52l35 -1q-16 -37 -37.5 -59.5t-48 -34.5
t-61 -16t-77.5 -4zM211 518q-22 0 -37.5 15.5t-15.5 37.5t15.5 38t37.5 16t37.5 -16t15.5 -38t-15.5 -37.5t-37.5 -15.5zM140 401q-22 0 -38 16t-16 38t16 37.5t38 15.5t37.5 -15.5t15.5 -37.5t-15.5 -38t-37.5 -16zM281 401q-22 0 -37.5 16t-15.5 38t15.5 37.5t37.5 15.5
t37.5 -15.5t15.5 -37.5t-15.5 -38t-37.5 -16zM260 -207q-23 0 -39.5 16.5t-16.5 38.5q0 23 16.5 39.5t39.5 16.5q22 0 38.5 -16.5t16.5 -39.5q0 -22 -16.5 -38.5t-38.5 -16.5zM112 -207q-23 0 -39.5 16.5t-16.5 38.5q0 23 16.5 39.5t39.5 16.5t39 -16.5t16 -39.5
q0 -22 -16 -38.5t-39 -16.5z" />
    <glyph glyph-name="uni063F.fina" unicode="&#x63f;" horiz-adv-x="755" 
d="M29 8q0 23 4.5 51.5t14 62.5t26.5 73l87 -32q-10 -29 -18 -54t-11.5 -47t-3.5 -42q0 -40 17.5 -68.5t49 -47.5t73 -28t91.5 -9q57 0 105.5 8.5t84.5 24.5t56.5 37t20.5 46q0 12 -9 22t-27.5 19.5t-45 19.5t-62.5 20l24 100q49 -19 88.5 -32.5t71 -21.5t56 -12t43.5 -4
q26 0 37.5 -14t11.5 -33q0 -21 -16 -36.5t-43 -15.5h-13.5h-13h-13.5q2 -9 3 -15t1 -15q0 -36 -25 -70.5t-73 -63t-118.5 -46t-162.5 -17.5q-88 0 -158.5 26t-111.5 79t-41 135zM224 385q-22 0 -37.5 16t-15.5 37q0 22 15.5 38t37.5 16t37.5 -16t15.5 -38q0 -21 -15.5 -37
t-37.5 -16zM153 269q-22 0 -38 15.5t-16 37.5t16 37.5t38 15.5t37.5 -15.5t15.5 -37.5t-15.5 -37.5t-37.5 -15.5zM295 269q-23 0 -38.5 15.5t-15.5 37.5t15.5 37.5t38.5 15.5q21 0 36.5 -15.5t15.5 -37.5t-15.5 -37.5t-36.5 -15.5z" />
    <glyph glyph-name="uni066E.init" unicode="&#x66e;" horiz-adv-x="283" 
d="M0 -5l10 99q48 0 75.5 6t40 24t12.5 53q0 26 -7.5 62t-20.5 75.5t-27 77.5l98 32q13 -33 24.5 -75t19.5 -84t8 -77q0 -44 -10 -76.5t-29.5 -55t-48 -36t-65 -19.5t-80.5 -6z" />
    <glyph glyph-name="uni066E.medi" unicode="&#x66e;" horiz-adv-x="355" 
d="M0 -5l10 99q41 0 64.5 7.5t36.5 29t22 62.5t21 109l94 -17q-4 -18 -8.5 -39t-7.5 -42.5t-3 -37.5q0 -22 9.5 -38t38.5 -25t88 -9q26 0 37.5 -14t11.5 -33q0 -21 -16 -36.5t-43 -15.5q-66 0 -105 12t-57 37.5t-24 65.5l35 -1q-16 -37 -36.5 -59.5t-44.5 -34.5t-54.5 -16
t-68.5 -4z" />
    <glyph glyph-name="uni066E.fina" unicode="&#x66e;" horiz-adv-x="1107" 
d="M400 -21l26 99q65 0 132.5 7.5t133 27.5t124 56t103.5 93l77 -41q-8 -22 -11 -36.5t-3 -25.5q0 -18 11 -32.5t41 -23.5t83 -9q26 0 37.5 -14t11.5 -33q0 -21 -16 -36.5t-43 -15.5q-65 0 -114 15t-74 46t-21 78l25 -6q-39 -38 -94 -66t-122.5 -46.5t-145 -27.5t-161.5 -9z
M400 -21q-95 0 -164.5 13t-115 39t-67.5 65t-22 92q0 28 4 56t11.5 56t14.5 53l89 -21q-4 -16 -9 -37t-8 -41.5t-3 -36.5q0 -48 26.5 -78.5t91 -45.5t178.5 -15l20 -67z" />
    <glyph glyph-name="uni066F.init" unicode="&#x66f;" horiz-adv-x="464" 
d="M0 -5l10 99q42 0 78.5 0.5t67 2.5t53.5 6t39 10q29 12 45.5 30.5t24 49t7.5 77.5q0 44 -10 79.5t-29 56t-45 20.5q-21 0 -38 -15.5t-27 -40t-10 -50.5q0 -18 8 -31.5t26.5 -21t47.5 -7.5q27 0 55 5.5t49 15.5l4 -84q-16 -11 -36 -18.5t-42.5 -11t-45.5 -3.5
q-51 0 -87.5 16t-56 45.5t-19.5 72.5q0 40 13 80t37 73t57 53t73 20q58 0 96.5 -36t57 -95.5t18.5 -128.5q0 -73 -24 -126.5t-75 -86.5q-23 -17 -55 -28t-72.5 -17.5t-89 -8.5t-105.5 -2z" />
    <glyph glyph-name="uni066F.medi" unicode="&#x66f;" horiz-adv-x="505" 
d="M0 -5l10 99q29 0 57.5 0.5t54.5 3.5t49 6.5t41 8.5q34 11 62 28.5t45 41.5t17 55q0 21 -10 44t-27.5 38.5t-40.5 15.5t-41.5 -14.5t-30 -38t-11.5 -49.5q0 -29 14.5 -52.5t36.5 -41t47 -29.5l-106 -35q-18 15 -39 37t-36.5 53.5t-15.5 71.5q0 42 15.5 77.5t42 62t59.5 41
t68 14.5q52 0 91 -27t60.5 -69.5t21.5 -90.5q0 -44 -16.5 -80t-44.5 -63.5t-64.5 -47.5t-76.5 -33q-22 -7 -48.5 -12t-57 -8.5t-62.5 -5t-64 -1.5zM505 -5q-53 0 -107 6.5t-101.5 17.5t-79.5 25l69 67q30 -5 70.5 -9t82.5 -6t76 -2q26 0 37.5 -14t11.5 -33q0 -21 -16 -36.5
t-43 -15.5z" />
    <glyph glyph-name="uni066F.fina" unicode="&#x66f;" horiz-adv-x="822" 
d="M333 -272q-62 0 -117 14t-97 43t-66 75t-24 110q0 18 3.5 46t15.5 67t38 89l87 -38q-15 -33 -24.5 -58t-13.5 -46t-4 -42q0 -57 29.5 -92t80 -51t114.5 -16q46 0 85 6.5t71 19.5t56.5 30t41 37.5t23.5 44.5q10 28 14.5 63t4.5 59q0 52 -11 88t-30 55t-42 19
q-16 0 -29.5 -9t-23.5 -23.5t-16 -32.5t-6 -37q0 -17 7.5 -28t23.5 -17.5t43.5 -9t67.5 -0.5h197q26 0 37.5 -13.5t11.5 -33.5q0 -21 -16 -36.5t-43 -15.5h-241q-40 0 -73.5 8t-58.5 24.5t-38.5 42.5t-14.5 61q-1 39 13 78t38.5 70.5t57.5 50t69 18.5q52 0 91.5 -30t62 -91
t22.5 -153q0 -33 -11.5 -80.5t-31.5 -90.5q-25 -46 -62 -79.5t-85.5 -55t-105 -31t-121.5 -9.5z" />
    <glyph glyph-name="uni0672.fina" unicode="&#x672;" horiz-adv-x="297" 
d="M297 -5q-84 0 -128.5 18.5t-62 57t-20.5 99.5l-18 479h99l19 -437q2 -48 9.5 -73.5t33 -35t78.5 -9.5q26 0 37.5 -14t11.5 -33q0 -21 -16 -36.5t-43 -15.5zM-25 723l-45 27q12 28 33 40.5t39 12.5q25 0 42.5 -11t33.5 -11q12 0 24 1t21 5l-12 -17q-26 10 -49 35.5
t-23 58.5q0 45 31.5 68.5t73.5 23.5q12 0 25 -2t24 -6l-8 -53q-10 2 -19 4t-20 2q-22 0 -35 -9t-13 -26q0 -21 13.5 -36t30.5 -23t28 -8l-36 -8q27 7 48 15.5t40 15.5l17 -52q-8 -4 -26.5 -11.5t-42 -15.5t-46.5 -13.5t-41 -5.5q-27 0 -45.5 11t-31.5 11q-11 0 -17 -6
t-14 -17z" />
    <glyph glyph-name="uni0673.fina" unicode="&#x673;" horiz-adv-x="299" 
d="M299 -5q-84 0 -129 18.5t-62 57t-20 99.5l-20 549h99l21 -507q2 -48 9.5 -73.5t33 -35t78.5 -9.5q26 0 37.5 -14t11.5 -33q0 -21 -16 -36.5t-43 -15.5zM-8 -301l-45 28q12 28 33.5 40.5t39.5 12.5q25 0 42 -11t34 -11q12 0 23.5 1t20.5 5l-11 -18q-27 11 -49.5 36
t-22.5 58q0 45 31.5 69t72.5 24q12 0 25.5 -2t24.5 -6l-8 -53q-10 2 -19 4t-20 2q-23 0 -36 -9.5t-13 -25.5q0 -21 13.5 -36t31 -23.5t28.5 -8.5l-36 -8q27 7 47.5 15.5t39.5 15.5l17 -51q-8 -4 -26.5 -12t-41.5 -16t-46.5 -13.5t-41.5 -5.5q-27 0 -45 11t-32 11
q-10 0 -16.5 -6t-14.5 -17z" />
    <glyph glyph-name="uni0675.fina" unicode="&#x675;" horiz-adv-x="451" 
d="M451 -5h-154q-83 0 -127.5 18.5t-61.5 57.5t-20 99l-20 549h99l21 -507q2 -47 9.5 -72.5t32 -35.5t76.5 -10h155q26 0 37.5 -14t11.5 -33q0 -21 -16 -36.5t-43 -15.5zM234 578l-14 58q29 6 45.5 10t36.5 9l-7 -23q-26 8 -49.5 34t-23.5 60q0 31 15 52t38.5 31t50.5 10
q13 0 25.5 -2t23.5 -6l-8 -53q-10 2 -19 4t-21 2q-22 0 -34.5 -9.5t-12.5 -25.5q0 -21 13 -36t30.5 -23t28.5 -8l-42 -4q27 7 50.5 14.5t43.5 14.5l17 -55q-25 -9 -57.5 -19t-66.5 -19t-63 -16z" />
    <glyph glyph-name="uni0676.fina" unicode="&#x676;" horiz-adv-x="487" 
d="M58 -230l-22 99q64 8 115 22t87.5 39.5t56 68t19.5 107.5t-23 107t-60 42q-21 0 -38 -15.5t-27 -40.5t-10 -52q0 -15 7 -26t23 -17.5t44 -9t69 -0.5h198q26 0 37.5 -14t11.5 -33q0 -21 -16 -36.5t-43 -15.5h-250q-50 0 -90.5 13.5t-64 43t-23.5 77.5q0 43 13.5 83.5
t38 73t57 51.5t70.5 19q50 0 89 -29.5t61 -86t22 -136.5q0 -99 -40.5 -170t-119 -112t-192.5 -52zM302 399l-13 59q29 6 45.5 10t36.5 9l-7 -22q-26 8 -49.5 34t-23.5 60q0 31 15 52t39 31t51 10q12 0 25 -2t24 -6l-8 -56q-10 2 -19.5 4t-20.5 2q-20 0 -32.5 -9.5
t-12.5 -24.5q0 -20 13 -34.5t30.5 -22.5t28.5 -8l-45 -5q27 7 50.5 14.5t42.5 14.5l18 -55q-25 -9 -57.5 -19.5t-66.5 -19.5t-64 -16z" />
    <glyph glyph-name="uni0677.fina" unicode="&#x677;" horiz-adv-x="529" 
d="M100 -230l-22 99q64 8 115 22t87.5 39.5t56 68t19.5 107.5t-23 107t-60 42q-21 0 -38 -15.5t-27 -40.5t-10 -52q0 -15 7 -26t23 -17.5t44 -9t69 -0.5h198q26 0 37.5 -14t11.5 -33q0 -21 -16 -36.5t-43 -15.5h-250q-50 0 -90.5 13.5t-64 43t-23.5 77.5q0 43 13.5 83.5
t38 73t57 51.5t70.5 19q50 0 89 -29.5t61 -86t22 -136.5q0 -99 -40.5 -170t-119 -112t-192.5 -52zM351 399l-13 59q29 6 45.5 10t36.5 9l-7 -22q-26 8 -49.5 34t-23.5 60q0 31 15 52t39 31t51 10q12 0 25 -2t24 -6l-8 -56q-10 2 -19.5 4t-20.5 2q-20 0 -32.5 -9.5
t-12.5 -24.5q0 -20 13 -34.5t30.5 -22.5t28.5 -8l-45 -5q27 7 50.5 14.5t42.5 14.5l18 -55q-25 -9 -57.5 -19.5t-66.5 -19.5t-64 -16zM37 397l-10 52q64 4 107.5 20t65.5 39t22 46q0 16 -8 28t-24 12q-14 0 -24 -10.5t-10 -25.5q0 -19 15.5 -35t38.5 -24l-34 -34
q-32 13 -54.5 36t-22.5 58q0 37 26 63t67 26q42 0 63.5 -28t21.5 -64q0 -45 -30.5 -79.5t-84.5 -55t-125 -24.5z" />
    <glyph glyph-name="uni0678.init" unicode="&#x678;" horiz-adv-x="350" 
d="M0 -5l10 99q48 0 75.5 6t40 24t12.5 53q0 26 -7.5 62t-20.5 75.5t-27 77.5l98 32q13 -33 24.5 -75t19.5 -84t8 -77q0 -44 -10 -76.5t-29.5 -55t-48 -36t-65 -19.5t-80.5 -6zM168 578l-13 58q29 6 45.5 10t36.5 9l-8 -23q-26 8 -49.5 34t-23.5 60q0 31 15 52t39 31t51 10
q12 0 25 -2t24 -6l-8 -53q-10 2 -19.5 4t-20.5 2q-23 0 -35.5 -9.5t-12.5 -25.5q0 -21 13.5 -36t30.5 -23t28 -8l-41 -4q27 7 50.5 14.5t42.5 14.5l17 -55q-24 -9 -57 -19t-66.5 -19t-63.5 -16z" />
    <glyph glyph-name="uni0678.medi" unicode="&#x678;" horiz-adv-x="355" 
d="M0 -5l10 99q41 0 64.5 7.5t36.5 29t22 62.5t21 109l94 -17q-4 -18 -8.5 -39t-7.5 -42.5t-3 -37.5q0 -22 9.5 -38t38.5 -25t88 -9q26 0 37.5 -14t11.5 -33q0 -21 -16 -36.5t-43 -15.5q-66 0 -105 12t-57 37.5t-24 65.5l35 -1q-16 -37 -36.5 -59.5t-44.5 -34.5t-54.5 -16
t-68.5 -4zM164 409l-13 58q29 6 45.5 10t36.5 9l-8 -23q-26 8 -49.5 34t-23.5 60q0 31 15 52t39 31t51 10q12 0 25 -2t24 -6l-8 -53q-10 2 -19.5 4t-20.5 2q-23 0 -35.5 -9.5t-12.5 -25.5q0 -21 13.5 -36t30.5 -23t28 -8l-41 -4q27 7 50.5 14.5t42.5 14.5l17 -55
q-24 -9 -57 -19t-66.5 -19t-63.5 -16z" />
    <glyph glyph-name="uni0678.fina" unicode="&#x678;" horiz-adv-x="755" 
d="M29 8q0 23 4.5 51.5t14 62.5t26.5 73l87 -32q-10 -29 -18 -54t-11.5 -47t-3.5 -42q0 -40 17.5 -68.5t49 -47.5t73 -28t91.5 -9q57 0 105.5 8.5t84.5 24.5t56.5 37t20.5 46q0 12 -9 22t-27.5 19.5t-45 19.5t-62.5 20l24 100q49 -19 88.5 -32.5t71 -21.5t56 -12t43.5 -4
q26 0 37.5 -14t11.5 -33q0 -21 -16 -36.5t-43 -15.5h-13.5h-13h-13.5q2 -9 3 -15t1 -15q0 -36 -25 -70.5t-73 -63t-118.5 -46t-162.5 -17.5q-88 0 -158.5 26t-111.5 79t-41 135zM517 224l-13 58q29 6 45.5 10t36.5 9l-8 -23q-26 8 -49.5 34t-23.5 60q0 31 15 52t39 31t51 10
q12 0 25 -2t24 -6l-8 -53q-10 2 -19.5 4t-20.5 2q-23 0 -35.5 -9.5t-12.5 -25.5q0 -21 13.5 -36t30.5 -23t28 -8l-41 -4q27 7 50.5 14.5t42.5 14.5l17 -55q-24 -9 -57 -19t-66.5 -19t-63.5 -16z" />
    <glyph glyph-name="uni067C.init" unicode="&#x67c;" horiz-adv-x="317" 
d="M0 -5l10 99q59 0 92 5t46.5 23t13.5 55q0 26 -8 62t-20.5 75.5t-26.5 77.5l97 32q13 -33 25 -75t20 -84t8 -77q0 -55 -16 -92t-48.5 -59.5t-80.5 -32t-112 -9.5zM137 -124q-38 0 -65 27t-27 66q0 38 27 65t65 27t65 -27t27 -65q0 -39 -26.5 -66t-65.5 -27zM137 -68
q17 0 28.5 10.5t11.5 26.5t-11.5 27t-28.5 11q-16 0 -28 -11t-12 -27t12 -26.5t28 -10.5zM234 521q-24 0 -40 16.5t-16 38.5q0 23 16 39.5t40 16.5q22 0 38 -16.5t16 -39.5q0 -22 -16 -38.5t-38 -16.5zM86 521q-23 0 -39.5 16.5t-16.5 38.5q0 23 16.5 40t39.5 17
q22 0 38.5 -17t16.5 -40q0 -22 -16.5 -38.5t-38.5 -16.5z" />
    <glyph glyph-name="uni067C.medi" unicode="&#x67c;" horiz-adv-x="355" 
d="M112 -123q-38 0 -65 27t-27 65t27 65t65 27t65 -27t27 -65t-27 -65t-65 -27zM112 -68q17 0 28.5 11t11.5 26q0 17 -11.5 28t-28.5 11t-28.5 -11t-11.5 -28q0 -15 12 -26t28 -11zM0 -5l10 99q41 0 64.5 7.5t36.5 29t22 62.5t21 109l94 -17q-4 -18 -8.5 -39t-7.5 -42.5
t-3 -37.5q0 -22 9.5 -38t38.5 -25t88 -9q26 0 37.5 -14t11.5 -33q0 -21 -16 -36.5t-43 -15.5q-66 0 -105 12t-57 37.5t-24 65.5l35 -1q-16 -37 -36.5 -59.5t-44.5 -34.5t-54.5 -16t-68.5 -4zM270 401q-23 0 -39.5 16t-16.5 39q0 22 16.5 39t39.5 17q22 0 38.5 -17t16.5 -39
q0 -23 -16.5 -39t-38.5 -16zM122 401q-23 0 -39.5 16.5t-16.5 38.5t16.5 39t39.5 17t39 -17t16 -39t-16 -38.5t-39 -16.5z" />
    <glyph glyph-name="uni067C.fina" unicode="&#x67c;" horiz-adv-x="1107" 
d="M527 -148q-38 0 -65 27t-27 65q0 39 27 66t65 27q39 0 66 -27t27 -66q0 -38 -27 -65t-66 -27zM527 -92q17 0 28.5 10.5t11.5 25.5q0 17 -11.5 28t-28.5 11q-16 0 -27.5 -11t-11.5 -28q0 -15 11.5 -25.5t27.5 -10.5zM400 -21l26 99q65 0 132.5 7.5t133 27.5t124 56
t103.5 93l77 -41q-8 -22 -11 -36.5t-3 -25.5q0 -18 11 -32.5t41 -23.5t83 -9q26 0 37.5 -14t11.5 -33q0 -21 -16 -36.5t-43 -15.5q-65 0 -114 15t-74 46t-21 78l25 -6q-39 -38 -94 -66t-122.5 -46.5t-145 -27.5t-161.5 -9zM400 -21q-95 0 -164.5 13t-115 39t-67.5 65t-22 92
q0 28 4 56t11.5 56t14.5 53l89 -21q-4 -16 -9 -37t-8 -41.5t-3 -36.5q0 -48 26.5 -78.5t91 -45.5t178.5 -15l20 -67zM573 411q-23 0 -39.5 16.5t-16.5 38.5q0 23 16.5 39.5t39.5 16.5t39 -16.5t16 -39.5q0 -22 -16 -38.5t-39 -16.5zM426 412q-24 0 -40 16t-16 39q0 22 16 39
t40 17q22 0 38 -17t16 -39q0 -23 -16 -39t-38 -16z" />
    <glyph glyph-name="uni067D.init" unicode="&#x67d;" horiz-adv-x="317" 
d="M0 -5l10 99q59 0 92 5t46.5 23t13.5 55q0 26 -8 62t-20.5 75.5t-26.5 77.5l97 32q13 -33 25 -75t20 -84t8 -77q0 -55 -16 -92t-48.5 -59.5t-80.5 -32t-112 -9.5zM160 521q-23 0 -38.5 16t-15.5 37q0 22 15.5 38t38.5 16q21 0 37 -16t16 -38q0 -21 -16 -37t-37 -16z
M89 638q-22 0 -37.5 15.5t-15.5 37.5t15.5 38t37.5 16t37.5 -16.5t15.5 -37.5q0 -22 -15.5 -37.5t-37.5 -15.5zM231 638q-22 0 -38 15.5t-16 37.5t16 38t38 16t37.5 -16.5t15.5 -37.5q0 -22 -15.5 -37.5t-37.5 -15.5z" />
    <glyph glyph-name="uni067D.medi" unicode="&#x67d;" horiz-adv-x="384" 
d="M0 -5l10 99q46 0 73.5 7.5t43 29t25.5 62.5t22 109l94 -17q-4 -18 -8.5 -39t-7.5 -42.5t-3 -37.5t3.5 -29.5t17 -22.5t43 -14.5t81.5 -5.5q26 0 37 -14t11 -33q0 -21 -15.5 -36.5t-42.5 -15.5q-57 0 -93 6.5t-57 20.5t-31 36t-14 52l35 -1q-16 -37 -37.5 -59.5t-48 -34.5
t-61 -16t-77.5 -4zM209 401q-22 0 -38 15.5t-16 37.5t16 38t38 16t37.5 -16t15.5 -38t-15.5 -37.5t-37.5 -15.5zM139 518q-23 0 -38.5 15.5t-15.5 36.5q0 22 15.5 38.5t38.5 16.5q21 0 37 -16.5t16 -38.5q0 -21 -16 -36.5t-37 -15.5zM281 518q-23 0 -38.5 15.5t-15.5 36.5
q0 22 15.5 38.5t38.5 16.5q21 0 36.5 -16.5t15.5 -38.5q0 -21 -15.5 -36.5t-36.5 -15.5z" />
    <glyph glyph-name="uni067D.fina" unicode="&#x67d;" horiz-adv-x="1107" 
d="M400 -21l26 99q65 0 132.5 7.5t133 27.5t124 56t103.5 93l77 -41q-8 -22 -11 -36.5t-3 -25.5q0 -18 11 -32.5t41 -23.5t83 -9q26 0 37.5 -14t11.5 -33q0 -21 -16 -36.5t-43 -15.5q-65 0 -114 15t-74 46t-21 78l25 -6q-39 -38 -94 -66t-122.5 -46.5t-145 -27.5t-161.5 -9z
M400 -21q-95 0 -164.5 13t-115 39t-67.5 65t-22 92q0 28 4 56t11.5 56t14.5 53l89 -21q-4 -16 -9 -37t-8 -41.5t-3 -36.5q0 -48 26.5 -78.5t91 -45.5t178.5 -15l20 -67zM509 414q-23 0 -38.5 15.5t-15.5 37.5t15.5 38t38.5 16q21 0 36.5 -16t15.5 -38t-15.5 -37.5
t-36.5 -15.5zM438 531q-22 0 -38 15.5t-16 37.5q0 21 16 37.5t38 16.5t37.5 -16.5t15.5 -37.5q0 -22 -15.5 -37.5t-37.5 -15.5zM580 531q-22 0 -38 15.5t-16 37.5q0 21 16 37.5t38 16.5t37.5 -16.5t15.5 -37.5q0 -22 -15.5 -37.5t-37.5 -15.5z" />
    <glyph glyph-name="uni0681.init" unicode="&#x681;" horiz-adv-x="601" 
d="M0 -5l9 99q53 0 104 7.5t99.5 21.5t93 35t84.5 48q-27 22 -61 38t-74.5 24.5t-84.5 8.5q-16 0 -31.5 -1t-30.5 -3.5t-33 -6.5l-17 94q28 8 56.5 12t53.5 4q52 0 95 -12.5t79 -30.5t67.5 -36t60.5 -30t60 -12h26l9 -90q-43 -1 -79.5 -13.5t-71.5 -32t-74 -41t-86.5 -40
t-109.5 -31t-144 -12.5zM72 469l-13 59q29 6 45.5 10t36.5 9l-7 -22q-26 8 -49.5 34t-23.5 60q0 31 15 52t39 31t51 10q12 0 25 -2t24 -6l-8 -56q-10 2 -19.5 4t-20.5 2q-20 0 -32.5 -9.5t-12.5 -24.5q0 -20 13 -34.5t30.5 -22.5t28.5 -8l-45 -5q27 7 50.5 14.5t42.5 14.5
l18 -55q-25 -9 -57.5 -19.5t-66.5 -19.5t-64 -16z" />
    <glyph glyph-name="uni0681.medi" unicode="&#x681;" horiz-adv-x="642" 
d="M642 -5q-43 0 -79.5 6t-66 21.5t-50.5 45t-33 76.5l65 43q15 -38 36 -57.5t54.5 -27.5t83.5 -8q26 0 37.5 -14t11.5 -33q0 -21 -16 -36.5t-43 -15.5zM0 -5l9 99q53 0 104 7.5t99.5 21.5t93 35t84.5 48q-27 22 -61 38t-74.5 24.5t-84.5 8.5q-16 0 -31.5 -1t-30.5 -3.5
t-33 -6.5l-17 94q28 8 56.5 12t53.5 4q52 0 95 -12.5t79 -30.5t67.5 -36t60.5 -30t60 -12h26l9 -90q-43 -1 -79.5 -13.5t-71.5 -32t-74 -41t-86.5 -40t-109.5 -31t-144 -12.5zM65 469l-13 59q29 6 45.5 10t36.5 9l-7 -22q-26 8 -49.5 34t-23.5 60q0 31 15 52t39 31t51 10
q12 0 25 -2t24 -6l-8 -56q-10 2 -19.5 4t-20.5 2q-20 0 -32.5 -9.5t-12.5 -24.5q0 -20 13 -34.5t30.5 -22.5t28.5 -8l-45 -5q27 7 50.5 14.5t42.5 14.5l18 -55q-25 -9 -57.5 -19.5t-66.5 -19.5t-64 -16z" />
    <glyph glyph-name="uni0681.fina" unicode="&#x681;" horiz-adv-x="676" 
d="M676 -5q-47 0 -92 6.5t-82 30t-60.5 72t-28.5 132.5l74 36q6 -62 23 -97.5t43 -52.5t60 -22.5t73 -5.5q26 0 37 -14t11 -33q0 -21 -15.5 -36.5t-42.5 -15.5zM365 -394q-72 0 -136 17t-113 51.5t-76.5 87t-27.5 123.5q0 61 18 115t52.5 100.5t83.5 85t110 67.5t131 48
l-7 -14q-25 8 -52.5 17t-58 17.5t-65 13.5t-73.5 5q-31 0 -56.5 -4.5t-46.5 -10.5l-16 93q27 10 59.5 16.5t66.5 6.5q49 0 88 -9t73.5 -21.5t71 -25.5t78.5 -22t96 -9h19l5 -103q-45 0 -98 -10.5t-106 -31t-102.5 -50.5t-88 -69.5t-61 -87.5t-22.5 -105q0 -51 21 -87.5
t57.5 -59.5t84.5 -33.5t102 -10.5q51 0 104 11t104 31l32 -84q-63 -30 -127 -44t-124 -14zM222 552l-13 59q29 6 45.5 10t36.5 9l-7 -22q-26 8 -49.5 34t-23.5 60q0 31 15 52t39 31t51 10q12 0 25 -2t24 -6l-8 -56q-10 2 -19.5 4t-20.5 2q-20 0 -32.5 -9.5t-12.5 -24.5
q0 -20 13 -34.5t30.5 -22.5t28.5 -8l-45 -5q27 7 50.5 14.5t42.5 14.5l18 -55q-25 -9 -57.5 -19.5t-66.5 -19.5t-64 -16z" />
    <glyph glyph-name="uni0682.init" unicode="&#x682;" horiz-adv-x="601" 
d="M0 -5l9 99q53 0 104 7.5t99.5 21.5t93 35t84.5 48q-27 22 -61 38t-74.5 24.5t-84.5 8.5q-16 0 -31.5 -1t-30.5 -3.5t-33 -6.5l-17 94q28 8 56.5 12t53.5 4q52 0 95 -12.5t79 -30.5t67.5 -36t60.5 -30t60 -12h26l9 -90q-43 -1 -79.5 -13.5t-71.5 -32t-74 -41t-86.5 -40
t-109.5 -31t-144 -12.5zM169 477q-23 0 -38.5 15.5t-15.5 36.5q0 22 15.5 38t38.5 16q21 0 37 -16t16 -38q0 -21 -16 -36.5t-37 -15.5zM168 616q-23 0 -38.5 15.5t-15.5 37.5t15.5 38t38.5 16q22 0 37.5 -16t15.5 -38t-15.5 -37.5t-37.5 -15.5z" />
    <glyph glyph-name="uni0682.medi" unicode="&#x682;" horiz-adv-x="642" 
d="M642 -5q-43 0 -79.5 6t-66 21.5t-50.5 45t-33 76.5l65 43q15 -38 36 -57.5t54.5 -27.5t83.5 -8q26 0 37.5 -14t11.5 -33q0 -21 -16 -36.5t-43 -15.5zM0 -5l9 99q53 0 104 7.5t99.5 21.5t93 35t84.5 48q-27 22 -61 38t-74.5 24.5t-84.5 8.5q-16 0 -31.5 -1t-30.5 -3.5
t-33 -6.5l-17 94q28 8 56.5 12t53.5 4q52 0 95 -12.5t79 -30.5t67.5 -36t60.5 -30t60 -12h26l9 -90q-43 -1 -79.5 -13.5t-71.5 -32t-74 -41t-86.5 -40t-109.5 -31t-144 -12.5zM162 480q-23 0 -38.5 15.5t-15.5 36.5q0 22 15.5 38t38.5 16q21 0 37 -16t16 -38
q0 -21 -16 -36.5t-37 -15.5zM161 619q-23 0 -38.5 15.5t-15.5 37.5t15.5 38t38.5 16q22 0 37.5 -16t15.5 -38t-15.5 -37.5t-37.5 -15.5z" />
    <glyph glyph-name="uni0682.fina" unicode="&#x682;" horiz-adv-x="676" 
d="M676 -5q-47 0 -92 6.5t-82 30t-60.5 72t-28.5 132.5l74 36q6 -62 23 -97.5t43 -52.5t60 -22.5t73 -5.5q26 0 37 -14t11 -33q0 -21 -15.5 -36.5t-42.5 -15.5zM365 -394q-72 0 -136 17t-113 51.5t-76.5 87t-27.5 123.5q0 61 18 115t52.5 100.5t83.5 85t110 67.5t131 48
l-7 -14q-25 8 -52.5 17t-58 17.5t-65 13.5t-73.5 5q-31 0 -56.5 -4.5t-46.5 -10.5l-16 93q27 10 59.5 16.5t66.5 6.5q49 0 88 -9t73.5 -21.5t71 -25.5t78.5 -22t96 -9h19l5 -103q-45 0 -98 -10.5t-106 -31t-102.5 -50.5t-88 -69.5t-61 -87.5t-22.5 -105q0 -51 21 -87.5
t57.5 -59.5t84.5 -33.5t102 -10.5q51 0 104 11t104 31l32 -84q-63 -30 -127 -44t-124 -14zM318 542q-23 0 -38.5 15.5t-15.5 36.5q0 22 15.5 38t38.5 16q21 0 37 -16t16 -38q0 -21 -16 -36.5t-37 -15.5zM317 681q-23 0 -38.5 15.5t-15.5 37.5t15.5 38t38.5 16q22 0 37.5 -16
t15.5 -38t-15.5 -37.5t-37.5 -15.5z" />
    <glyph glyph-name="uni0685.init" unicode="&#x685;" horiz-adv-x="601" 
d="M0 -5l9 99q53 0 104 7.5t99.5 21.5t93 35t84.5 48q-27 22 -61 38t-74.5 24.5t-84.5 8.5q-16 0 -31.5 -1t-30.5 -3.5t-33 -6.5l-17 94q28 8 56.5 12t53.5 4q52 0 95 -12.5t79 -30.5t67.5 -36t60.5 -30t60 -12h26l9 -90q-43 -1 -79.5 -13.5t-71.5 -32t-74 -41t-86.5 -40
t-109.5 -31t-144 -12.5zM175 593q-22 0 -37.5 16t-15.5 37q0 22 15.5 38t37.5 16t37.5 -16t15.5 -38q0 -21 -15.5 -37t-37.5 -16zM104 477q-22 0 -38 15.5t-16 37.5t16 37.5t38 15.5t37.5 -15.5t15.5 -37.5t-15.5 -37.5t-37.5 -15.5zM246 477q-23 0 -38.5 15.5t-15.5 37.5
t15.5 37.5t38.5 15.5q21 0 36.5 -15.5t15.5 -37.5t-15.5 -37.5t-36.5 -15.5z" />
    <glyph glyph-name="uni0685.medi" unicode="&#x685;" horiz-adv-x="642" 
d="M642 -5q-43 0 -79.5 6t-66 21.5t-50.5 45t-33 76.5l65 43q15 -38 36 -57.5t54.5 -27.5t83.5 -8q26 0 37.5 -14t11.5 -33q0 -21 -16 -36.5t-43 -15.5zM0 -5l9 99q53 0 104 7.5t99.5 21.5t93 35t84.5 48q-27 22 -61 38t-74.5 24.5t-84.5 8.5q-16 0 -31.5 -1t-30.5 -3.5
t-33 -6.5l-17 94q28 8 56.5 12t53.5 4q52 0 95 -12.5t79 -30.5t67.5 -36t60.5 -30t60 -12h26l9 -90q-43 -1 -79.5 -13.5t-71.5 -32t-74 -41t-86.5 -40t-109.5 -31t-144 -12.5zM168 593q-22 0 -37.5 16t-15.5 37q0 22 15.5 38t37.5 16t37.5 -16t15.5 -38q0 -21 -15.5 -37
t-37.5 -16zM97 477q-22 0 -38 15.5t-16 37.5t16 37.5t38 15.5t37.5 -15.5t15.5 -37.5t-15.5 -37.5t-37.5 -15.5zM239 477q-23 0 -38.5 15.5t-15.5 37.5t15.5 37.5t38.5 15.5q21 0 36.5 -15.5t15.5 -37.5t-15.5 -37.5t-36.5 -15.5z" />
    <glyph glyph-name="uni0685.fina" unicode="&#x685;" horiz-adv-x="676" 
d="M676 -5q-47 0 -92 6.5t-82 30t-60.5 72t-28.5 132.5l74 36q6 -62 23 -97.5t43 -52.5t60 -22.5t73 -5.5q26 0 37 -14t11 -33q0 -21 -15.5 -36.5t-42.5 -15.5zM365 -394q-72 0 -136 17t-113 51.5t-76.5 87t-27.5 123.5q0 61 18 115t52.5 100.5t83.5 85t110 67.5t131 48
l-7 -14q-25 8 -52.5 17t-58 17.5t-65 13.5t-73.5 5q-31 0 -56.5 -4.5t-46.5 -10.5l-16 93q27 10 59.5 16.5t66.5 6.5q49 0 88 -9t73.5 -21.5t71 -25.5t78.5 -22t96 -9h19l5 -103q-45 0 -98 -10.5t-106 -31t-102.5 -50.5t-88 -69.5t-61 -87.5t-22.5 -105q0 -51 21 -87.5
t57.5 -59.5t84.5 -33.5t102 -10.5q51 0 104 11t104 31l32 -84q-63 -30 -127 -44t-124 -14zM318 657q-22 0 -37.5 16t-15.5 37q0 22 15.5 38t37.5 16t37.5 -16t15.5 -38q0 -21 -15.5 -37t-37.5 -16zM247 541q-22 0 -38 15.5t-16 37.5t16 37.5t38 15.5t37.5 -15.5t15.5 -37.5
t-15.5 -37.5t-37.5 -15.5zM389 541q-23 0 -38.5 15.5t-15.5 37.5t15.5 37.5t38.5 15.5q21 0 36.5 -15.5t15.5 -37.5t-15.5 -37.5t-36.5 -15.5z" />
    <glyph glyph-name="uni0689.fina" unicode="&#x689;" horiz-adv-x="544" 
d="M217 -137q-38 0 -65 27t-27 65q0 39 27 66t65 27t65 -27t27 -66q0 -38 -27 -65t-65 -27zM217 -81q17 0 28.5 10.5t11.5 25.5q0 17 -11.5 28t-28.5 11q-16 0 -28 -11t-12 -28q0 -15 12 -25.5t28 -10.5zM216 94q48 0 76 9.5t40.5 27t12.5 40.5q0 21 -11.5 50t-30 64
t-41.5 71.5t-47 71.5l83 55q41 -59 70.5 -112.5t49.5 -99.5t30 -85q13 -40 30 -60t37 -26t38 -6q26 0 37.5 -14t11.5 -33q0 -21 -15.5 -36.5t-43.5 -15.5q-36 0 -68 12.5t-55 40t-34 73.5l46 19q-2 -37 -22.5 -70.5t-65.5 -54.5t-122 -21q-34 0 -68.5 5.5t-65 17t-53.5 27.5
l43 86q25 -14 60.5 -25t77.5 -11z" />
    <glyph glyph-name="uni068A.fina" unicode="&#x68a;" horiz-adv-x="544" 
d="M216 94q48 0 76 9.5t40.5 27t12.5 40.5q0 21 -11.5 50t-30 64t-41.5 71.5t-47 71.5l83 55q41 -59 70.5 -112.5t49.5 -99.5t30 -85q13 -40 30 -60t37 -26t38 -6q26 0 37.5 -14t11.5 -33q0 -21 -15.5 -36.5t-43.5 -15.5q-36 0 -68 12.5t-55 40t-34 73.5l46 19
q-2 -37 -22.5 -70.5t-65.5 -54.5t-122 -21q-34 0 -68.5 5.5t-65 17t-53.5 27.5l43 86q25 -14 60.5 -25t77.5 -11zM235 -204q-24 0 -40 16t-16 39q0 22 16 39t40 17q22 0 38.5 -17t16.5 -39q0 -23 -16.5 -39t-38.5 -16z" />
    <glyph glyph-name="uni068B.fina" unicode="&#x68b;" horiz-adv-x="544" 
d="M216 94q48 0 76 9.5t40.5 27t12.5 40.5q0 21 -11.5 50t-30 64t-41.5 71.5t-47 71.5l83 55q41 -59 70.5 -112.5t49.5 -99.5t30 -85q13 -40 30 -60t37 -26t38 -6q26 0 37.5 -14t11.5 -33q0 -21 -15.5 -36.5t-43.5 -15.5q-36 0 -68 12.5t-55 40t-34 73.5l46 19
q-2 -37 -22.5 -70.5t-65.5 -54.5t-122 -21q-34 0 -68.5 5.5t-65 17t-53.5 27.5l43 86q25 -14 60.5 -25t77.5 -11zM222 600q-18 0 -42.5 1.5t-46.5 3.5l-33 3l2 60q20 -2 52.5 -5t60.5 -3q34 0 55 4.5t30 13.5t9 20q0 13 -8.5 19.5t-22.5 6.5q-18 0 -37 -13t-33.5 -30
t-21.5 -29l-58 7q17 35 42.5 63.5t56 46t60.5 17.5q38 0 60.5 -24t22.5 -59q0 -21 -11.5 -44.5t-43.5 -41t-93 -17.5zM152 668l-6 193h58l8 -168zM235 -204q-24 0 -40 16t-16 39q0 22 16 39t40 17q22 0 38.5 -17t16.5 -39q0 -23 -16.5 -39t-38.5 -16z" />
    <glyph glyph-name="uni068F.fina" unicode="&#x68f;" horiz-adv-x="544" 
d="M216 94q48 0 76 9.5t40.5 27t12.5 40.5q0 21 -11.5 50t-30 64t-41.5 71.5t-47 71.5l83 55q41 -59 70.5 -112.5t49.5 -99.5t30 -85q13 -40 30 -60t37 -26t38 -6q26 0 37.5 -14t11.5 -33q0 -21 -15.5 -36.5t-43.5 -15.5q-36 0 -68 12.5t-55 40t-34 73.5l46 19
q-2 -37 -22.5 -70.5t-65.5 -54.5t-122 -21q-34 0 -68.5 5.5t-65 17t-53.5 27.5l43 86q25 -14 60.5 -25t77.5 -11zM224 569q-23 0 -38.5 15.5t-15.5 37.5t15.5 38t38.5 16q21 0 36.5 -16t15.5 -38t-15.5 -37.5t-36.5 -15.5zM153 686q-22 0 -38 15.5t-16 37.5q0 21 16 37.5
t38 16.5t37.5 -16.5t15.5 -37.5q0 -22 -15.5 -37.5t-37.5 -15.5zM295 686q-22 0 -38 15.5t-16 37.5q0 21 16 37.5t38 16.5t37.5 -16.5t15.5 -37.5q0 -22 -15.5 -37.5t-37.5 -15.5z" />
    <glyph glyph-name="uni0690.fina" unicode="&#x690;" horiz-adv-x="544" 
d="M216 94q48 0 76 9.5t40.5 27t12.5 40.5q0 21 -11.5 50t-30 64t-41.5 71.5t-47 71.5l83 55q41 -59 70.5 -112.5t49.5 -99.5t30 -85q13 -40 30 -60t37 -26t38 -6q26 0 37.5 -14t11.5 -33q0 -21 -15.5 -36.5t-43.5 -15.5q-36 0 -68 12.5t-55 40t-34 73.5l46 19
q-2 -37 -22.5 -70.5t-65.5 -54.5t-122 -21q-34 0 -68.5 5.5t-65 17t-53.5 27.5l43 86q25 -14 60.5 -25t77.5 -11zM157 698q-22 0 -37 15t-15 36q0 22 15 37.5t37 15.5q21 0 36 -16t15 -37t-15 -36t-36 -15zM157 569q-22 0 -37 15t-15 36t15 37t37 16q21 0 36 -16t15 -37
t-15 -36t-36 -15zM294 698q-22 0 -37.5 15t-15.5 36q0 22 15.5 37.5t37.5 15.5q20 0 35.5 -16t15.5 -37t-15.5 -36t-35.5 -15zM294 569q-22 0 -37.5 15t-15.5 36t15.5 37t37.5 16q20 0 35.5 -16t15.5 -37t-15.5 -36t-35.5 -15z" />
    <glyph glyph-name="uni0692.fina" unicode="&#x692;" horiz-adv-x="412" 
d="M8 -232l-36 90q67 23 114.5 52t77 62t43.5 69t14 72q0 47 -21 97t-47 97l90 45q19 -34 33 -68.5t25 -64t17 -49.5q14 -45 37 -60.5t67 -15.5q26 0 37.5 -14t11.5 -33q0 -21 -16 -36.5t-43 -15.5q-43 0 -72 14.5t-44 39t-20 53.5l33 -19q-1 -62 -30.5 -114.5t-75 -92.5
t-97.5 -67.5t-98 -40.5zM148 467q-7 15 -18 38t-23.5 48.5t-25.5 48.5t-22 39l50 27q6 -10 17 -30t23 -43t23 -44.5t18 -36.5l21 -41zM211 473l-48 18q6 17 17.5 44t24 55t23 50t14.5 30l49 -20q-5 -10 -15.5 -32.5t-23 -50t-24 -53t-17.5 -41.5z" />
    <glyph glyph-name="uni0693.fina" unicode="&#x693;" horiz-adv-x="412" 
d="M253 -223q-38 0 -65 27t-27 65t27 65t65 27q39 0 66 -27t27 -65t-27 -65t-66 -27zM253 -168q17 0 28.5 10.5t11.5 26.5q0 17 -11.5 27.5t-28.5 10.5q-16 0 -27.5 -11t-11.5 -27t11.5 -26.5t27.5 -10.5zM8 -232l-36 90q67 23 114.5 52t77 62t43.5 69t14 72q0 47 -21 97
t-47 97l90 45q19 -34 33 -68.5t25 -64t17 -49.5q14 -45 37 -60.5t67 -15.5q26 0 37.5 -14t11.5 -33q0 -21 -16 -36.5t-43 -15.5q-43 0 -72 14.5t-44 39t-20 53.5l33 -19q-1 -62 -30.5 -114.5t-75 -92.5t-97.5 -67.5t-98 -40.5z" />
    <glyph glyph-name="uni0694.fina" unicode="&#x694;" horiz-adv-x="412" 
d="M8 -232l-36 90q67 23 114.5 52t77 62t43.5 69t14 72q0 47 -21 97t-47 97l90 45q19 -34 33 -68.5t25 -64t17 -49.5q14 -45 37 -60.5t67 -15.5q26 0 37.5 -14t11.5 -33q0 -21 -16 -36.5t-43 -15.5q-43 0 -72 14.5t-44 39t-20 53.5l33 -19q-1 -62 -30.5 -114.5t-75 -92.5
t-97.5 -67.5t-98 -40.5zM106 -416q-24 0 -40 16t-16 39q0 22 16 39t40 17q22 0 38.5 -17t16.5 -39q0 -23 -16.5 -39t-38.5 -16z" />
    <glyph glyph-name="uni0695.fina" unicode="&#x695;" horiz-adv-x="412" 
d="M44 -39l-20.5 41t-26 50t-24.5 42l40 22q5 -8 13.5 -23t18.5 -32.5t18.5 -34.5t14.5 -28l17 -32zM95 -34l-39 13l15 35t18.5 42.5t18 38.5t12.5 23l39 -17l-12.5 -25t-18.5 -38t-19 -40.5t-14 -31.5zM8 -232l-36 90q67 23 114.5 52t77 62t43.5 69t14 72q0 47 -21 97
t-47 97l90 45q19 -34 33 -68.5t25 -64t17 -49.5q14 -45 37 -60.5t67 -15.5q26 0 37.5 -14t11.5 -33q0 -21 -16 -36.5t-43 -15.5q-43 0 -72 14.5t-44 39t-20 53.5l33 -19q-1 -62 -30.5 -114.5t-75 -92.5t-97.5 -67.5t-98 -40.5z" />
    <glyph glyph-name="uni0696.fina" unicode="&#x696;" horiz-adv-x="412" 
d="M8 -232l-36 90q67 23 114.5 52t77 62t43.5 69t14 72q0 47 -21 97t-47 97l90 45q19 -34 33 -68.5t25 -64t17 -49.5q14 -45 37 -60.5t67 -15.5q26 0 37.5 -14t11.5 -33q0 -21 -16 -36.5t-43 -15.5q-43 0 -72 14.5t-44 39t-20 53.5l33 -19q-1 -62 -30.5 -114.5t-75 -92.5
t-97.5 -67.5t-98 -40.5zM76 -4q-24 0 -40.5 16t-16.5 40q0 23 16.5 40t40.5 17q23 0 39.5 -17t16.5 -40q0 -24 -16.5 -40t-39.5 -16zM106 -416q-24 0 -40 16t-16 39q0 22 16 39t40 17q22 0 38.5 -17t16.5 -39q0 -23 -16.5 -39t-38.5 -16z" />
    <glyph glyph-name="uni0697.fina" unicode="&#x697;" horiz-adv-x="412" 
d="M8 -232l-36 90q67 23 114.5 52t77 62t43.5 69t14 72q0 47 -21 97t-47 97l90 45q19 -34 33 -68.5t25 -64t17 -49.5q14 -45 37 -60.5t67 -15.5q26 0 37.5 -14t11.5 -33q0 -21 -16 -36.5t-43 -15.5q-43 0 -72 14.5t-44 39t-20 53.5l33 -19q-1 -62 -30.5 -114.5t-75 -92.5
t-97.5 -67.5t-98 -40.5zM255 463q-23 0 -39.5 16t-16.5 39q0 22 16.5 39t39.5 17q22 0 38.5 -17t16.5 -39q0 -23 -16.5 -39t-38.5 -16zM108 463q-24 0 -40 16.5t-16 38.5q0 23 16 39.5t39 16.5t39 -16.5t16 -39.5q0 -22 -16 -38.5t-38 -16.5z" />
    <glyph glyph-name="uni0699.fina" unicode="&#x699;" horiz-adv-x="412" 
d="M8 -232l-36 90q67 23 114.5 52t77 62t43.5 69t14 72q0 47 -21 97t-47 97l90 45q19 -34 33 -68.5t25 -64t17 -49.5q14 -45 37 -60.5t67 -15.5q26 0 37.5 -14t11.5 -33q0 -21 -16 -36.5t-43 -15.5q-43 0 -72 14.5t-44 39t-20 53.5l33 -19q-1 -62 -30.5 -114.5t-75 -92.5
t-97.5 -67.5t-98 -40.5zM115 592q-22 0 -37 15t-15 36q0 22 15 37.5t37 15.5q21 0 36 -16t15 -37t-15 -36t-36 -15zM115 463q-22 0 -37 15t-15 36t15 37t37 16q21 0 36 -16t15 -37t-15 -36t-36 -15zM252 592q-22 0 -37.5 15t-15.5 36q0 22 15.5 37.5t37.5 15.5
q20 0 35.5 -16t15.5 -37t-15.5 -36t-35.5 -15zM252 463q-22 0 -37.5 15t-15.5 36t15.5 37t37.5 16q20 0 35.5 -16t15.5 -37t-15.5 -36t-35.5 -15z" />
    <glyph glyph-name="uni069A.init" unicode="&#x69a;" horiz-adv-x="833" 
d="M0 -5l10 99q32 0 52.5 5t34 23.5t25 58.5t26.5 111l91 -22q-3 -16 -8 -37.5t-8.5 -43t-3.5 -40.5q0 -25 18.5 -40t68.5 -15q29 0 47.5 5t31.5 24.5t23 61t21 114.5l93 -16q-4 -20 -8 -46t-7 -50.5t-3 -40.5q0 -13 6.5 -25.5t26.5 -19.5t58 -7q29 0 50 7t32 25t11 50
q0 38 -17.5 96t-39.5 118l99 33q14 -35 25.5 -78t19.5 -85t8 -73q0 -47 -13 -83.5t-37.5 -60.5t-58.5 -36t-77 -12q-50 0 -82 11t-49 35t-22 63h34q-20 -48 -42.5 -71t-55 -30.5t-83.5 -7.5q-27 0 -57.5 8t-53.5 32.5t-29 75.5l37 5q-18 -54 -45.5 -79.5t-64 -33.5t-84.5 -8
zM411 -204q-24 0 -40 16t-16 39q0 22 16 39t40 17q22 0 38.5 -17t16.5 -39q0 -23 -16.5 -39t-38.5 -16zM455 449q-24 0 -40.5 16t-16.5 40q0 23 16.5 40t40.5 17q23 0 39.5 -17t16.5 -40q0 -24 -16.5 -40t-39.5 -16z" />
    <glyph glyph-name="uni069A.medi" unicode="&#x69a;" horiz-adv-x="900" 
d="M0 -5l10 99q32 0 52.5 5t34 23.5t25 58.5t26.5 111l91 -22q-5 -24 -12.5 -58.5t-7.5 -62.5q0 -16 8 -28.5t27 -19.5t52 -7q29 0 47.5 5t31.5 24.5t23 61t21 114.5l93 -16q-4 -20 -8 -46t-7 -50.5t-3 -40.5q0 -13 6.5 -25.5t26.5 -19.5t58 -7q49 0 71 20.5t22 62.5
q0 23 -1 49t-3.5 58t-7.5 74l89 6q7 -82 15 -134.5t22.5 -82t40 -41.5t67.5 -12q26 0 37.5 -14t11.5 -33q0 -21 -16 -36.5t-43 -15.5q-32 0 -59.5 8t-49 23.5t-36.5 38.5t-22 53l18 -6q-12 -47 -36 -72t-56.5 -35t-72.5 -10q-44 0 -74.5 11.5t-47.5 35.5t-20 62h34
q-20 -47 -42.5 -70.5t-55 -31t-85.5 -7.5q-27 0 -57 8t-52.5 32.5t-28.5 75.5l37 5q-18 -54 -45.5 -79.5t-64 -33.5t-84.5 -8zM406 -204q-24 0 -40 16t-16 39q0 22 16 39t40 17q22 0 38.5 -17t16.5 -39q0 -23 -16.5 -39t-38.5 -16zM452 449q-24 0 -40.5 16t-16.5 40
q0 23 16.5 40t40.5 17q23 0 39.5 -17t16.5 -40q0 -24 -16.5 -40t-39.5 -16z" />
    <glyph glyph-name="uni069A.fina" unicode="&#x69a;" horiz-adv-x="1319" 
d="M322 -232q-62 0 -115 16t-93 46.5t-62.5 75t-22.5 102.5q0 23 4.5 51.5t14 62.5t26.5 73l87 -32q-10 -29 -18 -54t-11.5 -47t-3.5 -42q0 -48 24.5 -82.5t69 -52.5t103.5 -18q66 0 110 15t70 40t37 56t11 64q0 39 -6.5 77t-17.5 76.5t-24 79.5l99 26q15 -57 22 -84.5
t12 -43.5q10 -35 24.5 -51.5t34 -22t43.5 -5.5q20 0 35.5 5t29 24.5t24 61t19.5 114.5l93 -16q-3 -20 -7 -46t-7.5 -50.5t-3.5 -40.5q0 -14 6.5 -26t26.5 -19t58 -7q49 0 71 20.5t22 62.5q0 23 -1 49t-3.5 58t-7.5 74l90 6q6 -84 14.5 -137t23.5 -82t40 -40t66 -11
q26 0 37.5 -14t11.5 -33q0 -21 -16 -36.5t-43 -15.5q-44 0 -78.5 14.5t-57 42.5t-31.5 66l24 -6q-12 -48 -37.5 -73.5t-59.5 -34.5t-70 -9q-46 0 -77 12t-48.5 36.5t-20.5 60.5h34q-16 -42 -37.5 -65.5t-50.5 -33.5t-67 -10q-29 0 -52 7.5t-39 20.5t-25.5 31t-13.5 39
l39 -48q-3 -55 -22 -105t-57.5 -88.5t-100 -61t-149.5 -22.5zM874 -199q-24 0 -40 16t-16 39q0 22 16 39t40 17q22 0 38.5 -17t16.5 -39q0 -23 -16.5 -39t-38.5 -16zM840 449q-24 0 -40.5 16t-16.5 40q0 23 16.5 40t40.5 17q23 0 39.5 -17t16.5 -40q0 -24 -16.5 -40
t-39.5 -16z" />
    <glyph glyph-name="uni069B.init" unicode="&#x69b;" horiz-adv-x="833" 
d="M0 -5l10 99q32 0 52.5 5t34 23.5t25 58.5t26.5 111l91 -22q-3 -16 -8 -37.5t-8.5 -43t-3.5 -40.5q0 -25 18.5 -40t68.5 -15q29 0 47.5 5t31.5 24.5t23 61t21 114.5l93 -16q-4 -20 -8 -46t-7 -50.5t-3 -40.5q0 -13 6.5 -25.5t26.5 -19.5t58 -7q29 0 50 7t32 25t11 50
q0 38 -17.5 96t-39.5 118l99 33q14 -35 25.5 -78t19.5 -85t8 -73q0 -47 -13 -83.5t-37.5 -60.5t-58.5 -36t-77 -12q-50 0 -82 11t-49 35t-22 63h34q-20 -48 -42.5 -71t-55 -30.5t-83.5 -7.5q-27 0 -57.5 8t-53.5 32.5t-29 75.5l37 5q-18 -54 -45.5 -79.5t-64 -33.5t-84.5 -8
zM413 -319q-23 0 -38.5 15.5t-15.5 36.5q0 22 15.5 38.5t38.5 16.5q21 0 36.5 -16.5t15.5 -38.5q0 -21 -15.5 -36.5t-36.5 -15.5zM342 -203q-22 0 -38 15.5t-16 37.5t16 38t38 16t37.5 -16t15.5 -38t-15.5 -37.5t-37.5 -15.5zM484 -203q-22 0 -38 15.5t-16 37.5t16 38t38 16
t37.5 -16t15.5 -38t-15.5 -37.5t-37.5 -15.5z" />
    <glyph glyph-name="uni069B.medi" unicode="&#x69b;" horiz-adv-x="900" 
d="M0 -5l10 99q32 0 52.5 5t34 23.5t25 58.5t26.5 111l91 -22q-5 -24 -12.5 -58.5t-7.5 -62.5q0 -16 8 -28.5t27 -19.5t52 -7q29 0 47.5 5t31.5 24.5t23 61t21 114.5l93 -16q-4 -20 -8 -46t-7 -50.5t-3 -40.5q0 -13 6.5 -25.5t26.5 -19.5t58 -7q49 0 71 20.5t22 62.5
q0 23 -1 49t-3.5 58t-7.5 74l89 6q7 -82 15 -134.5t22.5 -82t40 -41.5t67.5 -12q26 0 37.5 -14t11.5 -33q0 -21 -16 -36.5t-43 -15.5q-32 0 -59.5 8t-49 23.5t-36.5 38.5t-22 53l18 -6q-12 -47 -36 -72t-56.5 -35t-72.5 -10q-44 0 -74.5 11.5t-47.5 35.5t-20 62h34
q-20 -47 -42.5 -70.5t-55 -31t-85.5 -7.5q-27 0 -57 8t-52.5 32.5t-28.5 75.5l37 5q-18 -54 -45.5 -79.5t-64 -33.5t-84.5 -8zM408 -319q-23 0 -38.5 15.5t-15.5 36.5q0 22 15.5 38.5t38.5 16.5q21 0 36.5 -16.5t15.5 -38.5q0 -21 -15.5 -36.5t-36.5 -15.5zM337 -203
q-22 0 -38 15.5t-16 37.5t16 38t38 16t37.5 -16t15.5 -38t-15.5 -37.5t-37.5 -15.5zM479 -203q-22 0 -38 15.5t-16 37.5t16 38t38 16t37.5 -16t15.5 -38t-15.5 -37.5t-37.5 -15.5z" />
    <glyph glyph-name="uni069B.fina" unicode="&#x69b;" horiz-adv-x="1319" 
d="M322 -232q-62 0 -115 16t-93 46.5t-62.5 75t-22.5 102.5q0 23 4.5 51.5t14 62.5t26.5 73l87 -32q-10 -29 -18 -54t-11.5 -47t-3.5 -42q0 -48 24.5 -82.5t69 -52.5t103.5 -18q66 0 110 15t70 40t37 56t11 64q0 39 -6.5 77t-17.5 76.5t-24 79.5l99 26q15 -57 22 -84.5
t12 -43.5q10 -35 24.5 -51.5t34 -22t43.5 -5.5q20 0 35.5 5t29 24.5t24 61t19.5 114.5l93 -16q-3 -20 -7 -46t-7.5 -50.5t-3.5 -40.5q0 -14 6.5 -26t26.5 -19t58 -7q49 0 71 20.5t22 62.5q0 23 -1 49t-3.5 58t-7.5 74l90 6q6 -84 14.5 -137t23.5 -82t40 -40t66 -11
q26 0 37.5 -14t11.5 -33q0 -21 -16 -36.5t-43 -15.5q-44 0 -78.5 14.5t-57 42.5t-31.5 66l24 -6q-12 -48 -37.5 -73.5t-59.5 -34.5t-70 -9q-46 0 -77 12t-48.5 36.5t-20.5 60.5h34q-16 -42 -37.5 -65.5t-50.5 -33.5t-67 -10q-29 0 -52 7.5t-39 20.5t-25.5 31t-13.5 39
l39 -48q-3 -55 -22 -105t-57.5 -88.5t-100 -61t-149.5 -22.5zM700 -375q-23 0 -38.5 15.5t-15.5 36.5q0 22 15.5 38.5t38.5 16.5q21 0 36.5 -16.5t15.5 -38.5q0 -21 -15.5 -36.5t-36.5 -15.5zM629 -259q-22 0 -38 15.5t-16 37.5t16 38t38 16t37.5 -16t15.5 -38t-15.5 -37.5
t-37.5 -15.5zM771 -259q-22 0 -38 15.5t-16 37.5t16 38t38 16t37.5 -16t15.5 -38t-15.5 -37.5t-37.5 -15.5z" />
    <glyph glyph-name="uni069D.init" unicode="&#x69d;" horiz-adv-x="924" 
d="M494 -18q-89 0 -149.5 7t-97.5 20.5t-57 34t-29 47.5l24 8q-25 -48 -54.5 -70t-62 -28t-68.5 -6l10 99q34 0 55 10t34.5 33t24.5 61t24 94l89 -23q-6 -24 -11 -44.5t-7.5 -36t-2.5 -24.5q0 -22 10.5 -38t40 -26t85.5 -14.5t147 -4.5q73 0 126.5 7.5t88.5 23t53 38
t18 51.5q0 21 -10 41t-32 33.5t-58 13.5q-44 0 -88.5 -22.5t-84.5 -57.5t-72.5 -73t-54.5 -68l-105 7q34 55 79.5 110.5t100 101.5t113.5 73.5t121 27.5q58 0 100 -23.5t64.5 -63.5t22.5 -92q0 -63 -36.5 -114.5t-121.5 -82t-229 -30.5zM571 -220q-23 0 -39.5 16.5
t-16.5 38.5q0 23 16.5 39.5t39.5 16.5t39 -16.5t16 -39.5q0 -22 -16 -38.5t-39 -16.5zM424 -220q-24 0 -40 16.5t-16 38.5q0 23 16 39.5t40 16.5q22 0 38 -16.5t16 -39.5q0 -22 -16 -38.5t-38 -16.5z" />
    <glyph glyph-name="uni069D.medi" unicode="&#x69d;" horiz-adv-x="965" 
d="M965 -5q-33 0 -75 6.5t-81.5 21.5t-66.5 38l84 58q36 -15 73.5 -20t75.5 -5q26 0 37.5 -14t11.5 -33q0 -21 -16 -36.5t-43 -15.5zM494 -18q-89 0 -149.5 7t-97.5 20.5t-57 34t-29 47.5l24 8q-25 -48 -54.5 -70t-62 -28t-68.5 -6l10 99q34 0 55 10t34.5 33t24.5 61t24 94
l89 -23q-6 -24 -11 -44.5t-7.5 -36t-2.5 -24.5q0 -22 10.5 -38t40 -26t85.5 -14.5t147 -4.5q73 0 126.5 7.5t88.5 23t53 38t18 51.5q0 21 -10 41t-32 33.5t-58 13.5q-44 0 -88.5 -22.5t-84.5 -57.5t-72.5 -73t-54.5 -68l-105 7q34 55 79.5 110.5t100 101.5t113.5 73.5
t121 27.5q58 0 100 -23.5t64.5 -63.5t22.5 -92q0 -63 -36.5 -114.5t-121.5 -82t-229 -30.5zM571 -220q-23 0 -39.5 16.5t-16.5 38.5q0 23 16.5 39.5t39.5 16.5t39 -16.5t16 -39.5q0 -22 -16 -38.5t-39 -16.5zM424 -220q-24 0 -40 16.5t-16 38.5q0 23 16 39.5t40 16.5
q22 0 38 -16.5t16 -39.5q0 -22 -16 -38.5t-38 -16.5z" />
    <glyph glyph-name="uni069D.fina" unicode="&#x69d;" horiz-adv-x="1379" 
d="M1378 -5q-33 0 -75 6.5t-81.5 21.5t-66.5 38l85 58q35 -15 72.5 -20t75.5 -5q26 0 37.5 -14t11.5 -33q0 -21 -16 -36.5t-43 -15.5zM322 -232q-60 0 -113 16t-93.5 46.5t-63.5 75t-23 102.5q0 23 4.5 51.5t14 62.5t26.5 73l87 -32q-10 -29 -18 -54t-11.5 -47t-3.5 -42
q0 -48 25.5 -82.5t70.5 -52.5t101 -18q64 0 108 15.5t70.5 42t38 60.5t11.5 73q0 47 -15 101t-33 116l99 26q10 -38 16 -62.5t10 -40t8 -25.5q10 -24 28.5 -40.5t51 -27t82 -15t119.5 -4.5q57 0 102 5t79 15t56.5 24.5t33.5 33.5t11 42q0 20 -10 40.5t-32 34t-57 13.5
q-46 0 -91 -23t-85.5 -58.5t-73 -73t-53.5 -66.5l-103 7q26 43 61 87.5t75.5 85t86 72t93.5 50t98 18.5q58 0 100 -23.5t64.5 -64t22.5 -91.5q0 -47 -20 -88.5t-65 -72.5t-119.5 -48.5t-182.5 -17.5q-70 0 -124 8.5t-91.5 23.5t-59 33.5t-27.5 39.5l45 -45
q-4 -54 -23.5 -104t-58 -89.5t-100 -62.5t-149.5 -23zM996 -215q-23 0 -39.5 16.5t-16.5 38.5q0 23 16.5 39.5t39.5 16.5t39 -16.5t16 -39.5q0 -22 -16 -38.5t-39 -16.5zM849 -215q-24 0 -40 16.5t-16 38.5q0 23 16 39.5t40 16.5q22 0 38 -16.5t16 -39.5q0 -22 -16 -38.5
t-38 -16.5z" />
    <glyph glyph-name="uni069E.init" unicode="&#x69e;" horiz-adv-x="924" 
d="M494 -18q-89 0 -149.5 7t-97.5 20.5t-57 34t-29 47.5l24 8q-25 -48 -54.5 -70t-62 -28t-68.5 -6l10 99q34 0 55 10t34.5 33t24.5 61t24 94l89 -23q-6 -24 -11 -44.5t-7.5 -36t-2.5 -24.5q0 -22 10.5 -38t40 -26t85.5 -14.5t147 -4.5q73 0 126.5 7.5t88.5 23t53 38
t18 51.5q0 21 -10 41t-32 33.5t-58 13.5q-44 0 -88.5 -22.5t-84.5 -57.5t-72.5 -73t-54.5 -68l-105 7q34 55 79.5 110.5t100 101.5t113.5 73.5t121 27.5q58 0 100 -23.5t64.5 -63.5t22.5 -92q0 -63 -36.5 -114.5t-121.5 -82t-229 -30.5zM668 605q-22 0 -37.5 16t-15.5 37
q0 22 15.5 38t37.5 16t37.5 -16t15.5 -38q0 -21 -15.5 -37t-37.5 -16zM597 489q-22 0 -38 15.5t-16 37.5t16 37.5t38 15.5t37.5 -15.5t15.5 -37.5t-15.5 -37.5t-37.5 -15.5zM739 489q-23 0 -38.5 15.5t-15.5 37.5t15.5 37.5t38.5 15.5q21 0 36.5 -15.5t15.5 -37.5
t-15.5 -37.5t-36.5 -15.5z" />
    <glyph glyph-name="uni069E.medi" unicode="&#x69e;" horiz-adv-x="965" 
d="M965 -5q-33 0 -75 6.5t-81.5 21.5t-66.5 38l84 58q36 -15 73.5 -20t75.5 -5q26 0 37.5 -14t11.5 -33q0 -21 -16 -36.5t-43 -15.5zM494 -18q-89 0 -149.5 7t-97.5 20.5t-57 34t-29 47.5l24 8q-25 -48 -54.5 -70t-62 -28t-68.5 -6l10 99q34 0 55 10t34.5 33t24.5 61t24 94
l89 -23q-6 -24 -11 -44.5t-7.5 -36t-2.5 -24.5q0 -22 10.5 -38t40 -26t85.5 -14.5t147 -4.5q73 0 126.5 7.5t88.5 23t53 38t18 51.5q0 21 -10 41t-32 33.5t-58 13.5q-44 0 -88.5 -22.5t-84.5 -57.5t-72.5 -73t-54.5 -68l-105 7q34 55 79.5 110.5t100 101.5t113.5 73.5
t121 27.5q58 0 100 -23.5t64.5 -63.5t22.5 -92q0 -63 -36.5 -114.5t-121.5 -82t-229 -30.5zM668 605q-22 0 -37.5 16t-15.5 37q0 22 15.5 38t37.5 16t37.5 -16t15.5 -38q0 -21 -15.5 -37t-37.5 -16zM597 489q-22 0 -38 15.5t-16 37.5t16 37.5t38 15.5t37.5 -15.5t15.5 -37.5
t-15.5 -37.5t-37.5 -15.5zM739 489q-23 0 -38.5 15.5t-15.5 37.5t15.5 37.5t38.5 15.5q21 0 36.5 -15.5t15.5 -37.5t-15.5 -37.5t-36.5 -15.5z" />
    <glyph glyph-name="uni069E.fina" unicode="&#x69e;" horiz-adv-x="1379" 
d="M1378 -5q-33 0 -75 6.5t-81.5 21.5t-66.5 38l85 58q35 -15 72.5 -20t75.5 -5q26 0 37.5 -14t11.5 -33q0 -21 -16 -36.5t-43 -15.5zM322 -232q-60 0 -113 16t-93.5 46.5t-63.5 75t-23 102.5q0 23 4.5 51.5t14 62.5t26.5 73l87 -32q-10 -29 -18 -54t-11.5 -47t-3.5 -42
q0 -48 25.5 -82.5t70.5 -52.5t101 -18q64 0 108 15.5t70.5 42t38 60.5t11.5 73q0 47 -15 101t-33 116l99 26q10 -38 16 -62.5t10 -40t8 -25.5q10 -24 28.5 -40.5t51 -27t82 -15t119.5 -4.5q57 0 102 5t79 15t56.5 24.5t33.5 33.5t11 42q0 20 -10 40.5t-32 34t-57 13.5
q-46 0 -91 -23t-85.5 -58.5t-73 -73t-53.5 -66.5l-103 7q26 43 61 87.5t75.5 85t86 72t93.5 50t98 18.5q58 0 100 -23.5t64.5 -64t22.5 -91.5q0 -47 -20 -88.5t-65 -72.5t-119.5 -48.5t-182.5 -17.5q-70 0 -124 8.5t-91.5 23.5t-59 33.5t-27.5 39.5l45 -45
q-4 -54 -23.5 -104t-58 -89.5t-100 -62.5t-149.5 -23zM1082 609q-22 0 -37.5 16t-15.5 37q0 22 15.5 38t37.5 16t37.5 -16t15.5 -38q0 -21 -15.5 -37t-37.5 -16zM1011 493q-22 0 -38 15.5t-16 37.5t16 37.5t38 15.5t37.5 -15.5t15.5 -37.5t-15.5 -37.5t-37.5 -15.5z
M1153 493q-23 0 -38.5 15.5t-15.5 37.5t15.5 37.5t38.5 15.5q21 0 36.5 -15.5t15.5 -37.5t-15.5 -37.5t-36.5 -15.5z" />
    <glyph glyph-name="uni069F.init" unicode="&#x69f;" horiz-adv-x="695" 
d="M0 -5l10 99h213q89 0 152.5 7.5t103.5 22t58.5 36.5t18.5 50q0 18 -10.5 37.5t-32 32.5t-56.5 13q-45 0 -89.5 -22.5t-84.5 -57.5t-73 -73.5t-54 -69.5l-106 8q35 56 81 112t100 101.5t113 73.5t120 28q59 0 100.5 -24t64 -64.5t22.5 -92.5q0 -53 -34.5 -101.5
t-118.5 -78.5q-41 -14 -91.5 -22t-116.5 -11.5t-152 -3.5h-138zM98 95l-21 624h99l19 -529zM424 609q-22 0 -37.5 16t-15.5 37q0 22 15.5 38t37.5 16t37.5 -16t15.5 -38q0 -21 -15.5 -37t-37.5 -16zM353 493q-22 0 -38 15.5t-16 37.5t16 37.5t38 15.5t37.5 -15.5t15.5 -37.5
t-15.5 -37.5t-37.5 -15.5zM495 493q-23 0 -38.5 15.5t-15.5 37.5t15.5 37.5t38.5 15.5q21 0 36.5 -15.5t15.5 -37.5t-15.5 -37.5t-36.5 -15.5z" />
    <glyph glyph-name="uni069F.medi" unicode="&#x69f;" horiz-adv-x="725" 
d="M725 -5q-33 0 -75 6.5t-81.5 21.5t-66.5 38l85 58q35 -15 72.5 -20t75.5 -5q26 0 37.5 -14t11.5 -33q0 -21 -16 -36.5t-43 -15.5zM0 -5l10 99h213q89 0 152.5 7.5t103.5 22t58.5 36.5t18.5 50q0 18 -10.5 37.5t-32 32.5t-56.5 13q-45 0 -89.5 -22.5t-84.5 -57.5
t-73 -73.5t-54 -69.5l-106 8q35 56 81 112t100 101.5t113 73.5t120 28q59 0 100.5 -24t64 -64.5t22.5 -92.5q0 -53 -34.5 -101.5t-118.5 -78.5q-41 -14 -91.5 -22t-116.5 -11.5t-152 -3.5h-138zM98 95l-21 624h99l19 -529zM424 609q-22 0 -37.5 16t-15.5 37q0 22 15.5 38
t37.5 16t37.5 -16t15.5 -38q0 -21 -15.5 -37t-37.5 -16zM353 493q-22 0 -38 15.5t-16 37.5t16 37.5t38 15.5t37.5 -15.5t15.5 -37.5t-15.5 -37.5t-37.5 -15.5zM495 493q-23 0 -38.5 15.5t-15.5 37.5t15.5 37.5t38.5 15.5q21 0 36.5 -15.5t15.5 -37.5t-15.5 -37.5
t-36.5 -15.5z" />
    <glyph glyph-name="uni069F.fina" unicode="&#x69f;" horiz-adv-x="840" 
d="M840 -5q-34 0 -75.5 6.5t-81 21.5t-66.5 38l84 58q35 -15 73 -20t76 -5q26 0 37.5 -14t11.5 -33q0 -21 -16 -36.5t-43 -15.5zM374 -13q-59 0 -111.5 2t-97.5 4t-81.5 6t-63.5 7l11 96q35 -5 74.5 -8t83.5 -4.5t92 -2.5t102 -1q71 0 124.5 8t88 23t52.5 37.5t18 50.5
q0 21 -10.5 41t-32.5 34t-57 14q-45 0 -89.5 -23t-84.5 -58t-72 -72.5t-53 -67.5l-107 7q35 55 80.5 110.5t99.5 101.5t113.5 73.5t120.5 27.5q58 0 99.5 -23.5t64.5 -64t23 -91.5q0 -63 -36.5 -114.5t-121 -82t-229.5 -30.5zM213 99l-20 620h98l20 -525zM537 610
q-22 0 -37.5 16t-15.5 37q0 22 15.5 38t37.5 16t37.5 -16t15.5 -38q0 -21 -15.5 -37t-37.5 -16zM466 494q-22 0 -38 15.5t-16 37.5t16 37.5t38 15.5t37.5 -15.5t15.5 -37.5t-15.5 -37.5t-37.5 -15.5zM608 494q-23 0 -38.5 15.5t-15.5 37.5t15.5 37.5t38.5 15.5
q21 0 36.5 -15.5t15.5 -37.5t-15.5 -37.5t-36.5 -15.5z" />
    <glyph glyph-name="uni06A0.init" unicode="&#x6a0;" horiz-adv-x="519" 
d="M0 -5l10 99q58 0 90 1t47 2.5t22 1.5q-16 10 -37.5 31t-38 53.5t-16.5 77.5q0 58 28 102t77 68.5t111 24.5q26 0 52 -4t52 -12l-19 -94q-20 5 -42 8t-40 3q-35 0 -62 -12.5t-42 -35t-15 -53.5q0 -24 9.5 -43.5t25 -35t35 -26t38 -16t32.5 -5.5q16 5 28.5 8.5t26.5 8.5
t33 13t49 21l33 -90q-72 -31 -144.5 -52.5t-155.5 -32.5t-187 -11zM271 672q-22 0 -37.5 16t-15.5 37q0 22 15.5 38t37.5 16t37.5 -16t15.5 -38q0 -21 -15.5 -37t-37.5 -16zM200 556q-22 0 -38 15.5t-16 37.5t16 37.5t38 15.5t37.5 -15.5t15.5 -37.5t-15.5 -37.5
t-37.5 -15.5zM342 556q-23 0 -38.5 15.5t-15.5 37.5t15.5 37.5t38.5 15.5q21 0 36.5 -15.5t15.5 -37.5t-15.5 -37.5t-36.5 -15.5z" />
    <glyph glyph-name="uni06A0.medi" unicode="&#x6a0;" horiz-adv-x="530" 
d="M-1 -5l10 99q63 0 117 11t97.5 29.5t74.5 42.5t48 50.5t17 52.5q0 13 -8.5 25.5t-28 21.5t-52.5 9q-20 0 -44 -5.5t-46.5 -14.5t-38.5 -20q25 -21 49 -43t49 -47t50 -54q23 -15 50.5 -26t60 -18t67 -10.5t69.5 -3.5q26 0 37.5 -14t11.5 -33q0 -21 -16 -36.5t-43 -15.5
q-63 0 -121.5 11t-108 33.5t-86.5 56.5q-16 21 -37 44t-45.5 45.5t-49.5 41.5q-6 4 -12 18.5t-10.5 30t-4.5 22.5q0 18 20 40.5t53.5 43t75.5 33.5t86 13q59 0 96 -17t55 -45.5t18 -62.5q0 -45 -21.5 -89.5t-62.5 -84t-97.5 -70t-127 -47.5t-151.5 -17zM285 645
q-22 0 -37.5 16t-15.5 37q0 22 15.5 38t37.5 16t37.5 -16t15.5 -38q0 -21 -15.5 -37t-37.5 -16zM214 529q-22 0 -38 15.5t-16 37.5t16 37.5t38 15.5t37.5 -15.5t15.5 -37.5t-15.5 -37.5t-37.5 -15.5zM356 529q-23 0 -38.5 15.5t-15.5 37.5t15.5 37.5t38.5 15.5
q21 0 36.5 -15.5t15.5 -37.5t-15.5 -37.5t-36.5 -15.5z" />
    <glyph glyph-name="uni06A0.fina" unicode="&#x6a0;" horiz-adv-x="543" 
d="M306 -394q-52 0 -104 10t-95.5 35t-70.5 69t-27 109q0 67 26 117.5t67 88.5t87 69t87 58.5t66.5 55.5t25.5 62q0 13 -7.5 25.5t-25 21.5t-47.5 9q-20 0 -44.5 -5.5t-46.5 -14.5t-38 -20q27 -22 51 -44.5t48 -46.5t48 -51q24 -14 49.5 -24.5t54 -18.5t63.5 -12.5t80 -4.5
q26 0 37 -14t11 -33q0 -21 -16 -36.5t-42 -15.5q-83 0 -139 12.5t-96.5 35.5t-79.5 53q-16 21 -37.5 44t-45.5 46t-49 41q-5 4 -11 18.5t-10.5 30t-4.5 22.5q0 17 19 39.5t51.5 43t75 34t89.5 13.5q79 0 119.5 -36.5t40.5 -89.5t-26 -95.5t-66.5 -77t-85.5 -66t-85.5 -64.5
t-66.5 -71t-26 -86q0 -42 20.5 -69t51.5 -41.5t65 -20.5t60 -6q34 0 69.5 5t74 16t78.5 27l31 -81q-32 -18 -74 -33.5t-88.5 -24t-90.5 -8.5zM306 645q-22 0 -37.5 16t-15.5 37q0 22 15.5 38t37.5 16t37.5 -16t15.5 -38q0 -21 -15.5 -37t-37.5 -16zM235 529q-22 0 -38 15.5
t-16 37.5t16 37.5t38 15.5t37.5 -15.5t15.5 -37.5t-15.5 -37.5t-37.5 -15.5zM377 529q-23 0 -38.5 15.5t-15.5 37.5t15.5 37.5t38.5 15.5q21 0 36.5 -15.5t15.5 -37.5t-15.5 -37.5t-36.5 -15.5z" />
    <glyph glyph-name="uni06A1.init" unicode="&#x6a1;" horiz-adv-x="464" 
d="M0 -5l10 99q42 0 78.5 0.5t67 2.5t53.5 6t39 10q29 12 45.5 30.5t24 49t7.5 77.5q0 44 -10 79.5t-29 56t-45 20.5q-21 0 -38 -15.5t-27 -40t-10 -50.5q0 -18 8 -31.5t26.5 -21t47.5 -7.5q27 0 55 5.5t49 15.5l4 -84q-16 -11 -36 -18.5t-42.5 -11t-45.5 -3.5
q-51 0 -87.5 16t-56 45.5t-19.5 72.5q0 40 13 80t37 73t57 53t73 20q58 0 96.5 -36t57 -95.5t18.5 -128.5q0 -73 -24 -126.5t-75 -86.5q-23 -17 -55 -28t-72.5 -17.5t-89 -8.5t-105.5 -2z" />
    <glyph glyph-name="uni06A1.medi" unicode="&#x6a1;" horiz-adv-x="505" 
d="M0 -5l10 99q29 0 57.5 0.5t54.5 3.5t49 6.5t41 8.5q34 11 62 28.5t45 41.5t17 55q0 21 -10 44t-27.5 38.5t-40.5 15.5t-41.5 -14.5t-30 -38t-11.5 -49.5q0 -29 14.5 -52.5t36.5 -41t47 -29.5l-106 -35q-18 15 -39 37t-36.5 53.5t-15.5 71.5q0 42 15.5 77.5t42 62t59.5 41
t68 14.5q52 0 91 -27t60.5 -69.5t21.5 -90.5q0 -44 -16.5 -80t-44.5 -63.5t-64.5 -47.5t-76.5 -33q-22 -7 -48.5 -12t-57 -8.5t-62.5 -5t-64 -1.5zM505 -5q-53 0 -107 6.5t-101.5 17.5t-79.5 25l69 67q30 -5 70.5 -9t82.5 -6t76 -2q26 0 37.5 -14t11.5 -33q0 -21 -16 -36.5
t-43 -15.5z" />
    <glyph glyph-name="uni06A1.fina" unicode="&#x6a1;" horiz-adv-x="1103" 
d="M400 -21l26 99q70 0 131 3.5t111 8.5t86.5 11t55.5 12q34 11 62 28t45 40.5t17 53.5q0 16 -6 33.5t-16.5 33t-25 25t-30.5 9.5q-22 0 -41 -15.5t-30.5 -39.5t-11.5 -50q0 -28 14.5 -50t37 -39t46.5 -28l-107 -38q-17 15 -38 36t-36.5 51.5t-15.5 69.5q0 42 15.5 78
t42 63.5t59.5 43t68 15.5q51 0 90 -28t61 -72.5t22 -91.5q0 -44 -16.5 -79t-45 -61.5t-65 -46t-75.5 -32.5q-24 -8 -68 -15.5t-102 -13.5t-124.5 -10t-135.5 -4zM1103 -5q-53 0 -104.5 5.5t-98.5 16.5t-85 27l69 65q30 -5 70.5 -8.5t82.5 -5t76 -1.5q26 0 37.5 -14t11.5 -33
q0 -21 -16 -36.5t-43 -15.5zM400 -21q-95 0 -164.5 13t-115 39t-67.5 65t-22 92q0 28 4 56t11.5 56t14.5 53l89 -21q-4 -16 -9 -37t-8 -41.5t-3 -36.5q0 -48 26.5 -78.5t91 -45.5t178.5 -15l20 -67z" />
    <glyph glyph-name="fehDotMovedbelowar.init" unicode="&#x6a2;" horiz-adv-x="464" 
d="M0 -5l10 99q42 0 78.5 0.5t67 2.5t53.5 6t39 10q29 12 45.5 30.5t24 49t7.5 77.5q0 44 -10 79.5t-29 56t-45 20.5q-21 0 -38 -15.5t-27 -40t-10 -50.5q0 -18 8 -31.5t26.5 -21t47.5 -7.5q27 0 55 5.5t49 15.5l4 -84q-16 -11 -36 -18.5t-42.5 -11t-45.5 -3.5
q-51 0 -87.5 16t-56 45.5t-19.5 72.5q0 40 13 80t37 73t57 53t73 20q58 0 96.5 -36t57 -95.5t18.5 -128.5q0 -73 -24 -126.5t-75 -86.5q-23 -17 -55 -28t-72.5 -17.5t-89 -8.5t-105.5 -2zM207 -207q-24 0 -40 16t-16 39q0 22 16 39t40 17q22 0 38.5 -17t16.5 -39
q0 -23 -16.5 -39t-38.5 -16z" />
    <glyph glyph-name="fehDotMovedbelowar.medi" unicode="&#x6a2;" horiz-adv-x="505" 
d="M0 -5l10 99q29 0 57.5 0.5t54.5 3.5t49 6.5t41 8.5q34 11 62 28.5t45 41.5t17 55q0 21 -10 44t-27.5 38.5t-40.5 15.5t-41.5 -14.5t-30 -38t-11.5 -49.5q0 -29 14.5 -52.5t36.5 -41t47 -29.5l-106 -35q-18 15 -39 37t-36.5 53.5t-15.5 71.5q0 42 15.5 77.5t42 62t59.5 41
t68 14.5q52 0 91 -27t60.5 -69.5t21.5 -90.5q0 -44 -16.5 -80t-44.5 -63.5t-64.5 -47.5t-76.5 -33q-22 -7 -48.5 -12t-57 -8.5t-62.5 -5t-64 -1.5zM505 -5q-53 0 -107 6.5t-101.5 17.5t-79.5 25l69 67q30 -5 70.5 -9t82.5 -6t76 -2q26 0 37.5 -14t11.5 -33q0 -21 -16 -36.5
t-43 -15.5zM249 -208q-24 0 -40 16t-16 39q0 22 16 39t40 17q22 0 38.5 -17t16.5 -39q0 -23 -16.5 -39t-38.5 -16z" />
    <glyph glyph-name="fehDotMovedbelowar.fina" unicode="&#x6a2;" horiz-adv-x="1103" 
d="M400 -21l26 99q70 0 131 3.5t111 8.5t86.5 11t55.5 12q34 11 62 28t45 40.5t17 53.5q0 16 -6 33.5t-16.5 33t-25 25t-30.5 9.5q-22 0 -41 -15.5t-30.5 -39.5t-11.5 -50q0 -28 14.5 -50t37 -39t46.5 -28l-107 -38q-17 15 -38 36t-36.5 51.5t-15.5 69.5q0 42 15.5 78
t42 63.5t59.5 43t68 15.5q51 0 90 -28t61 -72.5t22 -91.5q0 -44 -16.5 -79t-45 -61.5t-65 -46t-75.5 -32.5q-24 -8 -68 -15.5t-102 -13.5t-124.5 -10t-135.5 -4zM1103 -5q-53 0 -104.5 5.5t-98.5 16.5t-85 27l69 65q30 -5 70.5 -8.5t82.5 -5t76 -1.5q26 0 37.5 -14t11.5 -33
q0 -21 -16 -36.5t-43 -15.5zM400 -21q-95 0 -164.5 13t-115 39t-67.5 65t-22 92q0 28 4 56t11.5 56t14.5 53l89 -21q-4 -16 -9 -37t-8 -41.5t-3 -36.5q0 -48 26.5 -78.5t91 -45.5t178.5 -15l20 -67zM469 -222q-24 0 -40 16t-16 39q0 22 16 39t40 17q22 0 38.5 -17t16.5 -39
q0 -23 -16.5 -39t-38.5 -16z" />
    <glyph glyph-name="uni06A3.init" unicode="&#x6a3;" horiz-adv-x="464" 
d="M0 -5l10 99q42 0 78.5 0.5t67 2.5t53.5 6t39 10q29 12 45.5 30.5t24 49t7.5 77.5q0 44 -10 79.5t-29 56t-45 20.5q-21 0 -38 -15.5t-27 -40t-10 -50.5q0 -18 8 -31.5t26.5 -21t47.5 -7.5q27 0 55 5.5t49 15.5l4 -84q-16 -11 -36 -18.5t-42.5 -11t-45.5 -3.5
q-51 0 -87.5 16t-56 45.5t-19.5 72.5q0 40 13 80t37 73t57 53t73 20q58 0 96.5 -36t57 -95.5t18.5 -128.5q0 -73 -24 -126.5t-75 -86.5q-23 -17 -55 -28t-72.5 -17.5t-89 -8.5t-105.5 -2zM235 625q-24 0 -40.5 16t-16.5 40q0 23 16.5 40t40.5 17q23 0 39.5 -17t16.5 -40
q0 -24 -16.5 -40t-39.5 -16zM207 -207q-24 0 -40 16t-16 39q0 22 16 39t40 17q22 0 38.5 -17t16.5 -39q0 -23 -16.5 -39t-38.5 -16z" />
    <glyph glyph-name="uni06A3.medi" unicode="&#x6a3;" horiz-adv-x="505" 
d="M0 -5l10 99q29 0 57.5 0.5t54.5 3.5t49 6.5t41 8.5q34 11 62 28.5t45 41.5t17 55q0 21 -10 44t-27.5 38.5t-40.5 15.5t-41.5 -14.5t-30 -38t-11.5 -49.5q0 -29 14.5 -52.5t36.5 -41t47 -29.5l-106 -35q-18 15 -39 37t-36.5 53.5t-15.5 71.5q0 42 15.5 77.5t42 62t59.5 41
t68 14.5q52 0 91 -27t60.5 -69.5t21.5 -90.5q0 -44 -16.5 -80t-44.5 -63.5t-64.5 -47.5t-76.5 -33q-22 -7 -48.5 -12t-57 -8.5t-62.5 -5t-64 -1.5zM505 -5q-53 0 -107 6.5t-101.5 17.5t-79.5 25l69 67q30 -5 70.5 -9t82.5 -6t76 -2q26 0 37.5 -14t11.5 -33q0 -21 -16 -36.5
t-43 -15.5zM255 534q-24 0 -40.5 16t-16.5 40q0 23 16.5 40t40.5 17q23 0 39.5 -17t16.5 -40q0 -24 -16.5 -40t-39.5 -16zM249 -208q-24 0 -40 16t-16 39q0 22 16 39t40 17q22 0 38.5 -17t16.5 -39q0 -23 -16.5 -39t-38.5 -16z" />
    <glyph glyph-name="uni06A3.fina" unicode="&#x6a3;" horiz-adv-x="1103" 
d="M400 -21l26 99q70 0 131 3.5t111 8.5t86.5 11t55.5 12q34 11 62 28t45 40.5t17 53.5q0 16 -6 33.5t-16.5 33t-25 25t-30.5 9.5q-22 0 -41 -15.5t-30.5 -39.5t-11.5 -50q0 -28 14.5 -50t37 -39t46.5 -28l-107 -38q-17 15 -38 36t-36.5 51.5t-15.5 69.5q0 42 15.5 78
t42 63.5t59.5 43t68 15.5q51 0 90 -28t61 -72.5t22 -91.5q0 -44 -16.5 -79t-45 -61.5t-65 -46t-75.5 -32.5q-24 -8 -68 -15.5t-102 -13.5t-124.5 -10t-135.5 -4zM1103 -5q-53 0 -104.5 5.5t-98.5 16.5t-85 27l69 65q30 -5 70.5 -8.5t82.5 -5t76 -1.5q26 0 37.5 -14t11.5 -33
q0 -21 -16 -36.5t-43 -15.5zM400 -21q-95 0 -164.5 13t-115 39t-67.5 65t-22 92q0 28 4 56t11.5 56t14.5 53l89 -21q-4 -16 -9 -37t-8 -41.5t-3 -36.5q0 -48 26.5 -78.5t91 -45.5t178.5 -15l20 -67zM853 534q-24 0 -40.5 16t-16.5 40q0 23 16.5 40t40.5 17q23 0 39.5 -17
t16.5 -40q0 -24 -16.5 -40t-39.5 -16zM469 -222q-24 0 -40 16t-16 39q0 22 16 39t40 17q22 0 38.5 -17t16.5 -39q0 -23 -16.5 -39t-38.5 -16z" />
    <glyph glyph-name="uni06A5.init" unicode="&#x6a5;" horiz-adv-x="464" 
d="M0 -5l10 99q42 0 78.5 0.5t67 2.5t53.5 6t39 10q29 12 45.5 30.5t24 49t7.5 77.5q0 44 -10 79.5t-29 56t-45 20.5q-21 0 -38 -15.5t-27 -40t-10 -50.5q0 -18 8 -31.5t26.5 -21t47.5 -7.5q27 0 55 5.5t49 15.5l4 -84q-16 -11 -36 -18.5t-42.5 -11t-45.5 -3.5
q-51 0 -87.5 16t-56 45.5t-19.5 72.5q0 40 13 80t37 73t57 53t73 20q58 0 96.5 -36t57 -95.5t18.5 -128.5q0 -73 -24 -126.5t-75 -86.5q-23 -17 -55 -28t-72.5 -17.5t-89 -8.5t-105.5 -2zM209 -323q-23 0 -38.5 15.5t-15.5 36.5q0 22 15.5 38.5t38.5 16.5q21 0 36.5 -16.5
t15.5 -38.5q0 -21 -15.5 -36.5t-36.5 -15.5zM138 -207q-22 0 -38 15.5t-16 37.5t16 38t38 16t37.5 -16t15.5 -38t-15.5 -37.5t-37.5 -15.5zM280 -207q-22 0 -38 15.5t-16 37.5t16 38t38 16t37.5 -16t15.5 -38t-15.5 -37.5t-37.5 -15.5z" />
    <glyph glyph-name="uni06A5.medi" unicode="&#x6a5;" horiz-adv-x="505" 
d="M0 -5l10 99q29 0 57.5 0.5t54.5 3.5t49 6.5t41 8.5q34 11 62 28.5t45 41.5t17 55q0 21 -10 44t-27.5 38.5t-40.5 15.5t-41.5 -14.5t-30 -38t-11.5 -49.5q0 -29 14.5 -52.5t36.5 -41t47 -29.5l-106 -35q-18 15 -39 37t-36.5 53.5t-15.5 71.5q0 42 15.5 77.5t42 62t59.5 41
t68 14.5q52 0 91 -27t60.5 -69.5t21.5 -90.5q0 -44 -16.5 -80t-44.5 -63.5t-64.5 -47.5t-76.5 -33q-22 -7 -48.5 -12t-57 -8.5t-62.5 -5t-64 -1.5zM505 -5q-53 0 -107 6.5t-101.5 17.5t-79.5 25l69 67q30 -5 70.5 -9t82.5 -6t76 -2q26 0 37.5 -14t11.5 -33q0 -21 -16 -36.5
t-43 -15.5zM250 -323q-23 0 -38.5 15.5t-15.5 36.5q0 22 15.5 38.5t38.5 16.5q21 0 36.5 -16.5t15.5 -38.5q0 -21 -15.5 -36.5t-36.5 -15.5zM179 -207q-22 0 -38 15.5t-16 37.5t16 38t38 16t37.5 -16t15.5 -38t-15.5 -37.5t-37.5 -15.5zM321 -207q-22 0 -38 15.5t-16 37.5
t16 38t38 16t37.5 -16t15.5 -38t-15.5 -37.5t-37.5 -15.5z" />
    <glyph glyph-name="uni06A5.fina" unicode="&#x6a5;" horiz-adv-x="1103" 
d="M400 -21l26 99q70 0 131 3.5t111 8.5t86.5 11t55.5 12q34 11 62 28t45 40.5t17 53.5q0 16 -6 33.5t-16.5 33t-25 25t-30.5 9.5q-22 0 -41 -15.5t-30.5 -39.5t-11.5 -50q0 -28 14.5 -50t37 -39t46.5 -28l-107 -38q-17 15 -38 36t-36.5 51.5t-15.5 69.5q0 42 15.5 78
t42 63.5t59.5 43t68 15.5q51 0 90 -28t61 -72.5t22 -91.5q0 -44 -16.5 -79t-45 -61.5t-65 -46t-75.5 -32.5q-24 -8 -68 -15.5t-102 -13.5t-124.5 -10t-135.5 -4zM1103 -5q-53 0 -104.5 5.5t-98.5 16.5t-85 27l69 65q30 -5 70.5 -8.5t82.5 -5t76 -1.5q26 0 37.5 -14t11.5 -33
q0 -21 -16 -36.5t-43 -15.5zM400 -21q-95 0 -164.5 13t-115 39t-67.5 65t-22 92q0 28 4 56t11.5 56t14.5 53l89 -21q-4 -16 -9 -37t-8 -41.5t-3 -36.5q0 -48 26.5 -78.5t91 -45.5t178.5 -15l20 -67zM470 -337q-23 0 -38.5 15.5t-15.5 36.5q0 22 15.5 38.5t38.5 16.5
q21 0 36.5 -16.5t15.5 -38.5q0 -21 -15.5 -36.5t-36.5 -15.5zM399 -221q-22 0 -38 15.5t-16 37.5t16 38t38 16t37.5 -16t15.5 -38t-15.5 -37.5t-37.5 -15.5zM541 -221q-22 0 -38 15.5t-16 37.5t16 38t38 16t37.5 -16t15.5 -38t-15.5 -37.5t-37.5 -15.5z" />
    <glyph glyph-name="uni06A7.fina" unicode="&#x6a7;" horiz-adv-x="822" 
d="M333 -272q-62 0 -117 14t-97 43t-66 75t-24 110q0 18 3.5 46t15.5 67t38 89l87 -38q-15 -33 -24.5 -58t-13.5 -46t-4 -42q0 -57 29.5 -92t80 -51t114.5 -16q46 0 85 6.5t71 19.5t56.5 30t41 37.5t23.5 44.5q10 28 14.5 63t4.5 59q0 52 -11 88t-30 55t-42 19
q-16 0 -29.5 -9t-23.5 -23.5t-16 -32.5t-6 -37q0 -17 7.5 -28t23.5 -17.5t43.5 -9t67.5 -0.5h197q26 0 37.5 -13.5t11.5 -33.5q0 -21 -16 -36.5t-43 -15.5h-241q-40 0 -73.5 8t-58.5 24.5t-38.5 42.5t-14.5 61q-1 39 13 78t38.5 70.5t57.5 50t69 18.5q52 0 91.5 -30t62 -91
t22.5 -153q0 -33 -11.5 -80.5t-31.5 -90.5q-25 -46 -62 -79.5t-85.5 -55t-105 -31t-121.5 -9.5zM575 449q-24 0 -40.5 16t-16.5 40q0 23 16.5 40t40.5 17q23 0 39.5 -17t16.5 -40q0 -24 -16.5 -40t-39.5 -16z" />
    <glyph glyph-name="uni06A8.init" unicode="&#x6a8;" horiz-adv-x="464" 
d="M0 -5l10 99q42 0 78.5 0.5t67 2.5t53.5 6t39 10q29 12 45.5 30.5t24 49t7.5 77.5q0 44 -10 79.5t-29 56t-45 20.5q-21 0 -38 -15.5t-27 -40t-10 -50.5q0 -18 8 -31.5t26.5 -21t47.5 -7.5q27 0 55 5.5t49 15.5l4 -84q-16 -11 -36 -18.5t-42.5 -11t-45.5 -3.5
q-51 0 -87.5 16t-56 45.5t-19.5 72.5q0 40 13 80t37 73t57 53t73 20q58 0 96.5 -36t57 -95.5t18.5 -128.5q0 -73 -24 -126.5t-75 -86.5q-23 -17 -55 -28t-72.5 -17.5t-89 -8.5t-105.5 -2zM238 741q-22 0 -37.5 16t-15.5 37q0 22 15.5 38t37.5 16t37.5 -16t15.5 -38
q0 -21 -15.5 -37t-37.5 -16zM167 625q-22 0 -38 15.5t-16 37.5t16 37.5t38 15.5t37.5 -15.5t15.5 -37.5t-15.5 -37.5t-37.5 -15.5zM309 625q-23 0 -38.5 15.5t-15.5 37.5t15.5 37.5t38.5 15.5q21 0 36.5 -15.5t15.5 -37.5t-15.5 -37.5t-36.5 -15.5z" />
    <glyph glyph-name="uni06A8.medi" unicode="&#x6a8;" horiz-adv-x="505" 
d="M0 -5l10 99q29 0 57.5 0.5t54.5 3.5t49 6.5t41 8.5q34 11 62 28.5t45 41.5t17 55q0 21 -10 44t-27.5 38.5t-40.5 15.5t-41.5 -14.5t-30 -38t-11.5 -49.5q0 -29 14.5 -52.5t36.5 -41t47 -29.5l-106 -35q-18 15 -39 37t-36.5 53.5t-15.5 71.5q0 42 15.5 77.5t42 62t59.5 41
t68 14.5q52 0 91 -27t60.5 -69.5t21.5 -90.5q0 -44 -16.5 -80t-44.5 -63.5t-64.5 -47.5t-76.5 -33q-22 -7 -48.5 -12t-57 -8.5t-62.5 -5t-64 -1.5zM505 -5q-53 0 -107 6.5t-101.5 17.5t-79.5 25l69 67q30 -5 70.5 -9t82.5 -6t76 -2q26 0 37.5 -14t11.5 -33q0 -21 -16 -36.5
t-43 -15.5zM258 650q-22 0 -37.5 16t-15.5 37q0 22 15.5 38t37.5 16t37.5 -16t15.5 -38q0 -21 -15.5 -37t-37.5 -16zM187 534q-22 0 -38 15.5t-16 37.5t16 37.5t38 15.5t37.5 -15.5t15.5 -37.5t-15.5 -37.5t-37.5 -15.5zM329 534q-23 0 -38.5 15.5t-15.5 37.5t15.5 37.5
t38.5 15.5q21 0 36.5 -15.5t15.5 -37.5t-15.5 -37.5t-36.5 -15.5z" />
    <glyph glyph-name="uni06A8.fina" unicode="&#x6a8;" horiz-adv-x="822" 
d="M333 -272q-62 0 -117 14t-97 43t-66 75t-24 110q0 18 3.5 46t15.5 67t38 89l87 -38q-15 -33 -24.5 -58t-13.5 -46t-4 -42q0 -57 29.5 -92t80 -51t114.5 -16q46 0 85 6.5t71 19.5t56.5 30t41 37.5t23.5 44.5q10 28 14.5 63t4.5 59q0 52 -11 88t-30 55t-42 19
q-16 0 -29.5 -9t-23.5 -23.5t-16 -32.5t-6 -37q0 -17 7.5 -28t23.5 -17.5t43.5 -9t67.5 -0.5h197q26 0 37.5 -13.5t11.5 -33.5q0 -21 -16 -36.5t-43 -15.5h-241q-40 0 -73.5 8t-58.5 24.5t-38.5 42.5t-14.5 61q-1 39 13 78t38.5 70.5t57.5 50t69 18.5q52 0 91.5 -30t62 -91
t22.5 -153q0 -33 -11.5 -80.5t-31.5 -90.5q-25 -46 -62 -79.5t-85.5 -55t-105 -31t-121.5 -9.5zM578 565q-22 0 -37.5 16t-15.5 37q0 22 15.5 38t37.5 16t37.5 -16t15.5 -38q0 -21 -15.5 -37t-37.5 -16zM507 449q-22 0 -38 15.5t-16 37.5t16 37.5t38 15.5t37.5 -15.5
t15.5 -37.5t-15.5 -37.5t-37.5 -15.5zM649 449q-23 0 -38.5 15.5t-15.5 37.5t15.5 37.5t38.5 15.5q21 0 36.5 -15.5t15.5 -37.5t-15.5 -37.5t-36.5 -15.5z" />
    <glyph glyph-name="uni06AA.init" unicode="&#x6aa;" horiz-adv-x="778" 
d="M0 -5l10 99h289q83 0 146 1t106 5.5t64.5 15t21.5 28.5q0 14 -9.5 26t-34 23t-69.5 19.5t-116 13.5q-109 8 -174.5 20.5t-95 37t-29.5 64.5q0 44 30 80.5t82.5 66.5t122 53.5t148.5 39.5l19 -91q-91 -19 -159.5 -42.5t-106.5 -47.5t-38 -44q0 -13 20 -21t65.5 -14
t123.5 -13q94 -7 155 -21t96 -34.5t49 -48t14 -61.5q0 -48 -25 -78.5t-77.5 -47t-134 -23t-194.5 -6.5h-299z" />
    <glyph glyph-name="uni06AA.medi" unicode="&#x6aa;" horiz-adv-x="856" 
d="M856 -5q-33 0 -75 6.5t-81.5 21.5t-66.5 38l85 58q35 -15 72.5 -20t75.5 -5q26 0 37.5 -14t11.5 -33q0 -21 -16 -36.5t-43 -15.5zM0 -5l10 99h289q83 0 146 1t106 5.5t64.5 15t21.5 28.5q0 14 -9.5 26t-34 23t-69.5 19.5t-116 13.5q-109 8 -174.5 20.5t-95 37t-29.5 64.5
q0 44 30 80.5t82.5 66.5t122 53.5t148.5 39.5l19 -91q-91 -19 -159.5 -42.5t-106.5 -47.5t-38 -44q0 -13 20 -21t65.5 -14t123.5 -13q94 -7 155 -21t96 -34.5t49 -48t14 -61.5q0 -48 -25 -78.5t-77.5 -47t-134 -23t-194.5 -6.5h-299z" />
    <glyph glyph-name="uni06AA.fina" unicode="&#x6aa;" horiz-adv-x="1100" 
d="M1100 -5q-34 0 -75.5 6.5t-81 21.5t-66.5 38l84 58q36 -15 73.5 -20t75.5 -5q26 0 37.5 -14t11.5 -33q0 -21 -16 -36.5t-43 -15.5zM544 -15q-48 0 -112.5 1t-134 3t-133.5 6t-111 9l6 97q50 -3 108 -6t121 -5.5t128 -4t128 -1.5q83 0 146 2.5t106 8.5t64.5 18t21.5 31
q0 13 -9 25t-33 23t-69 20t-118 14q-109 8 -174.5 20.5t-95 37t-29.5 66.5q0 44 30.5 80.5t83.5 66t122 52.5t147 39l19 -91q-91 -19 -160 -42.5t-106.5 -47.5t-37.5 -44q0 -13 19.5 -21t65.5 -14t123 -13q95 -7 156 -21t96 -35t48.5 -48t13.5 -61q0 -48 -24.5 -80
t-77 -50.5t-134 -26.5t-194.5 -8z" />
    <glyph glyph-name="uni06AB.init" unicode="&#x6ab;" horiz-adv-x="424" 
d="M337 439q-38 0 -65 27.5t-27 65.5t27 65t65 27t65 -27t27 -65t-27 -65.5t-65 -27.5zM337 495q17 0 28.5 10.5t11.5 26.5t-11.5 27t-28.5 11q-16 0 -28 -11t-12 -27t12 -26.5t28 -10.5zM0 -5l10 99h108q48 0 77 5.5t44 14.5t20 20.5t5 24.5q0 19 -16 51t-66 81
q-26 26 -53 49t-50.5 42.5t-38 33t-14.5 20.5q0 15 2.5 30.5t7 28t11.5 19.5q19 20 51.5 41t76 45t98.5 51t120 58l41 -88q-73 -34 -125 -59.5t-90.5 -46t-69 -39.5t-58.5 -40l14 49q70 -55 119 -101.5t79.5 -87t45 -77t14.5 -71.5q0 -23 -9 -49.5t-36 -50t-79.5 -38.5
t-138.5 -15h-100z" />
    <glyph glyph-name="uni06AB.medi" unicode="&#x6ab;" horiz-adv-x="508" 
d="M340 440q-39 0 -66 27t-27 65q0 39 27 66t66 27q38 0 65 -27t27 -66q0 -38 -27 -65t-65 -27zM339 496q17 0 28.5 10.5t11.5 25.5q0 17 -11.5 28t-28.5 11q-16 0 -27.5 -11t-11.5 -28q0 -15 11.5 -25.5t27.5 -10.5zM0 -5l10 99h96q68 0 102 7.5t44.5 20.5t10.5 28
q0 22 -17 49.5t-44 57t-57 58.5t-57 53.5t-44.5 42.5t-17.5 26q0 19 3 33.5t7.5 26t11.5 18.5q19 20 54 43t81 47.5t99.5 50.5t110.5 53l41 -88q-54 -26 -103 -49.5t-92.5 -46t-80.5 -44t-67 -43.5l7 46q44 -38 83 -72.5t73 -70t63.5 -75.5t56.5 -88q21 -37 47.5 -55
t52.5 -23.5t44 -5.5q26 0 37.5 -14t11.5 -33q0 -21 -16 -36.5t-43 -15.5q-29 0 -66 9.5t-71.5 34.5t-55.5 75l37 -10q-15 -29 -35 -49t-49 -33.5t-70 -20t-98 -6.5h-100z" />
    <glyph glyph-name="uni06AB.fina" unicode="&#x6ab;" horiz-adv-x="968" 
d="M803 440q-39 0 -65.5 27t-26.5 65q0 39 26.5 66t65.5 27q38 0 65 -27t27 -66q0 -38 -27 -65t-65 -27zM803 496q16 0 27.5 10.5t11.5 25.5q0 17 -11.5 28t-27.5 11q-17 0 -28.5 -11t-11.5 -28q0 -15 11.5 -25.5t28.5 -10.5zM400 -21l26 99q87 0 145 6t91 16.5t47.5 23
t14.5 25.5q0 22 -17.5 50t-44.5 57t-57 58t-57 53.5t-44.5 42.5t-17.5 26q0 19 3 33.5t7.5 26t11.5 18.5q26 27 78.5 58.5t122 65.5t144.5 70l41 -88q-71 -34 -134.5 -65t-116 -59.5t-92.5 -58.5l7 46q45 -38 83.5 -72.5t72.5 -70t64 -75t56 -88.5q15 -28 34.5 -44.5
t39.5 -25t38.5 -11t31.5 -2.5q26 0 37.5 -14t11.5 -34q0 -21 -16 -36t-43 -15q-29 0 -66 9t-71.5 34t-55.5 75l37 -10q-16 -31 -42 -54t-71.5 -38.5t-118 -23.5t-180.5 -8zM400 -21q-95 0 -164.5 13t-115 39t-67.5 65t-22 92q0 28 4 56t11.5 56t14.5 53l89 -21
q-4 -16 -9 -37t-8 -41.5t-3 -36.5q0 -48 26.5 -78.5t91 -45.5t178.5 -15l20 -67z" />
    <glyph glyph-name="uni06AC.init" unicode="&#x6ac;" horiz-adv-x="424" 
d="M0 -5l10 99h108q48 0 77 5.5t44 14.5t20 20.5t5 24.5q0 19 -16 51t-66 81q-26 26 -53 49t-50.5 42.5t-38 33t-14.5 20.5q0 15 2.5 30.5t7 28t11.5 19.5q19 20 51.5 41t76 45t98.5 51t120 58l41 -88q-73 -34 -125 -59.5t-90.5 -46t-69 -39.5t-58.5 -40l14 49
q70 -55 119 -101.5t79.5 -87t45 -77t14.5 -71.5q0 -23 -9 -49.5t-36 -50t-79.5 -38.5t-138.5 -15h-100zM188 718q-24 0 -40.5 16t-16.5 40q0 23 16.5 40t40.5 17q23 0 39.5 -17t16.5 -40q0 -24 -16.5 -40t-39.5 -16z" />
    <glyph glyph-name="uni06AC.medi" unicode="&#x6ac;" horiz-adv-x="508" 
d="M0 -5l10 99h96q68 0 102 7.5t44.5 20.5t10.5 28q0 22 -17 49.5t-44 57t-57 58.5t-57 53.5t-44.5 42.5t-17.5 26q0 19 3 33.5t7.5 26t11.5 18.5q19 20 54 43t81 47.5t99.5 50.5t110.5 53l41 -88q-54 -26 -103 -49.5t-92.5 -46t-80.5 -44t-67 -43.5l7 46q44 -38 83 -72.5
t73 -70t63.5 -75.5t56.5 -88q21 -37 47.5 -55t52.5 -23.5t44 -5.5q26 0 37.5 -14t11.5 -33q0 -21 -16 -36.5t-43 -15.5q-29 0 -66 9.5t-71.5 34.5t-55.5 75l37 -10q-15 -29 -35 -49t-49 -33.5t-70 -20t-98 -6.5h-100zM160 718q-24 0 -40.5 16t-16.5 40q0 23 16.5 40t40.5 17
q23 0 39.5 -17t16.5 -40q0 -24 -16.5 -40t-39.5 -16z" />
    <glyph glyph-name="uni06AC.fina" unicode="&#x6ac;" horiz-adv-x="937" 
d="M400 -21l26 99q97 0 159.5 7t96.5 24t46.5 46t10.5 72l-20 492h99l20 -488q2 -54 15.5 -83.5t38 -41.5t55.5 -12q26 0 37.5 -14t11.5 -33q0 -21 -16 -36.5t-43 -15.5q-46 0 -76.5 13.5t-48.5 37t-24 54.5l28 -1q-20 -36 -56 -59.5t-87 -37t-119 -18.5t-154 -5zM368 208
l-22 73q40 11 65 18.5t36.5 15t11.5 14.5q0 11 -10.5 20.5t-24 21t-24.5 26t-11 34.5t11.5 40.5t40 42t78.5 44.5l34 -66q-45 -21 -64 -35.5t-19 -26.5q0 -9 10.5 -19.5t24 -23.5t24.5 -29t11 -36q0 -15 -6 -29.5t-24.5 -29t-52 -28t-89.5 -27.5zM400 -21q-95 0 -164.5 13
t-115 39t-67.5 65t-22 92q0 28 4 56t11.5 56t14.5 53l89 -21q-4 -16 -9 -37t-8 -41.5t-3 -36.5q0 -48 26.5 -78.5t91 -45.5t178.5 -15l20 -67zM467 645q-24 0 -40.5 16t-16.5 40q0 23 16.5 40t40.5 17q23 0 39.5 -17t16.5 -40q0 -24 -16.5 -40t-39.5 -16z" />
    <glyph glyph-name="uni06AE.init" unicode="&#x6ae;" horiz-adv-x="424" 
d="M0 -5l10 99h108q48 0 77 5.5t44 14.5t20 20.5t5 24.5q0 19 -16 51t-66 81q-26 26 -53 49t-50.5 42.5t-38 33t-14.5 20.5q0 15 2.5 30.5t7 28t11.5 19.5q19 20 51.5 41t76 45t98.5 51t120 58l41 -88q-73 -34 -125 -59.5t-90.5 -46t-69 -39.5t-58.5 -40l14 49
q70 -55 119 -101.5t79.5 -87t45 -77t14.5 -71.5q0 -23 -9 -49.5t-36 -50t-79.5 -38.5t-138.5 -15h-100zM174 -314q-23 0 -38.5 15.5t-15.5 36.5q0 22 15.5 38.5t38.5 16.5q21 0 36.5 -16.5t15.5 -38.5q0 -21 -15.5 -36.5t-36.5 -15.5zM103 -198q-22 0 -38 15.5t-16 37.5
t16 38t38 16t37.5 -16t15.5 -38t-15.5 -37.5t-37.5 -15.5zM245 -198q-22 0 -38 15.5t-16 37.5t16 38t38 16t37.5 -16t15.5 -38t-15.5 -37.5t-37.5 -15.5z" />
    <glyph glyph-name="uni06AE.medi" unicode="&#x6ae;" horiz-adv-x="508" 
d="M0 -5l10 99h96q68 0 102 7.5t44.5 20.5t10.5 28q0 22 -17 49.5t-44 57t-57 58.5t-57 53.5t-44.5 42.5t-17.5 26q0 19 3 33.5t7.5 26t11.5 18.5q19 20 54 43t81 47.5t99.5 50.5t110.5 53l41 -88q-54 -26 -103 -49.5t-92.5 -46t-80.5 -44t-67 -43.5l7 46q44 -38 83 -72.5
t73 -70t63.5 -75.5t56.5 -88q21 -37 47.5 -55t52.5 -23.5t44 -5.5q26 0 37.5 -14t11.5 -33q0 -21 -16 -36.5t-43 -15.5q-29 0 -66 9.5t-71.5 34.5t-55.5 75l37 -10q-15 -29 -35 -49t-49 -33.5t-70 -20t-98 -6.5h-100zM174 -314q-23 0 -38.5 15.5t-15.5 36.5q0 22 15.5 38.5
t38.5 16.5q21 0 36.5 -16.5t15.5 -38.5q0 -21 -15.5 -36.5t-36.5 -15.5zM103 -198q-22 0 -38 15.5t-16 37.5t16 38t38 16t37.5 -16t15.5 -38t-15.5 -37.5t-37.5 -15.5zM245 -198q-22 0 -38 15.5t-16 37.5t16 38t38 16t37.5 -16t15.5 -38t-15.5 -37.5t-37.5 -15.5z" />
    <glyph glyph-name="uni06AE.fina" unicode="&#x6ae;" horiz-adv-x="937" 
d="M400 -21l26 99q97 0 159.5 7t96.5 24t46.5 46t10.5 72l-20 492h99l20 -488q2 -54 15.5 -83.5t38 -41.5t55.5 -12q26 0 37.5 -14t11.5 -33q0 -21 -16 -36.5t-43 -15.5q-46 0 -76.5 13.5t-48.5 37t-24 54.5l28 -1q-20 -36 -56 -59.5t-87 -37t-119 -18.5t-154 -5zM368 208
l-22 73q40 11 65 18.5t36.5 15t11.5 14.5q0 11 -10.5 20.5t-24 21t-24.5 26t-11 34.5t11.5 40.5t40 42t78.5 44.5l34 -66q-45 -21 -64 -35.5t-19 -26.5q0 -9 10.5 -19.5t24 -23.5t24.5 -29t11 -36q0 -15 -6 -29.5t-24.5 -29t-52 -28t-89.5 -27.5zM400 -21q-95 0 -164.5 13
t-115 39t-67.5 65t-22 92q0 28 4 56t11.5 56t14.5 53l89 -21q-4 -16 -9 -37t-8 -41.5t-3 -36.5q0 -48 26.5 -78.5t91 -45.5t178.5 -15l20 -67zM417 -335q-23 0 -38.5 15.5t-15.5 36.5q0 22 15.5 38.5t38.5 16.5q21 0 36.5 -16.5t15.5 -38.5q0 -21 -15.5 -36.5t-36.5 -15.5z
M346 -219q-22 0 -38 15.5t-16 37.5t16 38t38 16t37.5 -16t15.5 -38t-15.5 -37.5t-37.5 -15.5zM488 -219q-22 0 -38 15.5t-16 37.5t16 38t38 16t37.5 -16t15.5 -38t-15.5 -37.5t-37.5 -15.5z" />
    <glyph glyph-name="uni06B0.init" unicode="&#x6b0;" horiz-adv-x="424" 
d="M340 441q-38 0 -65 27t-27 65t27 65t65 27t65 -27t27 -65t-27 -65t-65 -27zM340 496q16 0 28 10.5t12 26.5q0 17 -12 28t-28 11q-17 0 -28.5 -11t-11.5 -28q0 -16 11.5 -26.5t28.5 -10.5zM0 560l-40 64q42 25 95.5 57t122.5 70.5t156 83.5l33 -69q-88 -45 -154.5 -82
t-118 -67t-94.5 -57zM0 -5l10 99h108q48 0 77 5.5t44 14.5t20 20.5t5 24.5q0 19 -16 51t-66 81q-26 26 -53 49t-50.5 42.5t-38 33t-14.5 20.5q0 15 2.5 30.5t7 28t11.5 19.5q19 20 51.5 41t76 45t98.5 51t120 58l41 -88q-73 -34 -125 -59.5t-90.5 -46t-69 -39.5t-58.5 -40
l14 49q70 -55 119 -101.5t79.5 -87t45 -77t14.5 -71.5q0 -23 -9 -49.5t-36 -50t-79.5 -38.5t-138.5 -15h-100z" />
    <glyph glyph-name="uni06B0.medi" unicode="&#x6b0;" horiz-adv-x="508" 
d="M338 439q-38 0 -65 27.5t-27 65.5t27 65t65 27t65 -27t27 -65t-27 -65.5t-65 -27.5zM338 495q17 0 28.5 10.5t11.5 26.5t-11.5 27t-28.5 11q-16 0 -28 -11t-12 -27t12 -26.5t28 -10.5zM2 560l-41 64q42 25 96 57t123 70.5t155 83.5l33 -69q-87 -45 -153.5 -82t-118.5 -67
t-94 -57zM0 -5l10 99h96q68 0 102 7.5t44.5 20.5t10.5 28q0 22 -17 49.5t-44 57t-57 58.5t-57 53.5t-44.5 42.5t-17.5 26q0 19 3 33.5t7.5 26t11.5 18.5q19 20 54 43t81 47.5t99.5 50.5t110.5 53l41 -88q-54 -26 -103 -49.5t-92.5 -46t-80.5 -44t-67 -43.5l7 46
q44 -38 83 -72.5t73 -70t63.5 -75.5t56.5 -88q21 -37 47.5 -55t52.5 -23.5t44 -5.5q26 0 37.5 -14t11.5 -33q0 -21 -16 -36.5t-43 -15.5q-29 0 -66 9.5t-71.5 34.5t-55.5 75l37 -10q-15 -29 -35 -49t-49 -33.5t-70 -20t-98 -6.5h-100z" />
    <glyph glyph-name="uni06B0.fina" unicode="&#x6b0;" horiz-adv-x="968" 
d="M807 442q-38 0 -65 27t-27 66q0 38 27 65t65 27t65 -27t27 -65q0 -39 -27 -66t-65 -27zM807 498q16 0 28 10.5t12 26.5t-12 27t-28 11q-17 0 -28.5 -11t-11.5 -27t11.5 -26.5t28.5 -10.5zM459 560l-40 64q42 25 95.5 57t122.5 70.5t156 83.5l33 -69q-88 -45 -154.5 -82
t-118 -67t-94.5 -57zM400 -21l26 99q87 0 145 6t91 16.5t47.5 23t14.5 25.5q0 22 -17.5 50t-44.5 57t-57 58t-57 53.5t-44.5 42.5t-17.5 26q0 19 3 33.5t7.5 26t11.5 18.5q26 27 78.5 58.5t122 65.5t144.5 70l41 -88q-71 -34 -134.5 -65t-116 -59.5t-92.5 -58.5l7 46
q45 -38 83.5 -72.5t72.5 -70t64 -75t56 -88.5q15 -28 34.5 -44.5t39.5 -25t38.5 -11t31.5 -2.5q26 0 37.5 -14t11.5 -34q0 -21 -16 -36t-43 -15q-29 0 -66 9t-71.5 34t-55.5 75l37 -10q-16 -31 -42 -54t-71.5 -38.5t-118 -23.5t-180.5 -8zM400 -21q-95 0 -164.5 13t-115 39
t-67.5 65t-22 92q0 28 4 56t11.5 56t14.5 53l89 -21q-4 -16 -9 -37t-8 -41.5t-3 -36.5q0 -48 26.5 -78.5t91 -45.5t178.5 -15l20 -67z" />
    <glyph glyph-name="uni06B2.init" unicode="&#x6b2;" horiz-adv-x="424" 
d="M0 560l-40 64q42 25 95.5 57t122.5 70.5t156 83.5l33 -69q-88 -45 -154.5 -82t-118 -67t-94.5 -57zM0 -5l10 99h108q48 0 77 5.5t44 14.5t20 20.5t5 24.5q0 19 -16 51t-66 81q-26 26 -53 49t-50.5 42.5t-38 33t-14.5 20.5q0 15 2.5 30.5t7 28t11.5 19.5q19 20 51.5 41
t76 45t98.5 51t120 58l41 -88q-73 -34 -125 -59.5t-90.5 -46t-69 -39.5t-58.5 -40l14 49q70 -55 119 -101.5t79.5 -87t45 -77t14.5 -71.5q0 -23 -9 -49.5t-36 -50t-79.5 -38.5t-138.5 -15h-100zM240 -202q-23 0 -39.5 16.5t-16.5 38.5q0 23 16.5 39.5t39.5 16.5t39 -16.5
t16 -39.5q0 -22 -16 -38.5t-39 -16.5zM93 -202q-24 0 -40 16.5t-16 38.5q0 23 16 39.5t40 16.5q22 0 38 -16.5t16 -39.5q0 -22 -16 -38.5t-38 -16.5z" />
    <glyph glyph-name="uni06B2.medi" unicode="&#x6b2;" horiz-adv-x="508" 
d="M2 560l-41 64q42 25 96 57t123 70.5t155 83.5l33 -69q-87 -45 -153.5 -82t-118.5 -67t-94 -57zM0 -5l10 99h96q68 0 102 7.5t44.5 20.5t10.5 28q0 22 -17 49.5t-44 57t-57 58.5t-57 53.5t-44.5 42.5t-17.5 26q0 19 3 33.5t7.5 26t11.5 18.5q19 20 54 43t81 47.5
t99.5 50.5t110.5 53l41 -88q-54 -26 -103 -49.5t-92.5 -46t-80.5 -44t-67 -43.5l7 46q44 -38 83 -72.5t73 -70t63.5 -75.5t56.5 -88q21 -37 47.5 -55t52.5 -23.5t44 -5.5q26 0 37.5 -14t11.5 -33q0 -21 -16 -36.5t-43 -15.5q-29 0 -66 9.5t-71.5 34.5t-55.5 75l37 -10
q-15 -29 -35 -49t-49 -33.5t-70 -20t-98 -6.5h-100zM240 -202q-23 0 -39.5 16.5t-16.5 38.5q0 23 16.5 39.5t39.5 16.5t39 -16.5t16 -39.5q0 -22 -16 -38.5t-39 -16.5zM93 -202q-24 0 -40 16.5t-16 38.5q0 23 16 39.5t40 16.5q22 0 38 -16.5t16 -39.5q0 -22 -16 -38.5
t-38 -16.5z" />
    <glyph glyph-name="uni06B2.fina" unicode="&#x6b2;" horiz-adv-x="968" 
d="M459 560l-40 64q42 25 95.5 57t122.5 70.5t156 83.5l33 -69q-88 -45 -154.5 -82t-118 -67t-94.5 -57zM400 -21l26 99q87 0 145 6t91 16.5t47.5 23t14.5 25.5q0 22 -17.5 50t-44.5 57t-57 58t-57 53.5t-44.5 42.5t-17.5 26q0 19 3 33.5t7.5 26t11.5 18.5q26 27 78.5 58.5
t122 65.5t144.5 70l41 -88q-71 -34 -134.5 -65t-116 -59.5t-92.5 -58.5l7 46q45 -38 83.5 -72.5t72.5 -70t64 -75t56 -88.5q15 -28 34.5 -44.5t39.5 -25t38.5 -11t31.5 -2.5q26 0 37.5 -14t11.5 -34q0 -21 -16 -36t-43 -15q-29 0 -66 9t-71.5 34t-55.5 75l37 -10
q-16 -31 -42 -54t-71.5 -38.5t-118 -23.5t-180.5 -8zM400 -21q-95 0 -164.5 13t-115 39t-67.5 65t-22 92q0 28 4 56t11.5 56t14.5 53l89 -21q-4 -16 -9 -37t-8 -41.5t-3 -36.5q0 -48 26.5 -78.5t91 -45.5t178.5 -15l20 -67zM487 -223q-23 0 -39.5 16.5t-16.5 38.5
q0 23 16.5 39.5t39.5 16.5t39 -16.5t16 -39.5q0 -22 -16 -38.5t-39 -16.5zM340 -223q-24 0 -40 16.5t-16 38.5q0 23 16 39.5t40 16.5q22 0 38 -16.5t16 -39.5q0 -22 -16 -38.5t-38 -16.5z" />
    <glyph glyph-name="uni06B4.init" unicode="&#x6b4;" horiz-adv-x="424" 
d="M70 886q-21 0 -35.5 14.5t-14.5 34.5q0 21 14.5 36t35.5 15q20 0 35 -15t15 -36q0 -20 -15 -34.5t-35 -14.5zM63 762q-21 0 -35.5 14.5t-14.5 35.5q0 20 14.5 35.5t35.5 15.5q20 0 35 -15.5t15 -35.5q0 -21 -15 -35.5t-35 -14.5zM175 816q-21 0 -35.5 15t-14.5 35
t14.5 35.5t35.5 15.5q20 0 35 -15.5t15 -35.5t-15 -35t-35 -15zM0 560l-40 64q42 25 95.5 57t122.5 70.5t156 83.5l33 -69q-88 -45 -154.5 -82t-118 -67t-94.5 -57zM0 -5l10 99h108q48 0 77 5.5t44 14.5t20 20.5t5 24.5q0 19 -16 51t-66 81q-26 26 -53 49t-50.5 42.5t-38 33
t-14.5 20.5q0 15 2.5 30.5t7 28t11.5 19.5q19 20 51.5 41t76 45t98.5 51t120 58l41 -88q-73 -34 -125 -59.5t-90.5 -46t-69 -39.5t-58.5 -40l14 49q70 -55 119 -101.5t79.5 -87t45 -77t14.5 -71.5q0 -23 -9 -49.5t-36 -50t-79.5 -38.5t-138.5 -15h-100z" />
    <glyph glyph-name="uni06B4.medi" unicode="&#x6b4;" horiz-adv-x="508" 
d="M67 886q-21 0 -36 14.5t-15 34.5q0 21 15 36t36 15q20 0 35 -15t15 -36q0 -20 -15 -34.5t-35 -14.5zM60 762q-21 0 -36 14.5t-15 35.5q0 20 15 35.5t36 15.5q20 0 35 -15.5t15 -35.5q0 -21 -15 -35.5t-35 -14.5zM172 816q-21 0 -36 15t-15 35t15 35.5t36 15.5
q20 0 35 -15.5t15 -35.5t-15 -35t-35 -15zM2 560l-41 64q42 25 96 57t123 70.5t155 83.5l33 -69q-87 -45 -153.5 -82t-118.5 -67t-94 -57zM0 -5l10 99h96q68 0 102 7.5t44.5 20.5t10.5 28q0 22 -17 49.5t-44 57t-57 58.5t-57 53.5t-44.5 42.5t-17.5 26q0 19 3 33.5t7.5 26
t11.5 18.5q19 20 54 43t81 47.5t99.5 50.5t110.5 53l41 -88q-54 -26 -103 -49.5t-92.5 -46t-80.5 -44t-67 -43.5l7 46q44 -38 83 -72.5t73 -70t63.5 -75.5t56.5 -88q21 -37 47.5 -55t52.5 -23.5t44 -5.5q26 0 37.5 -14t11.5 -33q0 -21 -16 -36.5t-43 -15.5q-29 0 -66 9.5
t-71.5 34.5t-55.5 75l37 -10q-15 -29 -35 -49t-49 -33.5t-70 -20t-98 -6.5h-100z" />
    <glyph glyph-name="uni06B4.fina" unicode="&#x6b4;" horiz-adv-x="968" 
d="M520 889q-21 0 -35.5 14.5t-14.5 34.5q0 21 14.5 36t35.5 15t35.5 -15t14.5 -36q0 -20 -14.5 -34.5t-35.5 -14.5zM513 765q-21 0 -35.5 14.5t-14.5 35.5q0 20 14.5 35t35.5 15t35.5 -15t14.5 -35q0 -21 -14.5 -35.5t-35.5 -14.5zM625 819q-21 0 -35.5 14.5t-14.5 35.5
q0 20 14.5 35.5t35.5 15.5t35.5 -15.5t14.5 -35.5q0 -21 -14.5 -35.5t-35.5 -14.5zM459 560l-40 64q42 25 95.5 57t122.5 70.5t156 83.5l33 -69q-88 -45 -154.5 -82t-118 -67t-94.5 -57zM400 -21l26 99q87 0 145 6t91 16.5t47.5 23t14.5 25.5q0 22 -17.5 50t-44.5 57t-57 58
t-57 53.5t-44.5 42.5t-17.5 26q0 19 3 33.5t7.5 26t11.5 18.5q26 27 78.5 58.5t122 65.5t144.5 70l41 -88q-71 -34 -134.5 -65t-116 -59.5t-92.5 -58.5l7 46q45 -38 83.5 -72.5t72.5 -70t64 -75t56 -88.5q15 -28 34.5 -44.5t39.5 -25t38.5 -11t31.5 -2.5q26 0 37.5 -14
t11.5 -34q0 -21 -16 -36t-43 -15q-29 0 -66 9t-71.5 34t-55.5 75l37 -10q-16 -31 -42 -54t-71.5 -38.5t-118 -23.5t-180.5 -8zM400 -21q-95 0 -164.5 13t-115 39t-67.5 65t-22 92q0 28 4 56t11.5 56t14.5 53l89 -21q-4 -16 -9 -37t-8 -41.5t-3 -36.5q0 -48 26.5 -78.5
t91 -45.5t178.5 -15l20 -67z" />
    <glyph glyph-name="uni06B5.init" unicode="&#x6b5;" horiz-adv-x="271" 
d="M0 -5l9 99q54 0 76 10.5t26 38t2 78.5l-19 498h99l20 -495q2 -54 -4 -97t-27.5 -72.5t-65 -44.5t-116.5 -15zM110 846q-7 15 -18 38t-23.5 48.5t-25.5 48.5t-22 39l50 27q6 -10 17 -30t23 -43t23 -44.5t18 -36.5l21 -41zM173 852l-48 18q6 17 17.5 44t24 55t23 50
t14.5 30l49 -20q-5 -10 -15.5 -32.5t-23 -50t-24 -53t-17.5 -41.5z" />
    <glyph glyph-name="uni06B5.medi" unicode="&#x6b5;" horiz-adv-x="313" 
d="M0 -5l9 99q54 0 76 10.5t26 38t2 78.5l-17 498h100l17 -497q2 -50 15 -78t37.5 -39t57.5 -11q26 0 37.5 -14t11.5 -33q0 -21 -16 -36.5t-43 -15.5q-43 0 -73.5 12.5t-48.5 36t-24 55.5l27 -1q-12 -37 -35.5 -59.5t-62.5 -33t-96 -10.5zM122 846q-7 15 -18 38t-23.5 48.5
t-25.5 48.5t-22 39l50 27q6 -10 17 -30t23 -43t23 -44.5t18 -36.5l21 -41zM185 852l-48 18q6 17 17.5 44t24 55t23 50t14.5 30l49 -20q-5 -10 -15.5 -32.5t-23 -50t-24 -53t-17.5 -41.5z" />
    <glyph glyph-name="uni06B5.fina" unicode="&#x6b5;" horiz-adv-x="748" 
d="M29 8q0 23 4.5 51.5t14 62.5t26.5 73l87 -32q-10 -29 -18 -54t-11.5 -47t-3.5 -42q0 -50 25.5 -84.5t68 -52t93.5 -17.5q94 0 146 32.5t72.5 89.5t17.5 133l-22 598h100l16 -497q2 -50 15.5 -78t39 -39t58.5 -11q26 0 37.5 -14t11.5 -33q0 -21 -16 -36.5t-43 -15.5
q-28 0 -51 8t-39.5 21t-27.5 32t-15 41l35 -12q-2 -67 -22 -125t-60 -101t-104 -67t-154 -24q-56 0 -106.5 16t-90 46.5t-62 74.5t-22.5 103zM275 584q-7 15 -18 38t-23.5 48.5t-25.5 48.5t-22 39l50 27q6 -10 17 -30t23 -43t23 -44.5t18 -36.5l21 -41zM338 590l-48 18
q6 17 17.5 44t24 55t23 50t14.5 30l49 -20q-5 -10 -15.5 -32.5t-23 -50t-24 -53t-17.5 -41.5z" />
    <glyph glyph-name="uni06B6.init" unicode="&#x6b6;" horiz-adv-x="271" 
d="M0 -5l9 99q54 0 76 10.5t26 38t2 78.5l-19 498h99l20 -495q2 -54 -4 -97t-27.5 -72.5t-65 -44.5t-116.5 -15zM141 820q-24 0 -40.5 16t-16.5 40q0 23 16.5 40t40.5 17q23 0 39.5 -17t16.5 -40q0 -24 -16.5 -40t-39.5 -16z" />
    <glyph glyph-name="uni06B6.medi" unicode="&#x6b6;" horiz-adv-x="313" 
d="M0 -5l9 99q54 0 76 10.5t26 38t2 78.5l-17 498h100l17 -497q2 -50 15 -78t37.5 -39t57.5 -11q26 0 37.5 -14t11.5 -33q0 -21 -16 -36.5t-43 -15.5q-43 0 -73.5 12.5t-48.5 36t-24 55.5l27 -1q-12 -37 -35.5 -59.5t-62.5 -33t-96 -10.5zM153 820q-24 0 -40.5 16t-16.5 40
q0 23 16.5 40t40.5 17q23 0 39.5 -17t16.5 -40q0 -24 -16.5 -40t-39.5 -16z" />
    </font>
</defs>
</svg>
