<?xml version="1.0" standalone="no"?>
<!DOCTYPE svg PUBLIC "-//W3C//DTD SVG 1.1//EN" "http://www.w3.org/Graphics/SVG/1.1/DTD/svg11.dtd" >
<svg xmlns="http://www.w3.org/2000/svg" xmlns:xlink="http://www.w3.org/1999/xlink" version="1.1">
<metadata>
Created by FontForge 20170731 at Thu Nov 12 05:28:44 2020
 By Aleksey,,,
Copyright 2015-2020 Google LLC. All Rights Reserved.
</metadata>
<defs>
<font id="NotoSansArabic-Regular" horiz-adv-x="0" >
  <font-face 
    font-family="Noto Sans Arabic"
    font-weight="400"
    font-stretch="normal"
    units-per-em="1000"
    panose-1="0 0 0 0 0 0 0 0 0 0"
    ascent="800"
    descent="-200"
    bbox="-220 -573 2372 1114"
    underline-thickness="50"
    underline-position="-175"
    unicode-range="U+000D-FEFC"
  />
<missing-glyph horiz-adv-x="600" 
d="M94 0v714h411v-714h-411zM145 51h309v612h-309v-612z" />
    <glyph glyph-name="uniFC43" unicode="&#xfedf;&#xfef0;" horiz-adv-x="996" arabic-form="isolated" 
d="M736 -5l9 82q57 0 80 11t26.5 39t1.5 78l-19 509h81l20 -500q2 -53 -3.5 -94t-26 -69t-61 -42t-108.5 -14zM30 -1q0 24 4.5 51.5t14 59t23.5 66.5l72 -28q-10 -28 -17.5 -53t-11 -47t-3.5 -42q0 -42 18.5 -71.5t51.5 -48.5t75.5 -28t90.5 -9q58 0 108.5 10t89 28.5
t60.5 42t22 50.5q0 13 -10 24t-30 21t-48 19.5t-64 19.5l19 83q52 -20 92 -33.5t70 -21.5t52 -11.5t37 -3.5q21 0 30.5 -11.5t9.5 -27.5t-14 -29.5t-36 -13.5h-12h-12.5h-12.5q2 -9 3 -14.5t1 -14.5q0 -37 -25.5 -72t-74.5 -63.5t-118.5 -45.5t-158.5 -17q-79 0 -146.5 25.5
t-108.5 76.5t-41 129z" />
    <glyph glyph-name="uniFC86" unicode="&#xfee0;&#xfef0;" horiz-adv-x="1036" arabic-form="final" 
d="M736 -5l9 82q57 0 80 11t26.5 39t1.5 78l-17 509h83l16 -507q2 -51 16.5 -79.5t39.5 -39.5t55 -11q21 0 30.5 -11.5t9.5 -27.5t-14 -29.5t-36 -13.5q-42 0 -69.5 13.5t-43 35t-20.5 45.5l21 -2q-10 -30 -32.5 -50.5t-60.5 -31t-95 -10.5zM30 -1q0 24 4.5 51.5t14 59
t23.5 66.5l72 -28q-10 -28 -17.5 -53t-11 -47t-3.5 -42q0 -42 18.5 -71.5t51.5 -48.5t75.5 -28t90.5 -9q58 0 108.5 10t89 28.5t60.5 42t22 50.5q0 13 -10 24t-30 21t-48 19.5t-64 19.5l19 83q52 -20 92 -33.5t70 -21.5t52 -11.5t37 -3.5q21 0 30.5 -11.5t9.5 -27.5
t-14 -29.5t-36 -13.5h-12h-12.5h-12.5q2 -9 3 -14.5t1 -14.5q0 -37 -25.5 -72t-74.5 -63.5t-118.5 -45.5t-158.5 -17q-79 0 -146.5 25.5t-108.5 76.5t-41 129z" />
    <glyph glyph-name="uniFD82" unicode="&#xfee0;&#xfea4;&#xfef0;" horiz-adv-x="1673" arabic-form="final" 
d="M1373 -5l9 82q57 0 80 11t26.5 39t1.5 78l-17 509h83l16 -507q2 -51 16.5 -79.5t39.5 -39.5t55 -11q21 0 30.5 -11.5t9.5 -27.5t-14 -29.5t-36 -13.5q-42 0 -69.5 13.5t-43 35t-20.5 45.5l21 -2q-10 -30 -32.5 -50.5t-60.5 -31t-95 -10.5zM1373 -5q-42 0 -77 5.5
t-63 20.5t-47 43.5t-29 75.5l59 35q13 -40 32 -61t51.5 -29t83.5 -8q21 0 30.5 -11.5t9.5 -27.5t-14 -29.5t-36 -13.5zM736 -5l9 82q52 0 102 8t98 23t92.5 36.5t84.5 49.5q-26 23 -60 40t-74.5 26.5t-85.5 9.5q-16 0 -30 -1t-28 -3.5t-32 -6.5l-16 76q27 8 54 12.5t52 4.5
q52 0 94 -12.5t76.5 -30.5t65 -36t59.5 -30.5t60 -12.5h21l7 -72q-43 0 -79 -12t-70.5 -30.5t-72.5 -39t-84 -39t-105.5 -30.5t-137.5 -12zM30 -1q0 24 4.5 51.5t14 59t23.5 66.5l72 -28q-10 -28 -17.5 -53t-11 -47t-3.5 -42q0 -42 18.5 -71.5t51.5 -48.5t75.5 -28t90.5 -9
q58 0 108.5 10t89 28.5t60.5 42t22 50.5q0 13 -10 24t-30 21t-48 19.5t-64 19.5l19 83q52 -20 92 -33.5t70 -21.5t52 -11.5t37 -3.5q21 0 30.5 -11.5t9.5 -27.5t-14 -29.5t-36 -13.5h-12h-12.5h-12.5q2 -9 3 -14.5t1 -14.5q0 -37 -25.5 -72t-74.5 -63.5t-118.5 -45.5
t-158.5 -17q-79 0 -146.5 25.5t-108.5 76.5t-41 129z" />
    <glyph glyph-name="uniFDF2" unicode="&#x627;&#xfedf;&#xfee0;&#xfeea;" horiz-adv-x="1284" arabic-form="isolated" 
d="M486 -5q-43 0 -78.5 9.5t-60.5 32t-38 61.5q-53 -13 -103 -10.5t-89.5 19t-63 46t-23.5 70.5q0 54 34 99t92 76t128 42l-3 76h81l16 -330q3 -47 17 -70.5t39.5 -31t61.5 -7.5q57 0 79.5 11t26 39t1.5 78l-13 363h83l12 -361q2 -51 16.5 -79.5t39.5 -39.5t55 -11
q56 0 79 11t26.5 39t1.5 78l-19 509h81l20 -500q2 -53 -3.5 -94t-26 -69t-61 -42t-108.5 -14q-34 0 -58.5 9t-40.5 24.5t-25 33.5q-19 -33 -61 -50t-115 -17zM297 174l-9 183q-57 -6 -97 -26t-61 -45t-21 -50q0 -24 18.5 -38.5t47.5 -21.5t61.5 -7t60.5 5zM1138 0l-20 714
h81l20 -714h-81zM551 620q-40 0 -53 26.5t-13 56.5q0 11 1.5 23.5t4.5 28.5l50 14q-3 -17 -4.5 -31.5t-1.5 -25.5q0 -19 6 -28t19 -9q15 0 25 15.5t11 62.5v30l48 18v-61q0 -14 5.5 -24.5t23.5 -10.5t24 11t6 28t-4 34.5t-11 34.5l45 14q10 -19 16.5 -43.5t6.5 -44.5
q0 -33 -18.5 -59.5t-57.5 -26.5q-31 0 -50.5 16.5t-19.5 39.5l23 -9q0 -34 -23.5 -57t-58.5 -23zM586 830l-6 173h55l6 -173h-55z" />
    <glyph glyph-name="uniFEF5" unicode="&#xfedf;&#xfe82;" horiz-adv-x="678" arabic-form="isolated" 
d="M393 536q0 22 -3 53t-7 62t-8 53l86 10q3 -20 6.5 -52.5t5.5 -64.5t2 -53q0 -48 -6.5 -93.5t-20.5 -89t-37 -84.5l-12 -22q-28 -47 -69 -90.5t-96 -82.5h126q34 0 52 8.5t24.5 22.5t6.5 30q0 27 -32.5 67.5t-89.5 90t-129 104.5t-152 112l47 66q92 -68 162.5 -123
t121 -100.5t83 -84t48 -73t15.5 -67.5q0 -22 -7.5 -45.5t-26 -44t-52 -33t-86.5 -12.5h-230v81q103 74 163.5 144t87.5 146t27 165zM196 639q-30 0 -54 10.5t-44 20.5t-37 10q-18 0 -32.5 -9t-30.5 -25l-38 32q23 29 48 45.5t53 16.5q25 0 46 -10t42.5 -20t46.5 -10
q16 0 30 5.5t34 17.5l29 -41q-32 -28 -54.5 -35.5t-38.5 -7.5z" />
    <glyph glyph-name="uniFEF6" unicode="&#xfee0;&#xfe82;" horiz-adv-x="679" arabic-form="final" 
d="M679 -5q-60 0 -98.5 10t-60 31t-30 53.5t-10.5 77.5l-20 547h82l20 -515q2 -49 9.5 -75.5t34 -36.5t83.5 -10q21 0 30.5 -11.5t9.5 -27.5t-14 -29.5t-36 -13.5zM222 -5q-27 0 -54.5 4.5t-38.5 6.5l11 79q69 -9 130 -3t106.5 34.5t71.5 86.5t26 151l48 -120
q-12 -63 -36 -105.5t-55.5 -69t-67.5 -40.5t-72 -19t-69 -5zM439 132q-16 31 -45 72.5t-70 90.5t-92.5 102t-111.5 107l54 57q66 -63 117.5 -117.5t90.5 -102t67 -86.5t47 -71zM276 639q-30 0 -54 10.5t-44 20.5t-37 10q-18 0 -32.5 -9t-30.5 -25l-38 32q23 29 48 45.5
t53 16.5q25 0 46 -10t42.5 -20t46.5 -10q16 0 30 5.5t34 17.5l29 -41q-32 -28 -54.5 -35.5t-38.5 -7.5z" />
    <glyph glyph-name="uniFEF7" unicode="&#xfedf;&#xfe84;" horiz-adv-x="582" arabic-form="isolated" 
d="M393 536q0 22 -3 53t-7 62t-8 53l86 10q3 -20 6.5 -52.5t5.5 -64.5t2 -53q0 -48 -6.5 -93.5t-20.5 -89t-37 -84.5l-12 -22q-28 -47 -69 -90.5t-96 -82.5h126q34 0 52 8.5t24.5 22.5t6.5 30q0 27 -32.5 67.5t-89.5 90t-129 104.5t-152 112l47 66q92 -68 162.5 -123
t121 -100.5t83 -84t48 -73t15.5 -67.5q0 -22 -7.5 -45.5t-26 -44t-52 -33t-86.5 -12.5h-230v81q103 74 163.5 144t87.5 146t27 165zM26 636l-12 54q26 6 42 10l36 9l-5 -21q-26 8 -49.5 34t-23.5 59q0 30 14.5 50.5t38 30.5t50.5 10q11 0 23.5 -2t23.5 -6l-8 -50
q-10 2 -19 4t-20 2q-23 0 -36 -9.5t-13 -26.5q0 -21 13.5 -36t31 -23.5t28.5 -8.5l-41 -4q27 7 50.5 14.5t42.5 14.5l16 -51q-24 -9 -56.5 -19t-65.5 -19t-61 -16z" />
    <glyph glyph-name="uniFEF8" unicode="&#xfee0;&#xfe84;" horiz-adv-x="599" arabic-form="final" 
d="M599 -5q-60 0 -98.5 10t-60 31t-30 53.5t-10.5 77.5l-20 547h82l20 -515q2 -49 9.5 -75.5t34 -36.5t83.5 -10q21 0 30.5 -11.5t9.5 -27.5t-14 -29.5t-36 -13.5zM142 -5q-27 0 -54.5 4.5t-38.5 6.5l11 79q69 -9 130 -3t106.5 34.5t71.5 86.5t26 151l48 -120
q-12 -63 -36 -105.5t-55.5 -69t-67.5 -40.5t-72 -19t-69 -5zM359 132q-16 31 -45 72.5t-70 90.5t-92.5 102t-111.5 107l54 57q66 -63 117.5 -117.5t90.5 -102t67 -86.5t47 -71zM52 636l-12 54q26 6 42 10l36 9l-5 -21q-26 8 -49.5 34t-23.5 59q0 30 14.5 50.5t38 30.5
t50.5 10q11 0 23.5 -2t23.5 -6l-8 -50q-10 2 -19 4t-20 2q-23 0 -36 -9.5t-13 -26.5q0 -21 13.5 -36t31 -23.5t28.5 -8.5l-41 -4q27 7 50.5 14.5t42.5 14.5l16 -51q-24 -9 -56.5 -19t-65.5 -19t-61 -16z" />
    <glyph glyph-name="uniFEF9" unicode="&#xfedf;&#xfe88;" horiz-adv-x="582" arabic-form="isolated" 
d="M393 536q0 22 -3 53t-7 62t-8 53l86 10q3 -20 6.5 -52.5t5.5 -64.5t2 -53q0 -48 -6.5 -93.5t-20.5 -89t-37 -84.5l-12 -22q-28 -47 -69 -90.5t-96 -82.5h126q34 0 52 8.5t24.5 22.5t6.5 30q0 27 -32.5 67.5t-89.5 90t-129 104.5t-152 112l47 66q92 -68 162.5 -123
t121 -100.5t83 -84t48 -73t15.5 -67.5q0 -22 -7.5 -45.5t-26 -44t-52 -33t-86.5 -12.5h-230v81q103 74 163.5 144t87.5 146t27 165zM97 -303l-12 54q26 6 42 10l36 9l-5 -21q-26 8 -49.5 34t-23.5 59q0 30 14.5 50.5t38 30.5t50.5 10q11 0 23.5 -2t23.5 -6l-8 -50
q-10 2 -19 4t-20 2q-23 0 -36 -9.5t-13 -26.5q0 -21 13.5 -36t31 -23.5t28.5 -8.5l-41 -4q27 7 50.5 14.5t42.5 14.5l16 -51q-24 -9 -56.5 -19t-65.5 -19t-61 -16z" />
    <glyph glyph-name="uniFEFA" unicode="&#xfee0;&#xfe88;" horiz-adv-x="599" arabic-form="final" 
d="M599 -5q-60 0 -98.5 10t-60 31t-30 53.5t-10.5 77.5l-20 547h82l20 -515q2 -49 9.5 -75.5t34 -36.5t83.5 -10q21 0 30.5 -11.5t9.5 -27.5t-14 -29.5t-36 -13.5zM142 -5q-27 0 -54.5 4.5t-38.5 6.5l11 79q69 -9 130 -3t106.5 34.5t71.5 86.5t26 151l48 -120
q-12 -63 -36 -105.5t-55.5 -69t-67.5 -40.5t-72 -19t-69 -5zM359 132q-16 31 -45 72.5t-70 90.5t-92.5 102t-111.5 107l54 57q66 -63 117.5 -117.5t90.5 -102t67 -86.5t47 -71zM97 -303l-12 54q26 6 42 10l36 9l-5 -21q-26 8 -49.5 34t-23.5 59q0 30 14.5 50.5t38 30.5
t50.5 10q11 0 23.5 -2t23.5 -6l-8 -50q-10 2 -19 4t-20 2q-23 0 -36 -9.5t-13 -26.5q0 -21 13.5 -36t31 -23.5t28.5 -8.5l-41 -4q27 7 50.5 14.5t42.5 14.5l16 -51q-24 -9 -56.5 -19t-65.5 -19t-61 -16z" />
    <glyph glyph-name="uniFEFB" unicode="&#xfedf;&#xfe8e;" horiz-adv-x="582" arabic-form="isolated" 
d="M393 536q0 22 -3 53t-7 62t-8 53l86 10q3 -20 6.5 -52.5t5.5 -64.5t2 -53q0 -48 -6.5 -93.5t-20.5 -89t-37 -84.5l-12 -22q-28 -47 -69 -90.5t-96 -82.5h126q34 0 52 8.5t24.5 22.5t6.5 30q0 27 -32.5 67.5t-89.5 90t-129 104.5t-152 112l47 66q92 -68 162.5 -123
t121 -100.5t83 -84t48 -73t15.5 -67.5q0 -22 -7.5 -45.5t-26 -44t-52 -33t-86.5 -12.5h-230v81q103 74 163.5 144t87.5 146t27 165z" />
    <glyph glyph-name="uniFEFC" unicode="&#xfee0;&#xfe8e;" horiz-adv-x="599" arabic-form="final" 
d="M599 -5q-60 0 -98.5 10t-60 31t-30 53.5t-10.5 77.5l-20 547h82l20 -515q2 -49 9.5 -75.5t34 -36.5t83.5 -10q21 0 30.5 -11.5t9.5 -27.5t-14 -29.5t-36 -13.5zM142 -5q-27 0 -54.5 4.5t-38.5 6.5l11 79q69 -9 130 -3t106.5 34.5t71.5 86.5t26 151l48 -120
q-12 -63 -36 -105.5t-55.5 -69t-67.5 -40.5t-72 -19t-69 -5zM359 132q-16 31 -45 72.5t-70 90.5t-92.5 102t-111.5 107l54 57q66 -63 117.5 -117.5t90.5 -102t67 -86.5t47 -71z" />
    <glyph glyph-name="lam_alefMaksura_meemar" unicode="&#xfedf;&#xfbe9;&#xfee2;" horiz-adv-x="1091" 
d="M831 -5l9 82q57 0 80 11t26.5 39t1.5 78l-19 509h81l20 -500q2 -53 -3.5 -94t-26 -69t-61 -42t-108.5 -14zM562 -5l10 82q49 0 78 6t42 24.5t13 55.5q0 25 -8 59.5t-21 73.5t-28 77l81 30q13 -32 24.5 -73t19.5 -81t8 -70q0 -40 -8.5 -70.5t-25.5 -52t-43.5 -35
t-61.5 -20t-80 -6.5zM77 -393q-21 77 -36 150.5t-23 131.5t-8 86q0 74 24 135t62 107.5t82 79t85.5 49t70.5 16.5q25 0 44 -11t37 -43t38 -94q19 -57 36 -86.5t37 -40t46 -10.5q21 0 30.5 -11.5t9.5 -27.5t-14 -29.5t-36 -13.5q-39 0 -66.5 14t-47.5 38l23 19
q-12 -29 -30.5 -47.5t-41 -27.5t-47.5 -9q-29 0 -60 10.5t-61 31t-56.5 50.5t-46.5 68l10 -2q-28 -39 -37 -84.5t-9 -80.5q0 -28 6 -71.5t15.5 -92.5t21 -97.5t21.5 -87.5zM360 64q18 0 29.5 7t15.5 21t-3 35q-12 36 -22 63.5t-19.5 46t-19.5 27.5t-21 9t-27.5 -5t-35 -15
t-37.5 -25t-36 -35l1 8q22 -46 53.5 -77t64 -45.5t57.5 -14.5z" />
    <glyph glyph-name="lam_alefWaslaar" unicode="&#xfedf;&#xfb51;" horiz-adv-x="503" 
d="M151 661q-22 0 -52.5 2t-57.5 5.5t-41 5.5l7 51q15 -2 40 -5t53 -5t51 -2q57 0 74.5 13t17.5 32q0 20 -12 29t-27 9q-17 0 -33 -10.5t-30.5 -30t-29.5 -46.5l-54 1q14 31 34.5 63.5t49.5 54.5t67 22q32 0 60.5 -20t28.5 -67q0 -24 -12 -47.5t-43.5 -39t-90.5 -15.5z
M393 536q0 22 -3 53t-7 62t-8 53l86 10q3 -20 6.5 -52.5t5.5 -64.5t2 -53q0 -48 -6.5 -93.5t-20.5 -89t-37 -84.5l-12 -22q-28 -47 -69 -90.5t-96 -82.5h126q34 0 52 8.5t24.5 22.5t6.5 30q0 27 -32.5 67.5t-89.5 90t-129 104.5t-152 112l47 66q92 -68 162.5 -123
t121 -100.5t83 -84t48 -73t15.5 -67.5q0 -22 -7.5 -45.5t-26 -44t-52 -33t-86.5 -12.5h-230v81q103 74 163.5 144t87.5 146t27 165z" />
    <glyph glyph-name="lam_alefWaslaar.fina" unicode="&#xfee0;&#xfb51;" horiz-adv-x="635" 
d="M151 661q-22 0 -52.5 2t-57.5 5.5t-41 5.5l7 51q15 -2 40 -5t53 -5t51 -2q57 0 74.5 13t17.5 32q0 20 -12 29t-27 9q-17 0 -33 -10.5t-30.5 -30t-29.5 -46.5l-54 1q14 31 34.5 63.5t49.5 54.5t67 22q32 0 60.5 -20t28.5 -67q0 -24 -12 -47.5t-43.5 -39t-90.5 -15.5z
M599 -5q-60 0 -98.5 10t-60 31t-30 53.5t-10.5 77.5l-20 547h82l20 -515q2 -49 9.5 -75.5t34 -36.5t83.5 -10q21 0 30.5 -11.5t9.5 -27.5t-14 -29.5t-36 -13.5zM142 -5q-27 0 -54.5 4.5t-38.5 6.5l11 79q69 -9 130 -3t106.5 34.5t71.5 86.5t26 151l48 -120
q-12 -63 -36 -105.5t-55.5 -69t-67.5 -40.5t-72 -19t-69 -5zM359 132q-16 31 -45 72.5t-70 90.5t-92.5 102t-111.5 107l54 57q66 -63 117.5 -117.5t90.5 -102t67 -86.5t47 -71z" />
    <glyph glyph-name="uni0620.init" unicode="&#x620;" horiz-adv-x="299" 
d="M0 -5l10 82q59 0 92 4.5t47 23t14 58.5q0 25 -8 59.5t-21 73.5t-28 77l81 30q13 -32 24.5 -73t19.5 -81t8 -70q0 -50 -13.5 -85t-42.5 -57t-74.5 -32t-108.5 -10zM134 -119q-37 0 -63 26t-26 63t26 63t63 26t63 -26t26 -63t-26 -63t-63 -26zM134 -68q17 0 29 11t12 27
q0 17 -12 28.5t-29 11.5t-29 -11.5t-12 -28.5q0 -16 12 -27t29 -11z" />
    <glyph glyph-name="uni0620.medi" unicode="&#x620;" horiz-adv-x="373" 
d="M0 -5l10 82q50 0 78 7.5t42.5 29t23.5 62.5t22 107l78 -15q-4 -18 -9 -40t-8.5 -43.5t-3.5 -37.5q0 -15 2 -28t15 -22t44 -14.5t89 -5.5q21 0 30.5 -11.5t9.5 -27.5t-14 -29.5t-36 -13.5q-61 0 -97 6.5t-54.5 19.5t-26 32.5t-11.5 45.5l30 -2q-16 -32 -34.5 -52
t-42.5 -31t-57.5 -15t-79.5 -4zM110 -126q-37 0 -63 26t-26 63t26 63t63 26t63 -26t26 -63t-26 -63t-63 -26zM110 -75q17 0 29 11t12 27q0 17 -12 28.5t-29 11.5t-29 -11.5t-12 -28.5q0 -16 12 -27t29 -11z" />
    <glyph glyph-name="uni0620.fina" unicode="&#x620;" horiz-adv-x="736" 
d="M334 -361q-37 0 -63 26t-26 63t26 63t63 26t63 -26t26 -63t-26 -63t-63 -26zM334 -310q17 0 29 11t12 27q0 17 -12 28.5t-29 11.5t-29 -11.5t-12 -28.5q0 -16 12 -27t29 -11zM30 -1q0 24 4.5 51.5t14 59t23.5 66.5l72 -28q-10 -28 -17.5 -53t-11 -47t-3.5 -42
q0 -42 18.5 -71.5t51.5 -48.5t75.5 -28t90.5 -9q58 0 108.5 10t89 28.5t60.5 42t22 50.5q0 13 -10 24t-30 21t-48 19.5t-64 19.5l19 83q52 -20 92 -33.5t70 -21.5t52 -11.5t37 -3.5q21 0 30.5 -11.5t9.5 -27.5t-14 -29.5t-36 -13.5h-12h-12.5h-12.5q2 -9 3 -14.5t1 -14.5
q0 -37 -25.5 -72t-74.5 -63.5t-118.5 -45.5t-158.5 -17q-79 0 -146.5 25.5t-108.5 76.5t-41 129z" />
    <glyph glyph-name="uni063B.init" unicode="&#x63b;" horiz-adv-x="412" 
d="M262 723q-21 0 -35.5 14.5t-14.5 34.5t14.5 35t35.5 15q20 0 34.5 -15t14.5 -35t-14.5 -34.5t-34.5 -14.5zM147 670q-21 0 -35.5 14.5t-14.5 34.5t14.5 35t35.5 15q20 0 34.5 -15t14.5 -35t-14.5 -34.5t-34.5 -14.5zM0 -5l10 82h94q59 0 93.5 6.5t51 17t22 23t5.5 25.5
q0 23 -17.5 57t-71.5 88q-28 28 -56 51.5t-51.5 42t-37.5 31.5t-14 20q0 15 2.5 29t7 26t11.5 19q20 21 51.5 42t74 44t96 49.5t117.5 58.5l34 -74q-80 -38 -133.5 -64.5t-90.5 -47t-65 -38.5t-57 -40l15 38q63 -50 111.5 -94t81.5 -84.5t50 -79.5t17 -79q0 -22 -8 -48
t-34 -49t-78 -37.5t-140 -14.5h-91z" />
    <glyph glyph-name="uni063B.medi" unicode="&#x63b;" horiz-adv-x="508" 
d="M230 723q-21 0 -35.5 14.5t-14.5 34.5t14.5 35t35.5 15q20 0 34.5 -15t14.5 -35t-14.5 -34.5t-34.5 -14.5zM115 670q-21 0 -35.5 14.5t-14.5 34.5t14.5 35t35.5 15q20 0 34.5 -15t14.5 -35t-14.5 -34.5t-34.5 -14.5zM0 -5l10 82h77q83 0 123 9t52.5 24t12.5 31
q0 24 -18 53t-46 59.5t-59.5 60.5t-59.5 55t-46 43.5t-18 26.5q0 15 2.5 29t7 26t11.5 19q20 21 55 44.5t81 48t98 50t105 51.5l34 -74q-48 -24 -96 -47.5t-93 -46.5t-84.5 -46.5t-71.5 -47.5l6 34q45 -38 85 -73t76 -71.5t67 -78.5t58 -93q21 -39 49 -57t55.5 -23.5
t44.5 -5.5q21 0 30.5 -11.5t9.5 -27.5t-14 -29.5t-36 -13.5q-27 0 -63.5 8.5t-71.5 33.5t-58 76l30 -12q-15 -27 -34.5 -46.5t-49.5 -33t-73 -20t-105 -6.5h-83z" />
    <glyph glyph-name="uni063B.fina" unicode="&#x63b;" horiz-adv-x="975" 
d="M733 723q-21 0 -35.5 14.5t-14.5 34.5t14.5 35t35.5 15q20 0 34.5 -15t14.5 -35t-14.5 -34.5t-34.5 -14.5zM618 670q-21 0 -35.5 14.5t-14.5 34.5t14.5 35t35.5 15q20 0 34.5 -15t14.5 -35t-14.5 -34.5t-34.5 -14.5zM390 -21l26 82q94 0 157 7.5t100 20t53 26.5t16 26
q0 24 -18 53t-46 59.5t-59.5 60.5t-59.5 55t-46 43.5t-18 26.5q0 15 2.5 29t7 26t11.5 19q27 29 79.5 60.5t120.5 65t139 68.5l34 -74q-64 -32 -127.5 -63t-119 -61.5t-98.5 -63.5l6 34q45 -38 85 -73t76 -71.5t67 -78.5t58 -93q15 -29 35.5 -46.5t41.5 -26t40 -11t32 -2.5
q21 0 30.5 -11.5t9.5 -27.5t-14 -29.5t-36 -13.5q-27 0 -63.5 8.5t-71.5 33.5t-58 76l30 -12q-15 -27 -41 -49t-72.5 -38.5t-121 -25.5t-187.5 -9zM390 -21q-89 0 -156.5 11.5t-112.5 35.5t-68 62.5t-23 93.5q0 25 4 51.5t10.5 53.5t13.5 52l75 -19q-4 -15 -9 -35.5
t-8.5 -41.5t-3.5 -38q0 -52 26.5 -83.5t92.5 -46t185 -14.5l20 -50z" />
    <glyph glyph-name="uni063C.init" unicode="&#x63c;" horiz-adv-x="412" 
d="M0 -5l10 82h94q59 0 93.5 6.5t51 17t22 23t5.5 25.5q0 23 -17.5 57t-71.5 88q-28 28 -56 51.5t-51.5 42t-37.5 31.5t-14 20q0 15 2.5 29t7 26t11.5 19q20 21 51.5 42t74 44t96 49.5t117.5 58.5l34 -74q-80 -38 -133.5 -64.5t-90.5 -47t-65 -38.5t-57 -40l15 38
q63 -50 111.5 -94t81.5 -84.5t50 -79.5t17 -79q0 -22 -8 -48t-34 -49t-78 -37.5t-140 -14.5h-91zM163 -299q-21 0 -35.5 14.5t-14.5 34.5t14.5 35t35.5 15q20 0 34.5 -15t14.5 -35t-14.5 -34.5t-34.5 -14.5zM95 -189q-21 0 -35.5 14.5t-14.5 34.5t14.5 35t35.5 15
q20 0 34.5 -15t14.5 -35t-14.5 -34.5t-34.5 -14.5zM231 -189q-21 0 -35.5 14.5t-14.5 34.5t14.5 35t35.5 15q20 0 34.5 -15t14.5 -35t-14.5 -34.5t-34.5 -14.5z" />
    <glyph glyph-name="uni063C.medi" unicode="&#x63c;" horiz-adv-x="508" 
d="M0 -5l10 82h77q83 0 123 9t52.5 24t12.5 31q0 24 -18 53t-46 59.5t-59.5 60.5t-59.5 55t-46 43.5t-18 26.5q0 15 2.5 29t7 26t11.5 19q20 21 55 44.5t81 48t98 50t105 51.5l34 -74q-48 -24 -96 -47.5t-93 -46.5t-84.5 -46.5t-71.5 -47.5l6 34q45 -38 85 -73t76 -71.5
t67 -78.5t58 -93q21 -39 49 -57t55.5 -23.5t44.5 -5.5q21 0 30.5 -11.5t9.5 -27.5t-14 -29.5t-36 -13.5q-27 0 -63.5 8.5t-71.5 33.5t-58 76l30 -12q-15 -27 -34.5 -46.5t-49.5 -33t-73 -20t-105 -6.5h-83zM163 -299q-21 0 -35.5 14.5t-14.5 34.5t14.5 35t35.5 15
q20 0 34.5 -15t14.5 -35t-14.5 -34.5t-34.5 -14.5zM95 -189q-21 0 -35.5 14.5t-14.5 34.5t14.5 35t35.5 15q20 0 34.5 -15t14.5 -35t-14.5 -34.5t-34.5 -14.5zM231 -189q-21 0 -35.5 14.5t-14.5 34.5t14.5 35t35.5 15q20 0 34.5 -15t14.5 -35t-14.5 -34.5t-34.5 -14.5z" />
    <glyph glyph-name="uni063C.fina" unicode="&#x63c;" horiz-adv-x="975" 
d="M390 -21l26 82q94 0 157 7.5t100 20t53 26.5t16 26q0 24 -18 53t-46 59.5t-59.5 60.5t-59.5 55t-46 43.5t-18 26.5q0 15 2.5 29t7 26t11.5 19q27 29 79.5 60.5t120.5 65t139 68.5l34 -74q-64 -32 -127.5 -63t-119 -61.5t-98.5 -63.5l6 34q45 -38 85 -73t76 -71.5
t67 -78.5t58 -93q15 -29 35.5 -46.5t41.5 -26t40 -11t32 -2.5q21 0 30.5 -11.5t9.5 -27.5t-14 -29.5t-36 -13.5q-27 0 -63.5 8.5t-71.5 33.5t-58 76l30 -12q-15 -27 -41 -49t-72.5 -38.5t-121 -25.5t-187.5 -9zM390 -21q-89 0 -156.5 11.5t-112.5 35.5t-68 62.5t-23 93.5
q0 25 4 51.5t10.5 53.5t13.5 52l75 -19q-4 -15 -9 -35.5t-8.5 -41.5t-3.5 -38q0 -52 26.5 -83.5t92.5 -46t185 -14.5l20 -50zM410 -320q-21 0 -35.5 14.5t-14.5 34.5t14.5 35t35.5 15q20 0 34.5 -15t14.5 -35t-14.5 -34.5t-34.5 -14.5zM342 -210q-21 0 -35.5 14.5
t-14.5 34.5t14.5 35t35.5 15q20 0 34.5 -15t14.5 -35t-14.5 -34.5t-34.5 -14.5zM478 -210q-21 0 -35.5 14.5t-14.5 34.5t14.5 35t35.5 15q20 0 34.5 -15t14.5 -35t-14.5 -34.5t-34.5 -14.5z" />
    <glyph glyph-name="uni063D.init" unicode="&#x63d;" horiz-adv-x="269" 
d="M0 -5l10 82q49 0 78 6t42 24.5t13 55.5q0 25 -8 59.5t-21 73.5t-28 77l81 30q13 -32 24.5 -73t19.5 -81t8 -70q0 -40 -8.5 -70.5t-25.5 -52t-43.5 -35t-61.5 -20t-80 -6.5zM152 732q7 -15 17.5 -38t23 -48.5t25 -49t21.5 -39.5l-46 -25q-6 10 -17 30t-23 43t-22.5 45
t-17.5 37l-20 39zM93 726l44 -16q-6 -17 -17.5 -44t-24.5 -55.5t-23 -50.5t-15 -30l-45 19q5 10 16 32.5t24 50t24 53t17 41.5zM179 -194q-21 0 -35.5 14.5t-14.5 34.5t14.5 35t35.5 15q20 0 34.5 -15t14.5 -35t-14.5 -34.5t-34.5 -14.5zM42 -194q-21 0 -35.5 14.5
t-14.5 34.5t14.5 35t35.5 15q20 0 34.5 -15t14.5 -35t-14.5 -34.5t-34.5 -14.5z" />
    <glyph glyph-name="uni063D.medi" unicode="&#x63d;" horiz-adv-x="343" 
d="M0 -5l10 82q42 0 66 7.5t36.5 29t21.5 62.5t22 107l78 -15q-4 -18 -9 -40t-8.5 -43.5t-3.5 -37.5q0 -20 9 -36t39 -25t92 -9q21 0 30.5 -11.5t9.5 -27.5t-14 -29.5t-36 -13.5q-65 0 -102 11.5t-54 35t-23 57.5l30 -2q-16 -32 -34.5 -52t-40.5 -31t-51 -15t-68 -4z
M180 611q7 -15 17.5 -38t23 -48.5t25 -49t21.5 -39.5l-46 -25q-6 10 -17 30t-23 43t-22.5 45t-17.5 37l-20 39zM121 605l44 -16q-6 -17 -17.5 -44t-24.5 -55.5t-23 -50.5t-15 -30l-45 19q5 10 16 32.5t24 50t24 53t17 41.5zM242 -194q-21 0 -35.5 14.5t-14.5 34.5t14.5 35
t35.5 15q20 0 34.5 -15t14.5 -35t-14.5 -34.5t-34.5 -14.5zM105 -194q-21 0 -35.5 14.5t-14.5 34.5t14.5 35t35.5 15q20 0 34.5 -15t14.5 -35t-14.5 -34.5t-34.5 -14.5z" />
    <glyph glyph-name="uni063D.fina" unicode="&#x63d;" horiz-adv-x="736" 
d="M30 -1q0 24 4.5 51.5t14 59t23.5 66.5l72 -28q-10 -28 -17.5 -53t-11 -47t-3.5 -42q0 -42 18.5 -71.5t51.5 -48.5t75.5 -28t90.5 -9q58 0 108.5 10t89 28.5t60.5 42t22 50.5q0 13 -10 24t-30 21t-48 19.5t-64 19.5l19 83q52 -20 92 -33.5t70 -21.5t52 -11.5t37 -3.5
q21 0 30.5 -11.5t9.5 -27.5t-14 -29.5t-36 -13.5h-12h-12.5h-12.5q2 -9 3 -14.5t1 -14.5q0 -37 -25.5 -72t-74.5 -63.5t-118.5 -45.5t-158.5 -17q-79 0 -146.5 25.5t-108.5 76.5t-41 129zM241 478q7 -15 17.5 -38t23 -48.5t25 -49t21.5 -39.5l-46 -25q-6 10 -17 30t-23 43
t-22.5 45t-17.5 37l-20 39zM182 472l44 -16q-6 -17 -17.5 -44t-24.5 -55.5t-23 -50.5t-15 -30l-45 19q5 10 16 32.5t24 50t24 53t17 41.5z" />
    <glyph glyph-name="uni063E.init" unicode="&#x63e;" horiz-adv-x="299" 
d="M0 -5l10 82q59 0 92 4.5t47 23t14 58.5q0 25 -8 59.5t-21 73.5t-28 77l81 30q13 -32 24.5 -73t19.5 -81t8 -70q0 -50 -13.5 -85t-42.5 -57t-74.5 -32t-108.5 -10zM218 507q-21 0 -35.5 14.5t-14.5 34.5t14.5 35t35.5 15q20 0 34.5 -15t14.5 -35t-14.5 -34.5t-34.5 -14.5z
M81 507q-21 0 -35.5 14.5t-14.5 34.5t14.5 35t35.5 15q20 0 34.5 -15t14.5 -35t-14.5 -34.5t-34.5 -14.5zM185 -194q-21 0 -35.5 14.5t-14.5 34.5t14.5 35t35.5 15q20 0 34.5 -15t14.5 -35t-14.5 -34.5t-34.5 -14.5zM48 -194q-21 0 -35.5 14.5t-14.5 34.5t14.5 35t35.5 15
q20 0 34.5 -15t14.5 -35t-14.5 -34.5t-34.5 -14.5z" />
    <glyph glyph-name="uni063E.medi" unicode="&#x63e;" horiz-adv-x="373" 
d="M0 -5l10 82q50 0 78 7.5t42.5 29t23.5 62.5t22 107l78 -15q-4 -18 -9 -40t-8.5 -43.5t-3.5 -37.5q0 -15 2 -28t15 -22t44 -14.5t89 -5.5q21 0 30.5 -11.5t9.5 -27.5t-14 -29.5t-36 -13.5q-61 0 -97 6.5t-54.5 19.5t-26 32.5t-11.5 45.5l30 -2q-16 -32 -34.5 -52
t-42.5 -31t-57.5 -15t-79.5 -4zM267 386q-21 0 -35.5 14.5t-14.5 34.5t14.5 35t35.5 15q20 0 34.5 -15t14.5 -35t-14.5 -34.5t-34.5 -14.5zM130 386q-21 0 -35.5 14.5t-14.5 34.5t14.5 35t35.5 15q20 0 34.5 -15t14.5 -35t-14.5 -34.5t-34.5 -14.5zM252 -194
q-21 0 -35.5 14.5t-14.5 34.5t14.5 35t35.5 15q20 0 34.5 -15t14.5 -35t-14.5 -34.5t-34.5 -14.5zM115 -194q-21 0 -35.5 14.5t-14.5 34.5t14.5 35t35.5 15q20 0 34.5 -15t14.5 -35t-14.5 -34.5t-34.5 -14.5z" />
    <glyph glyph-name="uni063E.fina" unicode="&#x63e;" horiz-adv-x="736" 
d="M30 -1q0 24 4.5 51.5t14 59t23.5 66.5l72 -28q-10 -28 -17.5 -53t-11 -47t-3.5 -42q0 -42 18.5 -71.5t51.5 -48.5t75.5 -28t90.5 -9q58 0 108.5 10t89 28.5t60.5 42t22 50.5q0 13 -10 24t-30 21t-48 19.5t-64 19.5l19 83q52 -20 92 -33.5t70 -21.5t52 -11.5t37 -3.5
q21 0 30.5 -11.5t9.5 -27.5t-14 -29.5t-36 -13.5h-12h-12.5h-12.5q2 -9 3 -14.5t1 -14.5q0 -37 -25.5 -72t-74.5 -63.5t-118.5 -45.5t-158.5 -17q-79 0 -146.5 25.5t-108.5 76.5t-41 129zM287 253q-21 0 -35.5 14.5t-14.5 34.5t14.5 35t35.5 15q20 0 34.5 -15t14.5 -35
t-14.5 -34.5t-34.5 -14.5zM150 253q-21 0 -35.5 14.5t-14.5 34.5t14.5 35t35.5 15q20 0 34.5 -15t14.5 -35t-14.5 -34.5t-34.5 -14.5z" />
    <glyph glyph-name="uni063F.init" unicode="&#x63f;" horiz-adv-x="299" 
d="M0 -5l10 82q59 0 92 4.5t47 23t14 58.5q0 25 -8 59.5t-21 73.5t-28 77l81 30q13 -32 24.5 -73t19.5 -81t8 -70q0 -50 -13.5 -85t-42.5 -57t-74.5 -32t-108.5 -10zM150 617q-21 0 -35.5 14.5t-14.5 34.5t14.5 35t35.5 15q20 0 34.5 -15t14.5 -35t-14.5 -34.5t-34.5 -14.5z
M82 507q-21 0 -35.5 14.5t-14.5 34.5t14.5 35t35.5 15q20 0 34.5 -15t14.5 -35t-14.5 -34.5t-34.5 -14.5zM218 507q-21 0 -35.5 14.5t-14.5 34.5t14.5 35t35.5 15q20 0 34.5 -15t14.5 -35t-14.5 -34.5t-34.5 -14.5zM185 -194q-21 0 -35.5 14.5t-14.5 34.5t14.5 35t35.5 15
q20 0 34.5 -15t14.5 -35t-14.5 -34.5t-34.5 -14.5zM48 -194q-21 0 -35.5 14.5t-14.5 34.5t14.5 35t35.5 15q20 0 34.5 -15t14.5 -35t-14.5 -34.5t-34.5 -14.5z" />
    <glyph glyph-name="uni063F.medi" unicode="&#x63f;" horiz-adv-x="373" 
d="M0 -5l10 82q50 0 78 7.5t42.5 29t23.5 62.5t22 107l78 -15q-4 -18 -9 -40t-8.5 -43.5t-3.5 -37.5q0 -15 2 -28t15 -22t44 -14.5t89 -5.5q21 0 30.5 -11.5t9.5 -27.5t-14 -29.5t-36 -13.5q-61 0 -97 6.5t-54.5 19.5t-26 32.5t-11.5 45.5l30 -2q-16 -32 -34.5 -52
t-42.5 -31t-57.5 -15t-79.5 -4zM199 496q-21 0 -35.5 14.5t-14.5 34.5t14.5 35t35.5 15q20 0 34.5 -15t14.5 -35t-14.5 -34.5t-34.5 -14.5zM131 386q-21 0 -35.5 14.5t-14.5 34.5t14.5 35t35.5 15q20 0 34.5 -15t14.5 -35t-14.5 -34.5t-34.5 -14.5zM267 386
q-21 0 -35.5 14.5t-14.5 34.5t14.5 35t35.5 15q20 0 34.5 -15t14.5 -35t-14.5 -34.5t-34.5 -14.5zM252 -194q-21 0 -35.5 14.5t-14.5 34.5t14.5 35t35.5 15q20 0 34.5 -15t14.5 -35t-14.5 -34.5t-34.5 -14.5zM115 -194q-21 0 -35.5 14.5t-14.5 34.5t14.5 35t35.5 15
q20 0 34.5 -15t14.5 -35t-14.5 -34.5t-34.5 -14.5z" />
    <glyph glyph-name="uni063F.fina" unicode="&#x63f;" horiz-adv-x="736" 
d="M30 -1q0 24 4.5 51.5t14 59t23.5 66.5l72 -28q-10 -28 -17.5 -53t-11 -47t-3.5 -42q0 -42 18.5 -71.5t51.5 -48.5t75.5 -28t90.5 -9q58 0 108.5 10t89 28.5t60.5 42t22 50.5q0 13 -10 24t-30 21t-48 19.5t-64 19.5l19 83q52 -20 92 -33.5t70 -21.5t52 -11.5t37 -3.5
q21 0 30.5 -11.5t9.5 -27.5t-14 -29.5t-36 -13.5h-12h-12.5h-12.5q2 -9 3 -14.5t1 -14.5q0 -37 -25.5 -72t-74.5 -63.5t-118.5 -45.5t-158.5 -17q-79 0 -146.5 25.5t-108.5 76.5t-41 129zM219 363q-21 0 -35.5 14.5t-14.5 34.5t14.5 35t35.5 15q20 0 34.5 -15t14.5 -35
t-14.5 -34.5t-34.5 -14.5zM151 253q-21 0 -35.5 14.5t-14.5 34.5t14.5 35t35.5 15q20 0 34.5 -15t14.5 -35t-14.5 -34.5t-34.5 -14.5zM287 253q-21 0 -35.5 14.5t-14.5 34.5t14.5 35t35.5 15q20 0 34.5 -15t14.5 -35t-14.5 -34.5t-34.5 -14.5z" />
    <glyph glyph-name="uni066E.init" unicode="&#x66e;" horiz-adv-x="269" 
d="M0 -5l10 82q49 0 78 6t42 24.5t13 55.5q0 25 -8 59.5t-21 73.5t-28 77l81 30q13 -32 24.5 -73t19.5 -81t8 -70q0 -40 -8.5 -70.5t-25.5 -52t-43.5 -35t-61.5 -20t-80 -6.5z" />
    <glyph glyph-name="uni066E.medi" unicode="&#x66e;" horiz-adv-x="343" 
d="M0 -5l10 82q42 0 66 7.5t36.5 29t21.5 62.5t22 107l78 -15q-4 -18 -9 -40t-8.5 -43.5t-3.5 -37.5q0 -20 9 -36t39 -25t92 -9q21 0 30.5 -11.5t9.5 -27.5t-14 -29.5t-36 -13.5q-65 0 -102 11.5t-54 35t-23 57.5l30 -2q-16 -32 -34.5 -52t-40.5 -31t-51 -15t-68 -4z" />
    <glyph glyph-name="uni066E.fina" unicode="&#x66e;" horiz-adv-x="1093" 
d="M390 -21l26 82q61 0 129 7.5t135.5 27t128.5 53.5t107 86l63 -37q-9 -23 -12 -36.5t-3 -24.5q0 -15 11 -28.5t41.5 -22.5t86.5 -9q21 0 30.5 -11.5t9.5 -27.5t-14 -29.5t-36 -13.5q-64 0 -112.5 13.5t-72 43t-15.5 76.5l18 -6q-40 -36 -95.5 -62.5t-123 -44.5t-144 -27
t-158.5 -9zM390 -21q-89 0 -156.5 11.5t-112.5 35.5t-68 62.5t-23 93.5q0 25 4 51.5t10.5 53.5t13.5 52l75 -19q-4 -15 -9 -35.5t-8.5 -41.5t-3.5 -38q0 -52 26.5 -83.5t92.5 -46t185 -14.5l20 -50z" />
    <glyph glyph-name="uni066F.init" unicode="&#x66f;" horiz-adv-x="447" 
d="M0 -5l10 82q25 0 55.5 0.5t62 1.5t58.5 4.5t45 9.5q36 13 56 32.5t28.5 52t8.5 83.5q0 42 -11 78t-31 58t-48 22q-23 0 -41.5 -17.5t-29 -44.5t-10.5 -54q0 -21 8.5 -36t28.5 -23.5t52 -8.5q29 0 58.5 6t50.5 16l4 -70q-16 -11 -36 -18t-42 -10t-44 -3q-51 0 -86.5 16.5
t-54 45t-18.5 65.5q0 38 12 76.5t34 70.5t53 51.5t69 19.5q54 0 89.5 -35t53 -91.5t17.5 -119.5q0 -75 -25.5 -128.5t-84.5 -88.5q-23 -13 -55.5 -21.5t-71 -13.5t-80.5 -6.5t-85 -1.5z" />
    <glyph glyph-name="uni066F.medi" unicode="&#x66f;" horiz-adv-x="495" 
d="M0 -5l10 82q25 0 51.5 0.5t52.5 2.5t50 5t43 9q35 11 64.5 29t48 44t18.5 60q0 23 -11 47.5t-30 41.5t-44 17q-24 0 -44.5 -16t-33 -41.5t-12.5 -52.5q0 -32 16.5 -57.5t40.5 -43.5t48 -29l-95 -28q-16 12 -37.5 33.5t-38 53.5t-16.5 73q0 40 14.5 74.5t39 60.5t56 40.5
t65.5 14.5q49 0 86 -27t57.5 -68.5t20.5 -86.5q0 -43 -16 -77.5t-43.5 -61.5t-64 -46t-77.5 -31q-23 -7 -49.5 -11t-55.5 -6.5t-58 -3.5t-56 -1zM495 -5q-50 0 -103.5 6.5t-101 17t-78.5 23.5l69 50q30 -4 71 -7.5t82 -5.5t71 -2q21 0 30.5 -11.5t9.5 -27.5t-14 -29.5
t-36 -13.5z" />
    <glyph glyph-name="uni066F.fina" unicode="&#x66f;" horiz-adv-x="808" 
d="M326 -272q-60 0 -113 13.5t-94.5 42t-65 73.5t-23.5 108q0 15 3.5 42.5t15.5 66.5t38 86l73 -34q-15 -31 -25 -56.5t-14.5 -47t-4.5 -42.5q0 -62 31.5 -99t84 -53t116.5 -16q46 0 86 7t72.5 20t57.5 31t42 39.5t25 46.5q10 30 14.5 66t4.5 55q0 56 -12 94.5t-32.5 58.5
t-45.5 20q-16 0 -30.5 -9.5t-25.5 -25.5t-17.5 -36.5t-6.5 -42.5q0 -18 8 -29.5t23.5 -18t39.5 -9t56 -2.5h211q21 0 30.5 -11.5t9.5 -27.5t-14 -29.5t-36 -13.5h-239q-34 0 -64 7t-53.5 22t-37 39t-14.5 58q-1 37 11.5 74t35.5 68t54 49.5t67 18.5q46 0 83 -28t59 -87.5
t22 -152.5q0 -27 -10.5 -74t-30.5 -90q-24 -47 -61 -79.5t-84.5 -53t-102.5 -29.5t-117 -9z" />
    <glyph glyph-name="uni0672.fina" unicode="&#x672;" horiz-adv-x="289" 
d="M289 -5q-80 0 -122 18t-58 56t-19 98l-18 477h82l18 -445q2 -49 9.5 -75.5t34 -36.5t83.5 -10q21 0 30.5 -11.5t9.5 -27.5t-14 -29.5t-36 -13.5zM-37 721l-41 24q12 28 33 40.5t39 12.5q26 0 43 -11t35 -11q11 0 22.5 1t20.5 5l-10 -16q-26 10 -49.5 35t-23.5 58
q0 45 31.5 68t71.5 23q11 0 23.5 -2t23.5 -6l-8 -50q-10 2 -19 4t-20 2q-23 0 -36 -9.5t-13 -26.5q0 -21 13.5 -36t31 -23.5t28.5 -8.5l-36 -9q27 7 48 15.5t40 15.5l16 -48q-8 -4 -26 -11.5t-41 -15.5t-46.5 -13.5t-42.5 -5.5q-26 0 -44.5 11t-32.5 11q-11 0 -17 -6
t-14 -17z" />
    <glyph glyph-name="uni0673.fina" unicode="&#x673;" horiz-adv-x="291" 
d="M291 -5q-80 0 -122.5 18t-58.5 56t-18 98l-20 547h82l20 -515q2 -49 9.5 -75.5t34 -36.5t83.5 -10q21 0 30.5 -11.5t9.5 -27.5t-14 -29.5t-36 -13.5zM-18 -296l-41 24q12 28 33 40.5t39 12.5q26 0 43 -11t35 -11q11 0 22.5 1t20.5 5l-10 -16q-26 10 -49.5 35t-23.5 58
q0 45 31.5 68t71.5 23q11 0 23.5 -2t23.5 -6l-8 -50q-10 2 -19 4t-20 2q-23 0 -36 -9.5t-13 -26.5q0 -21 13.5 -36t31 -23.5t28.5 -8.5l-36 -9q27 7 48 15.5t40 15.5l16 -48q-8 -4 -26 -11.5t-41 -15.5t-46.5 -13.5t-42.5 -5.5q-26 0 -44.5 11t-32.5 11q-11 0 -17 -6
t-14 -17z" />
    <glyph glyph-name="uni0675.fina" unicode="&#x675;" horiz-adv-x="411" 
d="M411 -5h-122q-79 0 -121 18t-58 56.5t-18 97.5l-20 547h82l20 -515q2 -48 9.5 -74.5t33 -37t81.5 -10.5h123q21 0 30.5 -11.5t9.5 -27.5t-14 -29.5t-36 -13.5zM218 578l-12 54q26 6 42 10l36 9l-5 -21q-26 8 -49.5 34t-23.5 59q0 30 14.5 50.5t38 30.5t50.5 10
q11 0 23.5 -2t23.5 -6l-8 -50q-10 2 -19 4t-20 2q-23 0 -36 -9.5t-13 -26.5q0 -21 13.5 -36t31 -23.5t28.5 -8.5l-41 -4q27 7 50.5 14.5t42.5 14.5l16 -51q-24 -9 -56.5 -19t-65.5 -19t-61 -16z" />
    <glyph glyph-name="uni0676.fina" unicode="&#x676;" horiz-adv-x="472" 
d="M58 -230l-18 82q60 8 110.5 22.5t87 41.5t56.5 71t20 110q0 68 -25 113t-65 45q-21 0 -39 -16t-29.5 -43t-11.5 -59q0 -18 8 -29.5t23.5 -18t39.5 -9.5t56 -3h211q21 0 30.5 -11.5t9.5 -27.5t-14 -29.5t-36 -13.5h-239q-45 0 -83.5 13t-62 40.5t-23.5 72.5q0 42 13 80.5
t35.5 69t53 48.5t66.5 18q46 0 82 -27t57 -81.5t21 -137.5q0 -93 -37.5 -160.5t-112 -107.5t-184.5 -53zM298 387l-12 54q26 6 42 10l36 9l-5 -21q-26 8 -49.5 34t-23.5 59q0 30 14.5 50.5t38 30.5t50.5 10q11 0 23.5 -2t23.5 -6l-8 -50q-10 2 -19 4t-20 2q-23 0 -36 -9.5
t-13 -26.5q0 -21 13.5 -36t31 -23.5t28.5 -8.5l-41 -4q27 7 50.5 14.5t42.5 14.5l16 -51q-24 -9 -56.5 -19t-65.5 -19t-61 -16z" />
    <glyph glyph-name="uni0677.fina" unicode="&#x677;" horiz-adv-x="531" 
d="M117 -230l-18 82q60 8 110.5 22.5t87 41.5t56.5 71t20 110q0 68 -25 113t-65 45q-21 0 -39 -16t-29.5 -43t-11.5 -59q0 -18 8 -29.5t23.5 -18t39.5 -9.5t56 -3h211q21 0 30.5 -11.5t9.5 -27.5t-14 -29.5t-36 -13.5h-239q-45 0 -83.5 13t-62 40.5t-23.5 72.5q0 42 13 80.5
t35.5 69t53 48.5t66.5 18q46 0 82 -27t57 -81.5t21 -137.5q0 -93 -37.5 -160.5t-112 -107.5t-184.5 -53zM368 387l-12 54q26 6 42 10l36 9l-5 -21q-26 8 -49.5 34t-23.5 59q0 30 14.5 50.5t38 30.5t50.5 10q11 0 23.5 -2t23.5 -6l-8 -50q-10 2 -19 4t-20 2q-23 0 -36 -9.5
t-13 -26.5q0 -21 13.5 -36t31 -23.5t28.5 -8.5l-41 -4q27 7 50.5 14.5t42.5 14.5l16 -51q-24 -9 -56.5 -19t-65.5 -19t-61 -16zM49 388l-9 48q68 5 110.5 21t62 38.5t19.5 45.5q0 18 -8 30t-24 12q-15 0 -25 -10.5t-10 -25.5q0 -19 16 -35.5t40 -24.5l-31 -32
q-32 12 -54.5 35t-22.5 57q0 35 24.5 61t64.5 26t60.5 -27.5t20.5 -62.5q0 -44 -29 -78t-81.5 -54t-123.5 -24z" />
    <glyph glyph-name="uni0678.init" unicode="&#x678;" horiz-adv-x="350" 
d="M0 -5l10 82q49 0 78 6t42 24.5t13 55.5q0 25 -8 59.5t-21 73.5t-28 77l81 30q13 -32 24.5 -73t19.5 -81t8 -70q0 -40 -8.5 -70.5t-25.5 -52t-43.5 -35t-61.5 -20t-80 -6.5zM167 578l-12 54q26 6 42 10l36 9l-5 -21q-26 8 -49.5 34t-23.5 59q0 30 14.5 50.5t38 30.5
t50.5 10q11 0 23.5 -2t23.5 -6l-8 -50q-10 2 -19 4t-20 2q-23 0 -36 -9.5t-13 -26.5q0 -21 13.5 -36t31 -23.5t28.5 -8.5l-41 -4q27 7 50.5 14.5t42.5 14.5l16 -51q-24 -9 -56.5 -19t-65.5 -19t-61 -16z" />
    <glyph glyph-name="uni0678.medi" unicode="&#x678;" horiz-adv-x="343" 
d="M0 -5l10 82q42 0 66 7.5t36.5 29t21.5 62.5t22 107l78 -15q-4 -18 -9 -40t-8.5 -43.5t-3.5 -37.5q0 -20 9 -36t39 -25t92 -9q21 0 30.5 -11.5t9.5 -27.5t-14 -29.5t-36 -13.5q-65 0 -102 11.5t-54 35t-23 57.5l30 -2q-16 -32 -34.5 -52t-40.5 -31t-51 -15t-68 -4z
M163 409l-12 54q26 6 42 10l36 9l-5 -21q-26 8 -49.5 34t-23.5 59q0 30 14.5 50.5t38 30.5t50.5 10q11 0 23.5 -2t23.5 -6l-8 -50q-10 2 -19 4t-20 2q-23 0 -36 -9.5t-13 -26.5q0 -21 13.5 -36t31 -23.5t28.5 -8.5l-41 -4q27 7 50.5 14.5t42.5 14.5l16 -51q-24 -9 -56.5 -19
t-65.5 -19t-61 -16z" />
    <glyph glyph-name="uni0678.fina" unicode="&#x678;" horiz-adv-x="736" 
d="M30 -1q0 24 4.5 51.5t14 59t23.5 66.5l72 -28q-10 -28 -17.5 -53t-11 -47t-3.5 -42q0 -42 18.5 -71.5t51.5 -48.5t75.5 -28t90.5 -9q58 0 108.5 10t89 28.5t60.5 42t22 50.5q0 13 -10 24t-30 21t-48 19.5t-64 19.5l19 83q52 -20 92 -33.5t70 -21.5t52 -11.5t37 -3.5
q21 0 30.5 -11.5t9.5 -27.5t-14 -29.5t-36 -13.5h-12h-12.5h-12.5q2 -9 3 -14.5t1 -14.5q0 -37 -25.5 -72t-74.5 -63.5t-118.5 -45.5t-158.5 -17q-79 0 -146.5 25.5t-108.5 76.5t-41 129zM500 205l-12 54q26 6 42 10l36 9l-5 -21q-26 8 -49.5 34t-23.5 59q0 30 14.5 50.5
t38 30.5t50.5 10q11 0 23.5 -2t23.5 -6l-8 -50q-10 2 -19 4t-20 2q-23 0 -36 -9.5t-13 -26.5q0 -21 13.5 -36t31 -23.5t28.5 -8.5l-41 -4q27 7 50.5 14.5t42.5 14.5l16 -51q-24 -9 -56.5 -19t-65.5 -19t-61 -16z" />
    <glyph glyph-name="uni067C.init" unicode="&#x67c;" horiz-adv-x="299" 
d="M0 -5l10 82q59 0 92 4.5t47 23t14 58.5q0 25 -8 59.5t-21 73.5t-28 77l81 30q13 -32 24.5 -73t19.5 -81t8 -70q0 -50 -13.5 -85t-42.5 -57t-74.5 -32t-108.5 -10zM134 -121q-37 0 -63 26t-26 63t26 63t63 26t63 -26t26 -63t-26 -63t-63 -26zM134 -70q17 0 29 11t12 27
q0 17 -12 28.5t-29 11.5t-29 -11.5t-12 -28.5q0 -16 12 -27t29 -11zM218 507q-21 0 -35.5 14.5t-14.5 34.5t14.5 35t35.5 15q20 0 34.5 -15t14.5 -35t-14.5 -34.5t-34.5 -14.5zM81 507q-21 0 -35.5 14.5t-14.5 34.5t14.5 35t35.5 15q20 0 34.5 -15t14.5 -35t-14.5 -34.5
t-34.5 -14.5z" />
    <glyph glyph-name="uni067C.medi" unicode="&#x67c;" horiz-adv-x="343" 
d="M106 -123q-37 0 -63 26t-26 63t26 63t63 26t63 -26t26 -63t-26 -63t-63 -26zM106 -72q17 0 29 11t12 27q0 17 -12 28.5t-29 11.5t-29 -11.5t-12 -28.5q0 -16 12 -27t29 -11zM0 -5l10 82q42 0 66 7.5t36.5 29t21.5 62.5t22 107l78 -15q-4 -18 -9 -40t-8.5 -43.5
t-3.5 -37.5q0 -20 9 -36t39 -25t92 -9q21 0 30.5 -11.5t9.5 -27.5t-14 -29.5t-36 -13.5q-65 0 -102 11.5t-54 35t-23 57.5l30 -2q-16 -32 -34.5 -52t-40.5 -31t-51 -15t-68 -4zM257 386q-21 0 -35.5 14.5t-14.5 34.5t14.5 35t35.5 15q20 0 34.5 -15t14.5 -35t-14.5 -34.5
t-34.5 -14.5zM120 386q-21 0 -35.5 14.5t-14.5 34.5t14.5 35t35.5 15q20 0 34.5 -15t14.5 -35t-14.5 -34.5t-34.5 -14.5z" />
    <glyph glyph-name="uni067C.fina" unicode="&#x67c;" horiz-adv-x="1093" 
d="M520 -146q-37 0 -63 26t-26 63t26 63t63 26t63 -26t26 -63t-26 -63t-63 -26zM520 -95q17 0 29 11t12 27q0 17 -12 28.5t-29 11.5t-29 -11.5t-12 -28.5q0 -16 12 -27t29 -11zM390 -21l26 82q61 0 129 7.5t135.5 27t128.5 53.5t107 86l63 -37q-9 -23 -12 -36.5t-3 -24.5
q0 -15 11 -28.5t41.5 -22.5t86.5 -9q21 0 30.5 -11.5t9.5 -27.5t-14 -29.5t-36 -13.5q-64 0 -112.5 13.5t-72 43t-15.5 76.5l18 -6q-40 -36 -95.5 -62.5t-123 -44.5t-144 -27t-158.5 -9zM390 -21q-89 0 -156.5 11.5t-112.5 35.5t-68 62.5t-23 93.5q0 25 4 51.5t10.5 53.5
t13.5 52l75 -19q-4 -15 -9 -35.5t-8.5 -41.5t-3.5 -38q0 -52 26.5 -83.5t92.5 -46t185 -14.5l20 -50zM558 401q-21 0 -35.5 14.5t-14.5 34.5t14.5 35t35.5 15q20 0 34.5 -15t14.5 -35t-14.5 -34.5t-34.5 -14.5zM421 401q-21 0 -35.5 14.5t-14.5 34.5t14.5 35t35.5 15
q20 0 34.5 -15t14.5 -35t-14.5 -34.5t-34.5 -14.5z" />
    <glyph glyph-name="uni067D.init" unicode="&#x67d;" horiz-adv-x="299" 
d="M0 -5l10 82q59 0 92 4.5t47 23t14 58.5q0 25 -8 59.5t-21 73.5t-28 77l81 30q13 -32 24.5 -73t19.5 -81t8 -70q0 -50 -13.5 -85t-42.5 -57t-74.5 -32t-108.5 -10zM150 507q-21 0 -35.5 14.5t-14.5 34.5t14.5 35t35.5 15q20 0 34.5 -15t14.5 -35t-14.5 -34.5t-34.5 -14.5z
M82 617q-21 0 -35.5 14.5t-14.5 34.5t14.5 35t35.5 15q20 0 34.5 -15t14.5 -35t-14.5 -34.5t-34.5 -14.5zM218 617q-21 0 -35.5 14.5t-14.5 34.5t14.5 35t35.5 15q20 0 34.5 -15t14.5 -35t-14.5 -34.5t-34.5 -14.5z" />
    <glyph glyph-name="uni067D.medi" unicode="&#x67d;" horiz-adv-x="373" 
d="M0 -5l10 82q50 0 78 7.5t42.5 29t23.5 62.5t22 107l78 -15q-4 -18 -9 -40t-8.5 -43.5t-3.5 -37.5q0 -15 2 -28t15 -22t44 -14.5t89 -5.5q21 0 30.5 -11.5t9.5 -27.5t-14 -29.5t-36 -13.5q-61 0 -97 6.5t-54.5 19.5t-26 32.5t-11.5 45.5l30 -2q-16 -32 -34.5 -52
t-42.5 -31t-57.5 -15t-79.5 -4zM199 386q-21 0 -35.5 14.5t-14.5 34.5t14.5 35t35.5 15q20 0 34.5 -15t14.5 -35t-14.5 -34.5t-34.5 -14.5zM131 496q-21 0 -35.5 14.5t-14.5 34.5t14.5 35t35.5 15q20 0 34.5 -15t14.5 -35t-14.5 -34.5t-34.5 -14.5zM267 496
q-21 0 -35.5 14.5t-14.5 34.5t14.5 35t35.5 15q20 0 34.5 -15t14.5 -35t-14.5 -34.5t-34.5 -14.5z" />
    <glyph glyph-name="uni067D.fina" unicode="&#x67d;" horiz-adv-x="1093" 
d="M390 -21l26 82q61 0 129 7.5t135.5 27t128.5 53.5t107 86l63 -37q-9 -23 -12 -36.5t-3 -24.5q0 -15 11 -28.5t41.5 -22.5t86.5 -9q21 0 30.5 -11.5t9.5 -27.5t-14 -29.5t-36 -13.5q-64 0 -112.5 13.5t-72 43t-15.5 76.5l18 -6q-40 -36 -95.5 -62.5t-123 -44.5t-144 -27
t-158.5 -9zM390 -21q-89 0 -156.5 11.5t-112.5 35.5t-68 62.5t-23 93.5q0 25 4 51.5t10.5 53.5t13.5 52l75 -19q-4 -15 -9 -35.5t-8.5 -41.5t-3.5 -38q0 -52 26.5 -83.5t92.5 -46t185 -14.5l20 -50zM490 401q-21 0 -35.5 14.5t-14.5 34.5t14.5 35t35.5 15q20 0 34.5 -15
t14.5 -35t-14.5 -34.5t-34.5 -14.5zM422 511q-21 0 -35.5 14.5t-14.5 34.5t14.5 35t35.5 15q20 0 34.5 -15t14.5 -35t-14.5 -34.5t-34.5 -14.5zM558 511q-21 0 -35.5 14.5t-14.5 34.5t14.5 35t35.5 15q20 0 34.5 -15t14.5 -35t-14.5 -34.5t-34.5 -14.5z" />
    <glyph glyph-name="uni0681.init" unicode="&#x681;" horiz-adv-x="589" 
d="M0 -5l9 82q52 0 102 8t98 23t92.5 36.5t84.5 49.5q-26 23 -60 40t-74.5 26.5t-85.5 9.5q-16 0 -30 -1t-28 -3.5t-32 -6.5l-16 76q27 8 54 12.5t52 4.5q52 0 94 -12.5t76.5 -30.5t65 -36t59.5 -30.5t60 -12.5h21l7 -72q-43 0 -79 -12t-70.5 -30.5t-72.5 -39t-84 -39
t-105.5 -30.5t-137.5 -12zM76 462l-12 54q26 6 42 10l36 9l-5 -21q-26 8 -49.5 34t-23.5 59q0 30 14.5 50.5t38 30.5t50.5 10q11 0 23.5 -2t23.5 -6l-8 -50q-10 2 -19 4t-20 2q-23 0 -36 -9.5t-13 -26.5q0 -21 13.5 -36t31 -23.5t28.5 -8.5l-41 -4q27 7 50.5 14.5t42.5 14.5
l16 -51q-24 -9 -56.5 -19t-65.5 -19t-61 -16z" />
    <glyph glyph-name="uni0681.medi" unicode="&#x681;" horiz-adv-x="637" 
d="M637 -5q-42 0 -77 5.5t-63 20.5t-47 43.5t-29 75.5l59 35q13 -40 32 -61t51.5 -29t83.5 -8q21 0 30.5 -11.5t9.5 -27.5t-14 -29.5t-36 -13.5zM0 -5l9 82q52 0 102 8t98 23t92.5 36.5t84.5 49.5q-26 23 -60 40t-74.5 26.5t-85.5 9.5q-16 0 -30 -1t-28 -3.5t-32 -6.5
l-16 76q27 8 54 12.5t52 4.5q52 0 94 -12.5t76.5 -30.5t65 -36t59.5 -30.5t60 -12.5h21l7 -72q-43 0 -79 -12t-70.5 -30.5t-72.5 -39t-84 -39t-105.5 -30.5t-137.5 -12zM66 462l-12 54q26 6 42 10l36 9l-5 -21q-26 8 -49.5 34t-23.5 59q0 30 14.5 50.5t38 30.5t50.5 10
q11 0 23.5 -2t23.5 -6l-8 -50q-10 2 -19 4t-20 2q-23 0 -36 -9.5t-13 -26.5q0 -21 13.5 -36t31 -23.5t28.5 -8.5l-41 -4q27 7 50.5 14.5t42.5 14.5l16 -51q-24 -9 -56.5 -19t-65.5 -19t-61 -16z" />
    <glyph glyph-name="uni0681.fina" unicode="&#x681;" horiz-adv-x="649" 
d="M650 -5q-43 0 -86.5 6t-80.5 29t-60.5 71.5t-26.5 133.5l64 34q5 -67 22.5 -105.5t44.5 -57t61 -24t71 -5.5q21 0 30.5 -11.5t9.5 -27.5t-13.5 -29.5t-35.5 -13.5zM360 -394q-70 0 -133.5 16t-112 49.5t-76.5 84.5t-28 120q0 58 17 110.5t49.5 99t79.5 85.5t107 69.5
t131 51.5l-11 -13q-26 8 -53 17.5t-56 18t-62 13.5t-71 5q-30 0 -52.5 -5t-42.5 -10l-14 74q26 11 58.5 17.5t65.5 6.5q46 0 82 -8.5t68.5 -20.5t68.5 -24.5t80.5 -21t105.5 -9.5h9l2 -82q-48 0 -102 -11t-107.5 -32t-102.5 -52t-86.5 -71.5t-59.5 -90t-22 -107.5
q0 -52 22 -89.5t60.5 -61.5t89 -35t106.5 -11q49 0 100.5 10.5t100.5 29.5l28 -68q-58 -28 -119 -41.5t-120 -13.5zM221 526l-12 54q26 6 42 10l36 9l-5 -21q-26 8 -49.5 34t-23.5 59q0 30 14.5 50.5t38 30.5t50.5 10q11 0 23.5 -2t23.5 -6l-8 -50q-10 2 -19 4t-20 2
q-23 0 -36 -9.5t-13 -26.5q0 -21 13.5 -36t31 -23.5t28.5 -8.5l-41 -4q27 7 50.5 14.5t42.5 14.5l16 -51q-24 -9 -56.5 -19t-65.5 -19t-61 -16z" />
    <glyph glyph-name="uni0682.init" unicode="&#x682;" horiz-adv-x="589" 
d="M0 -5l9 82q52 0 102 8t98 23t92.5 36.5t84.5 49.5q-26 23 -60 40t-74.5 26.5t-85.5 9.5q-16 0 -30 -1t-28 -3.5t-32 -6.5l-16 76q27 8 54 12.5t52 4.5q52 0 94 -12.5t76.5 -30.5t65 -36t59.5 -30.5t60 -12.5h21l7 -72q-43 0 -79 -12t-70.5 -30.5t-72.5 -39t-84 -39
t-105.5 -30.5t-137.5 -12zM167 455q-21 0 -35.5 14.5t-14.5 34.5t14.5 35t35.5 15q20 0 34.5 -15t14.5 -35t-14.5 -34.5t-34.5 -14.5zM166 584q-21 0 -35.5 14.5t-14.5 34.5t14.5 35t35.5 15q20 0 34.5 -15t14.5 -35t-14.5 -34.5t-34.5 -14.5z" />
    <glyph glyph-name="uni0682.medi" unicode="&#x682;" horiz-adv-x="637" 
d="M637 -5q-42 0 -77 5.5t-63 20.5t-47 43.5t-29 75.5l59 35q13 -40 32 -61t51.5 -29t83.5 -8q21 0 30.5 -11.5t9.5 -27.5t-14 -29.5t-36 -13.5zM0 -5l9 82q52 0 102 8t98 23t92.5 36.5t84.5 49.5q-26 23 -60 40t-74.5 26.5t-85.5 9.5q-16 0 -30 -1t-28 -3.5t-32 -6.5
l-16 76q27 8 54 12.5t52 4.5q52 0 94 -12.5t76.5 -30.5t65 -36t59.5 -30.5t60 -12.5h21l7 -72q-43 0 -79 -12t-70.5 -30.5t-72.5 -39t-84 -39t-105.5 -30.5t-137.5 -12zM157 455q-21 0 -35.5 14.5t-14.5 34.5t14.5 35t35.5 15q20 0 34.5 -15t14.5 -35t-14.5 -34.5
t-34.5 -14.5zM156 584q-21 0 -35.5 14.5t-14.5 34.5t14.5 35t35.5 15q20 0 34.5 -15t14.5 -35t-14.5 -34.5t-34.5 -14.5z" />
    <glyph glyph-name="uni0682.fina" unicode="&#x682;" horiz-adv-x="649" 
d="M650 -5q-43 0 -86.5 6t-80.5 29t-60.5 71.5t-26.5 133.5l64 34q5 -67 22.5 -105.5t44.5 -57t61 -24t71 -5.5q21 0 30.5 -11.5t9.5 -27.5t-13.5 -29.5t-35.5 -13.5zM360 -394q-70 0 -133.5 16t-112 49.5t-76.5 84.5t-28 120q0 58 17 110.5t49.5 99t79.5 85.5t107 69.5
t131 51.5l-11 -13q-26 8 -53 17.5t-56 18t-62 13.5t-71 5q-30 0 -52.5 -5t-42.5 -10l-14 74q26 11 58.5 17.5t65.5 6.5q46 0 82 -8.5t68.5 -20.5t68.5 -24.5t80.5 -21t105.5 -9.5h9l2 -82q-48 0 -102 -11t-107.5 -32t-102.5 -52t-86.5 -71.5t-59.5 -90t-22 -107.5
q0 -52 22 -89.5t60.5 -61.5t89 -35t106.5 -11q49 0 100.5 10.5t100.5 29.5l28 -68q-58 -28 -119 -41.5t-120 -13.5zM312 519q-21 0 -35.5 14.5t-14.5 34.5t14.5 35t35.5 15q20 0 34.5 -15t14.5 -35t-14.5 -34.5t-34.5 -14.5zM311 648q-21 0 -35.5 14.5t-14.5 34.5t14.5 35
t35.5 15q20 0 34.5 -15t14.5 -35t-14.5 -34.5t-34.5 -14.5z" />
    <glyph glyph-name="uni0685.init" unicode="&#x685;" horiz-adv-x="589" 
d="M0 -5l9 82q52 0 102 8t98 23t92.5 36.5t84.5 49.5q-26 23 -60 40t-74.5 26.5t-85.5 9.5q-16 0 -30 -1t-28 -3.5t-32 -6.5l-16 76q27 8 54 12.5t52 4.5q52 0 94 -12.5t76.5 -30.5t65 -36t59.5 -30.5t60 -12.5h21l7 -72q-43 0 -79 -12t-70.5 -30.5t-72.5 -39t-84 -39
t-105.5 -30.5t-137.5 -12zM169 565q-21 0 -35.5 14.5t-14.5 34.5t14.5 35t35.5 15q20 0 34.5 -15t14.5 -35t-14.5 -34.5t-34.5 -14.5zM101 455q-21 0 -35.5 14.5t-14.5 34.5t14.5 35t35.5 15q20 0 34.5 -15t14.5 -35t-14.5 -34.5t-34.5 -14.5zM237 455q-21 0 -35.5 14.5
t-14.5 34.5t14.5 35t35.5 15q20 0 34.5 -15t14.5 -35t-14.5 -34.5t-34.5 -14.5z" />
    <glyph glyph-name="uni0685.medi" unicode="&#x685;" horiz-adv-x="637" 
d="M637 -5q-42 0 -77 5.5t-63 20.5t-47 43.5t-29 75.5l59 35q13 -40 32 -61t51.5 -29t83.5 -8q21 0 30.5 -11.5t9.5 -27.5t-14 -29.5t-36 -13.5zM0 -5l9 82q52 0 102 8t98 23t92.5 36.5t84.5 49.5q-26 23 -60 40t-74.5 26.5t-85.5 9.5q-16 0 -30 -1t-28 -3.5t-32 -6.5
l-16 76q27 8 54 12.5t52 4.5q52 0 94 -12.5t76.5 -30.5t65 -36t59.5 -30.5t60 -12.5h21l7 -72q-43 0 -79 -12t-70.5 -30.5t-72.5 -39t-84 -39t-105.5 -30.5t-137.5 -12zM159 565q-21 0 -35.5 14.5t-14.5 34.5t14.5 35t35.5 15q20 0 34.5 -15t14.5 -35t-14.5 -34.5
t-34.5 -14.5zM91 455q-21 0 -35.5 14.5t-14.5 34.5t14.5 35t35.5 15q20 0 34.5 -15t14.5 -35t-14.5 -34.5t-34.5 -14.5zM227 455q-21 0 -35.5 14.5t-14.5 34.5t14.5 35t35.5 15q20 0 34.5 -15t14.5 -35t-14.5 -34.5t-34.5 -14.5z" />
    <glyph glyph-name="uni0685.fina" unicode="&#x685;" horiz-adv-x="649" 
d="M650 -5q-43 0 -86.5 6t-80.5 29t-60.5 71.5t-26.5 133.5l64 34q5 -67 22.5 -105.5t44.5 -57t61 -24t71 -5.5q21 0 30.5 -11.5t9.5 -27.5t-13.5 -29.5t-35.5 -13.5zM360 -394q-70 0 -133.5 16t-112 49.5t-76.5 84.5t-28 120q0 58 17 110.5t49.5 99t79.5 85.5t107 69.5
t131 51.5l-11 -13q-26 8 -53 17.5t-56 18t-62 13.5t-71 5q-30 0 -52.5 -5t-42.5 -10l-14 74q26 11 58.5 17.5t65.5 6.5q46 0 82 -8.5t68.5 -20.5t68.5 -24.5t80.5 -21t105.5 -9.5h9l2 -82q-48 0 -102 -11t-107.5 -32t-102.5 -52t-86.5 -71.5t-59.5 -90t-22 -107.5
q0 -52 22 -89.5t60.5 -61.5t89 -35t106.5 -11q49 0 100.5 10.5t100.5 29.5l28 -68q-58 -28 -119 -41.5t-120 -13.5zM314 629q-21 0 -35.5 14.5t-14.5 34.5t14.5 35t35.5 15q20 0 34.5 -15t14.5 -35t-14.5 -34.5t-34.5 -14.5zM246 519q-21 0 -35.5 14.5t-14.5 34.5t14.5 35
t35.5 15q20 0 34.5 -15t14.5 -35t-14.5 -34.5t-34.5 -14.5zM382 519q-21 0 -35.5 14.5t-14.5 34.5t14.5 35t35.5 15q20 0 34.5 -15t14.5 -35t-14.5 -34.5t-34.5 -14.5z" />
    <glyph glyph-name="uni0689.fina" unicode="&#x689;" horiz-adv-x="532" 
d="M214 -135q-37 0 -63 26t-26 63t26 63t63 26t63 -26t26 -63t-26 -63t-63 -26zM214 -84q17 0 29 11t12 27q0 17 -12 28.5t-29 11.5t-29 -11.5t-12 -28.5q0 -16 12 -27t29 -11zM215 77q50 0 79.5 10t43 29.5t13.5 45.5q0 20 -10.5 48t-28.5 62.5t-41.5 73t-50.5 78.5l69 45
q39 -59 68 -111.5t49 -98t32 -85.5q14 -44 31.5 -65t36.5 -26.5t35 -5.5q21 0 31 -11.5t10 -27.5t-14 -29.5t-36 -13.5q-33 0 -64.5 12.5t-54.5 41t-32 76.5l40 32q0 -40 -17 -77.5t-61.5 -61.5t-127.5 -24q-36 0 -69.5 6t-61.5 17.5t-49 27.5l40 69q20 -13 56 -25t84 -12z
" />
    <glyph glyph-name="uni068A.fina" unicode="&#x68a;" horiz-adv-x="532" 
d="M215 77q50 0 79.5 10t43 29.5t13.5 45.5q0 20 -10.5 48t-28.5 62.5t-41.5 73t-50.5 78.5l69 45q39 -59 68 -111.5t49 -98t32 -85.5q14 -44 31.5 -65t36.5 -26.5t35 -5.5q21 0 31 -11.5t10 -27.5t-14 -29.5t-36 -13.5q-33 0 -64.5 12.5t-54.5 41t-32 76.5l40 32
q0 -40 -17 -77.5t-61.5 -61.5t-127.5 -24q-36 0 -69.5 6t-61.5 17.5t-49 27.5l40 69q20 -13 56 -25t84 -12zM234 -191q-21 0 -35.5 14.5t-14.5 34.5t14.5 35t35.5 15q20 0 34.5 -15t14.5 -35t-14.5 -34.5t-34.5 -14.5z" />
    <glyph glyph-name="uni068B.fina" unicode="&#x68b;" horiz-adv-x="532" 
d="M215 77q50 0 79.5 10t43 29.5t13.5 45.5q0 20 -10.5 48t-28.5 62.5t-41.5 73t-50.5 78.5l69 45q39 -59 68 -111.5t49 -98t32 -85.5q14 -44 31.5 -65t36.5 -26.5t35 -5.5q21 0 31 -11.5t10 -27.5t-14 -29.5t-36 -13.5q-33 0 -64.5 12.5t-54.5 41t-32 76.5l40 32
q0 -40 -17 -77.5t-61.5 -61.5t-127.5 -24q-36 0 -69.5 6t-61.5 17.5t-49 27.5l40 69q20 -13 56 -25t84 -12zM224 588q-18 0 -42.5 1.5t-46.5 3.5l-33 3l2 58q20 -2 52.5 -5t60.5 -3q33 0 53.5 4.5t30 13.5t9.5 20q0 14 -9 20t-23 6q-20 0 -39 -13.5t-33.5 -30t-21.5 -26.5
l-56 4q17 33 42 61.5t55 46t61 17.5q38 0 60 -23t22 -57q0 -20 -11.5 -43.5t-42.5 -40.5t-90 -17zM155 654l-6 193h55l8 -167zM234 -191q-21 0 -35.5 14.5t-14.5 34.5t14.5 35t35.5 15q20 0 34.5 -15t14.5 -35t-14.5 -34.5t-34.5 -14.5z" />
    <glyph glyph-name="uni068F.fina" unicode="&#x68f;" horiz-adv-x="532" 
d="M215 77q50 0 79.5 10t43 29.5t13.5 45.5q0 20 -10.5 48t-28.5 62.5t-41.5 73t-50.5 78.5l69 45q39 -59 68 -111.5t49 -98t32 -85.5q14 -44 31.5 -65t36.5 -26.5t35 -5.5q21 0 31 -11.5t10 -27.5t-14 -29.5t-36 -13.5q-33 0 -64.5 12.5t-54.5 41t-32 76.5l40 32
q0 -40 -17 -77.5t-61.5 -61.5t-127.5 -24q-36 0 -69.5 6t-61.5 17.5t-49 27.5l40 69q20 -13 56 -25t84 -12zM223 560q-21 0 -35.5 14.5t-14.5 34.5t14.5 35t35.5 15q20 0 34.5 -15t14.5 -35t-14.5 -34.5t-34.5 -14.5zM155 670q-21 0 -35.5 14.5t-14.5 34.5t14.5 35t35.5 15
q20 0 34.5 -15t14.5 -35t-14.5 -34.5t-34.5 -14.5zM291 670q-21 0 -35.5 14.5t-14.5 34.5t14.5 35t35.5 15q20 0 34.5 -15t14.5 -35t-14.5 -34.5t-34.5 -14.5z" />
    <glyph glyph-name="uni0690.fina" unicode="&#x690;" horiz-adv-x="532" 
d="M215 77q50 0 79.5 10t43 29.5t13.5 45.5q0 20 -10.5 48t-28.5 62.5t-41.5 73t-50.5 78.5l69 45q39 -59 68 -111.5t49 -98t32 -85.5q14 -44 31.5 -65t36.5 -26.5t35 -5.5q21 0 31 -11.5t10 -27.5t-14 -29.5t-36 -13.5q-33 0 -64.5 12.5t-54.5 41t-32 76.5l40 32
q0 -40 -17 -77.5t-61.5 -61.5t-127.5 -24q-36 0 -69.5 6t-61.5 17.5t-49 27.5l40 69q20 -13 56 -25t84 -12zM155 685q-21 0 -35.5 14.5t-14.5 34.5t14.5 35t35.5 15q20 0 34.5 -15t14.5 -35t-14.5 -34.5t-34.5 -14.5zM155 560q-21 0 -35.5 14.5t-14.5 34.5t14.5 35t35.5 15
q20 0 34.5 -15t14.5 -35t-14.5 -34.5t-34.5 -14.5zM291 685q-21 0 -35.5 14.5t-14.5 34.5t14.5 35t35.5 15q20 0 34.5 -15t14.5 -35t-14.5 -34.5t-34.5 -14.5zM291 560q-21 0 -35.5 14.5t-14.5 34.5t14.5 35t35.5 15q20 0 34.5 -15t14.5 -35t-14.5 -34.5t-34.5 -14.5z" />
    <glyph glyph-name="uni0692.fina" unicode="&#x692;" horiz-adv-x="396" 
d="M4 -232l-29 76q73 24 121.5 55t77 66t40.5 71.5t12 70.5q0 49 -21.5 99.5t-47.5 95.5l73 37q19 -35 33.5 -69t26 -64t18.5 -55q14 -43 36.5 -58.5t61.5 -15.5q21 0 30.5 -11.5t9.5 -27.5t-14 -29.5t-36 -13.5q-44 0 -71.5 15.5t-41.5 41t-19 53.5l32 -18
q0 -66 -29.5 -120.5t-75.5 -95t-96 -66.5t-91 -37zM134 485q-7 15 -17.5 38t-23 48.5t-25 49t-21.5 39.5l46 25q6 -10 17 -30t23 -43t22.5 -45t17.5 -37l20 -39zM193 491l-44 16q6 17 17.5 44t24.5 55.5t23.5 50.5t14.5 30l45 -19q-5 -10 -16 -32.5t-23.5 -50t-24 -53
t-17.5 -41.5z" />
    <glyph glyph-name="uni0693.fina" unicode="&#x693;" horiz-adv-x="396" 
d="M241 -226q-37 0 -63 26t-26 63t26 63t63 26t63 -26t26 -63t-26 -63t-63 -26zM241 -175q17 0 29 11t12 27q0 17 -12 28.5t-29 11.5t-29 -11.5t-12 -28.5q0 -16 12 -27t29 -11zM4 -232l-29 76q73 24 121.5 55t77 66t40.5 71.5t12 70.5q0 49 -21.5 99.5t-47.5 95.5l73 37
q19 -35 33.5 -69t26 -64t18.5 -55q14 -43 36.5 -58.5t61.5 -15.5q21 0 30.5 -11.5t9.5 -27.5t-14 -29.5t-36 -13.5q-44 0 -71.5 15.5t-41.5 41t-19 53.5l32 -18q0 -66 -29.5 -120.5t-75.5 -95t-96 -66.5t-91 -37z" />
    <glyph glyph-name="uni0694.fina" unicode="&#x694;" horiz-adv-x="396" 
d="M4 -232l-29 76q73 24 121.5 55t77 66t40.5 71.5t12 70.5q0 49 -21.5 99.5t-47.5 95.5l73 37q19 -35 33.5 -69t26 -64t18.5 -55q14 -43 36.5 -58.5t61.5 -15.5q21 0 30.5 -11.5t9.5 -27.5t-14 -29.5t-36 -13.5q-44 0 -71.5 15.5t-41.5 41t-19 53.5l32 -18
q0 -66 -29.5 -120.5t-75.5 -95t-96 -66.5t-91 -37zM83 -403q-21 0 -35.5 14.5t-14.5 34.5t14.5 35t35.5 15q20 0 34.5 -15t14.5 -35t-14.5 -34.5t-34.5 -14.5z" />
    <glyph glyph-name="uni0695.fina" unicode="&#x695;" horiz-adv-x="396" 
d="M45 -57l-20.5 41t-26 50.5t-23.5 42.5l37 20q5 -8 13.5 -23t18 -32.5t18 -34.5t14.5 -28l16 -31zM92 -52l-35 12q5 14 14 35t19 42.5t18.5 38.5t12.5 23l36 -15q-5 -9 -13.5 -26t-18.5 -38t-19 -40.5t-14 -31.5zM4 -232l-29 76q73 24 121.5 55t77 66t40.5 71.5t12 70.5
q0 49 -21.5 99.5t-47.5 95.5l73 37q19 -35 33.5 -69t26 -64t18.5 -55q14 -43 36.5 -58.5t61.5 -15.5q21 0 30.5 -11.5t9.5 -27.5t-14 -29.5t-36 -13.5q-44 0 -71.5 15.5t-41.5 41t-19 53.5l32 -18q0 -66 -29.5 -120.5t-75.5 -95t-96 -66.5t-91 -37z" />
    <glyph glyph-name="uni0696.fina" unicode="&#x696;" horiz-adv-x="396" 
d="M4 -232l-29 76q73 24 121.5 55t77 66t40.5 71.5t12 70.5q0 49 -21.5 99.5t-47.5 95.5l73 37q19 -35 33.5 -69t26 -64t18.5 -55q14 -43 36.5 -58.5t61.5 -15.5q21 0 30.5 -11.5t9.5 -27.5t-14 -29.5t-36 -13.5q-44 0 -71.5 15.5t-41.5 41t-19 53.5l32 -18
q0 -66 -29.5 -120.5t-75.5 -95t-96 -66.5t-91 -37zM71 -7q-21 0 -35.5 14.5t-14.5 34.5t14.5 35t35.5 15q20 0 34.5 -15t14.5 -35t-14.5 -34.5t-34.5 -14.5zM83 -403q-21 0 -35.5 14.5t-14.5 34.5t14.5 35t35.5 15q20 0 34.5 -15t14.5 -35t-14.5 -34.5t-34.5 -14.5z" />
    <glyph glyph-name="uni0697.fina" unicode="&#x697;" horiz-adv-x="396" 
d="M4 -232l-29 76q73 24 121.5 55t77 66t40.5 71.5t12 70.5q0 49 -21.5 99.5t-47.5 95.5l73 37q19 -35 33.5 -69t26 -64t18.5 -55q14 -43 36.5 -58.5t61.5 -15.5q21 0 30.5 -11.5t9.5 -27.5t-14 -29.5t-36 -13.5q-44 0 -71.5 15.5t-41.5 41t-19 53.5l32 -18
q0 -66 -29.5 -120.5t-75.5 -95t-96 -66.5t-91 -37zM233 454q-21 0 -35.5 14.5t-14.5 34.5t14.5 35t35.5 15q20 0 34.5 -15t14.5 -35t-14.5 -34.5t-34.5 -14.5zM96 454q-21 0 -35.5 14.5t-14.5 34.5t14.5 35t35.5 15q20 0 34.5 -15t14.5 -35t-14.5 -34.5t-34.5 -14.5z" />
    <glyph glyph-name="uni0699.fina" unicode="&#x699;" horiz-adv-x="396" 
d="M4 -232l-29 76q73 24 121.5 55t77 66t40.5 71.5t12 70.5q0 49 -21.5 99.5t-47.5 95.5l73 37q19 -35 33.5 -69t26 -64t18.5 -55q14 -43 36.5 -58.5t61.5 -15.5q21 0 30.5 -11.5t9.5 -27.5t-14 -29.5t-36 -13.5q-44 0 -71.5 15.5t-41.5 41t-19 53.5l32 -18
q0 -66 -29.5 -120.5t-75.5 -95t-96 -66.5t-91 -37zM97 579q-21 0 -35.5 14.5t-14.5 34.5t14.5 35t35.5 15q20 0 34.5 -15t14.5 -35t-14.5 -34.5t-34.5 -14.5zM97 454q-21 0 -35.5 14.5t-14.5 34.5t14.5 35t35.5 15q20 0 34.5 -15t14.5 -35t-14.5 -34.5t-34.5 -14.5zM233 579
q-21 0 -35.5 14.5t-14.5 34.5t14.5 35t35.5 15q20 0 34.5 -15t14.5 -35t-14.5 -34.5t-34.5 -14.5zM233 454q-21 0 -35.5 14.5t-14.5 34.5t14.5 35t35.5 15q20 0 34.5 -15t14.5 -35t-14.5 -34.5t-34.5 -14.5z" />
    <glyph glyph-name="uni069A.init" unicode="&#x69a;" horiz-adv-x="784" 
d="M0 -5l10 82q32 0 52 4.5t33.5 23t25.5 58.5t28 112l75 -21q-4 -17 -9 -38.5t-9 -44t-4 -41.5q0 -25 19 -39t69 -14q30 0 49 5t31.5 24t22.5 61t21 115l76 -14q-3 -18 -7 -44t-7.5 -51.5t-3.5 -42.5q0 -14 6.5 -26.5t26 -19.5t58.5 -7q29 0 50.5 7t33 26t11.5 53
q0 38 -17.5 95.5t-39.5 114.5l81 30q13 -32 24.5 -73t19.5 -81t8 -70q0 -46 -12 -81t-34 -57.5t-54 -34t-72 -11.5q-47 0 -77 11t-46 33.5t-21 57.5h34q-19 -43 -40 -65t-52 -29.5t-82 -7.5q-25 0 -53.5 8t-49.5 31.5t-25 70.5l30 6q-17 -51 -41.5 -75.5t-58.5 -32.5t-80 -8
zM386 -191q-21 0 -35.5 14.5t-14.5 34.5t14.5 35t35.5 15q20 0 34.5 -15t14.5 -35t-14.5 -34.5t-34.5 -14.5zM429 435q-21 0 -35.5 14.5t-14.5 34.5t14.5 35t35.5 15q20 0 34.5 -15t14.5 -35t-14.5 -34.5t-34.5 -14.5z" />
    <glyph glyph-name="uni069A.medi" unicode="&#x69a;" horiz-adv-x="850" 
d="M0 -5l10 82q32 0 52 4.5t33.5 23t25.5 58.5t28 112l75 -21q-6 -25 -14 -60t-8 -64q0 -16 8 -28t27.5 -18.5t52.5 -6.5q30 0 49 5t31.5 24t22.5 61t21 115l76 -14q-3 -18 -7 -44t-7.5 -51.5t-3.5 -42.5q0 -14 6.5 -26.5t26 -19.5t58.5 -7q50 0 72.5 21t22.5 64
q0 23 -1 48.5t-3.5 57t-7.5 72.5l73 5q6 -81 13.5 -133t22 -81.5t39.5 -41.5t66 -12q21 0 30.5 -11.5t9.5 -27.5t-14 -29.5t-36 -13.5q-34 0 -60.5 9.5t-46 26t-32 38t-17.5 45.5l18 -6q-11 -45 -34.5 -69.5t-55.5 -34t-68 -9.5q-44 0 -72 11t-43.5 33.5t-20.5 57.5h34
q-19 -43 -40 -65t-52 -29.5t-82 -7.5q-25 0 -53.5 8t-49.5 31.5t-25 70.5l30 6q-17 -51 -41.5 -75.5t-58.5 -32.5t-80 -8zM386 -191q-21 0 -35.5 14.5t-14.5 34.5t14.5 35t35.5 15q20 0 34.5 -15t14.5 -35t-14.5 -34.5t-34.5 -14.5zM429 435q-21 0 -35.5 14.5t-14.5 34.5
t14.5 35t35.5 15q20 0 34.5 -15t14.5 -35t-14.5 -34.5t-34.5 -14.5z" />
    <glyph glyph-name="uni069A.fina" unicode="&#x69a;" horiz-adv-x="1269" 
d="M313 -232q-57 0 -108 15.5t-90.5 45.5t-62 72.5t-22.5 97.5q0 24 4.5 51.5t14 59t23.5 66.5l72 -28q-10 -28 -17.5 -53t-11 -47t-3.5 -42q0 -51 27.5 -86t74 -52.5t102.5 -17.5q68 0 114 15.5t73 41t38.5 57t11.5 62.5q0 44 -6.5 83t-17 76.5t-22.5 76.5l81 22
q16 -57 22.5 -82.5t10.5 -41.5q11 -37 25.5 -54.5t34 -23t44.5 -5.5q20 0 35.5 5t29 24t24 61t19.5 115l76 -14q-3 -18 -7 -44t-7.5 -51.5t-3.5 -42.5q0 -14 6.5 -26.5t26 -19.5t58.5 -7q50 0 72.5 21t22.5 64q0 23 -1 48.5t-3.5 57t-7.5 72.5l73 5q6 -81 13.5 -133
t22 -81.5t39.5 -41.5t66 -12q21 0 30.5 -11.5t9.5 -27.5t-14 -29.5t-36 -13.5q-45 0 -77.5 16t-52 43.5t-26.5 59.5l18 -6q-11 -45 -34.5 -69.5t-55.5 -34t-68 -9.5q-44 0 -72 11t-43.5 33.5t-20.5 57.5h34q-16 -36 -36 -58.5t-47.5 -33t-67.5 -10.5q-31 0 -53 8.5t-36.5 22
t-22.5 31t-12 35.5l41 -51q-4 -50 -20.5 -98.5t-52.5 -88t-97 -63t-154 -23.5zM848 -186q-21 0 -35.5 14.5t-14.5 34.5t14.5 35t35.5 15q20 0 34.5 -15t14.5 -35t-14.5 -34.5t-34.5 -14.5zM822 435q-21 0 -35.5 14.5t-14.5 34.5t14.5 35t35.5 15q20 0 34.5 -15t14.5 -35
t-14.5 -34.5t-34.5 -14.5z" />
    <glyph glyph-name="uni069B.init" unicode="&#x69b;" horiz-adv-x="784" 
d="M0 -5l10 82q32 0 52 4.5t33.5 23t25.5 58.5t28 112l75 -21q-4 -17 -9 -38.5t-9 -44t-4 -41.5q0 -25 19 -39t69 -14q30 0 49 5t31.5 24t22.5 61t21 115l76 -14q-3 -18 -7 -44t-7.5 -51.5t-3.5 -42.5q0 -14 6.5 -26.5t26 -19.5t58.5 -7q29 0 50.5 7t33 26t11.5 53
q0 38 -17.5 95.5t-39.5 114.5l81 30q13 -32 24.5 -73t19.5 -81t8 -70q0 -46 -12 -81t-34 -57.5t-54 -34t-72 -11.5q-47 0 -77 11t-46 33.5t-21 57.5h34q-19 -43 -40 -65t-52 -29.5t-82 -7.5q-25 0 -53.5 8t-49.5 31.5t-25 70.5l30 6q-17 -51 -41.5 -75.5t-58.5 -32.5t-80 -8
zM386 -304q-21 0 -35.5 14.5t-14.5 34.5t14.5 35t35.5 15q20 0 34.5 -15t14.5 -35t-14.5 -34.5t-34.5 -14.5zM318 -194q-21 0 -35.5 14.5t-14.5 34.5t14.5 35t35.5 15q20 0 34.5 -15t14.5 -35t-14.5 -34.5t-34.5 -14.5zM454 -194q-21 0 -35.5 14.5t-14.5 34.5t14.5 35
t35.5 15q20 0 34.5 -15t14.5 -35t-14.5 -34.5t-34.5 -14.5z" />
    <glyph glyph-name="uni069B.medi" unicode="&#x69b;" horiz-adv-x="850" 
d="M0 -5l10 82q32 0 52 4.5t33.5 23t25.5 58.5t28 112l75 -21q-6 -25 -14 -60t-8 -64q0 -16 8 -28t27.5 -18.5t52.5 -6.5q30 0 49 5t31.5 24t22.5 61t21 115l76 -14q-3 -18 -7 -44t-7.5 -51.5t-3.5 -42.5q0 -14 6.5 -26.5t26 -19.5t58.5 -7q50 0 72.5 21t22.5 64
q0 23 -1 48.5t-3.5 57t-7.5 72.5l73 5q6 -81 13.5 -133t22 -81.5t39.5 -41.5t66 -12q21 0 30.5 -11.5t9.5 -27.5t-14 -29.5t-36 -13.5q-34 0 -60.5 9.5t-46 26t-32 38t-17.5 45.5l18 -6q-11 -45 -34.5 -69.5t-55.5 -34t-68 -9.5q-44 0 -72 11t-43.5 33.5t-20.5 57.5h34
q-19 -43 -40 -65t-52 -29.5t-82 -7.5q-25 0 -53.5 8t-49.5 31.5t-25 70.5l30 6q-17 -51 -41.5 -75.5t-58.5 -32.5t-80 -8zM386 -304q-21 0 -35.5 14.5t-14.5 34.5t14.5 35t35.5 15q20 0 34.5 -15t14.5 -35t-14.5 -34.5t-34.5 -14.5zM318 -194q-21 0 -35.5 14.5t-14.5 34.5
t14.5 35t35.5 15q20 0 34.5 -15t14.5 -35t-14.5 -34.5t-34.5 -14.5zM454 -194q-21 0 -35.5 14.5t-14.5 34.5t14.5 35t35.5 15q20 0 34.5 -15t14.5 -35t-14.5 -34.5t-34.5 -14.5z" />
    <glyph glyph-name="uni069B.fina" unicode="&#x69b;" horiz-adv-x="1269" 
d="M313 -232q-57 0 -108 15.5t-90.5 45.5t-62 72.5t-22.5 97.5q0 24 4.5 51.5t14 59t23.5 66.5l72 -28q-10 -28 -17.5 -53t-11 -47t-3.5 -42q0 -51 27.5 -86t74 -52.5t102.5 -17.5q68 0 114 15.5t73 41t38.5 57t11.5 62.5q0 44 -6.5 83t-17 76.5t-22.5 76.5l81 22
q16 -57 22.5 -82.5t10.5 -41.5q11 -37 25.5 -54.5t34 -23t44.5 -5.5q20 0 35.5 5t29 24t24 61t19.5 115l76 -14q-3 -18 -7 -44t-7.5 -51.5t-3.5 -42.5q0 -14 6.5 -26.5t26 -19.5t58.5 -7q50 0 72.5 21t22.5 64q0 23 -1 48.5t-3.5 57t-7.5 72.5l73 5q6 -81 13.5 -133
t22 -81.5t39.5 -41.5t66 -12q21 0 30.5 -11.5t9.5 -27.5t-14 -29.5t-36 -13.5q-45 0 -77.5 16t-52 43.5t-26.5 59.5l18 -6q-11 -45 -34.5 -69.5t-55.5 -34t-68 -9.5q-44 0 -72 11t-43.5 33.5t-20.5 57.5h34q-16 -36 -36 -58.5t-47.5 -33t-67.5 -10.5q-31 0 -53 8.5t-36.5 22
t-22.5 31t-12 35.5l41 -51q-4 -50 -20.5 -98.5t-52.5 -88t-97 -63t-154 -23.5zM848 -299q-21 0 -35.5 14.5t-14.5 34.5t14.5 35t35.5 15q20 0 34.5 -15t14.5 -35t-14.5 -34.5t-34.5 -14.5zM780 -189q-21 0 -35.5 14.5t-14.5 34.5t14.5 35t35.5 15q20 0 34.5 -15t14.5 -35
t-14.5 -34.5t-34.5 -14.5zM916 -189q-21 0 -35.5 14.5t-14.5 34.5t14.5 35t35.5 15q20 0 34.5 -15t14.5 -35t-14.5 -34.5t-34.5 -14.5z" />
    <glyph glyph-name="uni069D.init" unicode="&#x69d;" horiz-adv-x="903" 
d="M484 -18q-88 0 -147.5 6.5t-96.5 19.5t-56 33t-26 48l23 8q-25 -48 -54 -69.5t-60.5 -27t-66.5 -5.5l10 82q35 0 57.5 10t37 33t25.5 61t24 94l73 -19q-6 -23 -11 -44t-7.5 -36.5t-2.5 -24.5q0 -24 11 -40.5t42 -27t89.5 -15t153.5 -4.5q66 0 118 8t87.5 24.5t54.5 40.5
t19 55q0 22 -11 43.5t-34 36.5t-61 15q-48 0 -95.5 -25t-90 -62.5t-75.5 -76.5t-53 -68l-87 3q32 52 76.5 106.5t98 101t112.5 75t120 28.5q55 0 94.5 -22.5t61 -60.5t21.5 -86q0 -59 -34.5 -108.5t-116.5 -79.5t-223 -30zM556 -207q-21 0 -35.5 14.5t-14.5 34.5t14.5 35
t35.5 15q20 0 34.5 -15t14.5 -35t-14.5 -34.5t-34.5 -14.5zM419 -207q-21 0 -35.5 14.5t-14.5 34.5t14.5 35t35.5 15q20 0 34.5 -15t14.5 -35t-14.5 -34.5t-34.5 -14.5z" />
    <glyph glyph-name="uni069D.medi" unicode="&#x69d;" horiz-adv-x="949" 
d="M949 -5q-26 0 -65.5 5.5t-80 19.5t-68.5 39l82 41q35 -14 72.5 -18.5t69.5 -4.5q21 0 30.5 -11.5t9.5 -27.5t-14 -29.5t-36 -13.5zM484 -18q-88 0 -147.5 6.5t-96.5 19.5t-56 33t-26 48l23 8q-25 -48 -54 -69.5t-60.5 -27t-66.5 -5.5l10 82q35 0 57.5 10t37 33t25.5 61
t24 94l73 -19q-6 -23 -11 -44t-7.5 -36.5t-2.5 -24.5q0 -24 11 -40.5t42 -27t89.5 -15t153.5 -4.5q66 0 118 8t87.5 24.5t54.5 40.5t19 55q0 22 -11 43.5t-34 36.5t-61 15q-48 0 -95.5 -25t-90 -62.5t-75.5 -76.5t-53 -68l-87 3q32 52 76.5 106.5t98 101t112.5 75t120 28.5
q55 0 94.5 -22.5t61 -60.5t21.5 -86q0 -59 -34.5 -108.5t-116.5 -79.5t-223 -30zM556 -207q-21 0 -35.5 14.5t-14.5 34.5t14.5 35t35.5 15q20 0 34.5 -15t14.5 -35t-14.5 -34.5t-34.5 -14.5zM419 -207q-21 0 -35.5 14.5t-14.5 34.5t14.5 35t35.5 15q20 0 34.5 -15t14.5 -35
t-14.5 -34.5t-34.5 -14.5z" />
    <glyph glyph-name="uni069D.fina" unicode="&#x69d;" horiz-adv-x="1352" 
d="M1352 -5q-26 0 -65.5 5.5t-80 19.5t-68.5 39l82 41q35 -14 72.5 -18.5t69.5 -4.5q21 0 30.5 -11.5t9.5 -27.5t-14 -29.5t-36 -13.5zM313 -232q-57 0 -108 15.5t-90.5 45.5t-62 72.5t-22.5 97.5q0 24 4.5 51.5t14 59t23.5 66.5l72 -28q-10 -28 -17.5 -53t-11 -47t-3.5 -42
q0 -51 27.5 -86t74 -52.5t102.5 -17.5q68 0 114 17t73 45.5t38.5 64t11.5 72.5q0 49 -14.5 101.5t-31.5 111.5l81 22q11 -38 16.5 -61.5t9 -38t7.5 -24.5q11 -26 31.5 -43.5t54 -28t82.5 -15t116 -4.5q53 0 96.5 5t77.5 15.5t57.5 26t35.5 36t12 45.5q0 22 -11 43.5
t-34 36.5t-61 15q-48 0 -95.5 -25t-90 -62.5t-75.5 -76.5t-53 -68l-87 3q25 41 59 85t74 84t85 72t92.5 51t96.5 19q55 0 94.5 -22.5t61 -60.5t21.5 -86q0 -44 -19 -83.5t-62 -69.5t-115 -47.5t-178 -17.5q-76 0 -129.5 9.5t-88 25t-52 34t-21.5 36.5l41 -51
q-5 -48 -21.5 -96t-52 -88.5t-96.5 -64.5t-154 -24zM976 -202q-21 0 -35.5 14.5t-14.5 34.5t14.5 35t35.5 15q20 0 34.5 -15t14.5 -35t-14.5 -34.5t-34.5 -14.5zM839 -202q-21 0 -35.5 14.5t-14.5 34.5t14.5 35t35.5 15q20 0 34.5 -15t14.5 -35t-14.5 -34.5t-34.5 -14.5z
" />
    <glyph glyph-name="uni069E.init" unicode="&#x69e;" horiz-adv-x="903" 
d="M484 -18q-88 0 -147.5 6.5t-96.5 19.5t-56 33t-26 48l23 8q-25 -48 -54 -69.5t-60.5 -27t-66.5 -5.5l10 82q35 0 57.5 10t37 33t25.5 61t24 94l73 -19q-6 -23 -11 -44t-7.5 -36.5t-2.5 -24.5q0 -24 11 -40.5t42 -27t89.5 -15t153.5 -4.5q66 0 118 8t87.5 24.5t54.5 40.5
t19 55q0 22 -11 43.5t-34 36.5t-61 15q-48 0 -95.5 -25t-90 -62.5t-75.5 -76.5t-53 -68l-87 3q32 52 76.5 106.5t98 101t112.5 75t120 28.5q55 0 94.5 -22.5t61 -60.5t21.5 -86q0 -59 -34.5 -108.5t-116.5 -79.5t-223 -30zM654 582q-21 0 -35.5 14.5t-14.5 34.5t14.5 35
t35.5 15q20 0 34.5 -15t14.5 -35t-14.5 -34.5t-34.5 -14.5zM586 472q-21 0 -35.5 14.5t-14.5 34.5t14.5 35t35.5 15q20 0 34.5 -15t14.5 -35t-14.5 -34.5t-34.5 -14.5zM722 472q-21 0 -35.5 14.5t-14.5 34.5t14.5 35t35.5 15q20 0 34.5 -15t14.5 -35t-14.5 -34.5
t-34.5 -14.5z" />
    <glyph glyph-name="uni069E.medi" unicode="&#x69e;" horiz-adv-x="949" 
d="M949 -5q-26 0 -65.5 5.5t-80 19.5t-68.5 39l82 41q35 -14 72.5 -18.5t69.5 -4.5q21 0 30.5 -11.5t9.5 -27.5t-14 -29.5t-36 -13.5zM484 -18q-88 0 -147.5 6.5t-96.5 19.5t-56 33t-26 48l23 8q-25 -48 -54 -69.5t-60.5 -27t-66.5 -5.5l10 82q35 0 57.5 10t37 33t25.5 61
t24 94l73 -19q-6 -23 -11 -44t-7.5 -36.5t-2.5 -24.5q0 -24 11 -40.5t42 -27t89.5 -15t153.5 -4.5q66 0 118 8t87.5 24.5t54.5 40.5t19 55q0 22 -11 43.5t-34 36.5t-61 15q-48 0 -95.5 -25t-90 -62.5t-75.5 -76.5t-53 -68l-87 3q32 52 76.5 106.5t98 101t112.5 75t120 28.5
q55 0 94.5 -22.5t61 -60.5t21.5 -86q0 -59 -34.5 -108.5t-116.5 -79.5t-223 -30zM654 582q-21 0 -35.5 14.5t-14.5 34.5t14.5 35t35.5 15q20 0 34.5 -15t14.5 -35t-14.5 -34.5t-34.5 -14.5zM586 472q-21 0 -35.5 14.5t-14.5 34.5t14.5 35t35.5 15q20 0 34.5 -15t14.5 -35
t-14.5 -34.5t-34.5 -14.5zM722 472q-21 0 -35.5 14.5t-14.5 34.5t14.5 35t35.5 15q20 0 34.5 -15t14.5 -35t-14.5 -34.5t-34.5 -14.5z" />
    <glyph glyph-name="uni069E.fina" unicode="&#x69e;" horiz-adv-x="1352" 
d="M1352 -5q-26 0 -65.5 5.5t-80 19.5t-68.5 39l82 41q35 -14 72.5 -18.5t69.5 -4.5q21 0 30.5 -11.5t9.5 -27.5t-14 -29.5t-36 -13.5zM313 -232q-57 0 -108 15.5t-90.5 45.5t-62 72.5t-22.5 97.5q0 24 4.5 51.5t14 59t23.5 66.5l72 -28q-10 -28 -17.5 -53t-11 -47t-3.5 -42
q0 -51 27.5 -86t74 -52.5t102.5 -17.5q68 0 114 17t73 45.5t38.5 64t11.5 72.5q0 49 -14.5 101.5t-31.5 111.5l81 22q11 -38 16.5 -61.5t9 -38t7.5 -24.5q11 -26 31.5 -43.5t54 -28t82.5 -15t116 -4.5q53 0 96.5 5t77.5 15.5t57.5 26t35.5 36t12 45.5q0 22 -11 43.5
t-34 36.5t-61 15q-48 0 -95.5 -25t-90 -62.5t-75.5 -76.5t-53 -68l-87 3q25 41 59 85t74 84t85 72t92.5 51t96.5 19q55 0 94.5 -22.5t61 -60.5t21.5 -86q0 -44 -19 -83.5t-62 -69.5t-115 -47.5t-178 -17.5q-76 0 -129.5 9.5t-88 25t-52 34t-21.5 36.5l41 -51
q-5 -48 -21.5 -96t-52 -88.5t-96.5 -64.5t-154 -24zM1057 587q-21 0 -35.5 14.5t-14.5 34.5t14.5 35t35.5 15q20 0 34.5 -15t14.5 -35t-14.5 -34.5t-34.5 -14.5zM989 477q-21 0 -35.5 14.5t-14.5 34.5t14.5 35t35.5 15q20 0 34.5 -15t14.5 -35t-14.5 -34.5t-34.5 -14.5z
M1125 477q-21 0 -35.5 14.5t-14.5 34.5t14.5 35t35.5 15q20 0 34.5 -15t14.5 -35t-14.5 -34.5t-34.5 -14.5z" />
    <glyph glyph-name="uni069F.init" unicode="&#x69f;" horiz-adv-x="677" 
d="M0 -5l10 82h209q87 0 150.5 7.5t104.5 22.5t61 38.5t20 55.5q0 17 -11 37t-34 34.5t-61 14.5q-48 0 -95.5 -25t-90 -62.5t-75.5 -76.5t-53 -68l-87 3q32 52 76.5 106.5t98 101t112.5 75t120 28.5q55 0 94.5 -22.5t61 -60.5t21.5 -86q0 -47 -34 -94.5t-117 -74.5
q-42 -14 -96 -22t-123 -11t-157 -3h-105zM95 94l-20 620h81l20 -550zM408 582q-21 0 -35.5 14.5t-14.5 34.5t14.5 35t35.5 15q20 0 34.5 -15t14.5 -35t-14.5 -34.5t-34.5 -14.5zM340 472q-21 0 -35.5 14.5t-14.5 34.5t14.5 35t35.5 15q20 0 34.5 -15t14.5 -35t-14.5 -34.5
t-34.5 -14.5zM476 472q-21 0 -35.5 14.5t-14.5 34.5t14.5 35t35.5 15q20 0 34.5 -15t14.5 -35t-14.5 -34.5t-34.5 -14.5z" />
    <glyph glyph-name="uni069F.medi" unicode="&#x69f;" horiz-adv-x="710" 
d="M710 -5q-26 0 -65.5 5.5t-80 19.5t-68.5 39l82 41q35 -14 72.5 -18.5t69.5 -4.5q21 0 30.5 -11.5t9.5 -27.5t-14 -29.5t-36 -13.5zM0 -5l10 82h209q87 0 150.5 7.5t104.5 22.5t61 38.5t20 55.5q0 17 -11 37t-34 34.5t-61 14.5q-48 0 -95.5 -25t-90 -62.5t-75.5 -76.5
t-53 -68l-87 3q32 52 76.5 106.5t98 101t112.5 75t120 28.5q55 0 94.5 -22.5t61 -60.5t21.5 -86q0 -47 -34 -94.5t-117 -74.5q-42 -14 -96 -22t-123 -11t-157 -3h-105zM95 94l-20 620h81l20 -550zM408 582q-21 0 -35.5 14.5t-14.5 34.5t14.5 35t35.5 15q20 0 34.5 -15
t14.5 -35t-14.5 -34.5t-34.5 -14.5zM340 472q-21 0 -35.5 14.5t-14.5 34.5t14.5 35t35.5 15q20 0 34.5 -15t14.5 -35t-14.5 -34.5t-34.5 -14.5zM476 472q-21 0 -35.5 14.5t-14.5 34.5t14.5 35t35.5 15q20 0 34.5 -15t14.5 -35t-14.5 -34.5t-34.5 -14.5z" />
    <glyph glyph-name="uni069F.fina" unicode="&#x69f;" horiz-adv-x="831" 
d="M831 -5q-26 0 -65.5 5.5t-80 19.5t-68.5 39l82 41q35 -14 72.5 -18.5t69.5 -4.5q21 0 30.5 -11.5t9.5 -27.5t-14 -29.5t-36 -13.5zM369 -13q-63 0 -116.5 2t-97.5 4.5t-78 6t-57 6.5l9 78q29 -4 66.5 -7t83 -4.5t97.5 -2.5t111 -1q66 0 118 8t87.5 24.5t54.5 40.5t19 55
q0 22 -11 43.5t-34 36.5t-61 15q-48 0 -95.5 -25t-90 -62.5t-75.5 -76.5t-53 -68l-87 3q32 52 76.5 106.5t98 101t112.5 75t120 28.5q55 0 94.5 -22.5t61 -60.5t21.5 -86q0 -59 -34.5 -108.5t-116.5 -79.5t-223 -30zM213 99l-20 615h81l20 -545zM519 587q-21 0 -35.5 14.5
t-14.5 34.5t14.5 35t35.5 15q20 0 34.5 -15t14.5 -35t-14.5 -34.5t-34.5 -14.5zM451 477q-21 0 -35.5 14.5t-14.5 34.5t14.5 35t35.5 15q20 0 34.5 -15t14.5 -35t-14.5 -34.5t-34.5 -14.5zM587 477q-21 0 -35.5 14.5t-14.5 34.5t14.5 35t35.5 15q20 0 34.5 -15t14.5 -35
t-14.5 -34.5t-34.5 -14.5z" />
    <glyph glyph-name="uni06A0.init" unicode="&#x6a0;" horiz-adv-x="503" 
d="M0 -5l10 82q63 0 97.5 1t50.5 2.5t22 1.5q-18 10 -42 31.5t-42 55t-18 79.5q0 57 26.5 100t73 67t106.5 24q23 0 49 -4t50 -12l-17 -77q-20 5 -42 8t-40 3q-36 0 -64 -13.5t-44 -37.5t-16 -58q0 -26 11 -47.5t29 -38.5t40 -28t43.5 -17t38.5 -5q12 4 22 7t22.5 7.5
t31 12.5t47.5 21l28 -73q-67 -27 -136.5 -48t-151 -32.5t-185.5 -11.5zM267 652q-21 0 -35.5 14.5t-14.5 34.5t14.5 35t35.5 15q20 0 34.5 -15t14.5 -35t-14.5 -34.5t-34.5 -14.5zM199 542q-21 0 -35.5 14.5t-14.5 34.5t14.5 35t35.5 15q20 0 34.5 -15t14.5 -35t-14.5 -34.5
t-34.5 -14.5zM335 542q-21 0 -35.5 14.5t-14.5 34.5t14.5 35t35.5 15q20 0 34.5 -15t14.5 -35t-14.5 -34.5t-34.5 -14.5z" />
    <glyph glyph-name="uni06A0.medi" unicode="&#x6a0;" horiz-adv-x="521" 
d="M0 -5l10 82q60 0 113 11.5t97.5 31t76.5 45t49.5 53t17.5 54.5q0 13 -9 26.5t-30.5 22.5t-57.5 9q-22 0 -49 -6t-51.5 -16.5t-40.5 -23.5q27 -22 50.5 -43t48.5 -45.5t54 -55.5q23 -17 51.5 -29t62 -19.5t68.5 -11t70 -3.5q21 0 30.5 -11.5t9.5 -27.5t-14 -29.5
t-36 -13.5q-55 0 -112.5 10.5t-107.5 32t-85 54.5q-17 22 -38 44t-45.5 44.5t-52.5 42.5q-6 5 -12 18t-10 27t-4 21q0 15 19 36t51 40.5t73 32.5t85 13q57 0 92.5 -17t52 -43.5t16.5 -56.5q0 -44 -22 -87.5t-63 -81.5t-96 -67.5t-121.5 -46t-140.5 -16.5zM277 624
q-21 0 -35.5 14.5t-14.5 34.5t14.5 35t35.5 15q20 0 34.5 -15t14.5 -35t-14.5 -34.5t-34.5 -14.5zM209 514q-21 0 -35.5 14.5t-14.5 34.5t14.5 35t35.5 15q20 0 34.5 -15t14.5 -35t-14.5 -34.5t-34.5 -14.5zM345 514q-21 0 -35.5 14.5t-14.5 34.5t14.5 35t35.5 15
q20 0 34.5 -15t14.5 -35t-14.5 -34.5t-34.5 -14.5z" />
    <glyph glyph-name="uni06A0.fina" unicode="&#x6a0;" horiz-adv-x="531" 
d="M297 -394q-45 0 -95 8.5t-93.5 32t-71 66t-27.5 109.5q0 68 25.5 118.5t66 89t85.5 69.5t85.5 58t66 54.5t25.5 60.5q0 13 -8.5 26.5t-27 22.5t-49.5 9q-22 0 -49 -6t-51.5 -16.5t-40.5 -23.5q27 -22 50.5 -43t48.5 -45.5t54 -55.5q25 -14 49.5 -25.5t52.5 -20t64 -13
t84 -4.5q21 0 30.5 -11.5t9.5 -27.5t-14 -29.5t-36 -13.5q-83 0 -137.5 13t-92.5 35t-73 49q-17 22 -38 44t-45.5 44.5t-52.5 42.5q-6 5 -12 18t-10 27t-4 21q0 15 19 36t51 40.5t73 32.5t85 13q71 0 110 -35t39 -82q0 -51 -25.5 -91t-65.5 -73t-84.5 -64t-84.5 -64.5
t-65.5 -73.5t-25.5 -93q0 -46 22 -75t55 -44.5t68 -21.5t60 -6q35 0 71.5 5t76 16t79.5 27l26 -64q-29 -17 -71 -32.5t-89 -24.5t-93 -9zM297 624q-21 0 -35.5 14.5t-14.5 34.5t14.5 35t35.5 15q20 0 34.5 -15t14.5 -35t-14.5 -34.5t-34.5 -14.5zM229 514q-21 0 -35.5 14.5
t-14.5 34.5t14.5 35t35.5 15q20 0 34.5 -15t14.5 -35t-14.5 -34.5t-34.5 -14.5zM365 514q-21 0 -35.5 14.5t-14.5 34.5t14.5 35t35.5 15q20 0 34.5 -15t14.5 -35t-14.5 -34.5t-34.5 -14.5z" />
    <glyph glyph-name="uni06A1.init" unicode="&#x6a1;" horiz-adv-x="447" 
d="M0 -5l10 82q25 0 55.5 0.5t62 1.5t58.5 4.5t45 9.5q36 13 56 32.5t28.5 52t8.5 83.5q0 42 -11 78t-31 58t-48 22q-23 0 -41.5 -17.5t-29 -44.5t-10.5 -54q0 -21 8.5 -36t28.5 -23.5t52 -8.5q29 0 58.5 6t50.5 16l4 -70q-16 -11 -36 -18t-42 -10t-44 -3q-51 0 -86.5 16.5
t-54 45t-18.5 65.5q0 38 12 76.5t34 70.5t53 51.5t69 19.5q54 0 89.5 -35t53 -91.5t17.5 -119.5q0 -75 -25.5 -128.5t-84.5 -88.5q-23 -13 -55.5 -21.5t-71 -13.5t-80.5 -6.5t-85 -1.5z" />
    <glyph glyph-name="uni06A1.medi" unicode="&#x6a1;" horiz-adv-x="495" 
d="M0 -5l10 82q25 0 51.5 0.5t52.5 2.5t50 5t43 9q35 11 64.5 29t48 44t18.5 60q0 23 -11 47.5t-30 41.5t-44 17q-24 0 -44.5 -16t-33 -41.5t-12.5 -52.5q0 -32 16.5 -57.5t40.5 -43.5t48 -29l-95 -28q-16 12 -37.5 33.5t-38 53.5t-16.5 73q0 40 14.5 74.5t39 60.5t56 40.5
t65.5 14.5q49 0 86 -27t57.5 -68.5t20.5 -86.5q0 -43 -16 -77.5t-43.5 -61.5t-64 -46t-77.5 -31q-23 -7 -49.5 -11t-55.5 -6.5t-58 -3.5t-56 -1zM495 -5q-50 0 -103.5 6.5t-101 17t-78.5 23.5l69 50q30 -4 71 -7.5t82 -5.5t71 -2q21 0 30.5 -11.5t9.5 -27.5t-14 -29.5
t-36 -13.5z" />
    <glyph glyph-name="uni06A1.fina" unicode="&#x6a1;" horiz-adv-x="1098" 
d="M390 -21l26 82q74 0 137 3t114 8t87.5 10.5t55.5 11.5q35 11 64.5 28t48 42.5t18.5 59.5q0 17 -6.5 36t-18 35.5t-27 27t-33.5 10.5q-24 0 -44.5 -17t-33 -43t-12.5 -53q0 -32 16.5 -55.5t40.5 -40t48 -27.5l-95 -32q-16 12 -37.5 33t-38 52t-16.5 72q0 40 14 75t39 61.5
t56.5 41.5t65.5 15q49 0 86 -27.5t57.5 -70t20.5 -87.5q0 -43 -16 -77t-43.5 -60t-64 -45t-77.5 -31q-23 -7 -66 -13.5t-101 -12t-125.5 -9t-139.5 -3.5zM1098 -5q-50 0 -100 5.5t-96.5 16t-86.5 25.5l69 48q30 -4 71 -7t82 -4.5t71 -1.5q21 0 30.5 -11.5t9.5 -27.5
t-14 -29.5t-36 -13.5zM390 -21q-89 0 -156.5 11.5t-112.5 35.5t-68 62.5t-23 93.5q0 25 4 51.5t10.5 53.5t13.5 52l75 -19q-4 -15 -9 -35.5t-8.5 -41.5t-3.5 -38q0 -52 26.5 -83.5t92.5 -46t185 -14.5l20 -50z" />
    <glyph glyph-name="fehDotMovedbelowar.init" unicode="&#x6a2;" horiz-adv-x="447" 
d="M0 -5l10 82q25 0 55.5 0.5t62 1.5t58.5 4.5t45 9.5q36 13 56 32.5t28.5 52t8.5 83.5q0 42 -11 78t-31 58t-48 22q-23 0 -41.5 -17.5t-29 -44.5t-10.5 -54q0 -21 8.5 -36t28.5 -23.5t52 -8.5q29 0 58.5 6t50.5 16l4 -70q-16 -11 -36 -18t-42 -10t-44 -3q-51 0 -86.5 16.5
t-54 45t-18.5 65.5q0 38 12 76.5t34 70.5t53 51.5t69 19.5q54 0 89.5 -35t53 -91.5t17.5 -119.5q0 -75 -25.5 -128.5t-84.5 -88.5q-23 -13 -55.5 -21.5t-71 -13.5t-80.5 -6.5t-85 -1.5zM202 -191q-21 0 -35.5 14.5t-14.5 34.5t14.5 35t35.5 15q20 0 34.5 -15t14.5 -35
t-14.5 -34.5t-34.5 -14.5z" />
    <glyph glyph-name="fehDotMovedbelowar.medi" unicode="&#x6a2;" horiz-adv-x="495" 
d="M0 -5l10 82q25 0 51.5 0.5t52.5 2.5t50 5t43 9q35 11 64.5 29t48 44t18.5 60q0 23 -11 47.5t-30 41.5t-44 17q-24 0 -44.5 -16t-33 -41.5t-12.5 -52.5q0 -32 16.5 -57.5t40.5 -43.5t48 -29l-95 -28q-16 12 -37.5 33.5t-38 53.5t-16.5 73q0 40 14.5 74.5t39 60.5t56 40.5
t65.5 14.5q49 0 86 -27t57.5 -68.5t20.5 -86.5q0 -43 -16 -77.5t-43.5 -61.5t-64 -46t-77.5 -31q-23 -7 -49.5 -11t-55.5 -6.5t-58 -3.5t-56 -1zM495 -5q-50 0 -103.5 6.5t-101 17t-78.5 23.5l69 50q30 -4 71 -7.5t82 -5.5t71 -2q21 0 30.5 -11.5t9.5 -27.5t-14 -29.5
t-36 -13.5zM243 -191q-21 0 -35.5 14.5t-14.5 34.5t14.5 35t35.5 15q20 0 34.5 -15t14.5 -35t-14.5 -34.5t-34.5 -14.5z" />
    <glyph glyph-name="fehDotMovedbelowar.fina" unicode="&#x6a2;" horiz-adv-x="1098" 
d="M390 -21l26 82q74 0 137 3t114 8t87.5 10.5t55.5 11.5q35 11 64.5 28t48 42.5t18.5 59.5q0 17 -6.5 36t-18 35.5t-27 27t-33.5 10.5q-24 0 -44.5 -17t-33 -43t-12.5 -53q0 -32 16.5 -55.5t40.5 -40t48 -27.5l-95 -32q-16 12 -37.5 33t-38 52t-16.5 72q0 40 14 75t39 61.5
t56.5 41.5t65.5 15q49 0 86 -27.5t57.5 -70t20.5 -87.5q0 -43 -16 -77t-43.5 -60t-64 -45t-77.5 -31q-23 -7 -66 -13.5t-101 -12t-125.5 -9t-139.5 -3.5zM1098 -5q-50 0 -100 5.5t-96.5 16t-86.5 25.5l69 48q30 -4 71 -7t82 -4.5t71 -1.5q21 0 30.5 -11.5t9.5 -27.5
t-14 -29.5t-36 -13.5zM390 -21q-89 0 -156.5 11.5t-112.5 35.5t-68 62.5t-23 93.5q0 25 4 51.5t10.5 53.5t13.5 52l75 -19q-4 -15 -9 -35.5t-8.5 -41.5t-3.5 -38q0 -52 26.5 -83.5t92.5 -46t185 -14.5l20 -50zM460 -211q-21 0 -35.5 14.5t-14.5 34.5t14.5 35t35.5 15
q20 0 34.5 -15t14.5 -35t-14.5 -34.5t-34.5 -14.5z" />
    <glyph glyph-name="uni06A3.init" unicode="&#x6a3;" horiz-adv-x="447" 
d="M0 -5l10 82q25 0 55.5 0.5t62 1.5t58.5 4.5t45 9.5q36 13 56 32.5t28.5 52t8.5 83.5q0 42 -11 78t-31 58t-48 22q-23 0 -41.5 -17.5t-29 -44.5t-10.5 -54q0 -21 8.5 -36t28.5 -23.5t52 -8.5q29 0 58.5 6t50.5 16l4 -70q-16 -11 -36 -18t-42 -10t-44 -3q-51 0 -86.5 16.5
t-54 45t-18.5 65.5q0 38 12 76.5t34 70.5t53 51.5t69 19.5q54 0 89.5 -35t53 -91.5t17.5 -119.5q0 -75 -25.5 -128.5t-84.5 -88.5q-23 -13 -55.5 -21.5t-71 -13.5t-80.5 -6.5t-85 -1.5zM223 604q-21 0 -35.5 14.5t-14.5 34.5t14.5 35t35.5 15q20 0 34.5 -15t14.5 -35
t-14.5 -34.5t-34.5 -14.5zM202 -191q-21 0 -35.5 14.5t-14.5 34.5t14.5 35t35.5 15q20 0 34.5 -15t14.5 -35t-14.5 -34.5t-34.5 -14.5z" />
    <glyph glyph-name="uni06A3.medi" unicode="&#x6a3;" horiz-adv-x="495" 
d="M0 -5l10 82q25 0 51.5 0.5t52.5 2.5t50 5t43 9q35 11 64.5 29t48 44t18.5 60q0 23 -11 47.5t-30 41.5t-44 17q-24 0 -44.5 -16t-33 -41.5t-12.5 -52.5q0 -32 16.5 -57.5t40.5 -43.5t48 -29l-95 -28q-16 12 -37.5 33.5t-38 53.5t-16.5 73q0 40 14.5 74.5t39 60.5t56 40.5
t65.5 14.5q49 0 86 -27t57.5 -68.5t20.5 -86.5q0 -43 -16 -77.5t-43.5 -61.5t-64 -46t-77.5 -31q-23 -7 -49.5 -11t-55.5 -6.5t-58 -3.5t-56 -1zM495 -5q-50 0 -103.5 6.5t-101 17t-78.5 23.5l69 50q30 -4 71 -7.5t82 -5.5t71 -2q21 0 30.5 -11.5t9.5 -27.5t-14 -29.5
t-36 -13.5zM247 518q-21 0 -35.5 14.5t-14.5 34.5t14.5 35t35.5 15q20 0 34.5 -15t14.5 -35t-14.5 -34.5t-34.5 -14.5zM243 -191q-21 0 -35.5 14.5t-14.5 34.5t14.5 35t35.5 15q20 0 34.5 -15t14.5 -35t-14.5 -34.5t-34.5 -14.5z" />
    <glyph glyph-name="uni06A3.fina" unicode="&#x6a3;" horiz-adv-x="1098" 
d="M390 -21l26 82q74 0 137 3t114 8t87.5 10.5t55.5 11.5q35 11 64.5 28t48 42.5t18.5 59.5q0 17 -6.5 36t-18 35.5t-27 27t-33.5 10.5q-24 0 -44.5 -17t-33 -43t-12.5 -53q0 -32 16.5 -55.5t40.5 -40t48 -27.5l-95 -32q-16 12 -37.5 33t-38 52t-16.5 72q0 40 14 75t39 61.5
t56.5 41.5t65.5 15q49 0 86 -27.5t57.5 -70t20.5 -87.5q0 -43 -16 -77t-43.5 -60t-64 -45t-77.5 -31q-23 -7 -66 -13.5t-101 -12t-125.5 -9t-139.5 -3.5zM1098 -5q-50 0 -100 5.5t-96.5 16t-86.5 25.5l69 48q30 -4 71 -7t82 -4.5t71 -1.5q21 0 30.5 -11.5t9.5 -27.5
t-14 -29.5t-36 -13.5zM390 -21q-89 0 -156.5 11.5t-112.5 35.5t-68 62.5t-23 93.5q0 25 4 51.5t10.5 53.5t13.5 52l75 -19q-4 -15 -9 -35.5t-8.5 -41.5t-3.5 -38q0 -52 26.5 -83.5t92.5 -46t185 -14.5l20 -50zM850 518q-21 0 -35.5 14.5t-14.5 34.5t14.5 35t35.5 15
q20 0 34.5 -15t14.5 -35t-14.5 -34.5t-34.5 -14.5zM460 -211q-21 0 -35.5 14.5t-14.5 34.5t14.5 35t35.5 15q20 0 34.5 -15t14.5 -35t-14.5 -34.5t-34.5 -14.5z" />
    <glyph glyph-name="uni06A5.init" unicode="&#x6a5;" horiz-adv-x="447" 
d="M0 -5l10 82q25 0 55.5 0.5t62 1.5t58.5 4.5t45 9.5q36 13 56 32.5t28.5 52t8.5 83.5q0 42 -11 78t-31 58t-48 22q-23 0 -41.5 -17.5t-29 -44.5t-10.5 -54q0 -21 8.5 -36t28.5 -23.5t52 -8.5q29 0 58.5 6t50.5 16l4 -70q-16 -11 -36 -18t-42 -10t-44 -3q-51 0 -86.5 16.5
t-54 45t-18.5 65.5q0 38 12 76.5t34 70.5t53 51.5t69 19.5q54 0 89.5 -35t53 -91.5t17.5 -119.5q0 -75 -25.5 -128.5t-84.5 -88.5q-23 -13 -55.5 -21.5t-71 -13.5t-80.5 -6.5t-85 -1.5zM202 -304q-21 0 -35.5 14.5t-14.5 34.5t14.5 35t35.5 15q20 0 34.5 -15t14.5 -35
t-14.5 -34.5t-34.5 -14.5zM134 -194q-21 0 -35.5 14.5t-14.5 34.5t14.5 35t35.5 15q20 0 34.5 -15t14.5 -35t-14.5 -34.5t-34.5 -14.5zM270 -194q-21 0 -35.5 14.5t-14.5 34.5t14.5 35t35.5 15q20 0 34.5 -15t14.5 -35t-14.5 -34.5t-34.5 -14.5z" />
    <glyph glyph-name="uni06A5.medi" unicode="&#x6a5;" horiz-adv-x="495" 
d="M0 -5l10 82q25 0 51.5 0.5t52.5 2.5t50 5t43 9q35 11 64.5 29t48 44t18.5 60q0 23 -11 47.5t-30 41.5t-44 17q-24 0 -44.5 -16t-33 -41.5t-12.5 -52.5q0 -32 16.5 -57.5t40.5 -43.5t48 -29l-95 -28q-16 12 -37.5 33.5t-38 53.5t-16.5 73q0 40 14.5 74.5t39 60.5t56 40.5
t65.5 14.5q49 0 86 -27t57.5 -68.5t20.5 -86.5q0 -43 -16 -77.5t-43.5 -61.5t-64 -46t-77.5 -31q-23 -7 -49.5 -11t-55.5 -6.5t-58 -3.5t-56 -1zM495 -5q-50 0 -103.5 6.5t-101 17t-78.5 23.5l69 50q30 -4 71 -7.5t82 -5.5t71 -2q21 0 30.5 -11.5t9.5 -27.5t-14 -29.5
t-36 -13.5zM243 -304q-21 0 -35.5 14.5t-14.5 34.5t14.5 35t35.5 15q20 0 34.5 -15t14.5 -35t-14.5 -34.5t-34.5 -14.5zM175 -194q-21 0 -35.5 14.5t-14.5 34.5t14.5 35t35.5 15q20 0 34.5 -15t14.5 -35t-14.5 -34.5t-34.5 -14.5zM311 -194q-21 0 -35.5 14.5t-14.5 34.5
t14.5 35t35.5 15q20 0 34.5 -15t14.5 -35t-14.5 -34.5t-34.5 -14.5z" />
    <glyph glyph-name="uni06A5.fina" unicode="&#x6a5;" horiz-adv-x="1098" 
d="M390 -21l26 82q74 0 137 3t114 8t87.5 10.5t55.5 11.5q35 11 64.5 28t48 42.5t18.5 59.5q0 17 -6.5 36t-18 35.5t-27 27t-33.5 10.5q-24 0 -44.5 -17t-33 -43t-12.5 -53q0 -32 16.5 -55.5t40.5 -40t48 -27.5l-95 -32q-16 12 -37.5 33t-38 52t-16.5 72q0 40 14 75t39 61.5
t56.5 41.5t65.5 15q49 0 86 -27.5t57.5 -70t20.5 -87.5q0 -43 -16 -77t-43.5 -60t-64 -45t-77.5 -31q-23 -7 -66 -13.5t-101 -12t-125.5 -9t-139.5 -3.5zM1098 -5q-50 0 -100 5.5t-96.5 16t-86.5 25.5l69 48q30 -4 71 -7t82 -4.5t71 -1.5q21 0 30.5 -11.5t9.5 -27.5
t-14 -29.5t-36 -13.5zM390 -21q-89 0 -156.5 11.5t-112.5 35.5t-68 62.5t-23 93.5q0 25 4 51.5t10.5 53.5t13.5 52l75 -19q-4 -15 -9 -35.5t-8.5 -41.5t-3.5 -38q0 -52 26.5 -83.5t92.5 -46t185 -14.5l20 -50zM460 -324q-21 0 -35.5 14.5t-14.5 34.5t14.5 35t35.5 15
q20 0 34.5 -15t14.5 -35t-14.5 -34.5t-34.5 -14.5zM392 -214q-21 0 -35.5 14.5t-14.5 34.5t14.5 35t35.5 15q20 0 34.5 -15t14.5 -35t-14.5 -34.5t-34.5 -14.5zM528 -214q-21 0 -35.5 14.5t-14.5 34.5t14.5 35t35.5 15q20 0 34.5 -15t14.5 -35t-14.5 -34.5t-34.5 -14.5z" />
    <glyph glyph-name="uni06A7.fina" unicode="&#x6a7;" horiz-adv-x="808" 
d="M326 -272q-60 0 -113 13.5t-94.5 42t-65 73.5t-23.5 108q0 15 3.5 42.5t15.5 66.5t38 86l73 -34q-15 -31 -25 -56.5t-14.5 -47t-4.5 -42.5q0 -62 31.5 -99t84 -53t116.5 -16q46 0 86 7t72.5 20t57.5 31t42 39.5t25 46.5q10 30 14.5 66t4.5 55q0 56 -12 94.5t-32.5 58.5
t-45.5 20q-16 0 -30.5 -9.5t-25.5 -25.5t-17.5 -36.5t-6.5 -42.5q0 -18 8 -29.5t23.5 -18t39.5 -9t56 -2.5h211q21 0 30.5 -11.5t9.5 -27.5t-14 -29.5t-36 -13.5h-239q-34 0 -64 7t-53.5 22t-37 39t-14.5 58q-1 37 11.5 74t35.5 68t54 49.5t67 18.5q46 0 83 -28t59 -87.5
t22 -152.5q0 -27 -10.5 -74t-30.5 -90q-24 -47 -61 -79.5t-84.5 -53t-102.5 -29.5t-117 -9zM569 434q-21 0 -35.5 14.5t-14.5 34.5t14.5 35t35.5 15q20 0 34.5 -15t14.5 -35t-14.5 -34.5t-34.5 -14.5z" />
    <glyph glyph-name="uni06A8.init" unicode="&#x6a8;" horiz-adv-x="447" 
d="M0 -5l10 82q25 0 55.5 0.5t62 1.5t58.5 4.5t45 9.5q36 13 56 32.5t28.5 52t8.5 83.5q0 42 -11 78t-31 58t-48 22q-23 0 -41.5 -17.5t-29 -44.5t-10.5 -54q0 -21 8.5 -36t28.5 -23.5t52 -8.5q29 0 58.5 6t50.5 16l4 -70q-16 -11 -36 -18t-42 -10t-44 -3q-51 0 -86.5 16.5
t-54 45t-18.5 65.5q0 38 12 76.5t34 70.5t53 51.5t69 19.5q54 0 89.5 -35t53 -91.5t17.5 -119.5q0 -75 -25.5 -128.5t-84.5 -88.5q-23 -13 -55.5 -21.5t-71 -13.5t-80.5 -6.5t-85 -1.5zM225 714q-21 0 -35.5 14.5t-14.5 34.5t14.5 35t35.5 15q20 0 34.5 -15t14.5 -35
t-14.5 -34.5t-34.5 -14.5zM157 604q-21 0 -35.5 14.5t-14.5 34.5t14.5 35t35.5 15q20 0 34.5 -15t14.5 -35t-14.5 -34.5t-34.5 -14.5zM293 604q-21 0 -35.5 14.5t-14.5 34.5t14.5 35t35.5 15q20 0 34.5 -15t14.5 -35t-14.5 -34.5t-34.5 -14.5z" />
    <glyph glyph-name="uni06A8.medi" unicode="&#x6a8;" horiz-adv-x="495" 
d="M0 -5l10 82q25 0 51.5 0.5t52.5 2.5t50 5t43 9q35 11 64.5 29t48 44t18.5 60q0 23 -11 47.5t-30 41.5t-44 17q-24 0 -44.5 -16t-33 -41.5t-12.5 -52.5q0 -32 16.5 -57.5t40.5 -43.5t48 -29l-95 -28q-16 12 -37.5 33.5t-38 53.5t-16.5 73q0 40 14.5 74.5t39 60.5t56 40.5
t65.5 14.5q49 0 86 -27t57.5 -68.5t20.5 -86.5q0 -43 -16 -77.5t-43.5 -61.5t-64 -46t-77.5 -31q-23 -7 -49.5 -11t-55.5 -6.5t-58 -3.5t-56 -1zM495 -5q-50 0 -103.5 6.5t-101 17t-78.5 23.5l69 50q30 -4 71 -7.5t82 -5.5t71 -2q21 0 30.5 -11.5t9.5 -27.5t-14 -29.5
t-36 -13.5zM249 628q-21 0 -35.5 14.5t-14.5 34.5t14.5 35t35.5 15q20 0 34.5 -15t14.5 -35t-14.5 -34.5t-34.5 -14.5zM181 518q-21 0 -35.5 14.5t-14.5 34.5t14.5 35t35.5 15q20 0 34.5 -15t14.5 -35t-14.5 -34.5t-34.5 -14.5zM317 518q-21 0 -35.5 14.5t-14.5 34.5
t14.5 35t35.5 15q20 0 34.5 -15t14.5 -35t-14.5 -34.5t-34.5 -14.5z" />
    <glyph glyph-name="uni06A8.fina" unicode="&#x6a8;" horiz-adv-x="808" 
d="M326 -272q-60 0 -113 13.5t-94.5 42t-65 73.5t-23.5 108q0 15 3.5 42.5t15.5 66.5t38 86l73 -34q-15 -31 -25 -56.5t-14.5 -47t-4.5 -42.5q0 -62 31.5 -99t84 -53t116.5 -16q46 0 86 7t72.5 20t57.5 31t42 39.5t25 46.5q10 30 14.5 66t4.5 55q0 56 -12 94.5t-32.5 58.5
t-45.5 20q-16 0 -30.5 -9.5t-25.5 -25.5t-17.5 -36.5t-6.5 -42.5q0 -18 8 -29.5t23.5 -18t39.5 -9t56 -2.5h211q21 0 30.5 -11.5t9.5 -27.5t-14 -29.5t-36 -13.5h-239q-34 0 -64 7t-53.5 22t-37 39t-14.5 58q-1 37 11.5 74t35.5 68t54 49.5t67 18.5q46 0 83 -28t59 -87.5
t22 -152.5q0 -27 -10.5 -74t-30.5 -90q-24 -47 -61 -79.5t-84.5 -53t-102.5 -29.5t-117 -9zM571 544q-21 0 -35.5 14.5t-14.5 34.5t14.5 35t35.5 15q20 0 34.5 -15t14.5 -35t-14.5 -34.5t-34.5 -14.5zM503 434q-21 0 -35.5 14.5t-14.5 34.5t14.5 35t35.5 15q20 0 34.5 -15
t14.5 -35t-14.5 -34.5t-34.5 -14.5zM639 434q-21 0 -35.5 14.5t-14.5 34.5t14.5 35t35.5 15q20 0 34.5 -15t14.5 -35t-14.5 -34.5t-34.5 -14.5z" />
    <glyph glyph-name="uni06AA.init" unicode="&#x6aa;" horiz-adv-x="763" 
d="M0 -5l10 82h281q82 0 146.5 1t109.5 6.5t68.5 17.5t23.5 33q0 14 -9.5 27.5t-34.5 26t-71 22t-120 14.5q-107 7 -172 18t-94 33t-29 60q0 41 30 76.5t82.5 65t119.5 53t141 40.5l16 -72q-92 -21 -161.5 -47.5t-108 -53.5t-38.5 -50q0 -14 20.5 -22.5t67.5 -14.5t126 -13
q95 -7 155 -21t94 -33.5t47 -44.5t13 -54q0 -47 -25 -76.5t-77 -45.5t-131.5 -22t-188.5 -6h-291z" />
    <glyph glyph-name="uni06AA.medi" unicode="&#x6aa;" horiz-adv-x="838" 
d="M838 -5q-26 0 -65.5 5.5t-80 19.5t-68.5 39l82 41q35 -14 72.5 -18.5t69.5 -4.5q21 0 30.5 -11.5t9.5 -27.5t-14 -29.5t-36 -13.5zM0 -5l10 82h281q82 0 146.5 1t109.5 6.5t68.5 17.5t23.5 33q0 14 -9.5 27.5t-34.5 26t-71 22t-120 14.5q-107 7 -172 18t-94 33t-29 60
q0 41 30 76.5t82.5 65t119.5 53t141 40.5l16 -72q-92 -21 -161.5 -47.5t-108 -53.5t-38.5 -50q0 -14 20.5 -22.5t67.5 -14.5t126 -13q95 -7 155 -21t94 -33.5t47 -44.5t13 -54q0 -47 -25 -76.5t-77 -45.5t-131.5 -22t-188.5 -6h-291z" />
    <glyph glyph-name="uni06AA.fina" unicode="&#x6aa;" horiz-adv-x="1091" 
d="M1091 -5q-26 0 -65.5 5.5t-80 19.5t-68.5 39l82 41q35 -14 72.5 -18.5t69.5 -4.5q21 0 30.5 -11.5t9.5 -27.5t-14 -29.5t-36 -13.5zM546 -15q-48 0 -112.5 1t-134 3t-133.5 6t-111 9l6 80q50 -3 108 -6t121 -5.5t128 -4t128 -1.5q82 0 146.5 2.5t109.5 10t68.5 21
t23.5 34.5q0 14 -9.5 27.5t-34.5 26t-71 22t-120 14.5q-107 7 -172 18t-94 33t-29 60q0 41 30 76.5t82.5 65t119.5 53t141 40.5l16 -72q-92 -21 -161.5 -47.5t-108 -53.5t-38.5 -50q0 -14 20.5 -22.5t67.5 -14.5t126 -13q95 -7 155 -21t94 -33.5t47 -44.5t13 -54
q0 -47 -25 -78t-77 -49t-131.5 -25.5t-188.5 -7.5z" />
    <glyph glyph-name="uni06AB.init" unicode="&#x6ab;" horiz-adv-x="412" 
d="M334 456q-37 0 -63 26t-26 63t26 63t63 26t63 -26t26 -63t-26 -63t-63 -26zM334 507q17 0 29 11t12 27q0 17 -12 28.5t-29 11.5t-29 -11.5t-12 -28.5q0 -16 12 -27t29 -11zM0 -5l10 82h94q59 0 93.5 6.5t51 17t22 23t5.5 25.5q0 23 -17.5 57t-71.5 88q-28 28 -56 51.5
t-51.5 42t-37.5 31.5t-14 20q0 15 2.5 29t7 26t11.5 19q20 21 51.5 42t74 44t96 49.5t117.5 58.5l34 -74q-80 -38 -133.5 -64.5t-90.5 -47t-65 -38.5t-57 -40l15 38q63 -50 111.5 -94t81.5 -84.5t50 -79.5t17 -79q0 -22 -8 -48t-34 -49t-78 -37.5t-140 -14.5h-91z" />
    <glyph glyph-name="uni06AB.medi" unicode="&#x6ab;" horiz-adv-x="508" 
d="M337 457q-37 0 -63 26t-26 63t26 63t63 26t63 -26t26 -63t-26 -63t-63 -26zM337 508q17 0 29 11t12 27q0 17 -12 28.5t-29 11.5t-29 -11.5t-12 -28.5q0 -16 12 -27t29 -11zM0 -5l10 82h77q83 0 123 9t52.5 24t12.5 31q0 24 -18 53t-46 59.5t-59.5 60.5t-59.5 55t-46 43.5
t-18 26.5q0 15 2.5 29t7 26t11.5 19q20 21 55 44.5t81 48t98 50t105 51.5l34 -74q-48 -24 -96 -47.5t-93 -46.5t-84.5 -46.5t-71.5 -47.5l6 34q45 -38 85 -73t76 -71.5t67 -78.5t58 -93q21 -39 49 -57t55.5 -23.5t44.5 -5.5q21 0 30.5 -11.5t9.5 -27.5t-14 -29.5t-36 -13.5
q-27 0 -63.5 8.5t-71.5 33.5t-58 76l30 -12q-15 -27 -34.5 -46.5t-49.5 -33t-73 -20t-105 -6.5h-83z" />
    <glyph glyph-name="uni06AB.fina" unicode="&#x6ab;" horiz-adv-x="975" 
d="M804 457q-37 0 -63 26t-26 63t26 63t63 26t63 -26t26 -63t-26 -63t-63 -26zM804 508q17 0 29 11t12 27q0 17 -12 28.5t-29 11.5t-29 -11.5t-12 -28.5q0 -16 12 -27t29 -11zM390 -21l26 82q94 0 157 7.5t100 20t53 26.5t16 26q0 24 -18 53t-46 59.5t-59.5 60.5t-59.5 55
t-46 43.5t-18 26.5q0 15 2.5 29t7 26t11.5 19q27 29 79.5 60.5t120.5 65t139 68.5l34 -74q-64 -32 -127.5 -63t-119 -61.5t-98.5 -63.5l6 34q45 -38 85 -73t76 -71.5t67 -78.5t58 -93q15 -29 35.5 -46.5t41.5 -26t40 -11t32 -2.5q21 0 30.5 -11.5t9.5 -27.5t-14 -29.5
t-36 -13.5q-27 0 -63.5 8.5t-71.5 33.5t-58 76l30 -12q-15 -27 -41 -49t-72.5 -38.5t-121 -25.5t-187.5 -9zM390 -21q-89 0 -156.5 11.5t-112.5 35.5t-68 62.5t-23 93.5q0 25 4 51.5t10.5 53.5t13.5 52l75 -19q-4 -15 -9 -35.5t-8.5 -41.5t-3.5 -38q0 -52 26.5 -83.5
t92.5 -46t185 -14.5l20 -50z" />
    <glyph glyph-name="uni06AC.init" unicode="&#x6ac;" horiz-adv-x="412" 
d="M0 -5l10 82h94q59 0 93.5 6.5t51 17t22 23t5.5 25.5q0 23 -17.5 57t-71.5 88q-28 28 -56 51.5t-51.5 42t-37.5 31.5t-14 20q0 15 2.5 29t7 26t11.5 19q20 21 51.5 42t74 44t96 49.5t117.5 58.5l34 -74q-80 -38 -133.5 -64.5t-90.5 -47t-65 -38.5t-57 -40l15 38
q63 -50 111.5 -94t81.5 -84.5t50 -79.5t17 -79q0 -22 -8 -48t-34 -49t-78 -37.5t-140 -14.5h-91zM203 713q-21 0 -35.5 14.5t-14.5 34.5t14.5 35t35.5 15q20 0 34.5 -15t14.5 -35t-14.5 -34.5t-34.5 -14.5z" />
    <glyph glyph-name="uni06AC.medi" unicode="&#x6ac;" horiz-adv-x="508" 
d="M0 -5l10 82h77q83 0 123 9t52.5 24t12.5 31q0 24 -18 53t-46 59.5t-59.5 60.5t-59.5 55t-46 43.5t-18 26.5q0 15 2.5 29t7 26t11.5 19q20 21 55 44.5t81 48t98 50t105 51.5l34 -74q-48 -24 -96 -47.5t-93 -46.5t-84.5 -46.5t-71.5 -47.5l6 34q45 -38 85 -73t76 -71.5
t67 -78.5t58 -93q21 -39 49 -57t55.5 -23.5t44.5 -5.5q21 0 30.5 -11.5t9.5 -27.5t-14 -29.5t-36 -13.5q-27 0 -63.5 8.5t-71.5 33.5t-58 76l30 -12q-15 -27 -34.5 -46.5t-49.5 -33t-73 -20t-105 -6.5h-83zM171 713q-21 0 -35.5 14.5t-14.5 34.5t14.5 35t35.5 15
q20 0 34.5 -15t14.5 -35t-14.5 -34.5t-34.5 -14.5z" />
    <glyph glyph-name="uni06AC.fina" unicode="&#x6ac;" horiz-adv-x="922" 
d="M390 -21l26 82q98 0 162 7.5t99.5 24t49.5 43t12 64.5l-19 514h81l20 -505q2 -51 16.5 -80t39.5 -40.5t55 -11.5q21 0 30.5 -11.5t9.5 -27.5t-14 -29.5t-36 -13.5q-47 0 -76 14.5t-44.5 36.5t-20.5 46l21 -1q-20 -31 -54 -52.5t-84 -34.5t-117.5 -19t-156.5 -6zM364 204
l-19 63q42 11 68 19t37.5 15.5t11.5 15.5q0 11 -11.5 20.5t-26 20t-26 24.5t-11.5 34q0 18 10.5 37.5t37.5 41t76 45.5l31 -57q-46 -22 -67.5 -37.5t-21.5 -27.5q0 -9 11.5 -19t26 -22t26 -27.5t11.5 -36.5q0 -14 -6 -27.5t-23.5 -27t-49.5 -27t-85 -27.5zM390 -21
q-89 0 -156.5 11.5t-112.5 35.5t-68 62.5t-23 93.5q0 25 4 51.5t10.5 53.5t13.5 52l75 -19q-4 -15 -9 -35.5t-8.5 -41.5t-3.5 -38q0 -52 26.5 -83.5t92.5 -46t185 -14.5l20 -50zM467 631q-21 0 -35.5 14.5t-14.5 34.5t14.5 35t35.5 15q20 0 34.5 -15t14.5 -35t-14.5 -34.5
t-34.5 -14.5z" />
    <glyph glyph-name="uni06AE.init" unicode="&#x6ae;" horiz-adv-x="412" 
d="M0 -5l10 82h94q59 0 93.5 6.5t51 17t22 23t5.5 25.5q0 23 -17.5 57t-71.5 88q-28 28 -56 51.5t-51.5 42t-37.5 31.5t-14 20q0 15 2.5 29t7 26t11.5 19q20 21 51.5 42t74 44t96 49.5t117.5 58.5l34 -74q-80 -38 -133.5 -64.5t-90.5 -47t-65 -38.5t-57 -40l15 38
q63 -50 111.5 -94t81.5 -84.5t50 -79.5t17 -79q0 -22 -8 -48t-34 -49t-78 -37.5t-140 -14.5h-91zM163 -299q-21 0 -35.5 14.5t-14.5 34.5t14.5 35t35.5 15q20 0 34.5 -15t14.5 -35t-14.5 -34.5t-34.5 -14.5zM95 -189q-21 0 -35.5 14.5t-14.5 34.5t14.5 35t35.5 15
q20 0 34.5 -15t14.5 -35t-14.5 -34.5t-34.5 -14.5zM231 -189q-21 0 -35.5 14.5t-14.5 34.5t14.5 35t35.5 15q20 0 34.5 -15t14.5 -35t-14.5 -34.5t-34.5 -14.5z" />
    <glyph glyph-name="uni06AE.medi" unicode="&#x6ae;" horiz-adv-x="508" 
d="M0 -5l10 82h77q83 0 123 9t52.5 24t12.5 31q0 24 -18 53t-46 59.5t-59.5 60.5t-59.5 55t-46 43.5t-18 26.5q0 15 2.5 29t7 26t11.5 19q20 21 55 44.5t81 48t98 50t105 51.5l34 -74q-48 -24 -96 -47.5t-93 -46.5t-84.5 -46.5t-71.5 -47.5l6 34q45 -38 85 -73t76 -71.5
t67 -78.5t58 -93q21 -39 49 -57t55.5 -23.5t44.5 -5.5q21 0 30.5 -11.5t9.5 -27.5t-14 -29.5t-36 -13.5q-27 0 -63.5 8.5t-71.5 33.5t-58 76l30 -12q-15 -27 -34.5 -46.5t-49.5 -33t-73 -20t-105 -6.5h-83zM163 -299q-21 0 -35.5 14.5t-14.5 34.5t14.5 35t35.5 15
q20 0 34.5 -15t14.5 -35t-14.5 -34.5t-34.5 -14.5zM95 -189q-21 0 -35.5 14.5t-14.5 34.5t14.5 35t35.5 15q20 0 34.5 -15t14.5 -35t-14.5 -34.5t-34.5 -14.5zM231 -189q-21 0 -35.5 14.5t-14.5 34.5t14.5 35t35.5 15q20 0 34.5 -15t14.5 -35t-14.5 -34.5t-34.5 -14.5z" />
    <glyph glyph-name="uni06AE.fina" unicode="&#x6ae;" horiz-adv-x="922" 
d="M390 -21l26 82q98 0 162 7.5t99.5 24t49.5 43t12 64.5l-19 514h81l20 -505q2 -51 16.5 -80t39.5 -40.5t55 -11.5q21 0 30.5 -11.5t9.5 -27.5t-14 -29.5t-36 -13.5q-47 0 -76 14.5t-44.5 36.5t-20.5 46l21 -1q-20 -31 -54 -52.5t-84 -34.5t-117.5 -19t-156.5 -6zM364 204
l-19 63q42 11 68 19t37.5 15.5t11.5 15.5q0 11 -11.5 20.5t-26 20t-26 24.5t-11.5 34q0 18 10.5 37.5t37.5 41t76 45.5l31 -57q-46 -22 -67.5 -37.5t-21.5 -27.5q0 -9 11.5 -19t26 -22t26 -27.5t11.5 -36.5q0 -14 -6 -27.5t-23.5 -27t-49.5 -27t-85 -27.5zM390 -21
q-89 0 -156.5 11.5t-112.5 35.5t-68 62.5t-23 93.5q0 25 4 51.5t10.5 53.5t13.5 52l75 -19q-4 -15 -9 -35.5t-8.5 -41.5t-3.5 -38q0 -52 26.5 -83.5t92.5 -46t185 -14.5l20 -50zM410 -320q-21 0 -35.5 14.5t-14.5 34.5t14.5 35t35.5 15q20 0 34.5 -15t14.5 -35t-14.5 -34.5
t-34.5 -14.5zM342 -210q-21 0 -35.5 14.5t-14.5 34.5t14.5 35t35.5 15q20 0 34.5 -15t14.5 -35t-14.5 -34.5t-34.5 -14.5zM478 -210q-21 0 -35.5 14.5t-14.5 34.5t14.5 35t35.5 15q20 0 34.5 -15t14.5 -35t-14.5 -34.5t-34.5 -14.5z" />
    <glyph glyph-name="uni06B0.init" unicode="&#x6b0;" horiz-adv-x="412" 
d="M338 458q-37 0 -63 26t-26 63t26 63t63 26t63 -26t26 -63t-26 -63t-63 -26zM338 509q17 0 29 11t12 27q0 17 -12 28.5t-29 11.5t-29 -11.5t-12 -28.5q0 -16 12 -27t29 -11zM-1 550l-37 56q39 24 93.5 57t125.5 73t157 85l28 -61q-87 -46 -154.5 -84t-119.5 -69t-93 -57z
M0 -5l10 82h94q59 0 93.5 6.5t51 17t22 23t5.5 25.5q0 23 -17.5 57t-71.5 88q-28 28 -56 51.5t-51.5 42t-37.5 31.5t-14 20q0 15 2.5 29t7 26t11.5 19q20 21 51.5 42t74 44t96 49.5t117.5 58.5l34 -74q-80 -38 -133.5 -64.5t-90.5 -47t-65 -38.5t-57 -40l15 38
q63 -50 111.5 -94t81.5 -84.5t50 -79.5t17 -79q0 -22 -8 -48t-34 -49t-78 -37.5t-140 -14.5h-91z" />
    <glyph glyph-name="uni06B0.medi" unicode="&#x6b0;" horiz-adv-x="508" 
d="M335 456q-37 0 -63 26t-26 63t26 63t63 26t63 -26t26 -63t-26 -63t-63 -26zM335 507q17 0 29 11t12 27q0 17 -12 28.5t-29 11.5t-29 -11.5t-12 -28.5q0 -16 12 -27t29 -11zM-1 550l-37 56q39 24 93.5 57t125.5 73t157 85l28 -61q-87 -46 -154.5 -84t-119.5 -69t-93 -57z
M0 -5l10 82h77q83 0 123 9t52.5 24t12.5 31q0 24 -18 53t-46 59.5t-59.5 60.5t-59.5 55t-46 43.5t-18 26.5q0 15 2.5 29t7 26t11.5 19q20 21 55 44.5t81 48t98 50t105 51.5l34 -74q-48 -24 -96 -47.5t-93 -46.5t-84.5 -46.5t-71.5 -47.5l6 34q45 -38 85 -73t76 -71.5
t67 -78.5t58 -93q21 -39 49 -57t55.5 -23.5t44.5 -5.5q21 0 30.5 -11.5t9.5 -27.5t-14 -29.5t-36 -13.5q-27 0 -63.5 8.5t-71.5 33.5t-58 76l30 -12q-15 -27 -34.5 -46.5t-49.5 -33t-73 -20t-105 -6.5h-83z" />
    <glyph glyph-name="uni06B0.fina" unicode="&#x6b0;" horiz-adv-x="975" 
d="M810 460q-37 0 -63 26t-26 63t26 63t63 26t63 -26t26 -63t-26 -63t-63 -26zM810 511q17 0 29 11t12 27q0 17 -12 28.5t-29 11.5t-29 -11.5t-12 -28.5q0 -16 12 -27t29 -11zM462 550l-37 56q39 24 93.5 57t125.5 73t157 85l28 -61q-87 -46 -154.5 -84t-119.5 -69t-93 -57z
M390 -21l26 82q94 0 157 7.5t100 20t53 26.5t16 26q0 24 -18 53t-46 59.5t-59.5 60.5t-59.5 55t-46 43.5t-18 26.5q0 15 2.5 29t7 26t11.5 19q27 29 79.5 60.5t120.5 65t139 68.5l34 -74q-64 -32 -127.5 -63t-119 -61.5t-98.5 -63.5l6 34q45 -38 85 -73t76 -71.5t67 -78.5
t58 -93q15 -29 35.5 -46.5t41.5 -26t40 -11t32 -2.5q21 0 30.5 -11.5t9.5 -27.5t-14 -29.5t-36 -13.5q-27 0 -63.5 8.5t-71.5 33.5t-58 76l30 -12q-15 -27 -41 -49t-72.5 -38.5t-121 -25.5t-187.5 -9zM390 -21q-89 0 -156.5 11.5t-112.5 35.5t-68 62.5t-23 93.5q0 25 4 51.5
t10.5 53.5t13.5 52l75 -19q-4 -15 -9 -35.5t-8.5 -41.5t-3.5 -38q0 -52 26.5 -83.5t92.5 -46t185 -14.5l20 -50z" />
    <glyph glyph-name="uni06B2.init" unicode="&#x6b2;" horiz-adv-x="412" 
d="M-1 550l-37 56q39 24 93.5 57t125.5 73t157 85l28 -61q-87 -46 -154.5 -84t-119.5 -69t-93 -57zM0 -5l10 82h94q59 0 93.5 6.5t51 17t22 23t5.5 25.5q0 23 -17.5 57t-71.5 88q-28 28 -56 51.5t-51.5 42t-37.5 31.5t-14 20q0 15 2.5 29t7 26t11.5 19q20 21 51.5 42t74 44
t96 49.5t117.5 58.5l34 -74q-80 -38 -133.5 -64.5t-90.5 -47t-65 -38.5t-57 -40l15 38q63 -50 111.5 -94t81.5 -84.5t50 -79.5t17 -79q0 -22 -8 -48t-34 -49t-78 -37.5t-140 -14.5h-91zM235 -189q-21 0 -35.5 14.5t-14.5 34.5t14.5 35t35.5 15q20 0 34.5 -15t14.5 -35
t-14.5 -34.5t-34.5 -14.5zM98 -189q-21 0 -35.5 14.5t-14.5 34.5t14.5 35t35.5 15q20 0 34.5 -15t14.5 -35t-14.5 -34.5t-34.5 -14.5z" />
    <glyph glyph-name="uni06B2.medi" unicode="&#x6b2;" horiz-adv-x="508" 
d="M-1 550l-37 56q39 24 93.5 57t125.5 73t157 85l28 -61q-87 -46 -154.5 -84t-119.5 -69t-93 -57zM0 -5l10 82h77q83 0 123 9t52.5 24t12.5 31q0 24 -18 53t-46 59.5t-59.5 60.5t-59.5 55t-46 43.5t-18 26.5q0 15 2.5 29t7 26t11.5 19q20 21 55 44.5t81 48t98 50t105 51.5
l34 -74q-48 -24 -96 -47.5t-93 -46.5t-84.5 -46.5t-71.5 -47.5l6 34q45 -38 85 -73t76 -71.5t67 -78.5t58 -93q21 -39 49 -57t55.5 -23.5t44.5 -5.5q21 0 30.5 -11.5t9.5 -27.5t-14 -29.5t-36 -13.5q-27 0 -63.5 8.5t-71.5 33.5t-58 76l30 -12q-15 -27 -34.5 -46.5
t-49.5 -33t-73 -20t-105 -6.5h-83zM235 -189q-21 0 -35.5 14.5t-14.5 34.5t14.5 35t35.5 15q20 0 34.5 -15t14.5 -35t-14.5 -34.5t-34.5 -14.5zM98 -189q-21 0 -35.5 14.5t-14.5 34.5t14.5 35t35.5 15q20 0 34.5 -15t14.5 -35t-14.5 -34.5t-34.5 -14.5z" />
    <glyph glyph-name="uni06B2.fina" unicode="&#x6b2;" horiz-adv-x="975" 
d="M462 550l-37 56q39 24 93.5 57t125.5 73t157 85l28 -61q-87 -46 -154.5 -84t-119.5 -69t-93 -57zM390 -21l26 82q94 0 157 7.5t100 20t53 26.5t16 26q0 24 -18 53t-46 59.5t-59.5 60.5t-59.5 55t-46 43.5t-18 26.5q0 15 2.5 29t7 26t11.5 19q27 29 79.5 60.5t120.5 65
t139 68.5l34 -74q-64 -32 -127.5 -63t-119 -61.5t-98.5 -63.5l6 34q45 -38 85 -73t76 -71.5t67 -78.5t58 -93q15 -29 35.5 -46.5t41.5 -26t40 -11t32 -2.5q21 0 30.5 -11.5t9.5 -27.5t-14 -29.5t-36 -13.5q-27 0 -63.5 8.5t-71.5 33.5t-58 76l30 -12q-15 -27 -41 -49
t-72.5 -38.5t-121 -25.5t-187.5 -9zM390 -21q-89 0 -156.5 11.5t-112.5 35.5t-68 62.5t-23 93.5q0 25 4 51.5t10.5 53.5t13.5 52l75 -19q-4 -15 -9 -35.5t-8.5 -41.5t-3.5 -38q0 -52 26.5 -83.5t92.5 -46t185 -14.5l20 -50zM482 -210q-21 0 -35.5 14.5t-14.5 34.5t14.5 35
t35.5 15q20 0 34.5 -15t14.5 -35t-14.5 -34.5t-34.5 -14.5zM345 -210q-21 0 -35.5 14.5t-14.5 34.5t14.5 35t35.5 15q20 0 34.5 -15t14.5 -35t-14.5 -34.5t-34.5 -14.5z" />
    <glyph glyph-name="uni06B4.init" unicode="&#x6b4;" horiz-adv-x="412" 
d="M82 872q-21 0 -35.5 14.5t-14.5 34.5t14.5 35t35.5 15q20 0 34.5 -15t14.5 -35t-14.5 -34.5t-34.5 -14.5zM72 747q-21 0 -35.5 14.5t-14.5 34.5t14.5 35t35.5 15q20 0 34.5 -15t14.5 -35t-14.5 -34.5t-34.5 -14.5zM187 798q-21 0 -35.5 14.5t-14.5 34.5t14.5 35t35.5 15
q20 0 34.5 -15t14.5 -35t-14.5 -34.5t-34.5 -14.5zM-1 550l-37 56q39 24 93.5 57t125.5 73t157 85l28 -61q-87 -46 -154.5 -84t-119.5 -69t-93 -57zM0 -5l10 82h94q59 0 93.5 6.5t51 17t22 23t5.5 25.5q0 23 -17.5 57t-71.5 88q-28 28 -56 51.5t-51.5 42t-37.5 31.5t-14 20
q0 15 2.5 29t7 26t11.5 19q20 21 51.5 42t74 44t96 49.5t117.5 58.5l34 -74q-80 -38 -133.5 -64.5t-90.5 -47t-65 -38.5t-57 -40l15 38q63 -50 111.5 -94t81.5 -84.5t50 -79.5t17 -79q0 -22 -8 -48t-34 -49t-78 -37.5t-140 -14.5h-91z" />
    <glyph glyph-name="uni06B4.medi" unicode="&#x6b4;" horiz-adv-x="508" 
d="M77 872q-21 0 -35.5 14.5t-14.5 34.5t14.5 35t35.5 15q20 0 34.5 -15t14.5 -35t-14.5 -34.5t-34.5 -14.5zM67 747q-21 0 -35.5 14.5t-14.5 34.5t14.5 35t35.5 15q20 0 34.5 -15t14.5 -35t-14.5 -34.5t-34.5 -14.5zM182 798q-21 0 -35.5 14.5t-14.5 34.5t14.5 35t35.5 15
q20 0 34.5 -15t14.5 -35t-14.5 -34.5t-34.5 -14.5zM-1 550l-37 56q39 24 93.5 57t125.5 73t157 85l28 -61q-87 -46 -154.5 -84t-119.5 -69t-93 -57zM0 -5l10 82h77q83 0 123 9t52.5 24t12.5 31q0 24 -18 53t-46 59.5t-59.5 60.5t-59.5 55t-46 43.5t-18 26.5q0 15 2.5 29
t7 26t11.5 19q20 21 55 44.5t81 48t98 50t105 51.5l34 -74q-48 -24 -96 -47.5t-93 -46.5t-84.5 -46.5t-71.5 -47.5l6 34q45 -38 85 -73t76 -71.5t67 -78.5t58 -93q21 -39 49 -57t55.5 -23.5t44.5 -5.5q21 0 30.5 -11.5t9.5 -27.5t-14 -29.5t-36 -13.5q-27 0 -63.5 8.5
t-71.5 33.5t-58 76l30 -12q-15 -27 -34.5 -46.5t-49.5 -33t-73 -20t-105 -6.5h-83z" />
    <glyph glyph-name="uni06B4.fina" unicode="&#x6b4;" horiz-adv-x="975" 
d="M534 874q-21 0 -35.5 14.5t-14.5 34.5t14.5 35t35.5 15q20 0 34.5 -15t14.5 -35t-14.5 -34.5t-34.5 -14.5zM524 749q-21 0 -35.5 14.5t-14.5 34.5t14.5 35t35.5 15q20 0 34.5 -15t14.5 -35t-14.5 -34.5t-34.5 -14.5zM639 800q-21 0 -35.5 14.5t-14.5 34.5t14.5 35
t35.5 15q20 0 34.5 -15t14.5 -35t-14.5 -34.5t-34.5 -14.5zM462 550l-37 56q39 24 93.5 57t125.5 73t157 85l28 -61q-87 -46 -154.5 -84t-119.5 -69t-93 -57zM390 -21l26 82q94 0 157 7.5t100 20t53 26.5t16 26q0 24 -18 53t-46 59.5t-59.5 60.5t-59.5 55t-46 43.5t-18 26.5
q0 15 2.5 29t7 26t11.5 19q27 29 79.5 60.5t120.5 65t139 68.5l34 -74q-64 -32 -127.5 -63t-119 -61.5t-98.5 -63.5l6 34q45 -38 85 -73t76 -71.5t67 -78.5t58 -93q15 -29 35.5 -46.5t41.5 -26t40 -11t32 -2.5q21 0 30.5 -11.5t9.5 -27.5t-14 -29.5t-36 -13.5
q-27 0 -63.5 8.5t-71.5 33.5t-58 76l30 -12q-15 -27 -41 -49t-72.5 -38.5t-121 -25.5t-187.5 -9zM390 -21q-89 0 -156.5 11.5t-112.5 35.5t-68 62.5t-23 93.5q0 25 4 51.5t10.5 53.5t13.5 52l75 -19q-4 -15 -9 -35.5t-8.5 -41.5t-3.5 -38q0 -52 26.5 -83.5t92.5 -46
t185 -14.5l20 -50z" />
    <glyph glyph-name="uni06B5.init" unicode="&#x6b5;" horiz-adv-x="260" 
d="M0 -5l9 82q57 0 80 11t26.5 39t1.5 78l-19 509h81l20 -500q2 -53 -3.5 -94t-26 -69t-61 -42t-108.5 -14zM102 848q-7 15 -17.5 38t-23 48.5t-25 49t-21.5 39.5l46 25q6 -10 17 -30t23 -43t22.5 -45t17.5 -37l20 -39zM161 854l-44 16q6 17 17.5 44t24.5 55.5t23.5 50.5
t14.5 30l45 -19q-5 -10 -16 -32.5t-23.5 -50t-24 -53t-17.5 -41.5z" />
    <glyph glyph-name="uni06B5.medi" unicode="&#x6b5;" horiz-adv-x="300" 
d="M0 -5l9 82q57 0 80 11t26.5 39t1.5 78l-17 509h83l16 -507q2 -51 16.5 -79.5t39.5 -39.5t55 -11q21 0 30.5 -11.5t9.5 -27.5t-14 -29.5t-36 -13.5q-42 0 -69.5 13.5t-43 35t-20.5 45.5l21 -2q-10 -30 -32.5 -50.5t-60.5 -31t-95 -10.5zM116 848q-7 15 -17.5 38t-23 48.5
t-25 49t-21.5 39.5l46 25q6 -10 17 -30t23 -43t22.5 -45t17.5 -37l20 -39zM175 854l-44 16q6 17 17.5 44t24.5 55.5t23.5 50.5t14.5 30l45 -19q-5 -10 -16 -32.5t-23.5 -50t-24 -53t-17.5 -41.5z" />
    <glyph glyph-name="uni06B5.fina" unicode="&#x6b5;" horiz-adv-x="730" 
d="M30 -1q0 24 4.5 51.5t14 59t23.5 66.5l72 -28q-10 -28 -17.5 -53t-11 -47t-3.5 -42q0 -51 27 -86t70.5 -52.5t93.5 -17.5q98 0 153 34.5t77 91t19 123.5l-22 615h83l16 -507q2 -51 16.5 -79.5t39.5 -39.5t55 -11q21 0 30.5 -11.5t9.5 -27.5t-14 -29.5t-36 -13.5
q-31 0 -53 8.5t-36 22t-22 31t-12 35.5l28 -28q-4 -53 -22.5 -105.5t-56.5 -95.5t-101.5 -69t-156.5 -26q-52 0 -100.5 15.5t-86 45.5t-59.5 72.5t-22 97.5zM279 591q-7 15 -17.5 38t-23 48.5t-25 49t-21.5 39.5l46 25q6 -10 17 -30t23 -43t22.5 -45t17.5 -37l20 -39z
M338 597l-44 16q6 17 17.5 44t24.5 55.5t23.5 50.5t14.5 30l45 -19q-5 -10 -16 -32.5t-23.5 -50t-24 -53t-17.5 -41.5z" />
    <glyph glyph-name="uni06B6.init" unicode="&#x6b6;" horiz-adv-x="260" 
d="M0 -5l9 82q57 0 80 11t26.5 39t1.5 78l-19 509h81l20 -500q2 -53 -3.5 -94t-26 -69t-61 -42t-108.5 -14zM131 817q-21 0 -35.5 14.5t-14.5 34.5t14.5 35t35.5 15q20 0 34.5 -15t14.5 -35t-14.5 -34.5t-34.5 -14.5z" />
    <glyph glyph-name="uni06B6.medi" unicode="&#x6b6;" horiz-adv-x="300" 
d="M0 -5l9 82q57 0 80 11t26.5 39t1.5 78l-17 509h83l16 -507q2 -51 16.5 -79.5t39.5 -39.5t55 -11q21 0 30.5 -11.5t9.5 -27.5t-14 -29.5t-36 -13.5q-42 0 -69.5 13.5t-43 35t-20.5 45.5l21 -2q-10 -30 -32.5 -50.5t-60.5 -31t-95 -10.5zM145 817q-21 0 -35.5 14.5
t-14.5 34.5t14.5 35t35.5 15q20 0 34.5 -15t14.5 -35t-14.5 -34.5t-34.5 -14.5z" />
    <glyph glyph-name="uni06B6.fina" unicode="&#x6b6;" horiz-adv-x="730" 
d="M30 -1q0 24 4.5 51.5t14 59t23.5 66.5l72 -28q-10 -28 -17.5 -53t-11 -47t-3.5 -42q0 -51 27 -86t70.5 -52.5t93.5 -17.5q98 0 153 34.5t77 91t19 123.5l-22 615h83l16 -507q2 -51 16.5 -79.5t39.5 -39.5t55 -11q21 0 30.5 -11.5t9.5 -27.5t-14 -29.5t-36 -13.5
q-31 0 -53 8.5t-36 22t-22 31t-12 35.5l28 -28q-4 -53 -22.5 -105.5t-56.5 -95.5t-101.5 -69t-156.5 -26q-52 0 -100.5 15.5t-86 45.5t-59.5 72.5t-22 97.5zM308 560q-21 0 -35.5 14.5t-14.5 34.5t14.5 35t35.5 15q20 0 34.5 -15t14.5 -35t-14.5 -34.5t-34.5 -14.5z" />
    </font>
</defs>
</svg>
