<?xml version="1.0" standalone="no"?>
<!DOCTYPE svg PUBLIC "-//W3C//DTD SVG 1.1//EN" "http://www.w3.org/Graphics/SVG/1.1/DTD/svg11.dtd" >
<svg xmlns="http://www.w3.org/2000/svg" xmlns:xlink="http://www.w3.org/1999/xlink" version="1.1">
<metadata>
Created by FontForge 20170731 at Thu Nov 12 05:28:44 2020
 By Aleksey,,,
Copyright 2015-2020 Google LLC. All Rights Reserved.
</metadata>
<defs>
<font id="NotoSansArabic-SemiBold" horiz-adv-x="0" >
  <font-face 
    font-family="Noto Sans Arabic SemiBold"
    font-weight="600"
    font-stretch="normal"
    units-per-em="1000"
    panose-1="0 0 0 0 0 0 0 0 0 0"
    ascent="800"
    descent="-200"
    bbox="-220 -590 2475 1140"
    underline-thickness="50"
    underline-position="-175"
    unicode-range="U+000D-FEFC"
  />
<missing-glyph horiz-adv-x="600" 
d="M94 0v714h411v-714h-411zM145 51h309v612h-309v-612z" />
    <glyph glyph-name="uniFC43" unicode="&#xfedf;&#xfef0;" horiz-adv-x="1059" arabic-form="isolated" 
d="M776 -5l10 118q50 0 71 10t25 37t2 78l-19 487h119l20 -490q2 -56 -4.5 -100.5t-29.5 -75.5t-69.5 -47.5t-124.5 -16.5zM28 17q0 23 4 53t14.5 66.5t29.5 79.5l104 -37q-11 -30 -19 -55t-11.5 -47t-3.5 -42q0 -37 16 -64.5t45.5 -46t71 -28.5t92.5 -10q56 0 102 7
t79.5 20.5t52 32t18.5 40.5q0 11 -8 20t-24.5 18.5t-41.5 19t-59 21.5l27 119q47 -19 86 -32.5t72 -22t60.5 -12.5t50.5 -4q31 0 45 -16.5t14 -40.5q0 -25 -18.5 -43t-50.5 -18h-14h-14h-15q2 -10 2.5 -16.5t0.5 -14.5q0 -34 -23.5 -68.5t-71.5 -63.5t-119 -46t-167 -17
q-97 0 -171 26.5t-115 81.5t-41 140z" />
    <glyph glyph-name="uniFC86" unicode="&#xfee0;&#xfef0;" horiz-adv-x="1103" arabic-form="final" 
d="M776 -5l10 118q50 0 71 10t25 37t2 78l-17 487h120l17 -486q2 -50 13.5 -77.5t35.5 -38t60 -10.5q32 0 45.5 -16.5t13.5 -40.5q0 -25 -18.5 -43t-50.5 -18q-43 0 -77 11.5t-55.5 37t-28.5 67.5l36 -2q-15 -43 -40 -68t-64.5 -35.5t-97.5 -10.5zM28 17q0 23 4 53
t14.5 66.5t29.5 79.5l104 -37q-11 -30 -19 -55t-11.5 -47t-3.5 -42q0 -37 16 -64.5t45.5 -46t71 -28.5t92.5 -10q56 0 102 7t79.5 20.5t52 32t18.5 40.5q0 11 -8 20t-24.5 18.5t-41.5 19t-59 21.5l27 119q47 -19 86 -32.5t72 -22t60.5 -12.5t50.5 -4q31 0 45 -16.5t14 -40.5
q0 -25 -18.5 -43t-50.5 -18h-14h-14h-15q2 -10 2.5 -16.5t0.5 -14.5q0 -34 -23.5 -68.5t-71.5 -63.5t-119 -46t-167 -17q-97 0 -171 26.5t-115 81.5t-41 140z" />
    <glyph glyph-name="uniFD82" unicode="&#xfee0;&#xfea4;&#xfef0;" horiz-adv-x="1751" arabic-form="final" 
d="M1423 -5l10 118q50 0 71 10t25 37t2 78l-17 487h120l17 -486q2 -50 13.5 -77.5t35.5 -38t60 -10.5q32 0 45.5 -16.5t13.5 -40.5q0 -25 -18.5 -43t-50.5 -18q-43 0 -77 11.5t-55.5 37t-28.5 67.5l36 -2q-15 -43 -40 -68t-64.5 -35.5t-97.5 -10.5zM1424 -5q-45 0 -83 6.5
t-69 23t-54 46.5t-37 77l71 53q16 -35 39.5 -54t58 -26.5t84.5 -7.5q31 0 44.5 -16.5t13.5 -40.5q0 -25 -18 -43t-50 -18zM776 -5l10 118q53 0 105 7t101 20t94 33t85 47q-28 20 -62.5 34.5t-74.5 22t-85 7.5q-16 0 -32 -1t-32.5 -3.5t-34.5 -6.5l-18 114q28 8 58.5 12
t55.5 4q53 0 97 -12t81 -30t69.5 -36t62.5 -30.5t60 -12.5h31l12 -110q-43 -1 -80 -14.5t-72.5 -34t-75.5 -42.5t-90 -41.5t-115 -32t-150 -12.5zM28 17q0 23 4 53t14.5 66.5t29.5 79.5l104 -37q-11 -30 -19 -55t-11.5 -47t-3.5 -42q0 -37 16 -64.5t45.5 -46t71 -28.5
t92.5 -10q56 0 102 7t79.5 20.5t52 32t18.5 40.5q0 11 -8 20t-24.5 18.5t-41.5 19t-59 21.5l27 119q47 -19 86 -32.5t72 -22t60.5 -12.5t50.5 -4q31 0 45 -16.5t14 -40.5q0 -25 -18.5 -43t-50.5 -18h-14h-14h-15q2 -10 2.5 -16.5t0.5 -14.5q0 -34 -23.5 -68.5t-71.5 -63.5
t-119 -46t-167 -17q-97 0 -171 26.5t-115 81.5t-41 140z" />
    <glyph glyph-name="uniFDF2" unicode="&#x627;&#xfedf;&#xfee0;&#xfeea;" horiz-adv-x="1400" arabic-form="isolated" 
d="M530 -5q-48 0 -86.5 9t-66.5 30t-44 55q-59 -13 -114 -9t-98 23t-68 54t-25 86q0 62 35.5 110.5t97 82t137.5 49.5l-3 76h119l16 -345q3 -43 15.5 -65.5t35.5 -30t59 -7.5q49 0 69.5 8.5t25 35t2.5 81.5l-13 387h119l14 -386q2 -52 14 -80.5t36 -39t60 -10.5
q50 0 71 10.5t25 38.5t2 80l-19 487h119l20 -490q2 -56 -4.5 -100.5t-29.5 -75.5t-69.5 -47.5t-124.5 -16.5q-35 0 -63.5 8t-49.5 23.5t-33 38.5q-25 -36 -68.5 -53t-112.5 -17zM311 202l-7 165q-49 -7 -85 -24t-55 -40t-19 -47q0 -20 15 -33t39.5 -19t54 -6.5t57.5 4.5z
M1225 0l-21 725h118l20 -725h-117zM600 670q-38 0 -51 26.5t-13 56.5q0 11 1.5 23.5t4.5 28.5l56 14q-3 -17 -4.5 -31.5t-1.5 -25.5q0 -15 5.5 -22.5t16.5 -7.5q13 0 21.5 14.5t8.5 56.5v30l54 18v-61q0 -12 5 -20t18 -8q15 0 21 9.5t6 22.5q0 17 -4 34.5t-11 34.5l51 14
q10 -19 16.5 -43.5t6.5 -44.5q0 -33 -19 -59.5t-60 -26.5q-29 0 -48 16.5t-19 39.5l23 -9q0 -34 -23.5 -57t-60.5 -23zM626 890l-6 176h77l7 -176h-78z" />
    <glyph glyph-name="uniFEF5" unicode="&#xfedf;&#xfe82;" horiz-adv-x="712" arabic-form="isolated" 
d="M394 536q0 29 -3.5 61t-8 62t-8.5 52l119 17q4 -20 8 -53t6.5 -68t2.5 -63q0 -50 -8 -96t-24.5 -87.5t-42.5 -80.5l-15 -23q-27 -38 -64 -73.5t-83 -68.5h88q34 0 52 5.5t24.5 15.5t6.5 23q0 21 -32 58.5t-87.5 85t-128.5 101t-156 107.5l63 92q108 -71 185.5 -130
t129.5 -107t82 -88t43 -73.5t13 -62.5q0 -26 -8.5 -51.5t-28 -46t-52 -32.5t-82.5 -12h-269v114q103 74 163.5 141.5t87.5 136t27 144.5zM202 650q-30 0 -54 10.5t-44 20.5t-37 10q-18 0 -32.5 -9t-30.5 -25l-44 39q25 33 52 49.5t55 16.5q25 0 46 -10t42.5 -20t46.5 -10
q16 0 30 5.5t34 17.5l32 -50q-34 -29 -57 -37t-39 -8z" />
    <glyph glyph-name="uniFEF6" unicode="&#xfee0;&#xfe82;" horiz-adv-x="680" arabic-form="final" 
d="M679 -5q-66 0 -108.5 10.5t-67 32t-34.5 55t-12 80.5l-21 552h118l21 -499q2 -47 10 -71t32 -33t72 -9q32 0 46 -16.5t14 -40.5q0 -25 -18.5 -43t-51.5 -18zM172 -5q-27 0 -54.5 4.5t-38.5 6.5l16 120q69 -9 133 -3.5t113.5 33t79 81.5t29.5 140l51 -143
q-12 -66 -38.5 -110t-62.5 -69.5t-76.5 -38.5t-79.5 -17t-72 -4zM389 132q-15 30 -43.5 70t-69.5 89t-92.5 103t-113.5 110l75 81q82 -79 137.5 -137t92 -101t58.5 -76t37 -61zM232 650q-30 0 -54 10.5t-44 20.5t-37 10q-18 0 -32.5 -9t-30.5 -25l-44 39q25 33 52 49.5
t55 16.5q25 0 46 -10t42.5 -20t46.5 -10q16 0 30 5.5t34 17.5l32 -50q-34 -29 -57 -37t-39 -8z" />
    <glyph glyph-name="uniFEF7" unicode="&#xfedf;&#xfe84;" horiz-adv-x="632" arabic-form="isolated" 
d="M394 536q0 29 -3.5 61t-8 62t-8.5 52l119 17q4 -20 8 -53t6.5 -68t2.5 -63q0 -50 -8 -96t-24.5 -87.5t-42.5 -80.5l-15 -23q-27 -38 -64 -73.5t-83 -68.5h88q34 0 52 5.5t24.5 15.5t6.5 23q0 21 -32 58.5t-87.5 85t-128.5 101t-156 107.5l63 92q108 -71 185.5 -130
t129.5 -107t82 -88t43 -73.5t13 -62.5q0 -26 -8.5 -51.5t-28 -46t-52 -32.5t-82.5 -12h-269v114q103 74 163.5 141.5t87.5 136t27 144.5zM29 632l-15 64q32 6 48.5 10t36.5 9l-8 -23q-26 8 -49.5 34.5t-23.5 60.5q0 33 15.5 54.5t40 31.5t51.5 10q14 0 27 -2t24 -6l-8 -63
q-10 2 -19.5 4t-21.5 2q-17 0 -28.5 -9t-11.5 -23q0 -19 12.5 -32.5t29.5 -21.5t28 -9l-50 -5q27 7 51 14.5t44 15.5l19 -61q-25 -9 -58 -19.5t-67.5 -19.5t-66.5 -16z" />
    <glyph glyph-name="uniFEF8" unicode="&#xfee0;&#xfe84;" horiz-adv-x="650" arabic-form="final" 
d="M649 -5q-66 0 -108.5 10.5t-67 32t-34.5 55t-12 80.5l-21 552h118l21 -499q2 -47 10 -71t32 -33t72 -9q32 0 46 -16.5t14 -40.5q0 -25 -18.5 -43t-51.5 -18zM142 -5q-27 0 -54.5 4.5t-38.5 6.5l16 120q69 -9 133 -3.5t113.5 33t79 81.5t29.5 140l51 -143
q-12 -66 -38.5 -110t-62.5 -69.5t-76.5 -38.5t-79.5 -17t-72 -4zM359 132q-15 30 -43.5 70t-69.5 89t-92.5 103t-113.5 110l75 81q82 -79 137.5 -137t92 -101t58.5 -76t37 -61zM55 632l-15 64q32 6 48.5 10t36.5 9l-8 -23q-26 8 -49.5 34.5t-23.5 60.5q0 33 15.5 54.5
t40 31.5t51.5 10q14 0 27 -2t24 -6l-8 -63q-10 2 -19.5 4t-21.5 2q-17 0 -28.5 -9t-11.5 -23q0 -19 12.5 -32.5t29.5 -21.5t28 -9l-50 -5q27 7 51 14.5t44 15.5l19 -61q-25 -9 -58 -19.5t-67.5 -19.5t-66.5 -16z" />
    <glyph glyph-name="uniFEF9" unicode="&#xfedf;&#xfe88;" horiz-adv-x="613" arabic-form="isolated" 
d="M394 536q0 29 -3.5 61t-8 62t-8.5 52l119 17q4 -20 8 -53t6.5 -68t2.5 -63q0 -50 -8 -96t-24.5 -87.5t-42.5 -80.5l-15 -23q-27 -38 -64 -73.5t-83 -68.5h88q34 0 52 5.5t24.5 15.5t6.5 23q0 21 -32 58.5t-87.5 85t-128.5 101t-156 107.5l63 92q108 -71 185.5 -130
t129.5 -107t82 -88t43 -73.5t13 -62.5q0 -26 -8.5 -51.5t-28 -46t-52 -32.5t-82.5 -12h-269v114q103 74 163.5 141.5t87.5 136t27 144.5zM100 -307l-15 64q32 6 48.5 10t36.5 9l-8 -23q-26 8 -49.5 34.5t-23.5 60.5q0 33 15.5 54.5t40 31.5t51.5 10q14 0 27 -2t24 -6l-8 -63
q-10 2 -19.5 4t-21.5 2q-17 0 -28.5 -9t-11.5 -23q0 -19 12.5 -32.5t29.5 -21.5t28 -9l-50 -5q27 7 51 14.5t44 15.5l19 -61q-25 -9 -58 -19.5t-67.5 -19.5t-66.5 -16z" />
    <glyph glyph-name="uniFEFA" unicode="&#xfee0;&#xfe88;" horiz-adv-x="650" arabic-form="final" 
d="M649 -5q-66 0 -108.5 10.5t-67 32t-34.5 55t-12 80.5l-21 552h118l21 -499q2 -47 10 -71t32 -33t72 -9q32 0 46 -16.5t14 -40.5q0 -25 -18.5 -43t-51.5 -18zM142 -5q-27 0 -54.5 4.5t-38.5 6.5l16 120q69 -9 133 -3.5t113.5 33t79 81.5t29.5 140l51 -143
q-12 -66 -38.5 -110t-62.5 -69.5t-76.5 -38.5t-79.5 -17t-72 -4zM359 132q-15 30 -43.5 70t-69.5 89t-92.5 103t-113.5 110l75 81q82 -79 137.5 -137t92 -101t58.5 -76t37 -61zM100 -307l-15 64q32 6 48.5 10t36.5 9l-8 -23q-26 8 -49.5 34.5t-23.5 60.5q0 33 15.5 54.5
t40 31.5t51.5 10q14 0 27 -2t24 -6l-8 -63q-10 2 -19.5 4t-21.5 2q-17 0 -28.5 -9t-11.5 -23q0 -19 12.5 -32.5t29.5 -21.5t28 -9l-50 -5q27 7 51 14.5t44 15.5l19 -61q-25 -9 -58 -19.5t-67.5 -19.5t-66.5 -16z" />
    <glyph glyph-name="uniFEFB" unicode="&#xfedf;&#xfe8e;" horiz-adv-x="613" arabic-form="isolated" 
d="M394 536q0 29 -3.5 61t-8 62t-8.5 52l119 17q4 -20 8 -53t6.5 -68t2.5 -63q0 -50 -8 -96t-24.5 -87.5t-42.5 -80.5l-15 -23q-27 -38 -64 -73.5t-83 -68.5h88q34 0 52 5.5t24.5 15.5t6.5 23q0 21 -32 58.5t-87.5 85t-128.5 101t-156 107.5l63 92q108 -71 185.5 -130
t129.5 -107t82 -88t43 -73.5t13 -62.5q0 -26 -8.5 -51.5t-28 -46t-52 -32.5t-82.5 -12h-269v114q103 74 163.5 141.5t87.5 136t27 144.5z" />
    <glyph glyph-name="uniFEFC" unicode="&#xfee0;&#xfe8e;" horiz-adv-x="650" arabic-form="final" 
d="M649 -5q-66 0 -108.5 10.5t-67 32t-34.5 55t-12 80.5l-21 552h118l21 -499q2 -47 10 -71t32 -33t72 -9q32 0 46 -16.5t14 -40.5q0 -25 -18.5 -43t-51.5 -18zM142 -5q-27 0 -54.5 4.5t-38.5 6.5l16 120q69 -9 133 -3.5t113.5 33t79 81.5t29.5 140l51 -143
q-12 -66 -38.5 -110t-62.5 -69.5t-76.5 -38.5t-79.5 -17t-72 -4zM359 132q-15 30 -43.5 70t-69.5 89t-92.5 103t-113.5 110l75 81q82 -79 137.5 -137t92 -101t58.5 -76t37 -61z" />
    <glyph glyph-name="lam_alefMaksura_meemar" unicode="&#xfedf;&#xfbe9;&#xfee2;" horiz-adv-x="1206" 
d="M923 -5l10 118q50 0 71 10t25 37t2 78l-19 487h119l20 -490q2 -56 -4.5 -100.5t-29.5 -75.5t-69.5 -47.5t-124.5 -16.5zM624 -5l10 118q46 0 73 6t38.5 23.5t11.5 50.5q0 27 -7.5 64t-20 78t-25.5 77l116 35q13 -33 24.5 -76.5t20 -88t8.5 -83.5q0 -49 -12 -84
t-33.5 -58.5t-52.5 -37t-69 -19t-82 -5.5zM80 -393q-22 80 -37 153.5t-22.5 132.5t-7.5 94q0 84 27 150t69.5 115t92 82t96 49t78.5 16t54 -16t40 -50t39 -88q22 -56 40 -84t38 -38t45 -10q32 0 46 -16.5t14 -40.5q0 -25 -18 -43t-52 -18q-45 0 -77.5 15.5t-58.5 43.5l26 27
q-10 -30 -26.5 -52.5t-41 -34.5t-57.5 -12q-32 0 -64.5 10t-63.5 30.5t-59 50t-52 68.5l27 3q-25 -36 -34.5 -79t-9.5 -82q0 -30 6 -73t15 -91t20.5 -95.5t22.5 -86.5zM389 101q18 0 29.5 6t15.5 18t-3 29q-10 31 -20 53.5t-19 38.5t-18 23.5t-18 7.5q-13 0 -31 -7
t-36.5 -18t-34 -24t-23.5 -24l-7 23q20 -39 47.5 -68t58.5 -43.5t59 -14.5z" />
    <glyph glyph-name="lam_alefWaslaar" unicode="&#xfedf;&#xfb51;" horiz-adv-x="556" 
d="M151 661q-22 0 -52.5 2t-57.5 5.5t-41 5.5l7 60q15 -2 40 -5t53 -5t51 -2q56 0 73.5 13t17.5 30q0 19 -11.5 28t-25.5 9q-15 0 -30.5 -10t-30 -29t-27.5 -47l-67 1q12 33 34 67t53 57.5t71 23.5q38 0 67 -24t29 -71q0 -27 -12 -52t-45 -41t-96 -16zM394 536q0 29 -3.5 61
t-8 62t-8.5 52l119 17q4 -20 8 -53t6.5 -68t2.5 -63q0 -50 -8 -96t-24.5 -87.5t-42.5 -80.5l-15 -23q-27 -38 -64 -73.5t-83 -68.5h88q34 0 52 5.5t24.5 15.5t6.5 23q0 21 -32 58.5t-87.5 85t-128.5 101t-156 107.5l63 92q108 -71 185.5 -130t129.5 -107t82 -88t43 -73.5
t13 -62.5q0 -26 -8.5 -51.5t-28 -46t-52 -32.5t-82.5 -12h-269v114q103 74 163.5 141.5t87.5 136t27 144.5z" />
    <glyph glyph-name="lam_alefWaslaar.fina" unicode="&#xfee0;&#xfb51;" horiz-adv-x="719" 
d="M151 661q-22 0 -52.5 2t-57.5 5.5t-41 5.5l7 60q15 -2 40 -5t53 -5t51 -2q56 0 73.5 13t17.5 30q0 19 -11.5 28t-25.5 9q-15 0 -30.5 -10t-30 -29t-27.5 -47l-67 1q12 33 34 67t53 57.5t71 23.5q38 0 67 -24t29 -71q0 -27 -12 -52t-45 -41t-96 -16zM649 -5
q-66 0 -108.5 10.5t-67 32t-34.5 55t-12 80.5l-21 552h118l21 -499q2 -47 10 -71t32 -33t72 -9q32 0 46 -16.5t14 -40.5q0 -25 -18.5 -43t-51.5 -18zM142 -5q-27 0 -54.5 4.5t-38.5 6.5l16 120q69 -9 133 -3.5t113.5 33t79 81.5t29.5 140l51 -143q-12 -66 -38.5 -110
t-62.5 -69.5t-76.5 -38.5t-79.5 -17t-72 -4zM359 132q-15 30 -43.5 70t-69.5 89t-92.5 103t-113.5 110l75 81q82 -79 137.5 -137t92 -101t58.5 -76t37 -61z" />
    <glyph glyph-name="uni0620.init" unicode="&#x620;" horiz-adv-x="336" 
d="M0 -5l10 118q60 0 92 5.5t45.5 23t13.5 51.5q0 27 -8 64t-20 78t-26 77l117 35q13 -33 24.5 -76.5t19.5 -88t8 -83.5q0 -61 -18.5 -101t-54 -62.5t-87 -31.5t-116.5 -9zM141 -125q-40 0 -68 28t-28 68q0 39 28 67t68 28q39 0 67.5 -28t28.5 -67q0 -40 -28.5 -68
t-67.5 -28zM140 -65q17 0 28 10t11 26t-11 26.5t-28 10.5q-16 0 -27 -11t-11 -26q0 -16 11 -26t27 -10z" />
    <glyph glyph-name="uni0620.medi" unicode="&#x620;" horiz-adv-x="395" 
d="M0 -5l10 118q41 0 68 7.5t43.5 29t28 63t22.5 109.5l111 -19q-3 -16 -7 -37t-7 -42t-3 -38t5 -30.5t19.5 -22.5t42.5 -14.5t72 -5.5q32 0 45.5 -16.5t13.5 -40.5q0 -25 -18 -43t-51 -18q-51 0 -87 7t-59.5 22t-36.5 39.5t-17 59.5l41 -1q-17 -42 -41.5 -67.5t-54.5 -38
t-65.5 -17t-74.5 -4.5zM123 -125q-40 0 -68 28.5t-28 67.5q0 40 28 68t68 28t68 -28t28 -68q0 -39 -28 -67.5t-68 -28.5zM122 -64q17 0 28 10t11 25q0 16 -11 26.5t-28 10.5q-15 0 -26 -10.5t-11 -26.5q0 -15 11 -25t26 -10z" />
    <glyph glyph-name="uni0620.fina" unicode="&#x620;" horiz-adv-x="776" 
d="M345 -364q-40 0 -68 28t-28 68q0 39 28 67.5t68 28.5t68 -28.5t28 -67.5q0 -40 -28 -68t-68 -28zM345 -304q16 0 27 10t11 26t-11 26.5t-27 10.5t-27 -11t-11 -26q0 -16 11 -26t27 -10zM28 17q0 23 4 53t14.5 66.5t29.5 79.5l104 -37q-11 -30 -19 -55t-11.5 -47t-3.5 -42
q0 -37 16 -64.5t45.5 -46t71 -28.5t92.5 -10q56 0 102 7t79.5 20.5t52 32t18.5 40.5q0 11 -8 20t-24.5 18.5t-41.5 19t-59 21.5l27 119q47 -19 86 -32.5t72 -22t60.5 -12.5t50.5 -4q31 0 45 -16.5t14 -40.5q0 -25 -18.5 -43t-50.5 -18h-14h-14h-15q2 -10 2.5 -16.5
t0.5 -14.5q0 -34 -23.5 -68.5t-71.5 -63.5t-119 -46t-167 -17q-97 0 -171 26.5t-115 81.5t-41 140z" />
    <glyph glyph-name="uni063B.init" unicode="&#x63b;" horiz-adv-x="438" 
d="M243 734q-22 0 -37 15t-15 35q0 22 15 37t37 15q20 0 35 -15t15 -37q0 -20 -15 -35t-35 -15zM130 676q-22 0 -37 14.5t-15 35.5q0 20 15 35.5t37 15.5q20 0 35 -15.5t15 -35.5q0 -21 -15 -35.5t-35 -14.5zM0 -5l10 118h125q35 0 58 4t35.5 12t18 18t5.5 23q0 16 -14.5 45
t-60.5 73q-24 23 -50.5 46t-49.5 43t-38 34.5t-15 21.5q0 15 2.5 31.5t7 30.5t11.5 21q18 18 51 39.5t78 46t102 52t123 57.5l48 -104q-65 -29 -115.5 -53t-91 -45t-73 -40.5t-60.5 -40.5l14 60q77 -59 126.5 -108t77.5 -89.5t39.5 -74.5t11.5 -65q0 -23 -10 -50t-38.5 -51
t-81 -39.5t-137.5 -15.5h-109z" />
    <glyph glyph-name="uni063B.medi" unicode="&#x63b;" horiz-adv-x="508" 
d="M229 733q-22 0 -36.5 15t-14.5 35q0 21 14.5 36.5t36.5 15.5q20 0 35 -15.5t15 -36.5q0 -20 -15 -35t-35 -15zM116 674q-22 0 -37 14.5t-15 36.5q0 20 15 35.5t37 15.5q20 0 35 -15.5t15 -35.5q0 -22 -15 -36.5t-35 -14.5zM0 -5l10 118h116q53 0 80 6t36 17t9 24
q0 21 -16.5 46.5t-42.5 53.5t-54.5 55.5t-54.5 51.5t-42.5 42t-16.5 26q0 23 3 38.5t8 26t12 17.5q18 19 52.5 41t81 46.5t102 51.5t116.5 55l48 -104q-59 -27 -109.5 -51t-92.5 -45.5t-76.5 -41.5t-62.5 -39l9 59q44 -37 80.5 -71t69 -68.5t60.5 -72t54 -82.5
q22 -36 47 -53.5t49.5 -23t41.5 -5.5q32 0 46 -16.5t14 -40.5q0 -25 -18.5 -43t-51.5 -18q-30 0 -67.5 10.5t-71.5 36t-53 72.5l45 -7q-15 -30 -35 -51.5t-49 -35t-67.5 -19.5t-89.5 -6h-119z" />
    <glyph glyph-name="uni063B.fina" unicode="&#x63b;" horiz-adv-x="961" 
d="M696 734q-22 0 -37 15t-15 35q0 22 15 37t37 15q20 0 35 -15t15 -37q0 -20 -15 -35t-35 -15zM582 676q-21 0 -36 14.5t-15 35.5q0 20 15 35.5t36 15.5t36 -15.5t15 -35.5q0 -21 -15 -35.5t-36 -14.5zM411 -21l26 118q80 0 131.5 4t81 12.5t41.5 20t12 24.5
q0 21 -16.5 46.5t-42 53.5t-54.5 56t-54.5 51.5t-42 41.5t-16.5 26q0 23 3 38.5t8 26t12 17.5q24 26 76 56.5t123 65t152 72.5l49 -103q-79 -37 -142.5 -67.5t-112.5 -57.5t-86 -53l8 59q44 -37 81 -71t69 -68t60.5 -72t54.5 -82q15 -28 34 -44t37.5 -24t36 -10.5t30.5 -2.5
q32 0 45.5 -17.5t13.5 -41.5q0 -25 -18 -42t-51 -17q-31 0 -68.5 9.5t-71 35t-52.5 72.5l45 -7q-18 -35 -44.5 -59.5t-71 -39t-114 -21t-172.5 -6.5zM411 -21q-101 0 -172.5 14.5t-117.5 42.5t-68 68t-22 92q0 29 5 59.5t13 60t15 54.5l106 -26q-4 -17 -9 -37.5t-8.5 -40.5
t-3.5 -37q0 -42 26.5 -72t89.5 -45t172 -15l20 -86z" />
    <glyph glyph-name="uni063C.init" unicode="&#x63c;" horiz-adv-x="438" 
d="M0 -5l10 118h125q35 0 58 4t35.5 12t18 18t5.5 23q0 16 -14.5 45t-60.5 73q-24 23 -50.5 46t-49.5 43t-38 34.5t-15 21.5q0 15 2.5 31.5t7 30.5t11.5 21q18 18 51 39.5t78 46t102 52t123 57.5l48 -104q-65 -29 -115.5 -53t-91 -45t-73 -40.5t-60.5 -40.5l14 60
q77 -59 126.5 -108t77.5 -89.5t39.5 -74.5t11.5 -65q0 -23 -10 -50t-38.5 -51t-81 -39.5t-137.5 -15.5h-109zM186 -331q-24 0 -41 16.5t-17 40.5q0 23 17 40.5t41 17.5q23 0 40 -17.5t17 -40.5q0 -24 -17 -40.5t-40 -16.5zM113 -208q-24 0 -41 17t-17 40q0 24 17 41.5
t41 17.5q23 0 40 -17.5t17 -41.5q0 -23 -17 -40t-40 -17zM261 -208q-24 0 -41 17t-17 40q0 24 17 41.5t41 17.5t40.5 -17.5t16.5 -41.5q0 -23 -16.5 -40t-40.5 -17z" />
    <glyph glyph-name="uni063C.medi" unicode="&#x63c;" horiz-adv-x="508" 
d="M0 -5l10 118h116q53 0 80 6t36 17t9 24q0 21 -16.5 46.5t-42.5 53.5t-54.5 55.5t-54.5 51.5t-42.5 42t-16.5 26q0 23 3 38.5t8 26t12 17.5q18 19 52.5 41t81 46.5t102 51.5t116.5 55l48 -104q-59 -27 -109.5 -51t-92.5 -45.5t-76.5 -41.5t-62.5 -39l9 59q44 -37 80.5 -71
t69 -68.5t60.5 -72t54 -82.5q22 -36 47 -53.5t49.5 -23t41.5 -5.5q32 0 46 -16.5t14 -40.5q0 -25 -18.5 -43t-51.5 -18q-30 0 -67.5 10.5t-71.5 36t-53 72.5l45 -7q-15 -30 -35 -51.5t-49 -35t-67.5 -19.5t-89.5 -6h-119zM186 -331q-24 0 -41 16.5t-17 40.5q0 23 17 40.5
t41 17.5q23 0 40 -17.5t17 -40.5q0 -24 -17 -40.5t-40 -16.5zM113 -208q-24 0 -41 17t-17 40q0 24 17 41.5t41 17.5q23 0 40 -17.5t17 -41.5q0 -23 -17 -40t-40 -17zM261 -208q-24 0 -41 17t-17 40q0 24 17 41.5t41 17.5t40.5 -17.5t16.5 -41.5q0 -23 -16.5 -40t-40.5 -17z
" />
    <glyph glyph-name="uni063C.fina" unicode="&#x63c;" horiz-adv-x="961" 
d="M411 -21l26 118q80 0 131.5 4t81 12.5t41.5 20t12 24.5q0 21 -16.5 46.5t-42 53.5t-54.5 56t-54.5 51.5t-42 41.5t-16.5 26q0 23 3 38.5t8 26t12 17.5q24 26 76 56.5t123 65t152 72.5l49 -103q-79 -37 -142.5 -67.5t-112.5 -57.5t-86 -53l8 59q44 -37 81 -71t69 -68
t60.5 -72t54.5 -82q15 -28 34 -44t37.5 -24t36 -10.5t30.5 -2.5q32 0 45.5 -17.5t13.5 -41.5q0 -25 -18 -42t-51 -17q-31 0 -68.5 9.5t-71 35t-52.5 72.5l45 -7q-18 -35 -44.5 -59.5t-71 -39t-114 -21t-172.5 -6.5zM411 -21q-101 0 -172.5 14.5t-117.5 42.5t-68 68t-22 92
q0 29 5 59.5t13 60t15 54.5l106 -26q-4 -17 -9 -37.5t-8.5 -40.5t-3.5 -37q0 -42 26.5 -72t89.5 -45t172 -15l20 -86zM433 -352q-24 0 -41 16.5t-17 40.5q0 23 17 40.5t41 17.5q23 0 40 -17.5t17 -40.5q0 -24 -17 -40.5t-40 -16.5zM360 -229q-24 0 -41 17t-17 40
q0 24 17 41.5t41 17.5q23 0 40 -17.5t17 -41.5q0 -23 -17 -40t-40 -17zM508 -229q-24 0 -41 17t-17 40q0 24 17 41.5t41 17.5t40.5 -17.5t16.5 -41.5q0 -23 -16.5 -40t-40.5 -17z" />
    <glyph glyph-name="uni063D.init" unicode="&#x63d;" horiz-adv-x="299" 
d="M0 -5l10 118q46 0 73 6t38.5 23.5t11.5 50.5q0 27 -7.5 64t-20 78t-25.5 77l116 35q13 -33 24.5 -76.5t20 -88t8.5 -83.5q0 -49 -12 -84t-33.5 -58.5t-52.5 -37t-69 -19t-82 -5.5zM161 759q8 -15 19 -37.5t24 -47.5t26 -48.5t22 -39.5l-53 -28q-7 10 -18.5 29.5
t-23.5 42.5t-23 44.5t-19 36.5l-21 42zM94 753l52 -19q-6 -17 -17.5 -44t-24 -55t-22.5 -50t-15 -30l-53 22q5 10 15.5 32.5t23.5 50t24 52.5t17 41zM201 -221q-26 0 -44 18.5t-18 43.5t18 44t44 19q25 0 43 -19t18 -44t-18 -43.5t-43 -18.5zM42 -221q-26 0 -44.5 18.5
t-18.5 43.5t18.5 44t44.5 19q25 0 43 -19t18 -44t-18 -43.5t-43 -18.5z" />
    <glyph glyph-name="uni063D.medi" unicode="&#x63d;" horiz-adv-x="369" 
d="M0 -5l10 118q40 0 63 7.5t36 29t22.5 63t20.5 109.5l111 -19q-3 -16 -7 -37t-7 -42t-3 -38q0 -22 10 -38.5t38.5 -25.5t84.5 -9q31 0 44.5 -16.5t13.5 -40.5q0 -25 -18 -43t-50 -18q-68 0 -108.5 12.5t-60 40.5t-25.5 75l41 -1q-17 -42 -39 -67.5t-49 -38t-59 -17
t-69 -4.5zM209 645q8 -15 19 -37.5t24 -47.5t26 -48.5t22 -39.5l-53 -28q-7 10 -18.5 29.5t-23.5 42.5t-23 44.5t-19 36.5l-21 42zM142 639l52 -19q-6 -17 -17.5 -44t-24 -55t-22.5 -50t-15 -30l-53 22q5 10 15.5 32.5t23.5 50t24 52.5t17 41zM259 -221q-26 0 -44 18.5
t-18 43.5t18 44t44 19q25 0 43 -19t18 -44t-18 -43.5t-43 -18.5zM100 -221q-26 0 -44.5 18.5t-18.5 43.5t18.5 44t44.5 19q25 0 43 -19t18 -44t-18 -43.5t-43 -18.5z" />
    <glyph glyph-name="uni063D.fina" unicode="&#x63d;" horiz-adv-x="776" 
d="M28 17q0 23 4 53t14.5 66.5t29.5 79.5l104 -37q-11 -30 -19 -55t-11.5 -47t-3.5 -42q0 -37 16 -64.5t45.5 -46t71 -28.5t92.5 -10q56 0 102 7t79.5 20.5t52 32t18.5 40.5q0 11 -8 20t-24.5 18.5t-41.5 19t-59 21.5l27 119q47 -19 86 -32.5t72 -22t60.5 -12.5t50.5 -4
q31 0 45 -16.5t14 -40.5q0 -25 -18.5 -43t-50.5 -18h-14h-14h-15q2 -10 2.5 -16.5t0.5 -14.5q0 -34 -23.5 -68.5t-71.5 -63.5t-119 -46t-167 -17q-97 0 -171 26.5t-115 81.5t-41 140zM248 507q8 -15 19 -37.5t24 -47.5t26 -48.5t22 -39.5l-53 -28q-7 10 -18.5 29.5
t-23.5 42.5t-23 44.5t-19 36.5l-21 42zM181 501l52 -19q-6 -17 -17.5 -44t-24 -55t-22.5 -50t-15 -30l-53 22q5 10 15.5 32.5t23.5 50t24 52.5t17 41z" />
    <glyph glyph-name="uni063E.init" unicode="&#x63e;" horiz-adv-x="336" 
d="M0 -5l10 118q60 0 92 5.5t45.5 23t13.5 51.5q0 27 -8 64t-20 78t-26 77l117 35q13 -33 24.5 -76.5t19.5 -88t8 -83.5q0 -61 -18.5 -101t-54 -62.5t-87 -31.5t-116.5 -9zM251 537q-26 0 -44 18t-18 44q0 25 18 43.5t44 18.5q25 0 43 -18.5t18 -43.5q0 -26 -18 -44t-43 -18
zM92 538q-26 0 -44.5 18t-18.5 43t18 44t45 19q25 0 42.5 -19t17.5 -44t-18 -43t-42 -18zM224 -221q-26 0 -44.5 18.5t-18.5 43.5t18 44t45 19q25 0 42.5 -19t17.5 -44t-18 -43.5t-42 -18.5zM64 -221q-26 0 -44 18.5t-18 43.5t18 44t44 19q25 0 43 -19t18 -44t-18 -43.5
t-43 -18.5z" />
    <glyph glyph-name="uni063E.medi" unicode="&#x63e;" horiz-adv-x="395" 
d="M0 -5l10 118q41 0 68 7.5t43.5 29t28 63t22.5 109.5l111 -19q-3 -16 -7 -37t-7 -42t-3 -38t5 -30.5t19.5 -22.5t42.5 -14.5t72 -5.5q32 0 45.5 -16.5t13.5 -40.5q0 -25 -18 -43t-51 -18q-51 0 -87 7t-59.5 22t-36.5 39.5t-17 59.5l41 -1q-17 -42 -41.5 -67.5t-54.5 -38
t-65.5 -17t-74.5 -4.5zM301 417q-26 0 -44.5 18.5t-18.5 43.5t18 44t45 19q25 0 42.5 -19t17.5 -44t-17.5 -43.5t-42.5 -18.5zM141 418q-26 0 -44 18t-18 43q0 26 18 44.5t44 18.5q25 0 43 -18.5t18 -44.5q0 -25 -18 -43t-43 -18zM269 -221q-26 0 -44.5 18.5t-18.5 43.5
t18.5 44t44.5 19q25 0 43 -19t18 -44t-18 -43.5t-43 -18.5zM109 -221q-26 0 -44 18.5t-18 43.5t18 44t44 19q25 0 43 -19t18 -44t-18 -43.5t-43 -18.5z" />
    <glyph glyph-name="uni063E.fina" unicode="&#x63e;" horiz-adv-x="776" 
d="M28 17q0 23 4 53t14.5 66.5t29.5 79.5l104 -37q-11 -30 -19 -55t-11.5 -47t-3.5 -42q0 -37 16 -64.5t45.5 -46t71 -28.5t92.5 -10q56 0 102 7t79.5 20.5t52 32t18.5 40.5q0 11 -8 20t-24.5 18.5t-41.5 19t-59 21.5l27 119q47 -19 86 -32.5t72 -22t60.5 -12.5t50.5 -4
q31 0 45 -16.5t14 -40.5q0 -25 -18.5 -43t-50.5 -18h-14h-14h-15q2 -10 2.5 -16.5t0.5 -14.5q0 -34 -23.5 -68.5t-71.5 -63.5t-119 -46t-167 -17q-97 0 -171 26.5t-115 81.5t-41 140zM316 313q-26 0 -44 18.5t-18 43.5t18 44t44 19q25 0 43 -19t18 -44t-18 -43.5t-43 -18.5z
M157 314q-26 0 -44.5 18t-18.5 43t18 44t45 19q25 0 43 -19t18 -44t-18 -43t-43 -18z" />
    <glyph glyph-name="uni063F.init" unicode="&#x63f;" horiz-adv-x="336" 
d="M0 -5l10 118q60 0 92 5.5t45.5 23t13.5 51.5q0 27 -8 64t-20 78t-26 77l117 35q13 -33 24.5 -76.5t19.5 -88t8 -83.5q0 -61 -18.5 -101t-54 -62.5t-87 -31.5t-116.5 -9zM176 662q-24 0 -41 17t-17 41t17 41t41 17q23 0 40 -17t17 -41t-17 -41t-40 -17zM100 538
q-23 0 -40 17.5t-17 40.5q0 24 17 41t40 17q24 0 40.5 -17t16.5 -41q0 -23 -16.5 -40.5t-40.5 -17.5zM248 538q-24 0 -41 17.5t-17 40.5q0 24 17 41t41 17t40.5 -17t16.5 -41q0 -23 -16.5 -40.5t-40.5 -17.5zM224 -221q-26 0 -44.5 18.5t-18.5 43.5t18 44t45 19
q25 0 42.5 -19t17.5 -44t-18 -43.5t-42 -18.5zM64 -221q-26 0 -44 18.5t-18 43.5t18 44t44 19q25 0 43 -19t18 -44t-18 -43.5t-43 -18.5z" />
    <glyph glyph-name="uni063F.medi" unicode="&#x63f;" horiz-adv-x="395" 
d="M0 -5l10 118q41 0 68 7.5t43.5 29t28 63t22.5 109.5l111 -19q-3 -16 -7 -37t-7 -42t-3 -38t5 -30.5t19.5 -22.5t42.5 -14.5t72 -5.5q32 0 45.5 -16.5t13.5 -40.5q0 -25 -18 -43t-51 -18q-51 0 -87 7t-59.5 22t-36.5 39.5t-17 59.5l41 -1q-17 -42 -41.5 -67.5t-54.5 -38
t-65.5 -17t-74.5 -4.5zM225 542q-23 0 -40 17.5t-17 40.5q0 24 17 41t40 17q24 0 40.5 -17t16.5 -41q0 -23 -16.5 -40.5t-40.5 -17.5zM150 418q-24 0 -41 17.5t-17 41.5q0 23 17 40t41 17q23 0 40 -17t17 -40q0 -24 -17 -41.5t-40 -17.5zM298 418q-24 0 -41 17.5t-17 41.5
q0 23 17 40t41 17q23 0 40 -17t17 -40q0 -24 -17 -41.5t-40 -17.5zM269 -221q-26 0 -44.5 18.5t-18.5 43.5t18.5 44t44.5 19q25 0 43 -19t18 -44t-18 -43.5t-43 -18.5zM109 -221q-26 0 -44 18.5t-18 43.5t18 44t44 19q25 0 43 -19t18 -44t-18 -43.5t-43 -18.5z" />
    <glyph glyph-name="uni063F.fina" unicode="&#x63f;" horiz-adv-x="776" 
d="M28 17q0 23 4 53t14.5 66.5t29.5 79.5l104 -37q-11 -30 -19 -55t-11.5 -47t-3.5 -42q0 -37 16 -64.5t45.5 -46t71 -28.5t92.5 -10q56 0 102 7t79.5 20.5t52 32t18.5 40.5q0 11 -8 20t-24.5 18.5t-41.5 19t-59 21.5l27 119q47 -19 86 -32.5t72 -22t60.5 -12.5t50.5 -4
q31 0 45 -16.5t14 -40.5q0 -25 -18.5 -43t-50.5 -18h-14h-14h-15q2 -10 2.5 -16.5t0.5 -14.5q0 -34 -23.5 -68.5t-71.5 -63.5t-119 -46t-167 -17q-97 0 -171 26.5t-115 81.5t-41 140zM229 410q-23 0 -40 17.5t-17 40.5q0 24 17 41t40 17q24 0 40.5 -17t16.5 -41
q0 -23 -16.5 -40.5t-40.5 -17.5zM154 286q-24 0 -41 17.5t-17 41.5q0 23 17 40t41 17q23 0 40 -17t17 -40q0 -24 -17 -41.5t-40 -17.5zM301 286q-23 0 -40 17.5t-17 41.5q0 23 17 40t40 17q24 0 41 -17t17 -40q0 -24 -17 -41.5t-41 -17.5z" />
    <glyph glyph-name="uni066E.init" unicode="&#x66e;" horiz-adv-x="299" 
d="M0 -5l10 118q46 0 73 6t38.5 23.5t11.5 50.5q0 27 -7.5 64t-20 78t-25.5 77l116 35q13 -33 24.5 -76.5t20 -88t8.5 -83.5q0 -49 -12 -84t-33.5 -58.5t-52.5 -37t-69 -19t-82 -5.5z" />
    <glyph glyph-name="uni066E.medi" unicode="&#x66e;" horiz-adv-x="369" 
d="M0 -5l10 118q40 0 63 7.5t36 29t22.5 63t20.5 109.5l111 -19q-3 -16 -7 -37t-7 -42t-3 -38q0 -22 10 -38.5t38.5 -25.5t84.5 -9q31 0 44.5 -16.5t13.5 -40.5q0 -25 -18 -43t-50 -18q-68 0 -108.5 12.5t-60 40.5t-25.5 75l41 -1q-17 -42 -39 -67.5t-49 -38t-59 -17
t-69 -4.5z" />
    <glyph glyph-name="uni066E.fina" unicode="&#x66e;" horiz-adv-x="1124" 
d="M412 -21l26 118q68 0 135 7.5t130 27.5t119 58.5t100 101.5l94 -46q-7 -21 -11 -37t-4 -27q0 -20 11.5 -35.5t40.5 -24.5t81 -9q31 0 44.5 -16.5t13.5 -40.5q0 -25 -18 -43t-50 -18q-68 0 -117.5 17t-76 49.5t-26.5 78.5l31 -5q-37 -40 -91.5 -69.5t-122 -48.5
t-145.5 -28.5t-164 -9.5zM411 -21q-101 0 -172.5 14.5t-117.5 42.5t-68 68t-22 92q0 29 5 59.5t13 60t15 54.5l106 -26q-4 -17 -9 -37.5t-8.5 -40.5t-3.5 -37q0 -42 26.5 -72t89.5 -45t172 -15l20 -86z" />
    <glyph glyph-name="uni066F.init" unicode="&#x66f;" horiz-adv-x="483" 
d="M0 -5l10 118q61 0 104 0.5t72.5 3t48.5 7.5t32 11q21 11 34 28t19 45.5t6 71.5q0 47 -9 81.5t-26.5 53t-41.5 18.5q-19 0 -34.5 -13t-25 -34.5t-9.5 -45.5q0 -16 7.5 -28t24.5 -18.5t43 -6.5q25 0 51 6t47 16l4 -101q-16 -11 -36.5 -19t-43.5 -12t-46 -4q-52 0 -89.5 15
t-57.5 46.5t-20 80.5q0 42 14 83.5t39.5 76t61 55t78.5 20.5q63 0 104 -37.5t61 -100.5t20 -137q0 -73 -23 -125.5t-63 -84.5q-23 -21 -55 -34.5t-74 -21.5t-98 -11t-129 -3z" />
    <glyph glyph-name="uni066F.medi" unicode="&#x66f;" horiz-adv-x="516" 
d="M0 -5l10 118q34 -1 64.5 0.5t56.5 4.5t48 7.5t38 8.5q34 11 60 27.5t41.5 39t15.5 49.5q0 20 -9 40.5t-25 34.5t-37 14q-20 0 -37 -13t-27.5 -34t-10.5 -46t12.5 -46t32.5 -38.5t45 -31.5l-119 -42q-19 18 -39.5 41t-34.5 54t-14 70q0 44 16.5 80.5t44.5 63.5t63 42
t71 15q56 0 97.5 -28t64.5 -71.5t23 -93.5q0 -47 -17.5 -84t-47 -65.5t-66 -49.5t-74.5 -34q-20 -8 -47 -14t-59 -10.5t-67 -6.5t-73 -2zM516 -5q-55 0 -110.5 6t-103 17.5t-80.5 27.5l69 86q30 -7 70.5 -11t84 -6t80.5 -2q31 0 45 -16.5t14 -40.5q0 -25 -18.5 -43
t-50.5 -18z" />
    <glyph glyph-name="uni066F.fina" unicode="&#x66f;" horiz-adv-x="837" 
d="M340 -272q-64 0 -120.5 14t-100 44t-67.5 77t-24 113q0 20 3.5 48.5t15.5 68.5t37 91l103 -42q-14 -34 -23 -59t-13 -45t-4 -41q0 -51 27.5 -84.5t76.5 -49.5t113 -16q44 0 82.5 6.5t69.5 19t55 29t40 36t23 40.5q9 28 13.5 61.5t4.5 62.5q0 48 -9.5 81.5t-26.5 50.5
t-40 17q-15 0 -27.5 -8t-22 -20.5t-14.5 -28t-5 -31.5q0 -15 6.5 -26t23.5 -17.5t48.5 -8.5t80.5 2l181 1q32 0 45.5 -16.5t13.5 -40.5q0 -26 -18.5 -44t-50.5 -18h-242q-48 0 -85.5 9t-63.5 27.5t-40 46t-14 64.5q0 42 15 82.5t41.5 73t61 51.5t72.5 19q56 0 98.5 -32.5
t66 -95t23.5 -154.5q0 -39 -12.5 -88t-33.5 -90q-25 -46 -62.5 -80t-86.5 -56.5t-107.5 -33t-127.5 -10.5z" />
    <glyph glyph-name="uni0672.fina" unicode="&#x672;" horiz-adv-x="306" 
d="M305 -5q-88 0 -135 18.5t-65.5 58t-21.5 101.5l-19 482h118l19 -429q2 -47 9.5 -71t31.5 -33t73 -9q32 0 46 -16.5t14 -40.5q0 -25 -18.5 -43t-51.5 -18zM-13 725l-49 31q12 28 33.5 40.5t39.5 12.5q25 0 42 -11t33 -11q13 0 24.5 1t20.5 5l-12 -20q-28 11 -49.5 37
t-21.5 59q0 45 31.5 70t74.5 25q13 0 27 -2t25 -6l-8 -58q-10 2 -19 4t-20 2q-23 0 -35.5 -9t-12.5 -25q0 -20 13 -35t30.5 -23t28.5 -8l-36 -7q27 7 47 15.5t39 15.5l19 -56q-8 -4 -27 -11.5t-42.5 -15.5t-47 -13.5t-39.5 -5.5q-28 0 -46 11t-30 11q-11 0 -17.5 -6
t-15.5 -17z" />
    <glyph glyph-name="uni0673.fina" unicode="&#x673;" horiz-adv-x="308" 
d="M307 -5q-88 0 -135.5 18.5t-66 58t-20.5 101.5l-21 552h118l21 -499q2 -47 9.5 -71t31.5 -33t73 -9q32 0 46 -16.5t14 -40.5q0 -25 -18.5 -43t-51.5 -18zM2 -306l-49 31q12 28 33.5 40.5t39.5 12.5q24 0 41.5 -11t33.5 -11q12 0 24 1t21 5l-12 -20q-28 11 -50 37t-22 59
q0 45 31.5 69.5t75.5 24.5q13 0 26.5 -2t24.5 -6l-8 -57q-10 2 -19 4t-20 2q-22 0 -34.5 -9t-12.5 -25q0 -20 13 -35t30 -23t28 -8l-36 -7q27 7 47.5 15.5t39.5 15.5l19 -56q-8 -4 -27 -11.5t-42.5 -15.5t-47 -13.5t-39.5 -5.5q-28 0 -46.5 11t-30.5 11q-10 0 -16.5 -6
t-15.5 -17z" />
    <glyph glyph-name="uni0675.fina" unicode="&#x675;" horiz-adv-x="496" 
d="M496 -5h-191q-87 0 -134 18.5t-65.5 58.5t-20.5 101l-21 552h118l21 -499q2 -46 9.5 -70.5t30.5 -33.5t71 -9h192q31 0 45 -16.5t14 -40.5q0 -25 -18.5 -43t-50.5 -18zM251 578l-14 61q31 6 48 10t37 9l-10 -24q-26 8 -49.5 34.5t-23.5 60.5q0 33 15.5 54.5t40 31.5
t51.5 10q13 0 26 -2t24 -6l-8 -57q-10 2 -19.5 4t-20.5 2q-22 0 -34 -9.5t-12 -24.5q0 -21 12.5 -35.5t30 -22.5t28.5 -9l-43 -4q27 7 51 14.5t44 15.5l18 -58q-25 -9 -58 -19.5t-67.5 -19.5t-66.5 -16z" />
    <glyph glyph-name="uni0676.fina" unicode="&#x676;" horiz-adv-x="504" 
d="M57 -230l-24 118q66 9 118 22t88.5 37t55 64.5t18.5 103.5q0 62 -20.5 101t-54.5 39q-21 0 -36.5 -15t-23.5 -37.5t-8 -43.5q0 -13 6 -23.5t22.5 -17t48 -8.5t83.5 3h184q31 0 45 -16.5t14 -40.5q0 -25 -18.5 -43t-50.5 -18h-262q-56 0 -98.5 14t-66.5 45.5t-24 83.5
q0 44 15 86.5t40.5 77.5t60.5 55.5t76 20.5q55 0 96.5 -33t65.5 -91.5t24 -135.5q0 -105 -44 -179.5t-128 -117t-202 -51.5zM307 414l-15 64q32 6 48.5 10t36.5 9l-8 -23q-26 8 -49.5 34.5t-23.5 60.5q0 33 15.5 54.5t40 31.5t51.5 10q14 0 27 -2t24 -6l-8 -63
q-10 2 -19.5 4t-21.5 2q-17 0 -28.5 -9t-11.5 -23q0 -19 12.5 -32.5t29.5 -21.5t28 -9l-50 -5q27 7 51 14.5t44 15.5l19 -61q-25 -9 -58 -19.5t-67.5 -19.5t-66.5 -16z" />
    <glyph glyph-name="uni0677.fina" unicode="&#x677;" horiz-adv-x="527" 
d="M79 -230l-24 118q66 9 118 22t88.5 37t55 64.5t18.5 103.5q0 62 -20.5 101t-54.5 39q-21 0 -36.5 -15t-23.5 -37.5t-8 -43.5q0 -13 6 -23.5t22.5 -17t48 -8.5t83.5 3h184q31 0 45 -16.5t14 -40.5q0 -25 -18.5 -43t-50.5 -18h-262q-56 0 -98.5 14t-66.5 45.5t-24 83.5
q0 44 15 86.5t40.5 77.5t60.5 55.5t76 20.5q55 0 96.5 -33t65.5 -91.5t24 -135.5q0 -105 -44 -179.5t-128 -117t-202 -51.5zM334 414l-15 64q32 6 48.5 10t36.5 9l-8 -23q-26 8 -49.5 34.5t-23.5 60.5q0 33 15.5 54.5t40 31.5t51.5 10q14 0 27 -2t24 -6l-8 -63
q-10 2 -19.5 4t-21.5 2q-17 0 -28.5 -9t-11.5 -23q0 -19 12.5 -32.5t29.5 -21.5t28 -9l-50 -5q27 7 51 14.5t44 15.5l19 -61q-25 -9 -58 -19.5t-67.5 -19.5t-66.5 -16zM23 406l-10 57q59 2 103.5 18t69.5 39t25 46q0 16 -8 27.5t-24 11.5q-14 0 -24 -10.5t-10 -25.5
q0 -19 15.5 -34t37.5 -24l-38 -36q-31 14 -53 37t-22 59q0 39 27 65.5t69 26.5q44 0 66.5 -29t22.5 -66q0 -46 -32.5 -81.5t-88 -56t-126.5 -24.5z" />
    <glyph glyph-name="uni0678.init" unicode="&#x678;" horiz-adv-x="350" 
d="M0 -5l10 118q46 0 73 6t38.5 23.5t11.5 50.5q0 27 -7.5 64t-20 78t-25.5 77l116 35q13 -33 24.5 -76.5t20 -88t8.5 -83.5q0 -49 -12 -84t-33.5 -58.5t-52.5 -37t-69 -19t-82 -5.5zM169 578l-14 61q32 6 48.5 10t36.5 9l-10 -24q-26 8 -49.5 34.5t-23.5 60.5
q0 33 15.5 54.5t40 31.5t51.5 10q14 0 27 -2t24 -6l-8 -57q-10 2 -19.5 4t-21.5 2q-22 0 -34 -9.5t-12 -24.5q0 -21 13 -35.5t30 -22.5t28 -9l-43 -4q27 7 51 14.5t44 15.5l18 -58q-24 -9 -57.5 -19.5t-68 -19.5t-66.5 -16z" />
    <glyph glyph-name="uni0678.medi" unicode="&#x678;" horiz-adv-x="369" 
d="M0 -5l10 118q40 0 63 7.5t36 29t22.5 63t20.5 109.5l111 -19q-3 -16 -7 -37t-7 -42t-3 -38q0 -22 10 -38.5t38.5 -25.5t84.5 -9q31 0 44.5 -16.5t13.5 -40.5q0 -25 -18 -43t-50 -18q-68 0 -108.5 12.5t-60 40.5t-25.5 75l41 -1q-17 -42 -39 -67.5t-49 -38t-59 -17
t-69 -4.5zM165 409l-14 61q32 6 48.5 10t36.5 9l-10 -24q-26 8 -49.5 34.5t-23.5 60.5q0 33 15.5 54.5t40 31.5t51.5 10q14 0 27 -2t24 -6l-8 -57q-10 2 -19.5 4t-21.5 2q-22 0 -34 -9.5t-12 -24.5q0 -21 13 -35.5t30 -22.5t28 -9l-43 -4q27 7 51 14.5t44 15.5l18 -58
q-24 -9 -57.5 -19.5t-68 -19.5t-66.5 -16z" />
    <glyph glyph-name="uni0678.fina" unicode="&#x678;" horiz-adv-x="776" 
d="M28 17q0 23 4 53t14.5 66.5t29.5 79.5l104 -37q-11 -30 -19 -55t-11.5 -47t-3.5 -42q0 -37 16 -64.5t45.5 -46t71 -28.5t92.5 -10q56 0 102 7t79.5 20.5t52 32t18.5 40.5q0 11 -8 20t-24.5 18.5t-41.5 19t-59 21.5l27 119q47 -19 86 -32.5t72 -22t60.5 -12.5t50.5 -4
q31 0 45 -16.5t14 -40.5q0 -25 -18.5 -43t-50.5 -18h-14h-14h-15q2 -10 2.5 -16.5t0.5 -14.5q0 -34 -23.5 -68.5t-71.5 -63.5t-119 -46t-167 -17q-97 0 -171 26.5t-115 81.5t-41 140zM536 244l-14 61q32 6 48.5 10t36.5 9l-10 -24q-26 8 -49.5 34.5t-23.5 60.5
q0 33 15.5 54.5t40 31.5t51.5 10q14 0 27 -2t24 -6l-8 -57q-10 2 -19.5 4t-21.5 2q-22 0 -34 -9.5t-12 -24.5q0 -21 13 -35.5t30 -22.5t28 -9l-43 -4q27 7 51 14.5t44 15.5l18 -58q-24 -9 -57.5 -19.5t-68 -19.5t-66.5 -16z" />
    <glyph glyph-name="uni067C.init" unicode="&#x67c;" horiz-adv-x="336" 
d="M0 -5l10 118q60 0 92 5.5t45.5 23t13.5 51.5q0 27 -8 64t-20 78t-26 77l117 35q13 -33 24.5 -76.5t19.5 -88t8 -83.5q0 -61 -18.5 -101t-54 -62.5t-87 -31.5t-116.5 -9zM141 -127q-40 0 -68 28.5t-28 67.5q0 40 28 68t68 28q39 0 67.5 -28t28.5 -68q0 -39 -28 -67.5
t-68 -28.5zM140 -66q17 0 28 10t11 25q0 17 -11 27t-27 10q-17 0 -28 -10.5t-11 -26.5q0 -15 11.5 -25t26.5 -10zM251 537q-26 0 -44 18t-18 44q0 25 18 43.5t44 18.5q25 0 43 -18.5t18 -43.5q0 -26 -18 -44t-43 -18zM92 538q-26 0 -44.5 18t-18.5 43t18 44t45 19
q25 0 42.5 -19t17.5 -44t-18 -43t-42 -18z" />
    <glyph glyph-name="uni067C.medi" unicode="&#x67c;" horiz-adv-x="369" 
d="M119 -123q-40 0 -68 28t-28 68q0 39 28 67.5t68 28.5t68 -28.5t28 -67.5q0 -40 -28 -68t-68 -28zM118 -63q17 0 28 10t11 26t-11 26.5t-27 10.5t-27 -10.5t-11 -26.5t11 -26t26 -10zM0 -5l10 118q40 0 63 7.5t36 29t22.5 63t20.5 109.5l111 -19q-3 -16 -7 -37t-7 -42
t-3 -38q0 -22 10 -38.5t38.5 -25.5t84.5 -9q31 0 44.5 -16.5t13.5 -40.5q0 -25 -18 -43t-50 -18q-68 0 -108.5 12.5t-60 40.5t-25.5 75l41 -1q-17 -42 -39 -67.5t-49 -38t-59 -17t-69 -4.5zM284 417q-26 0 -44 18.5t-18 43.5t18 44t44 19q25 0 43 -19t18 -44t-18 -43.5
t-43 -18.5zM125 418q-26 0 -44 18t-18 43q0 26 18 44.5t44 18.5q25 0 43 -18.5t18 -44.5q0 -25 -18 -43t-43 -18z" />
    <glyph glyph-name="uni067C.fina" unicode="&#x67c;" horiz-adv-x="1124" 
d="M536 -150q-41 0 -68.5 28.5t-27.5 67.5q0 40 27.5 68t68.5 28q39 0 67 -28t28 -68q0 -39 -28 -67.5t-67 -28.5zM535 -89q16 0 27 10t11 25q0 16 -11 26.5t-27 10.5t-27 -10.5t-11 -26.5q0 -15 11 -25t27 -10zM412 -21l26 118q68 0 135 7.5t130 27.5t119 58.5t100 101.5
l94 -46q-7 -21 -11 -37t-4 -27q0 -20 11.5 -35.5t40.5 -24.5t81 -9q31 0 44.5 -16.5t13.5 -40.5q0 -25 -18 -43t-50 -18q-68 0 -117.5 17t-76 49.5t-26.5 78.5l31 -5q-37 -40 -91.5 -69.5t-122 -48.5t-145.5 -28.5t-164 -9.5zM411 -21q-101 0 -172.5 14.5t-117.5 42.5
t-68 68t-22 92q0 29 5 59.5t13 60t15 54.5l106 -26q-4 -17 -9 -37.5t-8.5 -40.5t-3.5 -37q0 -42 26.5 -72t89.5 -45t172 -15l20 -86zM590 423q-26 0 -44 18t-18 43q0 26 18 44.5t44 18.5q25 0 43 -18.5t18 -44.5q0 -25 -18 -43t-43 -18zM431 423q-26 0 -44 18.5t-18 43.5
t18 44t44 19q25 0 43 -19t18 -44t-18 -43.5t-43 -18.5z" />
    <glyph glyph-name="uni067D.init" unicode="&#x67d;" horiz-adv-x="336" 
d="M0 -5l10 118q60 0 92 5.5t45.5 23t13.5 51.5q0 27 -8 64t-20 78t-26 77l117 35q13 -33 24.5 -76.5t19.5 -88t8 -83.5q0 -61 -18.5 -101t-54 -62.5t-87 -31.5t-116.5 -9zM171 538q-25 0 -42 16.5t-17 40.5q0 23 17 40.5t42 17.5q23 0 40 -17.5t17 -40.5q0 -24 -17 -40.5
t-40 -16.5zM98 661q-25 0 -42 17t-17 40q0 24 17 41.5t42 17.5q23 0 40 -17.5t17 -41.5q0 -23 -17 -40t-40 -17zM246 661q-24 0 -41 17t-17 40q0 24 17 41.5t41 17.5q23 0 40 -17.5t17 -41.5q0 -23 -17 -40t-40 -17z" />
    <glyph glyph-name="uni067D.medi" unicode="&#x67d;" horiz-adv-x="395" 
d="M0 -5l10 118q41 0 68 7.5t43.5 29t28 63t22.5 109.5l111 -19q-3 -16 -7 -37t-7 -42t-3 -38t5 -30.5t19.5 -22.5t42.5 -14.5t72 -5.5q32 0 45.5 -16.5t13.5 -40.5q0 -25 -18 -43t-51 -18q-51 0 -87 7t-59.5 22t-36.5 39.5t-17 59.5l41 -1q-17 -42 -41.5 -67.5t-54.5 -38
t-65.5 -17t-74.5 -4.5zM220 418q-24 0 -41 16.5t-17 40.5t17 41.5t41 17.5t40.5 -17.5t16.5 -41.5t-16.5 -40.5t-40.5 -16.5zM147 541q-24 0 -41 17t-17 41q0 23 17 40.5t41 17.5t40.5 -17.5t16.5 -40.5q0 -24 -16.5 -41t-40.5 -17zM296 541q-24 0 -41 17t-17 41
q0 23 17 40.5t41 17.5q23 0 40 -17.5t17 -40.5q0 -24 -17 -41t-40 -17z" />
    <glyph glyph-name="uni067D.fina" unicode="&#x67d;" horiz-adv-x="1124" 
d="M412 -21l26 118q68 0 135 7.5t130 27.5t119 58.5t100 101.5l94 -46q-7 -21 -11 -37t-4 -27q0 -20 11.5 -35.5t40.5 -24.5t81 -9q31 0 44.5 -16.5t13.5 -40.5q0 -25 -18 -43t-50 -18q-68 0 -117.5 17t-76 49.5t-26.5 78.5l31 -5q-37 -40 -91.5 -69.5t-122 -48.5
t-145.5 -28.5t-164 -9.5zM411 -21q-101 0 -172.5 14.5t-117.5 42.5t-68 68t-22 92q0 29 5 59.5t13 60t15 54.5l106 -26q-4 -17 -9 -37.5t-8.5 -40.5t-3.5 -37q0 -42 26.5 -72t89.5 -45t172 -15l20 -86zM529 429q-24 0 -41 16.5t-17 40.5t17 41t41 17t40.5 -17.5t16.5 -40.5
q0 -24 -16.5 -40.5t-40.5 -16.5zM456 552q-24 0 -41 17t-17 40q0 24 17 41.5t41 17.5t40.5 -17.5t16.5 -41.5q0 -23 -16.5 -40t-40.5 -17zM605 552q-25 0 -42 17t-17 40q0 24 17 41.5t42 17.5q23 0 40 -17.5t17 -41.5q0 -23 -17 -40t-40 -17z" />
    <glyph glyph-name="uni0681.init" unicode="&#x681;" horiz-adv-x="614" 
d="M0 -5l10 118q53 0 105 7t101 20t94 33t85 47q-28 20 -62.5 34.5t-74.5 22t-85 7.5q-16 0 -32 -1t-32.5 -3.5t-34.5 -6.5l-18 114q28 8 58.5 12t55.5 4q53 0 97 -12t81 -30t69.5 -36t62.5 -30.5t60 -12.5h31l12 -110q-43 -1 -80 -14.5t-72.5 -34t-75.5 -42.5t-90 -41.5
t-115 -32t-150 -12.5zM68 478l-15 64q32 6 48.5 10t36.5 9l-8 -23q-26 8 -49.5 34.5t-23.5 60.5q0 33 15.5 54.5t40 31.5t51.5 10q14 0 27 -2t24 -6l-8 -63q-10 2 -19.5 4t-21.5 2q-17 0 -28.5 -9t-11.5 -23q0 -19 12.5 -32.5t29.5 -21.5t28 -9l-50 -5q27 7 51 14.5t44 15.5
l19 -61q-25 -9 -58 -19.5t-67.5 -19.5t-66.5 -16z" />
    <glyph glyph-name="uni0681.medi" unicode="&#x681;" horiz-adv-x="648" 
d="M648 -5q-45 0 -83 6.5t-69 23t-54 46.5t-37 77l71 53q16 -35 39.5 -54t58 -26.5t84.5 -7.5q31 0 44.5 -16.5t13.5 -40.5q0 -25 -18 -43t-50 -18zM0 -5l10 118q53 0 105 7t101 20t94 33t85 47q-28 20 -62.5 34.5t-74.5 22t-85 7.5q-16 0 -32 -1t-32.5 -3.5t-34.5 -6.5
l-18 114q28 8 58.5 12t55.5 4q53 0 97 -12t81 -30t69.5 -36t62.5 -30.5t60 -12.5h31l12 -110q-43 -1 -80 -14.5t-72.5 -34t-75.5 -42.5t-90 -41.5t-115 -32t-150 -12.5zM64 478l-15 64q32 6 48.5 10t36.5 9l-8 -23q-26 8 -49.5 34.5t-23.5 60.5q0 33 15.5 54.5t40 31.5
t51.5 10q14 0 27 -2t24 -6l-8 -63q-10 2 -19.5 4t-21.5 2q-17 0 -28.5 -9t-11.5 -23q0 -19 12.5 -32.5t29.5 -21.5t28 -9l-50 -5q27 7 51 14.5t44 15.5l19 -61q-25 -9 -58 -19.5t-67.5 -19.5t-66.5 -16z" />
    <glyph glyph-name="uni0681.fina" unicode="&#x681;" horiz-adv-x="705" 
d="M705 -5q-51 0 -98 7.5t-84.5 31.5t-61 72t-28.5 130l85 39q6 -56 22.5 -88.5t42 -48t59 -20.5t73.5 -5q32 0 45.5 -16.5t13.5 -40.5q0 -25 -18 -43t-51 -18zM371 -394q-74 0 -139 18t-114 54t-76.5 90.5t-27.5 125.5q0 64 19.5 120t56 103t87 84.5t113 65.5t132.5 45
l-3 -16q-25 7 -53 16.5t-60 17.5t-67.5 13.5t-75.5 5.5q-34 0 -62 -5t-51 -10l-18 112q28 10 61 16t68 6q51 0 93 -9t79.5 -22t74.5 -27t76.5 -23t85.5 -10h29l9 -124q-42 0 -93.5 -10.5t-104.5 -30t-103 -48.5t-89.5 -67.5t-62.5 -85t-23 -101.5q0 -50 19.5 -85t54 -57.5
t80 -32.5t96.5 -10q53 0 107.5 11t108.5 32l37 -101q-68 -32 -136 -46.5t-128 -14.5zM223 581l-15 64q32 6 48.5 10t36.5 9l-8 -23q-26 8 -49.5 34.5t-23.5 60.5q0 33 15.5 54.5t40 31.5t51.5 10q14 0 27 -2t24 -6l-8 -63q-10 2 -19.5 4t-21.5 2q-17 0 -28.5 -9t-11.5 -23
q0 -19 12.5 -32.5t29.5 -21.5t28 -9l-50 -5q27 7 51 14.5t44 15.5l19 -61q-25 -9 -58 -19.5t-67.5 -19.5t-66.5 -16z" />
    <glyph glyph-name="uni0682.init" unicode="&#x682;" horiz-adv-x="614" 
d="M0 -5l10 118q53 0 105 7t101 20t94 33t85 47q-28 20 -62.5 34.5t-74.5 22t-85 7.5q-16 0 -32 -1t-32.5 -3.5t-34.5 -6.5l-18 114q28 8 58.5 12t55.5 4q53 0 97 -12t81 -30t69.5 -36t62.5 -30.5t60 -12.5h31l12 -110q-43 -1 -80 -14.5t-72.5 -34t-75.5 -42.5t-90 -41.5
t-115 -32t-150 -12.5zM171 500q-24 0 -41 17t-17 40q0 24 17 41.5t41 17.5t41 -17.5t17 -41.5q0 -23 -17 -40t-41 -17zM171 652q-25 0 -42 17t-17 40q0 24 17 41.5t42 17.5q23 0 40 -17.5t17 -41.5q0 -23 -17 -40t-40 -17z" />
    <glyph glyph-name="uni0682.medi" unicode="&#x682;" horiz-adv-x="648" 
d="M648 -5q-45 0 -83 6.5t-69 23t-54 46.5t-37 77l71 53q16 -35 39.5 -54t58 -26.5t84.5 -7.5q31 0 44.5 -16.5t13.5 -40.5q0 -25 -18 -43t-50 -18zM0 -5l10 118q53 0 105 7t101 20t94 33t85 47q-28 20 -62.5 34.5t-74.5 22t-85 7.5q-16 0 -32 -1t-32.5 -3.5t-34.5 -6.5
l-18 114q28 8 58.5 12t55.5 4q53 0 97 -12t81 -30t69.5 -36t62.5 -30.5t60 -12.5h31l12 -110q-43 -1 -80 -14.5t-72.5 -34t-75.5 -42.5t-90 -41.5t-115 -32t-150 -12.5zM167 506q-24 0 -41 17t-17 40q0 24 17 41.5t41 17.5t41 -17.5t17 -41.5q0 -23 -17 -40t-41 -17z
M167 658q-25 0 -42 17t-17 40q0 24 17 41.5t42 17.5q23 0 40 -17.5t17 -41.5q0 -23 -17 -40t-40 -17z" />
    <glyph glyph-name="uni0682.fina" unicode="&#x682;" horiz-adv-x="705" 
d="M705 -5q-51 0 -98 7.5t-84.5 31.5t-61 72t-28.5 130l85 39q6 -56 22.5 -88.5t42 -48t59 -20.5t73.5 -5q32 0 45.5 -16.5t13.5 -40.5q0 -25 -18 -43t-51 -18zM371 -394q-74 0 -139 18t-114 54t-76.5 90.5t-27.5 125.5q0 64 19.5 120t56 103t87 84.5t113 65.5t132.5 45
l-3 -16q-25 7 -53 16.5t-60 17.5t-67.5 13.5t-75.5 5.5q-34 0 -62 -5t-51 -10l-18 112q28 10 61 16t68 6q51 0 93 -9t79.5 -22t74.5 -27t76.5 -23t85.5 -10h29l9 -124q-42 0 -93.5 -10.5t-104.5 -30t-103 -48.5t-89.5 -67.5t-62.5 -85t-23 -101.5q0 -50 19.5 -85t54 -57.5
t80 -32.5t96.5 -10q53 0 107.5 11t108.5 32l37 -101q-68 -32 -136 -46.5t-128 -14.5zM324 565q-24 0 -41 17t-17 40q0 24 17 41.5t41 17.5t41 -17.5t17 -41.5q0 -23 -17 -40t-41 -17zM324 717q-25 0 -42 17t-17 40q0 24 17 41.5t42 17.5q23 0 40 -17.5t17 -41.5
q0 -23 -17 -40t-40 -17z" />
    <glyph glyph-name="uni0685.init" unicode="&#x685;" horiz-adv-x="614" 
d="M0 -5l10 118q53 0 105 7t101 20t94 33t85 47q-28 20 -62.5 34.5t-74.5 22t-85 7.5q-16 0 -32 -1t-32.5 -3.5t-34.5 -6.5l-18 114q28 8 58.5 12t55.5 4q53 0 97 -12t81 -30t69.5 -36t62.5 -30.5t60 -12.5h31l12 -110q-43 -1 -80 -14.5t-72.5 -34t-75.5 -42.5t-90 -41.5
t-115 -32t-150 -12.5zM182 624q-23 0 -40 17.5t-17 40.5q0 24 17 41t40 17q24 0 40.5 -17t16.5 -41q0 -23 -16.5 -40.5t-40.5 -17.5zM107 500q-24 0 -41 17.5t-17 41.5q0 23 17 40t41 17q23 0 40 -17t17 -40q0 -24 -17 -41.5t-40 -17.5zM254 500q-23 0 -40 17.5t-17 41.5
q0 23 17 40t40 17q24 0 41 -17t17 -40q0 -24 -17 -41.5t-41 -17.5z" />
    <glyph glyph-name="uni0685.medi" unicode="&#x685;" horiz-adv-x="648" 
d="M648 -5q-45 0 -83 6.5t-69 23t-54 46.5t-37 77l71 53q16 -35 39.5 -54t58 -26.5t84.5 -7.5q31 0 44.5 -16.5t13.5 -40.5q0 -25 -18 -43t-50 -18zM0 -5l10 118q53 0 105 7t101 20t94 33t85 47q-28 20 -62.5 34.5t-74.5 22t-85 7.5q-16 0 -32 -1t-32.5 -3.5t-34.5 -6.5
l-18 114q28 8 58.5 12t55.5 4q53 0 97 -12t81 -30t69.5 -36t62.5 -30.5t60 -12.5h31l12 -110q-43 -1 -80 -14.5t-72.5 -34t-75.5 -42.5t-90 -41.5t-115 -32t-150 -12.5zM178 624q-23 0 -40 17.5t-17 40.5q0 24 17 41t40 17q24 0 40.5 -17t16.5 -41q0 -23 -16.5 -40.5
t-40.5 -17.5zM103 500q-24 0 -41 17.5t-17 41.5q0 23 17 40t41 17q23 0 40 -17t17 -40q0 -24 -17 -41.5t-40 -17.5zM250 500q-23 0 -40 17.5t-17 41.5q0 23 17 40t40 17q24 0 41 -17t17 -40q0 -24 -17 -41.5t-41 -17.5z" />
    <glyph glyph-name="uni0685.fina" unicode="&#x685;" horiz-adv-x="705" 
d="M705 -5q-51 0 -98 7.5t-84.5 31.5t-61 72t-28.5 130l85 39q6 -56 22.5 -88.5t42 -48t59 -20.5t73.5 -5q32 0 45.5 -16.5t13.5 -40.5q0 -25 -18 -43t-51 -18zM371 -394q-74 0 -139 18t-114 54t-76.5 90.5t-27.5 125.5q0 64 19.5 120t56 103t87 84.5t113 65.5t132.5 45
l-3 -16q-25 7 -53 16.5t-60 17.5t-67.5 13.5t-75.5 5.5q-34 0 -62 -5t-51 -10l-18 112q28 10 61 16t68 6q51 0 93 -9t79.5 -22t74.5 -27t76.5 -23t85.5 -10h29l9 -124q-42 0 -93.5 -10.5t-104.5 -30t-103 -48.5t-89.5 -67.5t-62.5 -85t-23 -101.5q0 -50 19.5 -85t54 -57.5
t80 -32.5t96.5 -10q53 0 107.5 11t108.5 32l37 -101q-68 -32 -136 -46.5t-128 -14.5zM324 689q-23 0 -40 17.5t-17 40.5q0 24 17 41t40 17q24 0 40.5 -17t16.5 -41q0 -23 -16.5 -40.5t-40.5 -17.5zM249 565q-24 0 -41 17.5t-17 41.5q0 23 17 40t41 17q23 0 40 -17t17 -40
q0 -24 -17 -41.5t-40 -17.5zM396 565q-23 0 -40 17.5t-17 41.5q0 23 17 40t40 17q24 0 41 -17t17 -40q0 -24 -17 -41.5t-41 -17.5z" />
    <glyph glyph-name="uni0689.fina" unicode="&#x689;" horiz-adv-x="556" 
d="M221 -139q-40 0 -68 28.5t-28 67.5q0 40 28 68t68 28q39 0 67.5 -28t28.5 -68q0 -39 -28.5 -67.5t-67.5 -28.5zM220 -78q17 0 28 10t11 25q0 16 -11 26.5t-28 10.5q-16 0 -27 -10.5t-11 -26.5q0 -15 11 -25t27 -10zM217 113q47 0 73 9t36.5 24.5t10.5 34.5q0 22 -12 52.5
t-31.5 65.5t-41.5 69.5t-43 64.5l100 66q41 -58 71.5 -113t50 -102.5t29.5 -83.5t27 -55t38 -25.5t40 -6.5q32 0 46 -16.5t14 -40.5q0 -25 -18 -43t-51 -18q-40 0 -72.5 12t-55.5 39t-36 70l53 4q-5 -32 -29.5 -61t-70 -47t-116.5 -18q-32 0 -67.5 5.5t-68 16t-58.5 26.5
l46 105q30 -15 65 -24.5t71 -9.5z" />
    <glyph glyph-name="uni068A.fina" unicode="&#x68a;" horiz-adv-x="556" 
d="M217 113q47 0 73 9t36.5 24.5t10.5 34.5q0 22 -12 52.5t-31.5 65.5t-41.5 69.5t-43 64.5l100 66q41 -58 71.5 -113t50 -102.5t29.5 -83.5t27 -55t38 -25.5t40 -6.5q32 0 46 -16.5t14 -40.5q0 -25 -18 -43t-51 -18q-40 0 -72.5 12t-55.5 39t-36 70l53 4q-5 -32 -29.5 -61
t-70 -47t-116.5 -18q-32 0 -67.5 5.5t-68 16t-58.5 26.5l46 105q30 -15 65 -24.5t71 -9.5zM235 -218q-26 0 -44 18t-18 43q0 26 18 45t44 19t44.5 -19t18.5 -45q0 -25 -18.5 -43t-44.5 -18z" />
    <glyph glyph-name="uni068B.fina" unicode="&#x68b;" horiz-adv-x="556" 
d="M217 113q47 0 73 9t36.5 24.5t10.5 34.5q0 22 -12 52.5t-31.5 65.5t-41.5 69.5t-43 64.5l100 66q41 -58 71.5 -113t50 -102.5t29.5 -83.5t27 -55t38 -25.5t40 -6.5q32 0 46 -16.5t14 -40.5q0 -25 -18 -43t-51 -18q-40 0 -72.5 12t-55.5 39t-36 70l53 4q-5 -32 -29.5 -61
t-70 -47t-116.5 -18q-32 0 -67.5 5.5t-68 16t-58.5 26.5l46 105q30 -15 65 -24.5t71 -9.5zM220 614q-18 0 -43 1.5t-46.5 3.5t-32.5 3l3 61q20 -2 52 -5t60 -3q36 0 57 5t29.5 13.5t8.5 19.5q0 12 -7.5 19t-21.5 7q-18 0 -36 -12.5t-32.5 -30t-21.5 -31.5l-61 10
q17 36 43 65t56.5 46t61.5 17q38 0 60.5 -24.5t22.5 -60.5q0 -21 -11.5 -45.5t-44.5 -41.5t-96 -17zM149 683l-6 193h61l8 -170zM235 -218q-26 0 -44 18t-18 43q0 26 18 45t44 19t44.5 -19t18.5 -45q0 -25 -18.5 -43t-44.5 -18z" />
    <glyph glyph-name="uni068F.fina" unicode="&#x68f;" horiz-adv-x="556" 
d="M217 113q47 0 73 9t36.5 24.5t10.5 34.5q0 22 -12 52.5t-31.5 65.5t-41.5 69.5t-43 64.5l100 66q41 -58 71.5 -113t50 -102.5t29.5 -83.5t27 -55t38 -25.5t40 -6.5q32 0 46 -16.5t14 -40.5q0 -25 -18 -43t-51 -18q-40 0 -72.5 12t-55.5 39t-36 70l53 4q-5 -32 -29.5 -61
t-70 -47t-116.5 -18q-32 0 -67.5 5.5t-68 16t-58.5 26.5l46 105q30 -15 65 -24.5t71 -9.5zM223 580q-24 0 -41 16.5t-17 40.5t17 41t41 17t40.5 -17.5t16.5 -40.5q0 -24 -16.5 -40.5t-40.5 -16.5zM150 703q-24 0 -41 17t-17 40q0 24 17 41.5t41 17.5t40.5 -17.5t16.5 -41.5
q0 -23 -16.5 -40t-40.5 -17zM299 703q-25 0 -42 17t-17 40q0 24 17 41.5t42 17.5q23 0 40 -17.5t17 -41.5q0 -23 -17 -40t-40 -17z" />
    <glyph glyph-name="uni0690.fina" unicode="&#x690;" horiz-adv-x="556" 
d="M217 113q47 0 73 9t36.5 24.5t10.5 34.5q0 22 -12 52.5t-31.5 65.5t-41.5 69.5t-43 64.5l100 66q41 -58 71.5 -113t50 -102.5t29.5 -83.5t27 -55t38 -25.5t40 -6.5q32 0 46 -16.5t14 -40.5q0 -25 -18 -43t-51 -18q-40 0 -72.5 12t-55.5 39t-36 70l53 4q-5 -32 -29.5 -61
t-70 -47t-116.5 -18q-32 0 -67.5 5.5t-68 16t-58.5 26.5l46 105q30 -15 65 -24.5t71 -9.5zM159 713q-23 0 -38.5 15.5t-15.5 38.5q0 22 15.5 38.5t38.5 16.5q22 0 38 -16.5t16 -38.5q0 -23 -16 -38.5t-38 -15.5zM159 579q-23 0 -38.5 16t-15.5 38q0 23 15.5 39.5t38.5 16.5
q22 0 38 -17t16 -39t-16 -38t-38 -16zM296 713q-23 0 -38.5 15.5t-15.5 38.5q0 22 15.5 38.5t38.5 16.5q22 0 38 -16.5t16 -38.5q0 -23 -16 -38.5t-38 -15.5zM296 579q-23 0 -38.5 16t-15.5 38q0 23 15.5 39.5t38.5 16.5q22 0 38 -17t16 -39t-16 -38t-38 -16z" />
    <glyph glyph-name="uni0692.fina" unicode="&#x692;" horiz-adv-x="430" 
d="M11 -231l-42 106q60 20 106 46.5t77.5 58t47 66.5t15.5 73q0 44 -19.5 94.5t-46.5 99.5l109 53q18 -32 32 -67t24 -63.5t15 -44.5q14 -46 37.5 -62t72.5 -16q32 0 45.5 -16.5t13.5 -40.5q0 -25 -18 -43t-51 -18q-42 0 -71.5 13.5t-46.5 37.5t-22 53l35 -19
q-4 -58 -32.5 -108.5t-74 -90.5t-99.5 -68.5t-107 -43.5zM163 447q-7 15 -18.5 38t-24.5 48t-25.5 48t-22.5 39l53 29q7 -10 18.5 -29.5t23.5 -42.5t23.5 -45t18.5 -36l21 -43zM230 453l-52 20q6 17 17.5 43.5t24 55t22.5 50.5t15 30l53 -22q-5 -10 -15.5 -32.5t-23 -50
t-24 -53t-17.5 -41.5z" />
    <glyph glyph-name="uni0693.fina" unicode="&#x693;" horiz-adv-x="430" 
d="M267 -220q-40 0 -68 28t-28 67q0 40 28 68t68 28t68 -28t28 -68q0 -39 -28 -67t-68 -28zM267 -160q16 0 27 10t11 25q0 17 -11 27t-27 10t-27 -10.5t-11 -26.5q0 -15 11 -25t27 -10zM11 -231l-42 106q60 20 106 46.5t77.5 58t47 66.5t15.5 73q0 44 -19.5 94.5t-46.5 99.5
l109 53q18 -32 32 -67t24 -63.5t15 -44.5q14 -46 37.5 -62t72.5 -16q32 0 45.5 -16.5t13.5 -40.5q0 -25 -18 -43t-51 -18q-42 0 -71.5 13.5t-46.5 37.5t-22 53l35 -19q-4 -58 -32.5 -108.5t-74 -90.5t-99.5 -68.5t-107 -43.5z" />
    <glyph glyph-name="uni0694.fina" unicode="&#x694;" horiz-adv-x="430" 
d="M11 -231l-42 106q60 20 106 46.5t77.5 58t47 66.5t15.5 73q0 44 -19.5 94.5t-46.5 99.5l109 53q18 -32 32 -67t24 -63.5t15 -44.5q14 -46 37.5 -62t72.5 -16q32 0 45.5 -16.5t13.5 -40.5q0 -25 -18 -43t-51 -18q-42 0 -71.5 13.5t-46.5 37.5t-22 53l35 -19
q-4 -58 -32.5 -108.5t-74 -90.5t-99.5 -68.5t-107 -43.5zM132 -430q-26 0 -44 18t-18 43q0 26 18 45t44 19t44.5 -19t18.5 -45q0 -25 -18.5 -43t-44.5 -18z" />
    <glyph glyph-name="uni0695.fina" unicode="&#x695;" horiz-adv-x="430" 
d="M44 -20q-8 16 -21 41t-27 50t-25 42l43 23q5 -8 14 -22.5t19 -32t19 -34.5t15 -28l17 -34zM98 -15l-42 16q5 13 14 34t19 42.5t18.5 38t12.5 22.5l42 -17q-4 -9 -12.5 -26t-18.5 -38t-19 -40t-14 -32zM11 -231l-42 106q60 20 106 46.5t77.5 58t47 66.5t15.5 73
q0 44 -19.5 94.5t-46.5 99.5l109 53q18 -32 32 -67t24 -63.5t15 -44.5q14 -46 37.5 -62t72.5 -16q32 0 45.5 -16.5t13.5 -40.5q0 -25 -18 -43t-51 -18q-42 0 -71.5 13.5t-46.5 37.5t-22 53l35 -19q-4 -58 -32.5 -108.5t-74 -90.5t-99.5 -68.5t-107 -43.5z" />
    <glyph glyph-name="uni0696.fina" unicode="&#x696;" horiz-adv-x="430" 
d="M11 -231l-42 106q60 20 106 46.5t77.5 58t47 66.5t15.5 73q0 44 -19.5 94.5t-46.5 99.5l109 53q18 -32 32 -67t24 -63.5t15 -44.5q14 -46 37.5 -62t72.5 -16q32 0 45.5 -16.5t13.5 -40.5q0 -25 -18 -43t-51 -18q-42 0 -71.5 13.5t-46.5 37.5t-22 53l35 -19
q-4 -58 -32.5 -108.5t-74 -90.5t-99.5 -68.5t-107 -43.5zM82 -2q-27 0 -46 18.5t-19 45.5t19 46.5t46 19.5q26 0 45 -19.5t19 -46.5t-19 -45.5t-45 -18.5zM132 -430q-26 0 -44 18t-18 43q0 26 18 45t44 19t44.5 -19t18.5 -45q0 -25 -18.5 -43t-44.5 -18z" />
    <glyph glyph-name="uni0697.fina" unicode="&#x697;" horiz-adv-x="430" 
d="M11 -231l-42 106q60 20 106 46.5t77.5 58t47 66.5t15.5 73q0 44 -19.5 94.5t-46.5 99.5l109 53q18 -32 32 -67t24 -63.5t15 -44.5q14 -46 37.5 -62t72.5 -16q32 0 45.5 -16.5t13.5 -40.5q0 -25 -18 -43t-51 -18q-42 0 -71.5 13.5t-46.5 37.5t-22 53l35 -19
q-4 -58 -32.5 -108.5t-74 -90.5t-99.5 -68.5t-107 -43.5zM279 472q-26 0 -44 18.5t-18 43.5t18 44t44 19q25 0 43 -19t18 -44t-18 -43.5t-43 -18.5zM120 473q-26 0 -44.5 18t-18.5 43t18 44t45 19q25 0 43 -19t18 -44t-18 -43t-43 -18z" />
    <glyph glyph-name="uni0699.fina" unicode="&#x699;" horiz-adv-x="430" 
d="M11 -231l-42 106q60 20 106 46.5t77.5 58t47 66.5t15.5 73q0 44 -19.5 94.5t-46.5 99.5l109 53q18 -32 32 -67t24 -63.5t15 -44.5q14 -46 37.5 -62t72.5 -16q32 0 45.5 -16.5t13.5 -40.5q0 -25 -18 -43t-51 -18q-42 0 -71.5 13.5t-46.5 37.5t-22 53l35 -19
q-4 -58 -32.5 -108.5t-74 -90.5t-99.5 -68.5t-107 -43.5zM135 606q-23 0 -38.5 15.5t-15.5 38.5q0 22 15.5 38.5t38.5 16.5q22 0 38 -16.5t16 -38.5q0 -23 -16 -38.5t-38 -15.5zM135 472q-23 0 -38.5 16t-15.5 38q0 23 15.5 39.5t38.5 16.5q22 0 38 -17t16 -39t-16 -38
t-38 -16zM272 606q-23 0 -38.5 15.5t-15.5 38.5q0 22 15.5 38.5t38.5 16.5q22 0 38 -16.5t16 -38.5q0 -23 -16 -38.5t-38 -15.5zM272 472q-23 0 -38.5 16t-15.5 38q0 23 15.5 39.5t38.5 16.5q22 0 38 -17t16 -39t-16 -38t-38 -16z" />
    <glyph glyph-name="uni069A.init" unicode="&#x69a;" horiz-adv-x="887" 
d="M0 -5l10 118q33 0 53.5 5t34 24.5t24.5 59t25 109.5l109 -23q-3 -16 -7.5 -36.5t-7.5 -42t-3 -38.5q0 -27 18 -42.5t68 -15.5q27 0 46 5.5t32 24.5t23 61t21 114l111 -19q-4 -21 -8 -47t-7 -49.5t-3 -38.5q0 -13 7 -25t27 -19t59 -7q27 0 47.5 7t31.5 24t11 46
q0 38 -17.5 97t-39.5 122l118 37q15 -39 27 -84.5t19.5 -89t7.5 -76.5q0 -49 -14.5 -86.5t-40.5 -63t-63 -38.5t-82 -13q-54 0 -88.5 11.5t-52.5 37t-24 68.5h34q-20 -53 -44 -78t-58 -32t-86 -7q-30 0 -62.5 7.5t-57 34t-34.5 80.5l45 4q-19 -56 -49 -82.5t-70 -35
t-90 -8.5zM439 -218q-26 0 -44 18t-18 43q0 26 18 45t44 19t44.5 -19t18.5 -45q0 -25 -18.5 -43t-44.5 -18zM483 464q-27 0 -46 18.5t-19 45.5t19 46.5t46 19.5q26 0 45 -19.5t19 -46.5t-19 -45.5t-45 -18.5z" />
    <glyph glyph-name="uni069A.medi" unicode="&#x69a;" horiz-adv-x="955" 
d="M0 -5l10 118q33 0 53.5 5t34 24.5t24.5 59t25 109.5l109 -23q-4 -23 -11 -57t-7 -60q0 -18 7.5 -31t26.5 -20t52 -7q27 0 46 5.5t32 24.5t23 61t21 114l111 -19q-4 -21 -8 -47t-7 -49.5t-3 -38.5q0 -13 7 -25t27 -19t58 -7q47 0 69 20t22 61q0 23 -1 49.5t-3.5 59
t-8.5 74.5l108 8q6 -84 14.5 -137t24 -82.5t41 -41t68.5 -11.5q31 0 45 -16.5t14 -40.5q0 -25 -18 -43t-51 -18q-30 0 -58 6.5t-52 21t-42 39t-27 59.5l18 -6q-13 -48 -37 -74t-58 -36t-78 -10t-76.5 11.5t-51 37t-21.5 68.5h34q-19 -51 -43.5 -76t-59 -33t-88.5 -8
q-31 0 -62 7.5t-55.5 33.5t-33.5 81l45 4q-19 -56 -49 -82.5t-70 -35t-90 -8.5zM429 -218q-26 0 -44 18t-18 43q0 26 18 45t44 19t44.5 -19t18.5 -45q0 -25 -18.5 -43t-44.5 -18zM477 464q-27 0 -46 18.5t-19 45.5t19 46.5t46 19.5q26 0 45 -19.5t19 -46.5t-19 -45.5
t-45 -18.5z" />
    <glyph glyph-name="uni069A.fina" unicode="&#x69a;" horiz-adv-x="1375" 
d="M332 -232q-67 0 -122 16t-96 48t-63.5 78t-22.5 107q0 23 4 53t14.5 66.5t29.5 79.5l104 -37q-11 -30 -19 -55t-11.5 -47t-3.5 -42q0 -44 21.5 -77.5t64 -52.5t103.5 -19q63 0 105.5 14.5t67 38.5t35 55.5t10.5 65.5t-6.5 70.5t-18 76.5t-25.5 83l118 31
q15 -58 22.5 -87.5t12.5 -45.5q10 -33 24.5 -49t33.5 -21t43 -5q19 0 35 5.5t29.5 24.5t24 60.5t19.5 114.5l111 -19q-3 -21 -7 -47t-7.5 -49.5t-3.5 -38.5q0 -14 7.5 -25.5t27 -18.5t57.5 -7q47 0 69 20t22 61q0 23 -1 49.5t-3.5 59t-7.5 74.5l107 8q8 -88 17 -142
t24.5 -82t41.5 -38t65 -10q32 0 46 -16.5t14 -40.5q0 -25 -18.5 -43t-51.5 -18q-43 0 -79.5 13t-62 41t-37.5 72l30 -6q-12 -50 -40 -76t-63.5 -35t-73.5 -9q-47 0 -81.5 13.5t-54 39.5t-20.5 64h34q-16 -48 -39.5 -73t-54 -34.5t-65.5 -9.5q-28 0 -51.5 6.5t-41 18.5
t-29 31t-16.5 43l39 -44q-3 -61 -25 -112.5t-63 -89.5t-103 -59t-145 -21zM902 -213q-26 0 -44 18t-18 43q0 26 18 45t44 19t44.5 -19t18.5 -45q0 -25 -18.5 -43t-44.5 -18zM859 464q-27 0 -46 18.5t-19 45.5t19 46.5t46 19.5q26 0 45 -19.5t19 -46.5t-19 -45.5t-45 -18.5z
" />
    <glyph glyph-name="uni069B.init" unicode="&#x69b;" horiz-adv-x="887" 
d="M0 -5l10 118q33 0 53.5 5t34 24.5t24.5 59t25 109.5l109 -23q-3 -16 -7.5 -36.5t-7.5 -42t-3 -38.5q0 -27 18 -42.5t68 -15.5q27 0 46 5.5t32 24.5t23 61t21 114l111 -19q-4 -21 -8 -47t-7 -49.5t-3 -38.5q0 -13 7 -25t27 -19t59 -7q27 0 47.5 7t31.5 24t11 46
q0 38 -17.5 97t-39.5 122l118 37q15 -39 27 -84.5t19.5 -89t7.5 -76.5q0 -49 -14.5 -86.5t-40.5 -63t-63 -38.5t-82 -13q-54 0 -88.5 11.5t-52.5 37t-24 68.5h34q-20 -53 -44 -78t-58 -32t-86 -7q-30 0 -62.5 7.5t-57 34t-34.5 80.5l45 4q-19 -56 -49 -82.5t-70 -35
t-90 -8.5zM442 -336q-24 0 -41 16.5t-17 40.5q0 23 17 40.5t41 17.5q23 0 40 -17.5t17 -40.5q0 -24 -17 -40.5t-40 -16.5zM369 -213q-24 0 -41 17t-17 40q0 24 17 41.5t41 17.5q23 0 40 -17.5t17 -41.5q0 -23 -17 -40t-40 -17zM517 -213q-24 0 -41 17t-17 40q0 24 17 41.5
t41 17.5t40.5 -17.5t16.5 -41.5q0 -23 -16.5 -40t-40.5 -17z" />
    <glyph glyph-name="uni069B.medi" unicode="&#x69b;" horiz-adv-x="955" 
d="M0 -5l10 118q33 0 53.5 5t34 24.5t24.5 59t25 109.5l109 -23q-4 -23 -11 -57t-7 -60q0 -18 7.5 -31t26.5 -20t52 -7q27 0 46 5.5t32 24.5t23 61t21 114l111 -19q-4 -21 -8 -47t-7 -49.5t-3 -38.5q0 -13 7 -25t27 -19t58 -7q47 0 69 20t22 61q0 23 -1 49.5t-3.5 59
t-8.5 74.5l108 8q6 -84 14.5 -137t24 -82.5t41 -41t68.5 -11.5q31 0 45 -16.5t14 -40.5q0 -25 -18 -43t-51 -18q-30 0 -58 6.5t-52 21t-42 39t-27 59.5l18 -6q-13 -48 -37 -74t-58 -36t-78 -10t-76.5 11.5t-51 37t-21.5 68.5h34q-19 -51 -43.5 -76t-59 -33t-88.5 -8
q-31 0 -62 7.5t-55.5 33.5t-33.5 81l45 4q-19 -56 -49 -82.5t-70 -35t-90 -8.5zM432 -336q-24 0 -41 16.5t-17 40.5q0 23 17 40.5t41 17.5q23 0 40 -17.5t17 -40.5q0 -24 -17 -40.5t-40 -16.5zM359 -213q-24 0 -41 17t-17 40q0 24 17 41.5t41 17.5q23 0 40 -17.5t17 -41.5
q0 -23 -17 -40t-40 -17zM507 -213q-24 0 -41 17t-17 40q0 24 17 41.5t41 17.5t40.5 -17.5t16.5 -41.5q0 -23 -16.5 -40t-40.5 -17z" />
    <glyph glyph-name="uni069B.fina" unicode="&#x69b;" horiz-adv-x="1375" 
d="M332 -232q-67 0 -122 16t-96 48t-63.5 78t-22.5 107q0 23 4 53t14.5 66.5t29.5 79.5l104 -37q-11 -30 -19 -55t-11.5 -47t-3.5 -42q0 -44 21.5 -77.5t64 -52.5t103.5 -19q63 0 105.5 14.5t67 38.5t35 55.5t10.5 65.5t-6.5 70.5t-18 76.5t-25.5 83l118 31
q15 -58 22.5 -87.5t12.5 -45.5q10 -33 24.5 -49t33.5 -21t43 -5q19 0 35 5.5t29.5 24.5t24 60.5t19.5 114.5l111 -19q-3 -21 -7 -47t-7.5 -49.5t-3.5 -38.5q0 -14 7.5 -25.5t27 -18.5t57.5 -7q47 0 69 20t22 61q0 23 -1 49.5t-3.5 59t-7.5 74.5l107 8q8 -88 17 -142
t24.5 -82t41.5 -38t65 -10q32 0 46 -16.5t14 -40.5q0 -25 -18.5 -43t-51.5 -18q-43 0 -79.5 13t-62 41t-37.5 72l30 -6q-12 -50 -40 -76t-63.5 -35t-73.5 -9q-47 0 -81.5 13.5t-54 39.5t-20.5 64h34q-16 -48 -39.5 -73t-54 -34.5t-65.5 -9.5q-28 0 -51.5 6.5t-41 18.5
t-29 31t-16.5 43l39 -44q-3 -61 -25 -112.5t-63 -89.5t-103 -59t-145 -21zM536 -461q-24 0 -41 16.5t-17 40.5q0 23 17 40.5t41 17.5q23 0 40 -17.5t17 -40.5q0 -24 -17 -40.5t-40 -16.5zM463 -338q-24 0 -41 17t-17 40q0 24 17 41.5t41 17.5q23 0 40 -17.5t17 -41.5
q0 -23 -17 -40t-40 -17zM611 -338q-24 0 -41 17t-17 40q0 24 17 41.5t41 17.5t40.5 -17.5t16.5 -41.5q0 -23 -16.5 -40t-40.5 -17z" />
    <glyph glyph-name="uni069D.init" unicode="&#x69d;" horiz-adv-x="947" 
d="M505 -18q-91 0 -151.5 7.5t-98.5 21.5t-58.5 35t-32.5 47l26 8q-25 -48 -55.5 -70.5t-64.5 -29t-70 -6.5l10 118q33 0 52.5 10t32 33t23 61t24.5 94l106 -27q-6 -25 -11 -45.5t-7.5 -35.5t-2.5 -24q0 -21 10 -36t37.5 -24.5t81 -14t140.5 -4.5q79 0 135 7t91 21
t51.5 34.5t16.5 47.5q0 20 -9.5 38.5t-30 31t-53.5 12.5q-41 0 -81.5 -20.5t-78.5 -52t-70 -68t-55 -69.5l-126 12q36 58 83.5 115t102.5 102t114.5 72t121.5 27t106.5 -24.5t68 -67.5t23.5 -99q0 -67 -39 -121t-127 -85t-235 -31zM589 -234q-26 0 -44 18.5t-18 43.5t18 44
t44 19q25 0 43 -19t18 -44t-18 -43.5t-43 -18.5zM430 -234q-26 0 -44.5 18.5t-18.5 43.5t18.5 44t44.5 19q25 0 43 -19t18 -44t-18 -43.5t-43 -18.5z" />
    <glyph glyph-name="uni069D.medi" unicode="&#x69d;" horiz-adv-x="983" 
d="M983 -5q-42 0 -86 8t-83 23t-64 37l87 76q36 -14 73.5 -20t82.5 -6q31 0 45 -16.5t14 -40.5q0 -25 -18.5 -43t-50.5 -18zM505 -18q-91 0 -151.5 7.5t-98.5 21.5t-58.5 35t-32.5 47l26 8q-25 -48 -55.5 -70.5t-64.5 -29t-70 -6.5l10 118q33 0 52.5 10t32 33t23 61t24.5 94
l106 -27q-6 -25 -11 -45.5t-7.5 -35.5t-2.5 -24q0 -21 10 -36t37.5 -24.5t81 -14t140.5 -4.5q79 0 135 7t91 21t51.5 34.5t16.5 47.5q0 20 -9.5 38.5t-30 31t-53.5 12.5q-41 0 -81.5 -20.5t-78.5 -52t-70 -68t-55 -69.5l-126 12q36 58 83.5 115t102.5 102t114.5 72t121.5 27
t106.5 -24.5t68 -67.5t23.5 -99q0 -67 -39 -121t-127 -85t-235 -31zM589 -234q-26 0 -44 18.5t-18 43.5t18 44t44 19q25 0 43 -19t18 -44t-18 -43.5t-43 -18.5zM430 -234q-26 0 -44.5 18.5t-18.5 43.5t18.5 44t44.5 19q25 0 43 -19t18 -44t-18 -43.5t-43 -18.5z" />
    <glyph glyph-name="uni069D.fina" unicode="&#x69d;" horiz-adv-x="1408" 
d="M1407 -5q-41 0 -85 8t-83 23t-64 37l87 76q35 -14 73 -20t82 -6q32 0 46 -16.5t14 -40.5q0 -25 -18.5 -43t-51.5 -18zM331 -231q-63 0 -118 16t-97 47.5t-65 77.5t-23 107q0 23 4 53t14.5 66.5t29.5 79.5l104 -37q-11 -30 -19 -55t-11.5 -47t-3.5 -42q0 -44 23.5 -77.5
t66.5 -52t99 -18.5q59 0 100.5 13t67.5 37.5t38 57.5t12 72q0 45 -15.5 101t-34.5 122l118 31q10 -38 16.5 -64t10.5 -42.5t8 -26.5q9 -23 26 -38.5t48 -25.5t80.5 -14.5t124.5 -4.5q61 0 107.5 5t80.5 14t55.5 22.5t32 30.5t10.5 38q0 20 -9.5 38.5t-30 31t-53.5 12.5
q-43 0 -85 -21.5t-80.5 -54.5t-70 -69t-53.5 -65l-122 12q27 44 62.5 89.5t77 86.5t87.5 72t95 49.5t99 18.5q63 0 107 -25t68 -68t24 -98q0 -51 -21 -94t-68 -75t-124 -50t-188 -18q-65 0 -119 7.5t-95 21.5t-67 33t-34 42l50 -38q-3 -61 -25.5 -112.5t-64.5 -90t-104 -60
t-146 -21.5zM1018 -229q-26 0 -44 18.5t-18 43.5t18 44t44 19q25 0 43 -19t18 -44t-18 -43.5t-43 -18.5zM859 -229q-26 0 -44.5 18.5t-18.5 43.5t18.5 44t44.5 19q25 0 43 -19t18 -44t-18 -43.5t-43 -18.5z" />
    <glyph glyph-name="uni069E.init" unicode="&#x69e;" horiz-adv-x="947" 
d="M505 -18q-91 0 -151.5 7.5t-98.5 21.5t-58.5 35t-32.5 47l26 8q-25 -48 -55.5 -70.5t-64.5 -29t-70 -6.5l10 118q33 0 52.5 10t32 33t23 61t24.5 94l106 -27q-6 -25 -11 -45.5t-7.5 -35.5t-2.5 -24q0 -21 10 -36t37.5 -24.5t81 -14t140.5 -4.5q79 0 135 7t91 21
t51.5 34.5t16.5 47.5q0 20 -9.5 38.5t-30 31t-53.5 12.5q-41 0 -81.5 -20.5t-78.5 -52t-70 -68t-55 -69.5l-126 12q36 58 83.5 115t102.5 102t114.5 72t121.5 27t106.5 -24.5t68 -67.5t23.5 -99q0 -67 -39 -121t-127 -85t-235 -31zM684 631q-23 0 -40 17.5t-17 40.5
q0 24 17 41t40 17q24 0 40.5 -17t16.5 -41q0 -23 -16.5 -40.5t-40.5 -17.5zM609 507q-24 0 -41 17.5t-17 41.5q0 23 17 40t41 17q23 0 40 -17t17 -40q0 -24 -17 -41.5t-40 -17.5zM756 507q-23 0 -40 17.5t-17 41.5q0 23 17 40t40 17q24 0 41 -17t17 -40q0 -24 -17 -41.5
t-41 -17.5z" />
    <glyph glyph-name="uni069E.medi" unicode="&#x69e;" horiz-adv-x="983" 
d="M983 -5q-42 0 -86 8t-83 23t-64 37l87 76q36 -14 73.5 -20t82.5 -6q31 0 45 -16.5t14 -40.5q0 -25 -18.5 -43t-50.5 -18zM505 -18q-91 0 -151.5 7.5t-98.5 21.5t-58.5 35t-32.5 47l26 8q-25 -48 -55.5 -70.5t-64.5 -29t-70 -6.5l10 118q33 0 52.5 10t32 33t23 61t24.5 94
l106 -27q-6 -25 -11 -45.5t-7.5 -35.5t-2.5 -24q0 -21 10 -36t37.5 -24.5t81 -14t140.5 -4.5q79 0 135 7t91 21t51.5 34.5t16.5 47.5q0 20 -9.5 38.5t-30 31t-53.5 12.5q-41 0 -81.5 -20.5t-78.5 -52t-70 -68t-55 -69.5l-126 12q36 58 83.5 115t102.5 102t114.5 72t121.5 27
t106.5 -24.5t68 -67.5t23.5 -99q0 -67 -39 -121t-127 -85t-235 -31zM684 631q-23 0 -40 17.5t-17 40.5q0 24 17 41t40 17q24 0 40.5 -17t16.5 -41q0 -23 -16.5 -40.5t-40.5 -17.5zM609 507q-24 0 -41 17.5t-17 41.5q0 23 17 40t41 17q23 0 40 -17t17 -40q0 -24 -17 -41.5
t-40 -17.5zM756 507q-23 0 -40 17.5t-17 41.5q0 23 17 40t40 17q24 0 41 -17t17 -40q0 -24 -17 -41.5t-41 -17.5z" />
    <glyph glyph-name="uni069E.fina" unicode="&#x69e;" horiz-adv-x="1408" 
d="M1407 -5q-41 0 -85 8t-83 23t-64 37l87 76q35 -14 73 -20t82 -6q32 0 46 -16.5t14 -40.5q0 -25 -18.5 -43t-51.5 -18zM331 -231q-63 0 -118 16t-97 47.5t-65 77.5t-23 107q0 23 4 53t14.5 66.5t29.5 79.5l104 -37q-11 -30 -19 -55t-11.5 -47t-3.5 -42q0 -44 23.5 -77.5
t66.5 -52t99 -18.5q59 0 100.5 13t67.5 37.5t38 57.5t12 72q0 45 -15.5 101t-34.5 122l118 31q10 -38 16.5 -64t10.5 -42.5t8 -26.5q9 -23 26 -38.5t48 -25.5t80.5 -14.5t124.5 -4.5q61 0 107.5 5t80.5 14t55.5 22.5t32 30.5t10.5 38q0 20 -9.5 38.5t-30 31t-53.5 12.5
q-43 0 -85 -21.5t-80.5 -54.5t-70 -69t-53.5 -65l-122 12q27 44 62.5 89.5t77 86.5t87.5 72t95 49.5t99 18.5q63 0 107 -25t68 -68t24 -98q0 -51 -21 -94t-68 -75t-124 -50t-188 -18q-65 0 -119 7.5t-95 21.5t-67 33t-34 42l50 -38q-3 -61 -25.5 -112.5t-64.5 -90t-104 -60
t-146 -21.5zM1110 634q-23 0 -40 17.5t-17 40.5q0 24 17 41t40 17q24 0 40.5 -17t16.5 -41q0 -23 -16.5 -40.5t-40.5 -17.5zM1035 510q-24 0 -41 17.5t-17 41.5q0 23 17 40t41 17q23 0 40 -17t17 -40q0 -24 -17 -41.5t-40 -17.5zM1182 510q-23 0 -40 17.5t-17 41.5
q0 23 17 40t40 17q24 0 41 -17t17 -40q0 -24 -17 -41.5t-41 -17.5z" />
    <glyph glyph-name="uni069F.init" unicode="&#x69f;" horiz-adv-x="714" 
d="M0 -5l10 118h218q92 0 154.5 7.5t101 21.5t56 34t17.5 45q0 18 -10 36.5t-29.5 31t-52.5 12.5q-41 0 -82 -20.5t-79 -53t-70 -69.5t-55 -71l-127 14q38 60 85.5 117t102.5 102.5t114 72t121 26.5t106 -25.5t68 -69t24 -100.5q0 -58 -35.5 -108.5t-120.5 -81.5
q-39 -14 -86.5 -22.5t-109.5 -12.5t-146 -4h-175zM101 96l-21 629h118l18 -506zM443 639q-23 0 -40 17.5t-17 40.5q0 24 17 41t40 17q24 0 40.5 -17t16.5 -41q0 -23 -16.5 -40.5t-40.5 -17.5zM368 515q-24 0 -41 17.5t-17 41.5q0 23 17 40t41 17q23 0 40 -17t17 -40
q0 -24 -17 -41.5t-40 -17.5zM515 515q-23 0 -40 17.5t-17 41.5q0 23 17 40t40 17q24 0 41 -17t17 -40q0 -24 -17 -41.5t-41 -17.5z" />
    <glyph glyph-name="uni069F.medi" unicode="&#x69f;" horiz-adv-x="742" 
d="M742 -5q-42 0 -86 8t-82.5 23t-64.5 37l87 76q36 -14 73.5 -20t82.5 -6q31 0 45 -16.5t14 -40.5q0 -25 -18.5 -43t-50.5 -18zM0 -5l10 118h218q92 0 154.5 7.5t101 21.5t56 34t17.5 45q0 18 -10 36.5t-29.5 31t-52.5 12.5q-41 0 -82 -20.5t-79 -53t-70 -69.5t-55 -71
l-127 14q38 60 85.5 117t102.5 102.5t114 72t121 26.5t106 -25.5t68 -69t24 -100.5q0 -58 -35.5 -108.5t-120.5 -81.5q-39 -14 -86.5 -22.5t-109.5 -12.5t-146 -4h-175zM101 96l-21 629h118l18 -506zM443 639q-23 0 -40 17.5t-17 40.5q0 24 17 41t40 17q24 0 40.5 -17
t16.5 -41q0 -23 -16.5 -40.5t-40.5 -17.5zM368 515q-24 0 -41 17.5t-17 41.5q0 23 17 40t41 17q23 0 40 -17t17 -40q0 -24 -17 -41.5t-40 -17.5zM515 515q-23 0 -40 17.5t-17 41.5q0 23 17 40t40 17q24 0 41 -17t17 -40q0 -24 -17 -41.5t-41 -17.5z" />
    <glyph glyph-name="uni069F.fina" unicode="&#x69f;" horiz-adv-x="850" 
d="M849 -5q-42 0 -86 8t-82.5 23t-64.5 37l87 76q36 -14 74 -20t82 -6q32 0 45.5 -16.5t13.5 -40.5q0 -25 -18 -43t-51 -18zM380 -13q-56 0 -107.5 1.5t-97 4t-84.5 6t-71 7.5l13 115q42 -4 83.5 -7.5t83.5 -5t86.5 -2.5t93.5 -1q75 0 129.5 7.5t89 22t50.5 34.5t16 45
q0 20 -10 38.5t-30 31t-52 12.5q-42 0 -83 -20.5t-78.5 -53t-68.5 -68.5t-53 -67l-129 12q38 59 85 115.5t102 101.5t114.5 71.5t120.5 26.5t105 -24.5t69 -67.5t25 -98q0 -67 -38.5 -121t-126.5 -85t-237 -31zM213 99l-21 626h118l19 -503zM558 635q-23 0 -40 17.5
t-17 40.5q0 24 17 41t40 17q24 0 40.5 -17t16.5 -41q0 -23 -16.5 -40.5t-40.5 -17.5zM483 511q-24 0 -41 17.5t-17 41.5q0 23 17 40t41 17q23 0 40 -17t17 -40q0 -24 -17 -41.5t-40 -17.5zM630 511q-23 0 -40 17.5t-17 41.5q0 23 17 40t40 17q24 0 41 -17t17 -40
q0 -24 -17 -41.5t-41 -17.5z" />
    <glyph glyph-name="uni06A0.init" unicode="&#x6a0;" horiz-adv-x="537" 
d="M0 -5l10 118q53 0 82 1t43 2.5t22 2.5q-13 10 -32 30t-33.5 51t-14.5 75q0 59 29.5 104t80.5 70.5t116 25.5q28 0 55 -4t54 -12l-20 -112q-20 5 -42 8t-40 3q-34 0 -60 -12t-40 -32.5t-14 -49.5q0 -20 8 -37.5t21 -31.5t28.5 -23.5t31 -15.5t26.5 -7q21 6 36 10.5
t30.5 10t35.5 14t51 21.5l38 -110q-77 -36 -153 -58t-160.5 -32t-188.5 -10zM276 695q-23 0 -40 17.5t-17 40.5q0 24 17 41t40 17q24 0 40.5 -17t16.5 -41q0 -23 -16.5 -40.5t-40.5 -17.5zM201 571q-24 0 -41 17.5t-17 41.5q0 23 17 40t41 17q23 0 40 -17t17 -40
q0 -24 -17 -41.5t-40 -17.5zM348 571q-23 0 -40 17.5t-17 41.5q0 23 17 40t40 17q24 0 41 -17t17 -40q0 -24 -17 -41.5t-41 -17.5z" />
    <glyph glyph-name="uni06A0.medi" unicode="&#x6a0;" horiz-adv-x="540" 
d="M-2 -5l10 118q66 0 120.5 10.5t98 27.5t73.5 40t45.5 48t15.5 49q0 13 -7.5 25.5t-25 20.5t-47.5 8q-16 0 -37.5 -4t-42 -11.5t-36.5 -18.5q24 -18 48 -41t49 -49t48 -53q21 -12 48 -22t58 -16.5t65 -10t69 -3.5q31 0 45 -16.5t14 -40.5q0 -25 -18.5 -43t-50.5 -18
q-71 0 -131 11.5t-109.5 35t-88.5 57.5q-14 22 -35 45.5t-45 46.5t-47 39q-5 5 -11.5 20.5t-11 33t-4.5 25.5q0 20 20.5 44t55.5 45.5t78 35.5t88 14q61 0 100 -18t58.5 -48.5t19.5 -68.5q0 -46 -21.5 -92t-62 -86.5t-99 -72t-133.5 -49.5t-163 -18zM295 668q-23 0 -40 17.5
t-17 40.5q0 24 17 41t40 17q24 0 40.5 -17t16.5 -41q0 -23 -16.5 -40.5t-40.5 -17.5zM220 544q-24 0 -41 17.5t-17 41.5q0 23 17 40t41 17q23 0 40 -17t17 -40q0 -24 -17 -41.5t-40 -17.5zM367 544q-23 0 -40 17.5t-17 41.5q0 23 17 40t40 17q24 0 41 -17t17 -40
q0 -24 -17 -41.5t-41 -17.5z" />
    <glyph glyph-name="uni06A0.fina" unicode="&#x6a0;" horiz-adv-x="555" 
d="M315 -394q-58 0 -113 12t-98.5 39t-69 71.5t-25.5 109.5q0 66 26.5 115.5t67.5 87.5t88 69t88 58.5t67.5 56t26.5 63.5q0 13 -7 25.5t-23 20.5t-44 8q-19 0 -40.5 -4.5t-41 -12t-35.5 -17.5q27 -21 51.5 -45t47.5 -47.5t41 -46.5q24 -12 50 -22.5t55.5 -18t63.5 -11.5
t74 -4q32 0 45.5 -16.5t13.5 -40.5q0 -25 -18.5 -43t-50.5 -18q-83 0 -140 12.5t-100 36t-87 55.5q-14 22 -36 46t-46 47t-45 38q-4 4 -10.5 20t-11.5 33.5t-5 25.5q0 18 19 42t52.5 46t77.5 36.5t95 14.5q87 0 129 -39t42 -98q0 -56 -26 -100.5t-67.5 -81t-87 -69
t-87 -64.5t-67.5 -67.5t-26 -79.5q0 -37 18.5 -61.5t47.5 -38t61.5 -19.5t60.5 -6q33 0 67.5 5t72 16t77.5 27l36 -99q-35 -19 -77.5 -34.5t-87.5 -24t-89 -8.5zM317 668q-23 0 -40 17.5t-17 40.5q0 24 17 41t40 17q24 0 40.5 -17t16.5 -41q0 -23 -16.5 -40.5t-40.5 -17.5z
M242 544q-24 0 -41 17.5t-17 41.5q0 23 17 40t41 17q23 0 40 -17t17 -40q0 -24 -17 -41.5t-40 -17.5zM389 544q-23 0 -40 17.5t-17 41.5q0 23 17 40t40 17q24 0 41 -17t17 -40q0 -24 -17 -41.5t-41 -17.5z" />
    <glyph glyph-name="uni06A1.init" unicode="&#x6a1;" horiz-adv-x="483" 
d="M0 -5l10 118q61 0 104 0.5t72.5 3t48.5 7.5t32 11q21 11 34 28t19 45.5t6 71.5q0 47 -9 81.5t-26.5 53t-41.5 18.5q-19 0 -34.5 -13t-25 -34.5t-9.5 -45.5q0 -16 7.5 -28t24.5 -18.5t43 -6.5q25 0 51 6t47 16l4 -101q-16 -11 -36.5 -19t-43.5 -12t-46 -4q-52 0 -89.5 15
t-57.5 46.5t-20 80.5q0 42 14 83.5t39.5 76t61 55t78.5 20.5q63 0 104 -37.5t61 -100.5t20 -137q0 -73 -23 -125.5t-63 -84.5q-23 -21 -55 -34.5t-74 -21.5t-98 -11t-129 -3z" />
    <glyph glyph-name="uni06A1.medi" unicode="&#x6a1;" horiz-adv-x="516" 
d="M0 -5l10 118q34 -1 64.5 0.5t56.5 4.5t48 7.5t38 8.5q34 11 60 27.5t41.5 39t15.5 49.5q0 20 -9 40.5t-25 34.5t-37 14q-20 0 -37 -13t-27.5 -34t-10.5 -46t12.5 -46t32.5 -38.5t45 -31.5l-119 -42q-19 18 -39.5 41t-34.5 54t-14 70q0 44 16.5 80.5t44.5 63.5t63 42
t71 15q56 0 97.5 -28t64.5 -71.5t23 -93.5q0 -47 -17.5 -84t-47 -65.5t-66 -49.5t-74.5 -34q-20 -8 -47 -14t-59 -10.5t-67 -6.5t-73 -2zM516 -5q-55 0 -110.5 6t-103 17.5t-80.5 27.5l69 86q30 -7 70.5 -11t84 -6t80.5 -2q31 0 45 -16.5t14 -40.5q0 -25 -18.5 -43
t-50.5 -18z" />
    <glyph glyph-name="uni06A1.fina" unicode="&#x6a1;" horiz-adv-x="1109" 
d="M411 -21l26 118q67 0 125.5 3.5t107.5 9.5t84.5 12t54.5 12q35 11 61 27.5t41 38.5t15 48q0 15 -5.5 31t-15 29.5t-22.5 22t-28 8.5q-19 0 -36 -14t-28 -35.5t-11 -47.5q0 -22 12.5 -43t33 -38t44.5 -29l-118 -44q-20 18 -40.5 40t-34.5 51t-14 66q0 44 17 81.5
t45.5 66.5t63 45t69.5 16q55 0 96.5 -29.5t65 -75.5t23.5 -96q0 -45 -17.5 -81t-46.5 -63t-65.5 -47.5t-75.5 -33.5q-25 -10 -69.5 -18.5t-102.5 -15.5t-123.5 -11t-131.5 -4zM1108 -5q-55 0 -108.5 6t-101 17t-84.5 28l69 85q30 -6 71 -10t84 -6t80 -2q32 0 45.5 -16.5
t13.5 -40.5q0 -25 -18 -43t-51 -18zM411 -21q-101 0 -172.5 14.5t-117.5 42.5t-68 68t-22 92q0 29 5 59.5t13 60t15 54.5l106 -26q-4 -17 -9 -37.5t-8.5 -40.5t-3.5 -37q0 -42 26.5 -72t89.5 -45t172 -15l20 -86z" />
    <glyph glyph-name="fehDotMovedbelowar.init" unicode="&#x6a2;" horiz-adv-x="483" 
d="M0 -5l10 118q61 0 104 0.5t72.5 3t48.5 7.5t32 11q21 11 34 28t19 45.5t6 71.5q0 47 -9 81.5t-26.5 53t-41.5 18.5q-19 0 -34.5 -13t-25 -34.5t-9.5 -45.5q0 -16 7.5 -28t24.5 -18.5t43 -6.5q25 0 51 6t47 16l4 -101q-16 -11 -36.5 -19t-43.5 -12t-46 -4q-52 0 -89.5 15
t-57.5 46.5t-20 80.5q0 42 14 83.5t39.5 76t61 55t78.5 20.5q63 0 104 -37.5t61 -100.5t20 -137q0 -73 -23 -125.5t-63 -84.5q-23 -21 -55 -34.5t-74 -21.5t-98 -11t-129 -3zM213 -226q-26 0 -44 18t-18 43q0 26 18 45t44 19t44.5 -19t18.5 -45q0 -25 -18.5 -43t-44.5 -18z
" />
    <glyph glyph-name="fehDotMovedbelowar.medi" unicode="&#x6a2;" horiz-adv-x="516" 
d="M0 -5l10 118q34 -1 64.5 0.5t56.5 4.5t48 7.5t38 8.5q34 11 60 27.5t41.5 39t15.5 49.5q0 20 -9 40.5t-25 34.5t-37 14q-20 0 -37 -13t-27.5 -34t-10.5 -46t12.5 -46t32.5 -38.5t45 -31.5l-119 -42q-19 18 -39.5 41t-34.5 54t-14 70q0 44 16.5 80.5t44.5 63.5t63 42
t71 15q56 0 97.5 -28t64.5 -71.5t23 -93.5q0 -47 -17.5 -84t-47 -65.5t-66 -49.5t-74.5 -34q-20 -8 -47 -14t-59 -10.5t-67 -6.5t-73 -2zM516 -5q-55 0 -110.5 6t-103 17.5t-80.5 27.5l69 86q30 -7 70.5 -11t84 -6t80.5 -2q31 0 45 -16.5t14 -40.5q0 -25 -18.5 -43
t-50.5 -18zM254 -226q-26 0 -44 18t-18 43q0 26 18 45t44 19t44.5 -19t18.5 -45q0 -25 -18.5 -43t-44.5 -18z" />
    <glyph glyph-name="fehDotMovedbelowar.fina" unicode="&#x6a2;" horiz-adv-x="1109" 
d="M411 -21l26 118q67 0 125.5 3.5t107.5 9.5t84.5 12t54.5 12q35 11 61 27.5t41 38.5t15 48q0 15 -5.5 31t-15 29.5t-22.5 22t-28 8.5q-19 0 -36 -14t-28 -35.5t-11 -47.5q0 -22 12.5 -43t33 -38t44.5 -29l-118 -44q-20 18 -40.5 40t-34.5 51t-14 66q0 44 17 81.5
t45.5 66.5t63 45t69.5 16q55 0 96.5 -29.5t65 -75.5t23.5 -96q0 -45 -17.5 -81t-46.5 -63t-65.5 -47.5t-75.5 -33.5q-25 -10 -69.5 -18.5t-102.5 -15.5t-123.5 -11t-131.5 -4zM1108 -5q-55 0 -108.5 6t-101 17t-84.5 28l69 85q30 -6 71 -10t84 -6t80 -2q32 0 45.5 -16.5
t13.5 -40.5q0 -25 -18 -43t-51 -18zM411 -21q-101 0 -172.5 14.5t-117.5 42.5t-68 68t-22 92q0 29 5 59.5t13 60t15 54.5l106 -26q-4 -17 -9 -37.5t-8.5 -40.5t-3.5 -37q0 -42 26.5 -72t89.5 -45t172 -15l20 -86zM478 -234q-26 0 -44 18t-18 43q0 26 18 45t44 19t44.5 -19
t18.5 -45q0 -25 -18.5 -43t-44.5 -18z" />
    <glyph glyph-name="uni06A3.init" unicode="&#x6a3;" horiz-adv-x="483" 
d="M0 -5l10 118q61 0 104 0.5t72.5 3t48.5 7.5t32 11q21 11 34 28t19 45.5t6 71.5q0 47 -9 81.5t-26.5 53t-41.5 18.5q-19 0 -34.5 -13t-25 -34.5t-9.5 -45.5q0 -16 7.5 -28t24.5 -18.5t43 -6.5q25 0 51 6t47 16l4 -101q-16 -11 -36.5 -19t-43.5 -12t-46 -4q-52 0 -89.5 15
t-57.5 46.5t-20 80.5q0 42 14 83.5t39.5 76t61 55t78.5 20.5q63 0 104 -37.5t61 -100.5t20 -137q0 -73 -23 -125.5t-63 -84.5q-23 -21 -55 -34.5t-74 -21.5t-98 -11t-129 -3zM249 647q-27 0 -46 18.5t-19 45.5t19 46.5t46 19.5q26 0 45 -19.5t19 -46.5t-19 -45.5t-45 -18.5z
M213 -226q-26 0 -44 18t-18 43q0 26 18 45t44 19t44.5 -19t18.5 -45q0 -25 -18.5 -43t-44.5 -18z" />
    <glyph glyph-name="uni06A3.medi" unicode="&#x6a3;" horiz-adv-x="516" 
d="M0 -5l10 118q34 -1 64.5 0.5t56.5 4.5t48 7.5t38 8.5q34 11 60 27.5t41.5 39t15.5 49.5q0 20 -9 40.5t-25 34.5t-37 14q-20 0 -37 -13t-27.5 -34t-10.5 -46t12.5 -46t32.5 -38.5t45 -31.5l-119 -42q-19 18 -39.5 41t-34.5 54t-14 70q0 44 16.5 80.5t44.5 63.5t63 42
t71 15q56 0 97.5 -28t64.5 -71.5t23 -93.5q0 -47 -17.5 -84t-47 -65.5t-66 -49.5t-74.5 -34q-20 -8 -47 -14t-59 -10.5t-67 -6.5t-73 -2zM516 -5q-55 0 -110.5 6t-103 17.5t-80.5 27.5l69 86q30 -7 70.5 -11t84 -6t80.5 -2q31 0 45 -16.5t14 -40.5q0 -25 -18.5 -43
t-50.5 -18zM263 550q-27 0 -46 18.5t-19 45.5t19 46.5t46 19.5q26 0 45 -19.5t19 -46.5t-19 -45.5t-45 -18.5zM254 -226q-26 0 -44 18t-18 43q0 26 18 45t44 19t44.5 -19t18.5 -45q0 -25 -18.5 -43t-44.5 -18z" />
    <glyph glyph-name="uni06A3.fina" unicode="&#x6a3;" horiz-adv-x="1109" 
d="M411 -21l26 118q67 0 125.5 3.5t107.5 9.5t84.5 12t54.5 12q35 11 61 27.5t41 38.5t15 48q0 15 -5.5 31t-15 29.5t-22.5 22t-28 8.5q-19 0 -36 -14t-28 -35.5t-11 -47.5q0 -22 12.5 -43t33 -38t44.5 -29l-118 -44q-20 18 -40.5 40t-34.5 51t-14 66q0 44 17 81.5
t45.5 66.5t63 45t69.5 16q55 0 96.5 -29.5t65 -75.5t23.5 -96q0 -45 -17.5 -81t-46.5 -63t-65.5 -47.5t-75.5 -33.5q-25 -10 -69.5 -18.5t-102.5 -15.5t-123.5 -11t-131.5 -4zM1108 -5q-55 0 -108.5 6t-101 17t-84.5 28l69 85q30 -6 71 -10t84 -6t80 -2q32 0 45.5 -16.5
t13.5 -40.5q0 -25 -18 -43t-51 -18zM411 -21q-101 0 -172.5 14.5t-117.5 42.5t-68 68t-22 92q0 29 5 59.5t13 60t15 54.5l106 -26q-4 -17 -9 -37.5t-8.5 -40.5t-3.5 -37q0 -42 26.5 -72t89.5 -45t172 -15l20 -86zM856 550q-27 0 -46 18.5t-19 45.5t19 46.5t46 19.5
q26 0 45 -19.5t19 -46.5t-19 -45.5t-45 -18.5zM478 -234q-26 0 -44 18t-18 43q0 26 18 45t44 19t44.5 -19t18.5 -45q0 -25 -18.5 -43t-44.5 -18z" />
    <glyph glyph-name="uni06A5.init" unicode="&#x6a5;" horiz-adv-x="483" 
d="M0 -5l10 118q61 0 104 0.5t72.5 3t48.5 7.5t32 11q21 11 34 28t19 45.5t6 71.5q0 47 -9 81.5t-26.5 53t-41.5 18.5q-19 0 -34.5 -13t-25 -34.5t-9.5 -45.5q0 -16 7.5 -28t24.5 -18.5t43 -6.5q25 0 51 6t47 16l4 -101q-16 -11 -36.5 -19t-43.5 -12t-46 -4q-52 0 -89.5 15
t-57.5 46.5t-20 80.5q0 42 14 83.5t39.5 76t61 55t78.5 20.5q63 0 104 -37.5t61 -100.5t20 -137q0 -73 -23 -125.5t-63 -84.5q-23 -21 -55 -34.5t-74 -21.5t-98 -11t-129 -3zM216 -343q-24 0 -41 16.5t-17 40.5q0 23 17 40.5t41 17.5q23 0 40 -17.5t17 -40.5
q0 -24 -17 -40.5t-40 -16.5zM143 -220q-24 0 -41 17t-17 40q0 24 17 41.5t41 17.5q23 0 40 -17.5t17 -41.5q0 -23 -17 -40t-40 -17zM291 -220q-24 0 -41 17t-17 40q0 24 17 41.5t41 17.5t40.5 -17.5t16.5 -41.5q0 -23 -16.5 -40t-40.5 -17z" />
    <glyph glyph-name="uni06A5.medi" unicode="&#x6a5;" horiz-adv-x="516" 
d="M0 -5l10 118q34 -1 64.5 0.5t56.5 4.5t48 7.5t38 8.5q34 11 60 27.5t41.5 39t15.5 49.5q0 20 -9 40.5t-25 34.5t-37 14q-20 0 -37 -13t-27.5 -34t-10.5 -46t12.5 -46t32.5 -38.5t45 -31.5l-119 -42q-19 18 -39.5 41t-34.5 54t-14 70q0 44 16.5 80.5t44.5 63.5t63 42
t71 15q56 0 97.5 -28t64.5 -71.5t23 -93.5q0 -47 -17.5 -84t-47 -65.5t-66 -49.5t-74.5 -34q-20 -8 -47 -14t-59 -10.5t-67 -6.5t-73 -2zM516 -5q-55 0 -110.5 6t-103 17.5t-80.5 27.5l69 86q30 -7 70.5 -11t84 -6t80.5 -2q31 0 45 -16.5t14 -40.5q0 -25 -18.5 -43
t-50.5 -18zM258 -344q-24 0 -41 16.5t-17 40.5q0 23 17 40.5t41 17.5q23 0 40 -17.5t17 -40.5q0 -24 -17 -40.5t-40 -16.5zM185 -221q-24 0 -41 17t-17 40q0 24 17 41.5t41 17.5q23 0 40 -17.5t17 -41.5q0 -23 -17 -40t-40 -17zM333 -221q-24 0 -41 17t-17 40q0 24 17 41.5
t41 17.5t40.5 -17.5t16.5 -41.5q0 -23 -16.5 -40t-40.5 -17z" />
    <glyph glyph-name="uni06A5.fina" unicode="&#x6a5;" horiz-adv-x="1109" 
d="M411 -21l26 118q67 0 125.5 3.5t107.5 9.5t84.5 12t54.5 12q35 11 61 27.5t41 38.5t15 48q0 15 -5.5 31t-15 29.5t-22.5 22t-28 8.5q-19 0 -36 -14t-28 -35.5t-11 -47.5q0 -22 12.5 -43t33 -38t44.5 -29l-118 -44q-20 18 -40.5 40t-34.5 51t-14 66q0 44 17 81.5
t45.5 66.5t63 45t69.5 16q55 0 96.5 -29.5t65 -75.5t23.5 -96q0 -45 -17.5 -81t-46.5 -63t-65.5 -47.5t-75.5 -33.5q-25 -10 -69.5 -18.5t-102.5 -15.5t-123.5 -11t-131.5 -4zM1108 -5q-55 0 -108.5 6t-101 17t-84.5 28l69 85q30 -6 71 -10t84 -6t80 -2q32 0 45.5 -16.5
t13.5 -40.5q0 -25 -18 -43t-51 -18zM411 -21q-101 0 -172.5 14.5t-117.5 42.5t-68 68t-22 92q0 29 5 59.5t13 60t15 54.5l106 -26q-4 -17 -9 -37.5t-8.5 -40.5t-3.5 -37q0 -42 26.5 -72t89.5 -45t172 -15l20 -86zM482 -352q-24 0 -41 16.5t-17 40.5q0 23 17 40.5t41 17.5
q23 0 40 -17.5t17 -40.5q0 -24 -17 -40.5t-40 -16.5zM409 -229q-24 0 -41 17t-17 40q0 24 17 41.5t41 17.5q23 0 40 -17.5t17 -41.5q0 -23 -17 -40t-40 -17zM557 -229q-24 0 -41 17t-17 40q0 24 17 41.5t41 17.5t40.5 -17.5t16.5 -41.5q0 -23 -16.5 -40t-40.5 -17z" />
    <glyph glyph-name="uni06A7.fina" unicode="&#x6a7;" horiz-adv-x="837" 
d="M340 -272q-64 0 -120.5 14t-100 44t-67.5 77t-24 113q0 20 3.5 48.5t15.5 68.5t37 91l103 -42q-14 -34 -23 -59t-13 -45t-4 -41q0 -51 27.5 -84.5t76.5 -49.5t113 -16q44 0 82.5 6.5t69.5 19t55 29t40 36t23 40.5q9 28 13.5 61.5t4.5 62.5q0 48 -9.5 81.5t-26.5 50.5
t-40 17q-15 0 -27.5 -8t-22 -20.5t-14.5 -28t-5 -31.5q0 -15 6.5 -26t23.5 -17.5t48.5 -8.5t80.5 2l181 1q32 0 45.5 -16.5t13.5 -40.5q0 -26 -18.5 -44t-50.5 -18h-242q-48 0 -85.5 9t-63.5 27.5t-40 46t-14 64.5q0 42 15 82.5t41.5 73t61 51.5t72.5 19q56 0 98.5 -32.5
t66 -95t23.5 -154.5q0 -39 -12.5 -88t-33.5 -90q-25 -46 -62.5 -80t-86.5 -56.5t-107.5 -33t-127.5 -10.5zM582 464q-27 0 -46 18.5t-19 45.5t19 46.5t46 19.5q26 0 45 -19.5t19 -46.5t-19 -45.5t-45 -18.5z" />
    <glyph glyph-name="uni06A8.init" unicode="&#x6a8;" horiz-adv-x="483" 
d="M0 -5l10 118q61 0 104 0.5t72.5 3t48.5 7.5t32 11q21 11 34 28t19 45.5t6 71.5q0 47 -9 81.5t-26.5 53t-41.5 18.5q-19 0 -34.5 -13t-25 -34.5t-9.5 -45.5q0 -16 7.5 -28t24.5 -18.5t43 -6.5q25 0 51 6t47 16l4 -101q-16 -11 -36.5 -19t-43.5 -12t-46 -4q-52 0 -89.5 15
t-57.5 46.5t-20 80.5q0 42 14 83.5t39.5 76t61 55t78.5 20.5q63 0 104 -37.5t61 -100.5t20 -137q0 -73 -23 -125.5t-63 -84.5q-23 -21 -55 -34.5t-74 -21.5t-98 -11t-129 -3zM254 771q-23 0 -40 17.5t-17 40.5q0 24 17 41t40 17q24 0 40.5 -17t16.5 -41q0 -23 -16.5 -40.5
t-40.5 -17.5zM179 647q-24 0 -41 17.5t-17 41.5q0 23 17 40t41 17q23 0 40 -17t17 -40q0 -24 -17 -41.5t-40 -17.5zM326 647q-23 0 -40 17.5t-17 41.5q0 23 17 40t40 17q24 0 41 -17t17 -40q0 -24 -17 -41.5t-41 -17.5z" />
    <glyph glyph-name="uni06A8.medi" unicode="&#x6a8;" horiz-adv-x="516" 
d="M0 -5l10 118q34 -1 64.5 0.5t56.5 4.5t48 7.5t38 8.5q34 11 60 27.5t41.5 39t15.5 49.5q0 20 -9 40.5t-25 34.5t-37 14q-20 0 -37 -13t-27.5 -34t-10.5 -46t12.5 -46t32.5 -38.5t45 -31.5l-119 -42q-19 18 -39.5 41t-34.5 54t-14 70q0 44 16.5 80.5t44.5 63.5t63 42
t71 15q56 0 97.5 -28t64.5 -71.5t23 -93.5q0 -47 -17.5 -84t-47 -65.5t-66 -49.5t-74.5 -34q-20 -8 -47 -14t-59 -10.5t-67 -6.5t-73 -2zM516 -5q-55 0 -110.5 6t-103 17.5t-80.5 27.5l69 86q30 -7 70.5 -11t84 -6t80.5 -2q31 0 45 -16.5t14 -40.5q0 -25 -18.5 -43
t-50.5 -18zM268 674q-23 0 -40 17.5t-17 40.5q0 24 17 41t40 17q24 0 40.5 -17t16.5 -41q0 -23 -16.5 -40.5t-40.5 -17.5zM193 550q-24 0 -41 17.5t-17 41.5q0 23 17 40t41 17q23 0 40 -17t17 -40q0 -24 -17 -41.5t-40 -17.5zM340 550q-23 0 -40 17.5t-17 41.5q0 23 17 40
t40 17q24 0 41 -17t17 -40q0 -24 -17 -41.5t-41 -17.5z" />
    <glyph glyph-name="uni06A8.fina" unicode="&#x6a8;" horiz-adv-x="837" 
d="M340 -272q-64 0 -120.5 14t-100 44t-67.5 77t-24 113q0 20 3.5 48.5t15.5 68.5t37 91l103 -42q-14 -34 -23 -59t-13 -45t-4 -41q0 -51 27.5 -84.5t76.5 -49.5t113 -16q44 0 82.5 6.5t69.5 19t55 29t40 36t23 40.5q9 28 13.5 61.5t4.5 62.5q0 48 -9.5 81.5t-26.5 50.5
t-40 17q-15 0 -27.5 -8t-22 -20.5t-14.5 -28t-5 -31.5q0 -15 6.5 -26t23.5 -17.5t48.5 -8.5t80.5 2l181 1q32 0 45.5 -16.5t13.5 -40.5q0 -26 -18.5 -44t-50.5 -18h-242q-48 0 -85.5 9t-63.5 27.5t-40 46t-14 64.5q0 42 15 82.5t41.5 73t61 51.5t72.5 19q56 0 98.5 -32.5
t66 -95t23.5 -154.5q0 -39 -12.5 -88t-33.5 -90q-25 -46 -62.5 -80t-86.5 -56.5t-107.5 -33t-127.5 -10.5zM586 588q-23 0 -40 17.5t-17 40.5q0 24 17 41t40 17q24 0 40.5 -17t16.5 -41q0 -23 -16.5 -40.5t-40.5 -17.5zM511 464q-24 0 -41 17.5t-17 41.5q0 23 17 40t41 17
q23 0 40 -17t17 -40q0 -24 -17 -41.5t-40 -17.5zM658 464q-23 0 -40 17.5t-17 41.5q0 23 17 40t40 17q24 0 41 -17t17 -40q0 -24 -17 -41.5t-41 -17.5z" />
    <glyph glyph-name="uni06AA.init" unicode="&#x6aa;" horiz-adv-x="794" 
d="M0 -5l10 118h298q85 0 146.5 1t101.5 4.5t59 12t19 24.5q0 13 -9 23.5t-33 19.5t-67.5 16t-112.5 13q-111 9 -177.5 23.5t-95.5 41.5t-29 70q0 46 29 84.5t82.5 69t125.5 53t156 38.5l23 -113q-91 -16 -158.5 -36.5t-104.5 -40.5t-37 -38q0 -12 19 -19.5t63 -13
t120 -12.5q95 -7 156.5 -21t97.5 -36t51 -52t15 -69q0 -49 -24.5 -80.5t-77.5 -49t-136.5 -24.5t-201.5 -7h-308z" />
    <glyph glyph-name="uni06AA.medi" unicode="&#x6aa;" horiz-adv-x="877" 
d="M876 -5q-42 0 -86 8t-82.5 23t-64.5 37l87 76q36 -14 74 -20t82 -6q32 0 45.5 -16.5t13.5 -40.5q0 -25 -18 -43t-51 -18zM0 -5l10 118h298q85 0 146.5 1t101.5 4.5t59 12t19 24.5q0 13 -9 23.5t-33 19.5t-67.5 16t-112.5 13q-111 9 -177.5 23.5t-95.5 41.5t-29 70
q0 46 29 84.5t82.5 69t125.5 53t156 38.5l23 -113q-91 -16 -158.5 -36.5t-104.5 -40.5t-37 -38q0 -12 19 -19.5t63 -13t120 -12.5q95 -7 156.5 -21t97.5 -36t51 -52t15 -69q0 -49 -24.5 -80.5t-77.5 -49t-136.5 -24.5t-201.5 -7h-308z" />
    <glyph glyph-name="uni06AA.fina" unicode="&#x6aa;" horiz-adv-x="1110" 
d="M1110 -5q-42 0 -86 8t-82.5 23t-64.5 37l87 76q36 -14 73.5 -20t82.5 -6q31 0 45 -16.5t14 -40.5q0 -25 -18.5 -43t-50.5 -18zM542 -15q-48 0 -112.5 1t-134 3t-133.5 6t-111 9l6 116q50 -3 108 -6t121 -5.5t128 -4t128 -1.5q85 0 146.5 2t101.5 7.5t59 15.5t19 25
q0 12 -8 23t-31 20t-66.5 17t-116.5 14q-110 9 -177 23t-96.5 41.5t-29.5 73.5q0 48 30.5 85.5t85 67t126 52t152.5 37.5l23 -113q-92 -17 -159.5 -37t-104.5 -40.5t-37 -37.5q0 -11 19 -18.5t63.5 -13.5t120.5 -13q94 -7 156 -21.5t98 -36t51 -51.5t15 -69q0 -49 -25 -82
t-77.5 -52.5t-136 -28t-201.5 -8.5z" />
    <glyph glyph-name="uni06AB.init" unicode="&#x6ab;" horiz-adv-x="438" 
d="M341 421q-40 0 -68 28t-28 68q0 39 28 67.5t68 28.5q39 0 67.5 -28.5t28.5 -67.5q0 -40 -28.5 -68t-67.5 -28zM340 481q17 0 28 10.5t11 25.5q0 16 -11 26.5t-28 10.5q-16 0 -27 -10.5t-11 -26.5q0 -15 11 -25.5t27 -10.5zM0 -5l10 118h125q35 0 58 4t35.5 12t18 18
t5.5 23q0 16 -14.5 45t-60.5 73q-24 23 -50.5 46t-49.5 43t-38 34.5t-15 21.5q0 15 2.5 31.5t7 30.5t11.5 21q18 18 51 39.5t78 46t102 52t123 57.5l48 -104q-65 -29 -115.5 -53t-91 -45t-73 -40.5t-60.5 -40.5l14 60q77 -59 126.5 -108t77.5 -89.5t39.5 -74.5t11.5 -65
q0 -23 -10 -50t-38.5 -51t-81 -39.5t-137.5 -15.5h-109z" />
    <glyph glyph-name="uni06AB.medi" unicode="&#x6ab;" horiz-adv-x="508" 
d="M343 421q-41 0 -68.5 28.5t-27.5 67.5q0 40 27.5 68t68.5 28q39 0 67 -28t28 -68q0 -39 -28 -67.5t-67 -28.5zM342 482q16 0 27 10t11 25q0 17 -11 27t-27 10t-27 -10.5t-11 -26.5q0 -15 11 -25t27 -10zM0 -5l10 118h116q53 0 80 6t36 17t9 24q0 21 -16.5 46.5
t-42.5 53.5t-54.5 55.5t-54.5 51.5t-42.5 42t-16.5 26q0 23 3 38.5t8 26t12 17.5q18 19 52.5 41t81 46.5t102 51.5t116.5 55l48 -104q-59 -27 -109.5 -51t-92.5 -45.5t-76.5 -41.5t-62.5 -39l9 59q44 -37 80.5 -71t69 -68.5t60.5 -72t54 -82.5q22 -36 47 -53.5t49.5 -23
t41.5 -5.5q32 0 46 -16.5t14 -40.5q0 -25 -18.5 -43t-51.5 -18q-30 0 -67.5 10.5t-71.5 36t-53 72.5l45 -7q-15 -30 -35 -51.5t-49 -35t-67.5 -19.5t-89.5 -6h-119z" />
    <glyph glyph-name="uni06AB.fina" unicode="&#x6ab;" horiz-adv-x="961" 
d="M802 421q-41 0 -68.5 28.5t-27.5 67.5q0 40 27.5 68t68.5 28q39 0 67 -28t28 -68q0 -39 -28 -67.5t-67 -28.5zM801 482q16 0 27 10t11 25q0 17 -11 27t-27 10t-27 -10.5t-11 -26.5q0 -15 11 -25t27 -10zM411 -21l26 118q80 0 131.5 4t81 12.5t41.5 20t12 24.5
q0 21 -16.5 46.5t-42 53.5t-54.5 56t-54.5 51.5t-42 41.5t-16.5 26q0 23 3 38.5t8 26t12 17.5q24 26 76 56.5t123 65t152 72.5l49 -103q-79 -37 -142.5 -67.5t-112.5 -57.5t-86 -53l8 59q44 -37 81 -71t69 -68t60.5 -72t54.5 -82q15 -28 34 -44t37.5 -24t36 -10.5t30.5 -2.5
q32 0 45.5 -17.5t13.5 -41.5q0 -25 -18 -42t-51 -17q-31 0 -68.5 9.5t-71 35t-52.5 72.5l45 -7q-18 -35 -44.5 -59.5t-71 -39t-114 -21t-172.5 -6.5zM411 -21q-101 0 -172.5 14.5t-117.5 42.5t-68 68t-22 92q0 29 5 59.5t13 60t15 54.5l106 -26q-4 -17 -9 -37.5t-8.5 -40.5
t-3.5 -37q0 -42 26.5 -72t89.5 -45t172 -15l20 -86z" />
    <glyph glyph-name="uni06AC.init" unicode="&#x6ac;" horiz-adv-x="438" 
d="M0 -5l10 118h125q35 0 58 4t35.5 12t18 18t5.5 23q0 16 -14.5 45t-60.5 73q-24 23 -50.5 46t-49.5 43t-38 34.5t-15 21.5q0 15 2.5 31.5t7 30.5t11.5 21q18 18 51 39.5t78 46t102 52t123 57.5l48 -104q-65 -29 -115.5 -53t-91 -45t-73 -40.5t-60.5 -40.5l14 60
q77 -59 126.5 -108t77.5 -89.5t39.5 -74.5t11.5 -65q0 -23 -10 -50t-38.5 -51t-81 -39.5t-137.5 -15.5h-109zM172 723q-27 0 -46 18.5t-19 45.5t19 46.5t46 19.5q26 0 45 -19.5t19 -46.5t-19 -45.5t-45 -18.5z" />
    <glyph glyph-name="uni06AC.medi" unicode="&#x6ac;" horiz-adv-x="508" 
d="M0 -5l10 118h116q53 0 80 6t36 17t9 24q0 21 -16.5 46.5t-42.5 53.5t-54.5 55.5t-54.5 51.5t-42.5 42t-16.5 26q0 23 3 38.5t8 26t12 17.5q18 19 52.5 41t81 46.5t102 51.5t116.5 55l48 -104q-59 -27 -109.5 -51t-92.5 -45.5t-76.5 -41.5t-62.5 -39l9 59q44 -37 80.5 -71
t69 -68.5t60.5 -72t54 -82.5q22 -36 47 -53.5t49.5 -23t41.5 -5.5q32 0 46 -16.5t14 -40.5q0 -25 -18.5 -43t-51.5 -18q-30 0 -67.5 10.5t-71.5 36t-53 72.5l45 -7q-15 -30 -35 -51.5t-49 -35t-67.5 -19.5t-89.5 -6h-119zM149 723q-27 0 -46 18.5t-19 45.5t19 46.5t46 19.5
q26 0 45 -19.5t19 -46.5t-19 -45.5t-45 -18.5z" />
    <glyph glyph-name="uni06AC.fina" unicode="&#x6ac;" horiz-adv-x="954" 
d="M411 -21l26 118q96 0 156.5 6.5t93 24.5t44 49.5t8.5 79.5l-21 468h118l21 -469q3 -57 15 -88t35.5 -43t56.5 -12q31 0 45 -16.5t14 -40.5q0 -25 -18.5 -43t-50.5 -18q-45 0 -77.5 12.5t-53 37.5t-26.5 64l36 -1q-22 -42 -59.5 -68t-90.5 -39.5t-120.5 -18t-151.5 -3.5z
M371 211l-23 86q38 10 61.5 17t35 14.5t11.5 14.5q0 10 -10 20t-22.5 22t-22.5 27t-10 36q0 22 13 43.5t42.5 43t80.5 43.5l39 -77q-44 -19 -61 -32.5t-17 -24.5q0 -9 10 -20.5t22.5 -25t22.5 -30.5t10 -37q0 -15 -6.5 -31t-25 -31t-54.5 -29.5t-96 -28.5zM411 -21
q-101 0 -172.5 14.5t-117.5 42.5t-68 68t-22 92q0 29 5 59.5t13 60t15 54.5l106 -26q-4 -17 -9 -37.5t-8.5 -40.5t-3.5 -37q0 -42 26.5 -72t89.5 -45t172 -15l20 -86zM468 660q-27 0 -46 18.5t-19 45.5t19 46.5t46 19.5q26 0 45 -19.5t19 -46.5t-19 -45.5t-45 -18.5z" />
    <glyph glyph-name="uni06AE.init" unicode="&#x6ae;" horiz-adv-x="438" 
d="M0 -5l10 118h125q35 0 58 4t35.5 12t18 18t5.5 23q0 16 -14.5 45t-60.5 73q-24 23 -50.5 46t-49.5 43t-38 34.5t-15 21.5q0 15 2.5 31.5t7 30.5t11.5 21q18 18 51 39.5t78 46t102 52t123 57.5l48 -104q-65 -29 -115.5 -53t-91 -45t-73 -40.5t-60.5 -40.5l14 60
q77 -59 126.5 -108t77.5 -89.5t39.5 -74.5t11.5 -65q0 -23 -10 -50t-38.5 -51t-81 -39.5t-137.5 -15.5h-109zM186 -331q-24 0 -41 16.5t-17 40.5q0 23 17 40.5t41 17.5q23 0 40 -17.5t17 -40.5q0 -24 -17 -40.5t-40 -16.5zM113 -208q-24 0 -41 17t-17 40q0 24 17 41.5
t41 17.5q23 0 40 -17.5t17 -41.5q0 -23 -17 -40t-40 -17zM261 -208q-24 0 -41 17t-17 40q0 24 17 41.5t41 17.5t40.5 -17.5t16.5 -41.5q0 -23 -16.5 -40t-40.5 -17z" />
    <glyph glyph-name="uni06AE.medi" unicode="&#x6ae;" horiz-adv-x="508" 
d="M0 -5l10 118h116q53 0 80 6t36 17t9 24q0 21 -16.5 46.5t-42.5 53.5t-54.5 55.5t-54.5 51.5t-42.5 42t-16.5 26q0 23 3 38.5t8 26t12 17.5q18 19 52.5 41t81 46.5t102 51.5t116.5 55l48 -104q-59 -27 -109.5 -51t-92.5 -45.5t-76.5 -41.5t-62.5 -39l9 59q44 -37 80.5 -71
t69 -68.5t60.5 -72t54 -82.5q22 -36 47 -53.5t49.5 -23t41.5 -5.5q32 0 46 -16.5t14 -40.5q0 -25 -18.5 -43t-51.5 -18q-30 0 -67.5 10.5t-71.5 36t-53 72.5l45 -7q-15 -30 -35 -51.5t-49 -35t-67.5 -19.5t-89.5 -6h-119zM186 -331q-24 0 -41 16.5t-17 40.5q0 23 17 40.5
t41 17.5q23 0 40 -17.5t17 -40.5q0 -24 -17 -40.5t-40 -16.5zM113 -208q-24 0 -41 17t-17 40q0 24 17 41.5t41 17.5q23 0 40 -17.5t17 -41.5q0 -23 -17 -40t-40 -17zM261 -208q-24 0 -41 17t-17 40q0 24 17 41.5t41 17.5t40.5 -17.5t16.5 -41.5q0 -23 -16.5 -40t-40.5 -17z
" />
    <glyph glyph-name="uni06AE.fina" unicode="&#x6ae;" horiz-adv-x="954" 
d="M411 -21l26 118q96 0 156.5 6.5t93 24.5t44 49.5t8.5 79.5l-21 468h118l21 -469q3 -57 15 -88t35.5 -43t56.5 -12q31 0 45 -16.5t14 -40.5q0 -25 -18.5 -43t-50.5 -18q-45 0 -77.5 12.5t-53 37.5t-26.5 64l36 -1q-22 -42 -59.5 -68t-90.5 -39.5t-120.5 -18t-151.5 -3.5z
M371 211l-23 86q38 10 61.5 17t35 14.5t11.5 14.5q0 10 -10 20t-22.5 22t-22.5 27t-10 36q0 22 13 43.5t42.5 43t80.5 43.5l39 -77q-44 -19 -61 -32.5t-17 -24.5q0 -9 10 -20.5t22.5 -25t22.5 -30.5t10 -37q0 -15 -6.5 -31t-25 -31t-54.5 -29.5t-96 -28.5zM411 -21
q-101 0 -172.5 14.5t-117.5 42.5t-68 68t-22 92q0 29 5 59.5t13 60t15 54.5l106 -26q-4 -17 -9 -37.5t-8.5 -40.5t-3.5 -37q0 -42 26.5 -72t89.5 -45t172 -15l20 -86zM423 -352q-24 0 -41 16.5t-17 40.5q0 23 17 40.5t41 17.5q23 0 40 -17.5t17 -40.5q0 -24 -17 -40.5
t-40 -16.5zM350 -229q-24 0 -41 17t-17 40q0 24 17 41.5t41 17.5q23 0 40 -17.5t17 -41.5q0 -23 -17 -40t-40 -17zM498 -229q-24 0 -41 17t-17 40q0 24 17 41.5t41 17.5t40.5 -17.5t16.5 -41.5q0 -23 -16.5 -40t-40.5 -17z" />
    <glyph glyph-name="uni06B0.init" unicode="&#x6b0;" horiz-adv-x="438" 
d="M342 422q-40 0 -67.5 28t-27.5 68q0 39 27.5 67.5t67.5 28.5t68 -28.5t28 -67.5q0 -40 -28 -68t-68 -28zM342 482q16 0 27 10t11 26t-11 26.5t-27 10.5t-27 -11t-11 -26q0 -16 11 -26t27 -10zM1 572l-44 72q45 27 98 58t120 67.5t154 80.5l39 -78q-88 -44 -154 -79.5
t-117 -65t-96 -55.5zM0 -5l10 118h125q35 0 58 4t35.5 12t18 18t5.5 23q0 16 -14.5 45t-60.5 73q-24 23 -50.5 46t-49.5 43t-38 34.5t-15 21.5q0 15 2.5 31.5t7 30.5t11.5 21q18 18 51 39.5t78 46t102 52t123 57.5l48 -104q-65 -29 -115.5 -53t-91 -45t-73 -40.5
t-60.5 -40.5l14 60q77 -59 126.5 -108t77.5 -89.5t39.5 -74.5t11.5 -65q0 -23 -10 -50t-38.5 -51t-81 -39.5t-137.5 -15.5h-109z" />
    <glyph glyph-name="uni06B0.medi" unicode="&#x6b0;" horiz-adv-x="508" 
d="M342 421q-40 0 -68 28t-28 68q0 39 28 67.5t68 28.5q39 0 67.5 -28.5t28.5 -67.5q0 -40 -28.5 -68t-67.5 -28zM341 481q17 0 28 10.5t11 25.5q0 16 -11 26.5t-28 10.5q-16 0 -27 -10.5t-11 -26.5q0 -15 11 -25.5t27 -10.5zM5 572l-45 72q45 27 98 58t120 67.5t154 80.5
l39 -78q-88 -44 -154 -79.5t-117 -65t-95 -55.5zM0 -5l10 118h116q53 0 80 6t36 17t9 24q0 21 -16.5 46.5t-42.5 53.5t-54.5 55.5t-54.5 51.5t-42.5 42t-16.5 26q0 23 3 38.5t8 26t12 17.5q18 19 52.5 41t81 46.5t102 51.5t116.5 55l48 -104q-59 -27 -109.5 -51t-92.5 -45.5
t-76.5 -41.5t-62.5 -39l9 59q44 -37 80.5 -71t69 -68.5t60.5 -72t54 -82.5q22 -36 47 -53.5t49.5 -23t41.5 -5.5q32 0 46 -16.5t14 -40.5q0 -25 -18.5 -43t-51.5 -18q-30 0 -67.5 10.5t-71.5 36t-53 72.5l45 -7q-15 -30 -35 -51.5t-49 -35t-67.5 -19.5t-89.5 -6h-119z" />
    <glyph glyph-name="uni06B0.fina" unicode="&#x6b0;" horiz-adv-x="961" 
d="M804 423q-40 0 -68 28t-28 67q0 40 28 68t68 28q39 0 67.5 -28t28.5 -68q0 -39 -28.5 -67t-67.5 -28zM803 483q17 0 28 10t11 25q0 17 -11 27t-28 10q-16 0 -27 -10.5t-11 -26.5q0 -15 11 -25t27 -10zM456 572l-44 72q45 27 98 58t120 67.5t154 80.5l39 -78
q-88 -44 -154 -79.5t-117 -65t-96 -55.5zM411 -21l26 118q80 0 131.5 4t81 12.5t41.5 20t12 24.5q0 21 -16.5 46.5t-42 53.5t-54.5 56t-54.5 51.5t-42 41.5t-16.5 26q0 23 3 38.5t8 26t12 17.5q24 26 76 56.5t123 65t152 72.5l49 -103q-79 -37 -142.5 -67.5t-112.5 -57.5
t-86 -53l8 59q44 -37 81 -71t69 -68t60.5 -72t54.5 -82q15 -28 34 -44t37.5 -24t36 -10.5t30.5 -2.5q32 0 45.5 -17.5t13.5 -41.5q0 -25 -18 -42t-51 -17q-31 0 -68.5 9.5t-71 35t-52.5 72.5l45 -7q-18 -35 -44.5 -59.5t-71 -39t-114 -21t-172.5 -6.5zM411 -21
q-101 0 -172.5 14.5t-117.5 42.5t-68 68t-22 92q0 29 5 59.5t13 60t15 54.5l106 -26q-4 -17 -9 -37.5t-8.5 -40.5t-3.5 -37q0 -42 26.5 -72t89.5 -45t172 -15l20 -86z" />
    <glyph glyph-name="uni06B2.init" unicode="&#x6b2;" horiz-adv-x="438" 
d="M1 572l-44 72q45 27 98 58t120 67.5t154 80.5l39 -78q-88 -44 -154 -79.5t-117 -65t-96 -55.5zM0 -5l10 118h125q35 0 58 4t35.5 12t18 18t5.5 23q0 16 -14.5 45t-60.5 73q-24 23 -50.5 46t-49.5 43t-38 34.5t-15 21.5q0 15 2.5 31.5t7 30.5t11.5 21q18 18 51 39.5t78 46
t102 52t123 57.5l48 -104q-65 -29 -115.5 -53t-91 -45t-73 -40.5t-60.5 -40.5l14 60q77 -59 126.5 -108t77.5 -89.5t39.5 -74.5t11.5 -65q0 -23 -10 -50t-38.5 -51t-81 -39.5t-137.5 -15.5h-109zM247 -216q-26 0 -44 18.5t-18 43.5t18 44t44 19q25 0 43 -19t18 -44
t-18 -43.5t-43 -18.5zM88 -216q-26 0 -44.5 18.5t-18.5 43.5t18.5 44t44.5 19q25 0 43 -19t18 -44t-18 -43.5t-43 -18.5z" />
    <glyph glyph-name="uni06B2.medi" unicode="&#x6b2;" horiz-adv-x="508" 
d="M5 572l-45 72q45 27 98 58t120 67.5t154 80.5l39 -78q-88 -44 -154 -79.5t-117 -65t-95 -55.5zM0 -5l10 118h116q53 0 80 6t36 17t9 24q0 21 -16.5 46.5t-42.5 53.5t-54.5 55.5t-54.5 51.5t-42.5 42t-16.5 26q0 23 3 38.5t8 26t12 17.5q18 19 52.5 41t81 46.5t102 51.5
t116.5 55l48 -104q-59 -27 -109.5 -51t-92.5 -45.5t-76.5 -41.5t-62.5 -39l9 59q44 -37 80.5 -71t69 -68.5t60.5 -72t54 -82.5q22 -36 47 -53.5t49.5 -23t41.5 -5.5q32 0 46 -16.5t14 -40.5q0 -25 -18.5 -43t-51.5 -18q-30 0 -67.5 10.5t-71.5 36t-53 72.5l45 -7
q-15 -30 -35 -51.5t-49 -35t-67.5 -19.5t-89.5 -6h-119zM247 -216q-26 0 -44 18.5t-18 43.5t18 44t44 19q25 0 43 -19t18 -44t-18 -43.5t-43 -18.5zM88 -216q-26 0 -44.5 18.5t-18.5 43.5t18.5 44t44.5 19q25 0 43 -19t18 -44t-18 -43.5t-43 -18.5z" />
    <glyph glyph-name="uni06B2.fina" unicode="&#x6b2;" horiz-adv-x="961" 
d="M456 572l-44 72q45 27 98 58t120 67.5t154 80.5l39 -78q-88 -44 -154 -79.5t-117 -65t-96 -55.5zM411 -21l26 118q80 0 131.5 4t81 12.5t41.5 20t12 24.5q0 21 -16.5 46.5t-42 53.5t-54.5 56t-54.5 51.5t-42 41.5t-16.5 26q0 23 3 38.5t8 26t12 17.5q24 26 76 56.5
t123 65t152 72.5l49 -103q-79 -37 -142.5 -67.5t-112.5 -57.5t-86 -53l8 59q44 -37 81 -71t69 -68t60.5 -72t54.5 -82q15 -28 34 -44t37.5 -24t36 -10.5t30.5 -2.5q32 0 45.5 -17.5t13.5 -41.5q0 -25 -18 -42t-51 -17q-31 0 -68.5 9.5t-71 35t-52.5 72.5l45 -7
q-18 -35 -44.5 -59.5t-71 -39t-114 -21t-172.5 -6.5zM411 -21q-101 0 -172.5 14.5t-117.5 42.5t-68 68t-22 92q0 29 5 59.5t13 60t15 54.5l106 -26q-4 -17 -9 -37.5t-8.5 -40.5t-3.5 -37q0 -42 26.5 -72t89.5 -45t172 -15l20 -86zM494 -237q-26 0 -44 18.5t-18 43.5t18 44
t44 19q25 0 43 -19t18 -44t-18 -43.5t-43 -18.5zM335 -237q-26 0 -44.5 18.5t-18.5 43.5t18.5 44t44.5 19q25 0 43 -19t18 -44t-18 -43.5t-43 -18.5z" />
    <glyph glyph-name="uni06B4.init" unicode="&#x6b4;" horiz-adv-x="438" 
d="M57 901q-22 0 -36.5 15t-14.5 36t14.5 36t36.5 15q21 0 35.5 -15t14.5 -36t-14.5 -36t-35.5 -15zM53 779q-21 0 -36 14.5t-15 36.5q0 20 15 35.5t36 15.5t36 -15.5t15 -35.5q0 -22 -15 -36.5t-36 -14.5zM162 837q-22 0 -36.5 14.5t-14.5 35.5t14.5 36.5t36.5 15.5
q21 0 35.5 -15.5t14.5 -36.5t-14.5 -35.5t-35.5 -14.5zM1 572l-44 72q45 27 98 58t120 67.5t154 80.5l39 -78q-88 -44 -154 -79.5t-117 -65t-96 -55.5zM0 -5l10 118h125q35 0 58 4t35.5 12t18 18t5.5 23q0 16 -14.5 45t-60.5 73q-24 23 -50.5 46t-49.5 43t-38 34.5t-15 21.5
q0 15 2.5 31.5t7 30.5t11.5 21q18 18 51 39.5t78 46t102 52t123 57.5l48 -104q-65 -29 -115.5 -53t-91 -45t-73 -40.5t-60.5 -40.5l14 60q77 -59 126.5 -108t77.5 -89.5t39.5 -74.5t11.5 -65q0 -23 -10 -50t-38.5 -51t-81 -39.5t-137.5 -15.5h-109z" />
    <glyph glyph-name="uni06B4.medi" unicode="&#x6b4;" horiz-adv-x="508" 
d="M56 901q-22 0 -36.5 15t-14.5 36t14.5 36t36.5 15q20 0 35 -15t15 -36t-15 -36t-35 -15zM52 779q-22 0 -36.5 14.5t-14.5 36.5q0 20 14.5 35.5t36.5 15.5q21 0 35.5 -15.5t14.5 -35.5q0 -22 -14.5 -36.5t-35.5 -14.5zM161 837q-22 0 -36.5 14.5t-14.5 35.5t14.5 36.5
t36.5 15.5q20 0 35 -15.5t15 -36.5t-15 -35.5t-35 -14.5zM5 572l-45 72q45 27 98 58t120 67.5t154 80.5l39 -78q-88 -44 -154 -79.5t-117 -65t-95 -55.5zM0 -5l10 118h116q53 0 80 6t36 17t9 24q0 21 -16.5 46.5t-42.5 53.5t-54.5 55.5t-54.5 51.5t-42.5 42t-16.5 26
q0 23 3 38.5t8 26t12 17.5q18 19 52.5 41t81 46.5t102 51.5t116.5 55l48 -104q-59 -27 -109.5 -51t-92.5 -45.5t-76.5 -41.5t-62.5 -39l9 59q44 -37 80.5 -71t69 -68.5t60.5 -72t54 -82.5q22 -36 47 -53.5t49.5 -23t41.5 -5.5q32 0 46 -16.5t14 -40.5q0 -25 -18.5 -43
t-51.5 -18q-30 0 -67.5 10.5t-71.5 36t-53 72.5l45 -7q-15 -30 -35 -51.5t-49 -35t-67.5 -19.5t-89.5 -6h-119z" />
    <glyph glyph-name="uni06B4.fina" unicode="&#x6b4;" horiz-adv-x="961" 
d="M505 905q-21 0 -36 15t-15 35q0 22 15 37t36 15t36 -15t15 -37q0 -20 -15 -35t-36 -15zM502 783q-22 0 -37 14.5t-15 36.5q0 20 15 35.5t37 15.5q20 0 35 -15.5t15 -35.5q0 -22 -15 -36.5t-35 -14.5zM610 840q-21 0 -36 15t-15 36t15 36.5t36 15.5t36 -15.5t15 -36.5
t-15 -36t-36 -15zM456 572l-44 72q45 27 98 58t120 67.5t154 80.5l39 -78q-88 -44 -154 -79.5t-117 -65t-96 -55.5zM411 -21l26 118q80 0 131.5 4t81 12.5t41.5 20t12 24.5q0 21 -16.5 46.5t-42 53.5t-54.5 56t-54.5 51.5t-42 41.5t-16.5 26q0 23 3 38.5t8 26t12 17.5
q24 26 76 56.5t123 65t152 72.5l49 -103q-79 -37 -142.5 -67.5t-112.5 -57.5t-86 -53l8 59q44 -37 81 -71t69 -68t60.5 -72t54.5 -82q15 -28 34 -44t37.5 -24t36 -10.5t30.5 -2.5q32 0 45.5 -17.5t13.5 -41.5q0 -25 -18 -42t-51 -17q-31 0 -68.5 9.5t-71 35t-52.5 72.5
l45 -7q-18 -35 -44.5 -59.5t-71 -39t-114 -21t-172.5 -6.5zM411 -21q-101 0 -172.5 14.5t-117.5 42.5t-68 68t-22 92q0 29 5 59.5t13 60t15 54.5l106 -26q-4 -17 -9 -37.5t-8.5 -40.5t-3.5 -37q0 -42 26.5 -72t89.5 -45t172 -15l20 -86z" />
    <glyph glyph-name="uni06B5.init" unicode="&#x6b5;" horiz-adv-x="283" 
d="M0 -5l10 118q50 0 71 10t25 37t2 78l-19 487h119l20 -490q2 -56 -4.5 -100.5t-29.5 -75.5t-69.5 -47.5t-124.5 -16.5zM120 845q-7 15 -18.5 38t-24.5 48t-25.5 48t-22.5 39l53 29q7 -10 18.5 -29.5t23.5 -42.5t23.5 -45t18.5 -36l21 -43zM187 851l-52 20q6 17 17.5 43.5
t24 55t22.5 50.5t15 30l53 -22q-5 -10 -15.5 -32.5t-23 -50t-24 -53t-17.5 -41.5z" />
    <glyph glyph-name="uni06B5.medi" unicode="&#x6b5;" horiz-adv-x="327" 
d="M0 -5l10 118q50 0 71 10t25 37t2 78l-17 487h120l17 -486q2 -50 13.5 -77.5t35.5 -38t60 -10.5q32 0 45.5 -16.5t13.5 -40.5q0 -25 -18.5 -43t-50.5 -18q-43 0 -77 11.5t-55.5 37t-28.5 67.5l36 -2q-15 -43 -40 -68t-64.5 -35.5t-97.5 -10.5zM129 845q-7 15 -18.5 38
t-24.5 48t-25.5 48t-22.5 39l53 29q7 -10 18.5 -29.5t23.5 -42.5t23.5 -45t18.5 -36l21 -43zM196 851l-52 20q6 17 17.5 43.5t24 55t22.5 50.5t15 30l53 -22q-5 -10 -15.5 -32.5t-23 -50t-24 -53t-17.5 -41.5z" />
    <glyph glyph-name="uni06B5.fina" unicode="&#x6b5;" horiz-adv-x="768" 
d="M28 17q0 23 4 53t14.5 66.5t29.5 79.5l104 -37q-11 -30 -19 -55t-11.5 -47t-3.5 -42q0 -48 24 -82t65 -52t92 -18q90 0 139 30t68 88.5t15 142.5l-21 581h119l16 -486q2 -50 15 -77.5t38 -38t62 -10.5q32 0 45.5 -16.5t13.5 -40.5q0 -25 -18.5 -43t-50.5 -18q-25 0 -49 7
t-43.5 20t-33.5 33t-19 47l44 6q-1 -83 -22.5 -146t-63.5 -106t-106.5 -65t-151.5 -22q-60 0 -113.5 15.5t-94 47t-64 77.5t-23.5 108zM270 577q-7 15 -18.5 38t-24.5 48t-25.5 48t-22.5 39l53 29q7 -10 18.5 -29.5t23.5 -42.5t23.5 -45t18.5 -36l21 -43zM337 583l-52 20
q6 17 17.5 43.5t24 55t22.5 50.5t15 30l53 -22q-5 -10 -15.5 -32.5t-23 -50t-24 -53t-17.5 -41.5z" />
    <glyph glyph-name="uni06B6.init" unicode="&#x6b6;" horiz-adv-x="283" 
d="M0 -5l10 118q50 0 71 10t25 37t2 78l-19 487h119l20 -490q2 -56 -4.5 -100.5t-29.5 -75.5t-69.5 -47.5t-124.5 -16.5zM152 822q-27 0 -46 18.5t-19 45.5t19 46.5t46 19.5q26 0 45 -19.5t19 -46.5t-19 -45.5t-45 -18.5z" />
    <glyph glyph-name="uni06B6.medi" unicode="&#x6b6;" horiz-adv-x="327" 
d="M0 -5l10 118q50 0 71 10t25 37t2 78l-17 487h120l17 -486q2 -50 13.5 -77.5t35.5 -38t60 -10.5q32 0 45.5 -16.5t13.5 -40.5q0 -25 -18.5 -43t-50.5 -18q-43 0 -77 11.5t-55.5 37t-28.5 67.5l36 -2q-15 -43 -40 -68t-64.5 -35.5t-97.5 -10.5zM162 822q-27 0 -46 18.5
t-19 45.5t19 46.5t46 19.5q26 0 45 -19.5t19 -46.5t-19 -45.5t-45 -18.5z" />
    <glyph glyph-name="uni06B6.fina" unicode="&#x6b6;" horiz-adv-x="768" 
d="M28 17q0 23 4 53t14.5 66.5t29.5 79.5l104 -37q-11 -30 -19 -55t-11.5 -47t-3.5 -42q0 -48 24 -82t65 -52t92 -18q90 0 139 30t68 88.5t15 142.5l-21 581h119l16 -486q2 -50 15 -77.5t38 -38t62 -10.5q32 0 45.5 -16.5t13.5 -40.5q0 -25 -18.5 -43t-50.5 -18q-25 0 -49 7
t-43.5 20t-33.5 33t-19 47l44 6q-1 -83 -22.5 -146t-63.5 -106t-106.5 -65t-151.5 -22q-60 0 -113.5 15.5t-94 47t-64 77.5t-23.5 108zM302 553q-27 0 -46 18.5t-19 45.5t19 46.5t46 19.5q26 0 45 -19.5t19 -46.5t-19 -45.5t-45 -18.5z" />
    <glyph glyph-name="uni06B7.init" unicode="&#x6b7;" horiz-adv-x="283" 
d="M0 -5l10 118q50 0 71 10t25 37t2 78l-19 487h119l20 -490q2 -56 -4.5 -100.5t-29.5 -75.5t-69.5 -47.5t-124.5 -16.5zM157 946q-23 0 -40 17.5t-17 40.5q0 24 17 41t40 17q24 0 40.5 -17t16.5 -41q0 -23 -16.5 -40.5t-40.5 -17.5zM82 822q-24 0 -41 17.5t-17 41.5
q0 23 17 40t41 17q23 0 40 -17t17 -40q0 -24 -17 -41.5t-40 -17.5zM229 822q-23 0 -40 17.5t-17 41.5q0 23 17 40t40 17q24 0 41 -17t17 -40q0 -24 -17 -41.5t-41 -17.5z" />
    </font>
</defs>
</svg>
