<?xml version="1.0" standalone="no"?>
<!DOCTYPE svg PUBLIC "-//W3C//DTD SVG 1.1//EN" "http://www.w3.org/Graphics/SVG/1.1/DTD/svg11.dtd" >
<svg xmlns="http://www.w3.org/2000/svg" xmlns:xlink="http://www.w3.org/1999/xlink" version="1.1">
<metadata>
Created by FontForge 20170731 at Thu Nov 12 05:28:44 2020
 By Aleksey,,,
Copyright 2015-2020 Google LLC. All Rights Reserved.
</metadata>
<defs>
<font id="NotoSansArabic-Thin" horiz-adv-x="0" >
  <font-face 
    font-family="Noto Sans Arabic Thin"
    font-weight="250"
    font-stretch="normal"
    units-per-em="1000"
    panose-1="0 0 0 0 0 0 0 0 0 0"
    ascent="800"
    descent="-200"
    bbox="-214 -573 2326 1076"
    underline-thickness="50"
    underline-position="-175"
    unicode-range="U+000D-FEFC"
  />
<missing-glyph horiz-adv-x="600" 
d="M107 0v714h385v-714h-385zM131 24h337v666h-337v-666z" />
    <glyph glyph-name="uniFC43" unicode="&#xfedf;&#xfef0;" horiz-adv-x="964" arabic-form="isolated" 
d="M756 -5l4 24q60 0 86.5 15t33 49t4.5 92l-19 539h23l20 -537q2 -50 -3 -84.5t-21.5 -56t-47 -31.5t-80.5 -10zM50 -22q0 25 4 52.5t15.5 61.5t32.5 79l23 -11q-16 -31 -27 -62.5t-16.5 -61t-5.5 -55.5q0 -42 16 -76.5t49.5 -59.5t86 -38t124.5 -13q74 0 129.5 17
t93.5 43.5t57 57.5t19 58q0 21 -16 38t-40.5 31t-51.5 25t-50 21l9 23q56 -25 93 -42t63.5 -27.5t49.5 -15t51 -4.5q8 0 9.5 -3.5t1.5 -7.5t-3.5 -8.5t-17.5 -4.5q-9 0 -26.5 2t-35.5 6.5t-29 9.5q11 -13 14 -26.5t3 -21.5q0 -28 -19 -62t-58.5 -64t-100 -49.5t-143.5 -19.5
q-87 0 -156 21.5t-108.5 67.5t-39.5 119z" />
    <glyph glyph-name="uniFC86" unicode="&#xfee0;&#xfef0;" horiz-adv-x="1030" arabic-form="final" 
d="M756 -5l4 24q63 0 90 22t32.5 64t3.5 100l-17 509h25l16 -507q3 -72 13.5 -113t36.5 -58t73 -17q6 0 8.5 -3t2.5 -8q0 -4 -4 -8.5t-10 -4.5q-43 0 -71 15.5t-42.5 41.5t-20.5 55h10q-6 -34 -21.5 -59t-46 -39t-82.5 -14zM50 -22q0 25 4 52.5t15.5 61.5t32.5 79l23 -11
q-16 -31 -27 -62.5t-16.5 -61t-5.5 -55.5q0 -42 16 -76.5t49.5 -59.5t86 -38t124.5 -13q74 0 129.5 17t93.5 43.5t57 57.5t19 58q0 21 -16 38t-40.5 31t-51.5 25t-50 21l9 23q56 -25 93 -42t63.5 -27.5t49.5 -15t51 -4.5q8 0 9.5 -3.5t1.5 -7.5t-3.5 -8.5t-17.5 -4.5
q-9 0 -26.5 2t-35.5 6.5t-29 9.5q11 -13 14 -26.5t3 -21.5q0 -28 -19 -62t-58.5 -64t-100 -49.5t-143.5 -19.5q-87 0 -156 21.5t-108.5 67.5t-39.5 119z" />
    <glyph glyph-name="uniFD82" unicode="&#xfee0;&#xfea4;&#xfef0;" horiz-adv-x="1637" arabic-form="final" 
d="M1363 -5l4 24q63 0 90 22t32.5 64t3.5 100l-17 509h25l16 -507q3 -72 13.5 -113t36.5 -58t73 -17q6 0 8.5 -3t2.5 -8q0 -4 -4 -8.5t-10 -4.5q-43 0 -71 15.5t-42.5 41.5t-20.5 55h10q-6 -34 -21.5 -59t-46 -39t-82.5 -14zM1363 -5q-42 0 -77 2.5t-62.5 15t-46.5 41.5
t-29 81l20 8q12 -61 37 -87t65 -31.5t96 -5.5q6 0 8.5 -3t2.5 -8q0 -4 -4 -8.5t-10 -4.5zM756 -5l4 24q60 0 110 8t98 25t99 43t112 62q-49 38 -93 65.5t-87.5 42.5t-92.5 15q-16 0 -31.5 -1t-31.5 -4t-35 -9l-4 24q25 8 51 11t51 3q53 0 94.5 -13.5t74 -33t59 -39.5
t50 -33.5t47.5 -13.5h25l3 -23q-31 0 -59.5 -11.5t-59 -28.5t-66.5 -36.5t-81 -37t-103.5 -28.5t-133.5 -11zM50 -22q0 25 4 52.5t15.5 61.5t32.5 79l23 -11q-16 -31 -27 -62.5t-16.5 -61t-5.5 -55.5q0 -42 16 -76.5t49.5 -59.5t86 -38t124.5 -13q74 0 129.5 17t93.5 43.5
t57 57.5t19 58q0 21 -16 38t-40.5 31t-51.5 25t-50 21l9 23q56 -25 93 -42t63.5 -27.5t49.5 -15t51 -4.5q8 0 9.5 -3.5t1.5 -7.5t-3.5 -8.5t-17.5 -4.5q-9 0 -26.5 2t-35.5 6.5t-29 9.5q11 -13 14 -26.5t3 -21.5q0 -28 -19 -62t-58.5 -64t-100 -49.5t-143.5 -19.5
q-87 0 -156 21.5t-108.5 67.5t-39.5 119z" />
    <glyph glyph-name="uniFDF2" unicode="&#x627;&#xfedf;&#xfee0;&#xfeea;" horiz-adv-x="1181" arabic-form="isolated" 
d="M466 -5q-38 0 -67.5 7t-49 29t-26.5 66q-51 -12 -99.5 -10.5t-88 16t-62.5 41t-23 65.5q0 52 34 100t91.5 83.5t129.5 47.5l-4 76h24l18 -367q3 -51 13 -79.5t37.5 -39.5t82.5 -11q63 0 90 22t32.5 64t3.5 100l-12 363h25l11 -361q2 -72 13 -113t38.5 -58t78.5 -17
q60 0 86.5 15t33 49t4.5 92l-19 539h23l20 -537q2 -50 -3 -84.5t-21.5 -56t-48.5 -31.5t-85 -10q-38 0 -64 12.5t-41.5 33t-23.5 45.5q-12 -42 -43.5 -66.5t-107.5 -24.5zM320 120l-14 295q-60 -9 -112.5 -40t-85.5 -74t-33 -88q0 -36 23 -58.5t60 -33t80 -10.5t82 9z
M1072 0l-20 714h24l20 -714h-24zM536 598q-31 0 -46.5 21.5t-15.5 57.5q0 11 1.5 25.5t4.5 30.5l21 6q-3 -19 -4.5 -34t-1.5 -26q0 -23 9 -41t33 -18q19 0 33.5 17.5t14.5 60.5v63l22 8v-81q0 -14 11 -24.5t31 -10.5q23 0 33 16t10 44q0 22 -4 41.5t-11 36.5l20 7
q7 -13 12 -37.5t5 -47.5q0 -34 -15.5 -58t-50.5 -24q-25 0 -40.5 14.5t-15.5 37.5h12q0 -34 -17 -59.5t-51 -25.5zM581 814l-6 173h22l6 -173h-22z" />
    <glyph glyph-name="uniFEF5" unicode="&#xfedf;&#xfe82;" horiz-adv-x="651" arabic-form="isolated" 
d="M381 527q0 33 -3.5 68.5t-8 67t-8.5 51.5l23 5q4 -19 8.5 -52t8 -70.5t3.5 -71.5q0 -37 -5 -73.5t-15 -72t-24 -69.5l-4 -9q-35 -79 -93.5 -149t-136.5 -128h219q47 0 72 14t34 35t9 43q0 43 -26.5 85.5t-78.5 90.5t-130 108.5t-180 139.5l15 20q94 -71 164 -127
t119.5 -100t80.5 -81t45 -69.5t14 -65.5q0 -18 -5.5 -38.5t-20.5 -38t-42 -29t-70 -11.5h-242v37q99 70 160 152t89.5 168.5t28.5 169.5zM165 639q-27 0 -50.5 10.5t-44 20.5t-39.5 10q-15 0 -30 -9t-31 -25l-15 14q17 18 35.5 30.5t42.5 12.5t45 -10t43 -20.5t47 -10.5
q20 0 39.5 9t41.5 28l12 -17q-25 -23 -49 -33t-47 -10z" />
    <glyph glyph-name="uniFEF6" unicode="&#xfee0;&#xfe82;" horiz-adv-x="521" arabic-form="final" 
d="M521 -5q-34 0 -57 9.5t-37.5 31.5t-22 59.5t-9.5 94.5l-18 524h23l18 -499q3 -65 8.5 -109t27 -65.5t70.5 -21.5q6 0 8.5 -3t2.5 -8q0 -4 -4 -8.5t-10 -4.5zM138 -11q-27 0 -54.5 4.5t-38.5 6.5l4 25q71 -18 133 -9t108.5 47t73 104.5t26.5 163.5l19 -24
q0 -79 -18.5 -134.5t-49 -91.5t-67 -56t-72 -28t-64.5 -8zM377 153q-41 63 -76 114t-68.5 95.5t-72 87.5t-86.5 88l16 17q51 -48 92 -94t75.5 -92.5t66.5 -94.5t64 -100zM165 639q-27 0 -50.5 10.5t-44 20.5t-39.5 10q-15 0 -30 -9t-31 -25l-15 14q17 18 35.5 30.5
t42.5 12.5t45 -10t43 -20.5t47 -10.5q20 0 39.5 9t41.5 28l12 -17q-25 -23 -49 -33t-47 -10z" />
    <glyph glyph-name="uniFEF7" unicode="&#xfedf;&#xfe84;" horiz-adv-x="568" arabic-form="isolated" 
d="M381 527q0 33 -3.5 68.5t-8 67t-8.5 51.5l23 5q4 -19 8.5 -52t8 -70.5t3.5 -71.5q0 -37 -5 -73.5t-15 -72t-24 -69.5l-4 -9q-35 -79 -93.5 -149t-136.5 -128h219q47 0 72 14t34 35t9 43q0 43 -26.5 85.5t-78.5 90.5t-130 108.5t-180 139.5l15 20q94 -71 164 -127
t119.5 -100t80.5 -81t45 -69.5t14 -65.5q0 -18 -5.5 -38.5t-20.5 -38t-42 -29t-70 -11.5h-242v37q99 70 160 152t89.5 168.5t28.5 169.5zM14 651l-5 22q26 6 44.5 11t38.5 10l31 -7q-49 5 -79 33t-30 62q0 26 13 44t34.5 27t44.5 9q13 0 25.5 -2t22.5 -6l-5 -20
q-10 3 -21 4.5t-22 1.5q-36 0 -53 -17.5t-17 -40.5q0 -21 14 -38t36.5 -27.5t49.5 -15.5l-40 -5q27 7 50.5 14.5t42.5 14.5l7 -20q-24 -9 -56.5 -19t-65 -19t-60.5 -16z" />
    <glyph glyph-name="uniFEF8" unicode="&#xfee0;&#xfe84;" horiz-adv-x="521" arabic-form="final" 
d="M521 -5q-34 0 -57 9.5t-37.5 31.5t-22 59.5t-9.5 94.5l-18 524h23l18 -499q3 -65 8.5 -109t27 -65.5t70.5 -21.5q6 0 8.5 -3t2.5 -8q0 -4 -4 -8.5t-10 -4.5zM138 -11q-27 0 -54.5 4.5t-38.5 6.5l4 25q71 -18 133 -9t108.5 47t73 104.5t26.5 163.5l19 -24
q0 -79 -18.5 -134.5t-49 -91.5t-67 -56t-72 -28t-64.5 -8zM377 153q-41 63 -76 114t-68.5 95.5t-72 87.5t-86.5 88l16 17q51 -48 92 -94t75.5 -92.5t66.5 -94.5t64 -100zM65 651l-5 22q26 6 44.5 11t38.5 10l31 -7q-49 5 -79 33t-30 62q0 26 13 44t34.5 27t44.5 9
q13 0 25.5 -2t22.5 -6l-5 -20q-10 3 -21 4.5t-22 1.5q-36 0 -53 -17.5t-17 -40.5q0 -21 14 -38t36.5 -27.5t49.5 -15.5l-40 -5q27 7 50.5 14.5t42.5 14.5l7 -20q-24 -9 -56.5 -19t-65 -19t-60.5 -16z" />
    <glyph glyph-name="uniFEF9" unicode="&#xfedf;&#xfe88;" horiz-adv-x="568" arabic-form="isolated" 
d="M381 527q0 33 -3.5 68.5t-8 67t-8.5 51.5l23 5q4 -19 8.5 -52t8 -70.5t3.5 -71.5q0 -37 -5 -73.5t-15 -72t-24 -69.5l-4 -9q-35 -79 -93.5 -149t-136.5 -128h219q47 0 72 14t34 35t9 43q0 43 -26.5 85.5t-78.5 90.5t-130 108.5t-180 139.5l15 20q94 -71 164 -127
t119.5 -100t80.5 -81t45 -69.5t14 -65.5q0 -18 -5.5 -38.5t-20.5 -38t-42 -29t-70 -11.5h-242v37q99 70 160 152t89.5 168.5t28.5 169.5zM90 -288l-5 22q26 6 44.5 11t38.5 10l31 -7q-49 5 -79 33t-30 62q0 26 13 44t34.5 27t44.5 9q13 0 25.5 -2t22.5 -6l-5 -20
q-10 3 -21 4.5t-22 1.5q-36 0 -53 -17.5t-17 -40.5q0 -21 14 -38t36.5 -27.5t49.5 -15.5l-40 -5q27 7 50.5 14.5t42.5 14.5l7 -20q-24 -9 -56.5 -19t-65 -19t-60.5 -16z" />
    <glyph glyph-name="uniFEFA" unicode="&#xfee0;&#xfe88;" horiz-adv-x="521" arabic-form="final" 
d="M521 -5q-34 0 -57 9.5t-37.5 31.5t-22 59.5t-9.5 94.5l-18 524h23l18 -499q3 -65 8.5 -109t27 -65.5t70.5 -21.5q6 0 8.5 -3t2.5 -8q0 -4 -4 -8.5t-10 -4.5zM138 -11q-27 0 -54.5 4.5t-38.5 6.5l4 25q71 -18 133 -9t108.5 47t73 104.5t26.5 163.5l19 -24
q0 -79 -18.5 -134.5t-49 -91.5t-67 -56t-72 -28t-64.5 -8zM377 153q-41 63 -76 114t-68.5 95.5t-72 87.5t-86.5 88l16 17q51 -48 92 -94t75.5 -92.5t66.5 -94.5t64 -100zM90 -288l-5 22q26 6 44.5 11t38.5 10l31 -7q-49 5 -79 33t-30 62q0 26 13 44t34.5 27t44.5 9
q13 0 25.5 -2t22.5 -6l-5 -20q-10 3 -21 4.5t-22 1.5q-36 0 -53 -17.5t-17 -40.5q0 -21 14 -38t36.5 -27.5t49.5 -15.5l-40 -5q27 7 50.5 14.5t42.5 14.5l7 -20q-24 -9 -56.5 -19t-65 -19t-60.5 -16z" />
    <glyph glyph-name="uniFEFB" unicode="&#xfedf;&#xfe8e;" horiz-adv-x="568" arabic-form="isolated" 
d="M381 527q0 33 -3.5 68.5t-8 67t-8.5 51.5l23 5q4 -19 8.5 -52t8 -70.5t3.5 -71.5q0 -37 -5 -73.5t-15 -72t-24 -69.5l-4 -9q-35 -79 -93.5 -149t-136.5 -128h219q47 0 72 14t34 35t9 43q0 43 -26.5 85.5t-78.5 90.5t-130 108.5t-180 139.5l15 20q94 -71 164 -127
t119.5 -100t80.5 -81t45 -69.5t14 -65.5q0 -18 -5.5 -38.5t-20.5 -38t-42 -29t-70 -11.5h-242v37q99 70 160 152t89.5 168.5t28.5 169.5z" />
    <glyph glyph-name="uniFEFC" unicode="&#xfee0;&#xfe8e;" horiz-adv-x="521" arabic-form="final" 
d="M521 -5q-34 0 -57 9.5t-37.5 31.5t-22 59.5t-9.5 94.5l-18 524h23l18 -499q3 -65 8.5 -109t27 -65.5t70.5 -21.5q6 0 8.5 -3t2.5 -8q0 -4 -4 -8.5t-10 -4.5zM138 -11q-27 0 -54.5 4.5t-38.5 6.5l4 25q71 -18 133 -9t108.5 47t73 104.5t26.5 163.5l19 -24
q0 -79 -18.5 -134.5t-49 -91.5t-67 -56t-72 -28t-64.5 -8zM377 153q-41 63 -76 114t-68.5 95.5t-72 87.5t-86.5 88l16 17q51 -48 92 -94t75.5 -92.5t66.5 -94.5t64 -100z" />
    <glyph glyph-name="lam_alefMaksura_meemar" unicode="&#xfedf;&#xfbe9;&#xfee2;" horiz-adv-x="1028" 
d="M820 -5l4 24q60 0 86.5 15t33 49t4.5 92l-19 539h23l20 -537q2 -50 -3 -84.5t-21.5 -56t-47 -31.5t-80.5 -10zM571 -5l4 24q55 0 83.5 13t39.5 38.5t11 64.5q0 29 -5.5 62t-16.5 72t-28 85l23 9q16 -43 27.5 -84t17.5 -76.5t6 -62.5q0 -28 -4.5 -51.5t-15.5 -41
t-29.5 -29t-46 -17.5t-66.5 -6zM97 -393q-21 80 -36 152.5t-23 132t-8 99.5q0 70 22 126t57 98t74.5 70.5t76 42.5t60.5 14q21 0 34 -14.5t28.5 -54.5t43.5 -118q19 -51 36 -80.5t43 -42.5t69 -13q6 0 8.5 -3t2.5 -8q0 -4 -4 -8.5t-10 -4.5q-56 0 -90.5 23.5t-46.5 58.5
l10 14q3 -38 -11 -59.5t-36 -30.5t-45 -9q-19 0 -47 8t-60 30t-64 64.5t-59 111.5l8 -5q-34 -43 -55 -96t-21 -122q0 -31 5.5 -72.5t14.5 -90t21 -101t25 -106.5zM351 15q30 0 47.5 13.5t22 35.5t-4.5 48q-24 66 -38.5 106.5t-24.5 61.5t-19 28.5t-21 7.5q-15 0 -36.5 -7.5
t-45.5 -21.5t-47.5 -32.5t-42.5 -41.5v11q26 -73 62 -119t75.5 -68t72.5 -22z" />
    <glyph glyph-name="lam_alefWaslaar" unicode="&#xfedf;&#xfb51;" horiz-adv-x="484" 
d="M147 661q-25 0 -54 2t-54 5.5t-39 5.5l3 21q15 -2 39 -5t51.5 -5t52.5 -2q62 0 84.5 22t22.5 47q0 23 -14.5 33.5t-36.5 10.5q-30 0 -56 -18t-46 -44.5t-32 -53.5l-21 4q15 33 37.5 63.5t52.5 50.5t67 20q35 0 52.5 -19t17.5 -46q0 -24 -13 -45t-41 -34t-73 -13zM381 527
q0 33 -3.5 68.5t-8 67t-8.5 51.5l23 5q4 -19 8.5 -52t8 -70.5t3.5 -71.5q0 -37 -5 -73.5t-15 -72t-24 -69.5l-4 -9q-35 -79 -93.5 -149t-136.5 -128h219q47 0 72 14t34 35t9 43q0 43 -26.5 85.5t-78.5 90.5t-130 108.5t-180 139.5l15 20q94 -71 164 -127t119.5 -100
t80.5 -81t45 -69.5t14 -65.5q0 -18 -5.5 -38.5t-20.5 -38t-42 -29t-70 -11.5h-242v37q99 70 160 152t89.5 168.5t28.5 169.5z" />
    <glyph glyph-name="lam_alefWaslaar.fina" unicode="&#xfee0;&#xfb51;" horiz-adv-x="536" 
d="M147 661q-25 0 -54 2t-54 5.5t-39 5.5l3 21q15 -2 39 -5t51.5 -5t52.5 -2q62 0 84.5 22t22.5 47q0 23 -14.5 33.5t-36.5 10.5q-30 0 -56 -18t-46 -44.5t-32 -53.5l-21 4q15 33 37.5 63.5t52.5 50.5t67 20q35 0 52.5 -19t17.5 -46q0 -24 -13 -45t-41 -34t-73 -13zM521 -5
q-34 0 -57 9.5t-37.5 31.5t-22 59.5t-9.5 94.5l-18 524h23l18 -499q3 -65 8.5 -109t27 -65.5t70.5 -21.5q6 0 8.5 -3t2.5 -8q0 -4 -4 -8.5t-10 -4.5zM138 -11q-27 0 -54.5 4.5t-38.5 6.5l4 25q71 -18 133 -9t108.5 47t73 104.5t26.5 163.5l19 -24q0 -79 -18.5 -134.5
t-49 -91.5t-67 -56t-72 -28t-64.5 -8zM377 153q-41 63 -76 114t-68.5 95.5t-72 87.5t-86.5 88l16 17q51 -48 92 -94t75.5 -92.5t66.5 -94.5t64 -100z" />
    <glyph glyph-name="uni0620.init" unicode="&#x620;" horiz-adv-x="269" 
d="M0 -5l4 24q65 0 98 13t44.5 38.5t11.5 64.5q0 29 -5.5 62t-16.5 72t-28 85l23 9q16 -43 27.5 -84t17.5 -76.5t6 -62.5q0 -36 -7.5 -63t-27.5 -45t-55.5 -27.5t-91.5 -9.5zM131 -119q-32 0 -54.5 23t-22.5 55t22.5 54.5t54.5 22.5t55 -22.5t23 -54.5t-23 -55t-55 -23z
M131 -97q22 0 38.5 16.5t16.5 39.5t-16 39t-39 16q-22 0 -38 -16t-16 -39t16 -39.5t38 -16.5z" />
    <glyph glyph-name="uni0620.medi" unicode="&#x620;" horiz-adv-x="352" 
d="M0 -5l4 24q34 0 63.5 6.5t54 30t44 73t34.5 135.5l25 -5q-7 -36 -12.5 -59.5t-8 -42t-2.5 -40.5q0 -21 5 -39t20.5 -31t46 -20.5t81.5 -7.5q6 0 8.5 -3t2.5 -8q0 -4 -4 -8.5t-10 -4.5q-50 0 -84.5 8t-54.5 23.5t-27 38.5t-3 52h3q-14 -41 -32.5 -65.5t-41.5 -36.5
t-51 -16t-61 -4zM123 -119q-32 0 -54.5 23t-22.5 55t22.5 54.5t54.5 22.5t55 -22.5t23 -54.5t-23 -55t-55 -23zM123 -97q22 0 38.5 16.5t16.5 39.5t-16 39t-39 16q-22 0 -38 -16t-16 -39t16 -39.5t38 -16.5z" />
    <glyph glyph-name="uni0620.fina" unicode="&#x620;" horiz-adv-x="756" 
d="M332 -363q-32 0 -54.5 23t-22.5 55t22.5 54.5t54.5 22.5t55 -22.5t23 -54.5t-23 -55t-55 -23zM332 -341q22 0 38.5 16.5t16.5 39.5t-16 39t-39 16q-22 0 -38 -16t-16 -39t16 -39.5t38 -16.5zM50 -22q0 25 4 52.5t15.5 61.5t32.5 79l23 -11q-16 -31 -27 -62.5t-16.5 -61
t-5.5 -55.5q0 -42 16 -76.5t49.5 -59.5t86 -38t124.5 -13q74 0 129.5 17t93.5 43.5t57 57.5t19 58q0 21 -16 38t-40.5 31t-51.5 25t-50 21l9 23q56 -25 93 -42t63.5 -27.5t49.5 -15t51 -4.5q8 0 9.5 -3.5t1.5 -7.5t-3.5 -8.5t-17.5 -4.5q-9 0 -26.5 2t-35.5 6.5t-29 9.5
q11 -13 14 -26.5t3 -21.5q0 -28 -19 -62t-58.5 -64t-100 -49.5t-143.5 -19.5q-87 0 -156 21.5t-108.5 67.5t-39.5 119z" />
    <glyph glyph-name="uni063B.init" unicode="&#x63b;" horiz-adv-x="375" 
d="M215 744q-10 0 -16.5 7t-6.5 16t6.5 15.5t16.5 6.5q9 0 15.5 -6.5t6.5 -15.5t-6.5 -16t-15.5 -7zM106 692q-10 0 -16.5 7t-6.5 16t6.5 15.5t16.5 6.5q9 0 15.5 -6.5t6.5 -15.5t-6.5 -16t-15.5 -7zM0 -5l4 24h70q51 0 88.5 7t62.5 22t37.5 39.5t12.5 58.5q0 46 -32 99.5
t-82 105.5q-40 42 -67 67t-43 39t-23 20.5t-7 10.5q0 9 1.5 15t5 10.5t8.5 7.5q26 20 60 42t76 46t90.5 49t102.5 50l10 -22q-56 -25 -107.5 -51t-95.5 -52t-78.5 -49.5t-56.5 -43.5v9q42 -40 87.5 -83t85 -88t64 -90.5t24.5 -91.5q0 -42 -16 -71t-45.5 -46.5t-71 -25.5
t-92.5 -8h-73z" />
    <glyph glyph-name="uni063B.medi" unicode="&#x63b;" horiz-adv-x="452" 
d="M195 744q-10 0 -16.5 7t-6.5 16t6.5 15.5t16.5 6.5q9 0 15.5 -6.5t6.5 -15.5t-6.5 -16t-15.5 -7zM86 692q-10 0 -16.5 7t-6.5 16t6.5 15.5t16.5 6.5q9 0 15.5 -6.5t6.5 -15.5t-6.5 -16t-15.5 -7zM0 -5l4 24h77q68 0 110.5 14t63 42t20.5 71q0 28 -18.5 63t-47.5 72
t-61 72t-61 64t-47.5 49t-18.5 25q0 7 2 12.5t5.5 10.5t7.5 8q27 19 60 40.5t73 45t89 49t107 51.5l10 -22q-57 -25 -108 -51.5t-94.5 -51.5t-77.5 -48.5t-58 -44.5l2 10q36 -37 77.5 -80.5t80 -89t67.5 -88t39 -78.5q11 -37 29 -70t48 -54t75 -21q6 0 8.5 -3t2.5 -8
q0 -4 -4 -8.5t-10 -4.5q-39 0 -72.5 17.5t-58.5 53.5t-39 89l16 -13q-1 -46 -20.5 -75t-52 -44.5t-72 -21.5t-80.5 -6h-73z" />
    <glyph glyph-name="uni063B.fina" unicode="&#x63b;" horiz-adv-x="965" 
d="M726 746q-10 0 -16.5 7t-6.5 16t6.5 15.5t16.5 6.5q9 0 15.5 -6.5t6.5 -15.5t-6.5 -16t-15.5 -7zM617 694q-10 0 -16.5 7t-6.5 16t6.5 15.5t16.5 6.5q9 0 15.5 -6.5t6.5 -15.5t-6.5 -16t-15.5 -7zM410 -21l26 24q69 0 132 7.5t112.5 24.5t78.5 44.5t29 66.5
q0 36 -18.5 74t-47.5 75t-61 70t-61 59.5t-47.5 44t-18.5 22.5q0 7 2 12.5t5.5 10.5t7.5 8q29 22 78.5 53t114 66t136.5 67l10 -22q-66 -28 -133.5 -64t-121.5 -70.5t-83 -61.5l2 10q36 -35 75 -71t75.5 -76t66.5 -86.5t47 -102.5q9 -28 21 -54t29.5 -46.5t42.5 -32.5
t59 -12q6 0 8.5 -3t2.5 -8q0 -4 -4 -8.5t-10 -4.5q-39 0 -71 17.5t-56.5 53.5t-40.5 89l14 -13q-1 -44 -29 -75t-80 -50.5t-126 -28.5t-166 -9zM410 -21q-87 0 -154 11t-113 34.5t-69.5 60t-23.5 87.5q0 22 3.5 46t9 48t12.5 45l22 -6q-6 -19 -11 -39.5t-8.5 -42.5t-3.5 -46
q0 -64 42 -102.5t123 -55t197 -16.5l20 -15z" />
    <glyph glyph-name="uni063C.init" unicode="&#x63c;" horiz-adv-x="375" 
d="M0 -5l4 24h70q51 0 88.5 7t62.5 22t37.5 39.5t12.5 58.5q0 46 -32 99.5t-82 105.5q-40 42 -67 67t-43 39t-23 20.5t-7 10.5q0 9 1.5 15t5 10.5t8.5 7.5q26 20 60 42t76 46t90.5 49t102.5 50l10 -22q-56 -25 -107.5 -51t-95.5 -52t-78.5 -49.5t-56.5 -43.5v9
q42 -40 87.5 -83t85 -88t64 -90.5t24.5 -91.5q0 -42 -16 -71t-45.5 -46.5t-71 -25.5t-92.5 -8h-73zM157 -250q-11 0 -19 8t-8 18q0 11 8 19t19 8t18.5 -8t7.5 -19q0 -10 -7.5 -18t-18.5 -8zM104 -167q-11 0 -19 8t-8 18q0 11 8 19t19 8t18.5 -8t7.5 -19q0 -10 -7.5 -18
t-18.5 -8zM209 -167q-11 0 -19 8t-8 18q0 11 8 19t19 8t18.5 -8t7.5 -19q0 -10 -7.5 -18t-18.5 -8z" />
    <glyph glyph-name="uni063C.medi" unicode="&#x63c;" horiz-adv-x="452" 
d="M0 -5l4 24h77q68 0 110.5 14t63 42t20.5 71q0 28 -18.5 63t-47.5 72t-61 72t-61 64t-47.5 49t-18.5 25q0 7 2 12.5t5.5 10.5t7.5 8q27 19 60 40.5t73 45t89 49t107 51.5l10 -22q-57 -25 -108 -51.5t-94.5 -51.5t-77.5 -48.5t-58 -44.5l2 10q36 -37 77.5 -80.5t80 -89
t67.5 -88t39 -78.5q11 -37 29 -70t48 -54t75 -21q6 0 8.5 -3t2.5 -8q0 -4 -4 -8.5t-10 -4.5q-39 0 -72.5 17.5t-58.5 53.5t-39 89l16 -13q-1 -46 -20.5 -75t-52 -44.5t-72 -21.5t-80.5 -6h-73zM157 -250q-11 0 -19 8t-8 18q0 11 8 19t19 8t18.5 -8t7.5 -19q0 -10 -7.5 -18
t-18.5 -8zM104 -167q-11 0 -19 8t-8 18q0 11 8 19t19 8t18.5 -8t7.5 -19q0 -10 -7.5 -18t-18.5 -8zM209 -167q-11 0 -19 8t-8 18q0 11 8 19t19 8t18.5 -8t7.5 -19q0 -10 -7.5 -18t-18.5 -8z" />
    <glyph glyph-name="uni063C.fina" unicode="&#x63c;" horiz-adv-x="965" 
d="M410 -21l26 24q69 0 132 7.5t112.5 24.5t78.5 44.5t29 66.5q0 36 -18.5 74t-47.5 75t-61 70t-61 59.5t-47.5 44t-18.5 22.5q0 7 2 12.5t5.5 10.5t7.5 8q29 22 78.5 53t114 66t136.5 67l10 -22q-66 -28 -133.5 -64t-121.5 -70.5t-83 -61.5l2 10q36 -35 75 -71t75.5 -76
t66.5 -86.5t47 -102.5q9 -28 21 -54t29.5 -46.5t42.5 -32.5t59 -12q6 0 8.5 -3t2.5 -8q0 -4 -4 -8.5t-10 -4.5q-39 0 -71 17.5t-56.5 53.5t-40.5 89l14 -13q-1 -44 -29 -75t-80 -50.5t-126 -28.5t-166 -9zM410 -21q-87 0 -154 11t-113 34.5t-69.5 60t-23.5 87.5q0 22 3.5 46
t9 48t12.5 45l22 -6q-6 -19 -11 -39.5t-8.5 -42.5t-3.5 -46q0 -64 42 -102.5t123 -55t197 -16.5l20 -15zM410 -271q-11 0 -19 8t-8 18q0 11 8 19t19 8t18.5 -8t7.5 -19q0 -10 -7.5 -18t-18.5 -8zM357 -188q-11 0 -19 8t-8 18q0 11 8 19t19 8t18.5 -8t7.5 -19q0 -10 -7.5 -18
t-18.5 -8zM462 -188q-11 0 -19 8t-8 18q0 11 8 19t19 8t18.5 -8t7.5 -19q0 -10 -7.5 -18t-18.5 -8z" />
    <glyph glyph-name="uni063D.init" unicode="&#x63d;" horiz-adv-x="249" 
d="M0 -5l4 24q55 0 83.5 13t39.5 38.5t11 64.5q0 29 -5.5 62t-16.5 72t-28 85l23 9q16 -43 27.5 -84t17.5 -76.5t6 -62.5q0 -28 -4.5 -51.5t-15.5 -41t-29.5 -29t-46 -17.5t-66.5 -6zM96 704q7 -16 18 -39.5t23.5 -50t25 -50t21.5 -39.5l-19 -10q-6 10 -18 32.5t-25 49.5
t-25 52t-18 40l-7 13zM72 702l20 -6q-6 -18 -17 -46t-23.5 -57.5t-22.5 -52.5t-15 -31l-20 9q5 10 15.5 33.5t23 52t23 55.5t16.5 43zM156 -170q-11 0 -19 8t-8 18q0 11 8 19t19 8t18.5 -8t7.5 -19q0 -10 -7.5 -18t-18.5 -8zM51 -170q-11 0 -19 8t-8 18q0 11 8 19t19 8
t18.5 -8t7.5 -19q0 -10 -7.5 -18t-18.5 -8z" />
    <glyph glyph-name="uni063D.medi" unicode="&#x63d;" horiz-adv-x="352" 
d="M0 -5l4 24q40 0 69.5 5.5t51 28t39.5 72.5t36 139l25 -5q-7 -36 -12.5 -59.5t-8 -42t-2.5 -40.5q0 -28 10 -50t42.5 -35t100.5 -13q6 0 8.5 -3t2.5 -8q0 -4 -4 -8.5t-10 -4.5q-64 0 -103.5 14.5t-55.5 41.5t-10 66h3q-14 -41 -30.5 -65.5t-37.5 -36.5t-50 -16t-68 -4z
M177 596q7 -16 18 -39.5t23.5 -50t25 -50t21.5 -39.5l-19 -10q-6 10 -18 32.5t-25 49.5t-25 52t-18 40l-7 13zM153 594l20 -6q-6 -18 -17 -46t-23.5 -57.5t-22.5 -52.5t-15 -31l-20 9q5 10 15.5 33.5t23 52t23 55.5t16.5 43zM232 -170q-11 0 -19 8t-8 18q0 11 8 19t19 8
t18.5 -8t7.5 -19q0 -10 -7.5 -18t-18.5 -8zM127 -170q-11 0 -19 8t-8 18q0 11 8 19t19 8t18.5 -8t7.5 -19q0 -10 -7.5 -18t-18.5 -8z" />
    <glyph glyph-name="uni063D.fina" unicode="&#x63d;" horiz-adv-x="756" 
d="M50 -22q0 25 4 52.5t15.5 61.5t32.5 79l23 -11q-16 -31 -27 -62.5t-16.5 -61t-5.5 -55.5q0 -42 16 -76.5t49.5 -59.5t86 -38t124.5 -13q74 0 129.5 17t93.5 43.5t57 57.5t19 58q0 21 -16 38t-40.5 31t-51.5 25t-50 21l9 23q56 -25 93 -42t63.5 -27.5t49.5 -15t51 -4.5
q8 0 9.5 -3.5t1.5 -7.5t-3.5 -8.5t-17.5 -4.5q-9 0 -26.5 2t-35.5 6.5t-29 9.5q11 -13 14 -26.5t3 -21.5q0 -28 -19 -62t-58.5 -64t-100 -49.5t-143.5 -19.5q-87 0 -156 21.5t-108.5 67.5t-39.5 119zM249 450q7 -16 18 -39.5t23.5 -50t25 -50t21.5 -39.5l-19 -10
q-6 10 -18 32.5t-25 49.5t-25 52t-18 40l-7 13zM225 448l20 -6q-6 -18 -17 -46t-23.5 -57.5t-22.5 -52.5t-15 -31l-20 9q5 10 15.5 33.5t23 52t23 55.5t16.5 43z" />
    <glyph glyph-name="uni063E.init" unicode="&#x63e;" horiz-adv-x="269" 
d="M0 -5l4 24q65 0 98 13t44.5 38.5t11.5 64.5q0 29 -5.5 62t-16.5 72t-28 85l23 9q16 -43 27.5 -84t17.5 -76.5t6 -62.5q0 -36 -7.5 -63t-27.5 -45t-55.5 -27.5t-91.5 -9.5zM178 519q-11 0 -19 8t-8 18q0 11 8 19t19 8t18.5 -8t7.5 -19q0 -10 -7.5 -18t-18.5 -8zM73 519
q-11 0 -19 8t-8 18q0 11 8 19t19 8t18.5 -8t7.5 -19q0 -10 -7.5 -18t-18.5 -8zM169 -170q-11 0 -19 8t-8 18q0 11 8 19t19 8t18.5 -8t7.5 -19q0 -10 -7.5 -18t-18.5 -8zM64 -170q-11 0 -19 8t-8 18q0 11 8 19t19 8t18.5 -8t7.5 -19q0 -10 -7.5 -18t-18.5 -8z" />
    <glyph glyph-name="uni063E.medi" unicode="&#x63e;" horiz-adv-x="352" 
d="M0 -5l4 24q34 0 63.5 6.5t54 30t44 73t34.5 135.5l25 -5q-7 -36 -12.5 -59.5t-8 -42t-2.5 -40.5q0 -21 5 -39t20.5 -31t46 -20.5t81.5 -7.5q6 0 8.5 -3t2.5 -8q0 -4 -4 -8.5t-10 -4.5q-50 0 -84.5 8t-54.5 23.5t-27 38.5t-3 52h3q-14 -41 -32.5 -65.5t-41.5 -36.5
t-51 -16t-61 -4zM260 411q-11 0 -19 8t-8 18q0 11 8 19t19 8t18.5 -8t7.5 -19q0 -10 -7.5 -18t-18.5 -8zM155 411q-11 0 -19 8t-8 18q0 11 8 19t19 8t18.5 -8t7.5 -19q0 -10 -7.5 -18t-18.5 -8zM243 -182q-11 0 -19 8t-8 18q0 11 8 19t19 8t18.5 -8t7.5 -19q0 -10 -7.5 -18
t-18.5 -8zM138 -182q-11 0 -19 8t-8 18q0 11 8 19t19 8t18.5 -8t7.5 -19q0 -10 -7.5 -18t-18.5 -8z" />
    <glyph glyph-name="uni063E.fina" unicode="&#x63e;" horiz-adv-x="756" 
d="M50 -22q0 25 4 52.5t15.5 61.5t32.5 79l23 -11q-16 -31 -27 -62.5t-16.5 -61t-5.5 -55.5q0 -42 16 -76.5t49.5 -59.5t86 -38t124.5 -13q74 0 129.5 17t93.5 43.5t57 57.5t19 58q0 21 -16 38t-40.5 31t-51.5 25t-50 21l9 23q56 -25 93 -42t63.5 -27.5t49.5 -15t51 -4.5
q8 0 9.5 -3.5t1.5 -7.5t-3.5 -8.5t-17.5 -4.5q-9 0 -26.5 2t-35.5 6.5t-29 9.5q11 -13 14 -26.5t3 -21.5q0 -28 -19 -62t-58.5 -64t-100 -49.5t-143.5 -19.5q-87 0 -156 21.5t-108.5 67.5t-39.5 119zM301 265q-11 0 -19 8t-8 18q0 11 8 19t19 8t18.5 -8t7.5 -19
q0 -10 -7.5 -18t-18.5 -8zM196 265q-11 0 -19 8t-8 18q0 11 8 19t19 8t18.5 -8t7.5 -19q0 -10 -7.5 -18t-18.5 -8z" />
    <glyph glyph-name="uni063F.init" unicode="&#x63f;" horiz-adv-x="269" 
d="M0 -5l4 24q65 0 98 13t44.5 38.5t11.5 64.5q0 29 -5.5 62t-16.5 72t-28 85l23 9q16 -43 27.5 -84t17.5 -76.5t6 -62.5q0 -36 -7.5 -63t-27.5 -45t-55.5 -27.5t-91.5 -9.5zM125 602q-10 0 -18 8t-8 19t8 18.5t18 7.5q11 0 19 -7.5t8 -18.5t-8 -19t-19 -8zM73 519
q-10 0 -18 8t-8 19t8 18.5t18 7.5q11 0 19 -7.5t8 -18.5t-8 -19t-19 -8zM178 519q-10 0 -18 8t-8 19t8 18.5t18 7.5q11 0 19 -7.5t8 -18.5t-8 -19t-19 -8zM169 -170q-11 0 -19 8t-8 18q0 11 8 19t19 8t18.5 -8t7.5 -19q0 -10 -7.5 -18t-18.5 -8zM64 -170q-11 0 -19 8t-8 18
q0 11 8 19t19 8t18.5 -8t7.5 -19q0 -10 -7.5 -18t-18.5 -8z" />
    <glyph glyph-name="uni063F.medi" unicode="&#x63f;" horiz-adv-x="352" 
d="M0 -5l4 24q34 0 63.5 6.5t54 30t44 73t34.5 135.5l25 -5q-7 -36 -12.5 -59.5t-8 -42t-2.5 -40.5q0 -21 5 -39t20.5 -31t46 -20.5t81.5 -7.5q6 0 8.5 -3t2.5 -8q0 -4 -4 -8.5t-10 -4.5q-50 0 -84.5 8t-54.5 23.5t-27 38.5t-3 52h3q-14 -41 -32.5 -65.5t-41.5 -36.5
t-51 -16t-61 -4zM207 494q-10 0 -18 8t-8 19t8 18.5t18 7.5q11 0 19 -7.5t8 -18.5t-8 -19t-19 -8zM155 411q-10 0 -18 8t-8 19t8 18.5t18 7.5q11 0 19 -7.5t8 -18.5t-8 -19t-19 -8zM260 411q-10 0 -18 8t-8 19t8 18.5t18 7.5q11 0 19 -7.5t8 -18.5t-8 -19t-19 -8zM243 -182
q-11 0 -19 8t-8 18q0 11 8 19t19 8t18.5 -8t7.5 -19q0 -10 -7.5 -18t-18.5 -8zM138 -182q-11 0 -19 8t-8 18q0 11 8 19t19 8t18.5 -8t7.5 -19q0 -10 -7.5 -18t-18.5 -8z" />
    <glyph glyph-name="uni063F.fina" unicode="&#x63f;" horiz-adv-x="756" 
d="M50 -22q0 25 4 52.5t15.5 61.5t32.5 79l23 -11q-16 -31 -27 -62.5t-16.5 -61t-5.5 -55.5q0 -42 16 -76.5t49.5 -59.5t86 -38t124.5 -13q74 0 129.5 17t93.5 43.5t57 57.5t19 58q0 21 -16 38t-40.5 31t-51.5 25t-50 21l9 23q56 -25 93 -42t63.5 -27.5t49.5 -15t51 -4.5
q8 0 9.5 -3.5t1.5 -7.5t-3.5 -8.5t-17.5 -4.5q-9 0 -26.5 2t-35.5 6.5t-29 9.5q11 -13 14 -26.5t3 -21.5q0 -28 -19 -62t-58.5 -64t-100 -49.5t-143.5 -19.5q-87 0 -156 21.5t-108.5 67.5t-39.5 119zM248 348q-10 0 -18 8t-8 19t8 18.5t18 7.5q11 0 19 -7.5t8 -18.5t-8 -19
t-19 -8zM196 265q-10 0 -18 8t-8 19t8 18.5t18 7.5q11 0 19 -7.5t8 -18.5t-8 -19t-19 -8zM301 265q-10 0 -18 8t-8 19t8 18.5t18 7.5q11 0 19 -7.5t8 -18.5t-8 -19t-19 -8z" />
    <glyph glyph-name="uni066E.init" unicode="&#x66e;" horiz-adv-x="249" 
d="M0 -5l4 24q55 0 83.5 13t39.5 38.5t11 64.5q0 29 -5.5 62t-16.5 72t-28 85l23 9q16 -43 27.5 -84t17.5 -76.5t6 -62.5q0 -28 -4.5 -51.5t-15.5 -41t-29.5 -29t-46 -17.5t-66.5 -6z" />
    <glyph glyph-name="uni066E.medi" unicode="&#x66e;" horiz-adv-x="352" 
d="M0 -5l4 24q40 0 69.5 5.5t51 28t39.5 72.5t36 139l25 -5q-7 -36 -12.5 -59.5t-8 -42t-2.5 -40.5q0 -28 10 -50t42.5 -35t100.5 -13q6 0 8.5 -3t2.5 -8q0 -4 -4 -8.5t-10 -4.5q-64 0 -103.5 14.5t-55.5 41.5t-10 66h3q-14 -41 -30.5 -65.5t-37.5 -36.5t-50 -16t-68 -4z
" />
    <glyph glyph-name="uni066E.fina" unicode="&#x66e;" horiz-adv-x="1032" 
d="M410 -21l26 24q116 0 196 16.5t133 44.5t85.5 64.5t51.5 76.5l23 -9q-11 -29 -16.5 -50.5t-5.5 -38.5q0 -27 11.5 -46.5t40.5 -30.5t80 -11q6 0 8.5 -3t2.5 -8q0 -4 -4 -8.5t-10 -4.5q-62 0 -97.5 17t-48 48.5t-5.5 76.5l8 -4q-28 -31 -64.5 -59t-90 -49.5t-132.5 -33.5
t-192 -12zM410 -21q-87 0 -154 11t-113 34.5t-69.5 60t-23.5 87.5q0 22 3.5 46t9 48t12.5 45l22 -6q-6 -19 -11 -39.5t-8.5 -42.5t-3.5 -46q0 -64 42 -102.5t123 -55t197 -16.5l20 -15z" />
    <glyph glyph-name="uni066F.init" unicode="&#x66f;" horiz-adv-x="431" 
d="M0 -5l4 24q47 0 88.5 1.5t77.5 6t64 13t48 21.5q15 10 31.5 29t27.5 55t11 96q0 51 -14.5 100.5t-42.5 82t-69 32.5q-29 0 -58 -26.5t-47.5 -66t-18.5 -80.5q0 -44 17.5 -66.5t47 -29.5t64.5 -7t70 7.5t56 17.5l4 -21q-16 -10 -38.5 -16.5t-47 -9t-48.5 -2.5
q-40 0 -74 10.5t-54.5 37t-20.5 74.5q0 34 12 69.5t32.5 66t48.5 49t59 18.5q46 0 78.5 -34.5t50 -90.5t17.5 -121q0 -60 -16 -107.5t-62 -81.5q-18 -13 -43 -22.5t-61 -16t-83.5 -9.5t-110.5 -3z" />
    <glyph glyph-name="uni066F.medi" unicode="&#x66f;" horiz-adv-x="489" 
d="M0 -5l4 24q29 0 57.5 2.5t56 8t53.5 13t50 17.5q42 18 74 39t50.5 50t18.5 71q0 31 -14.5 66t-42 60.5t-67.5 25.5q-30 0 -60 -21t-49.5 -56t-19.5 -78q0 -44 19.5 -73t49.5 -48.5t63 -33.5l-29 -10q-26 13 -55 32.5t-49.5 51.5t-20.5 81q0 37 13 69.5t34.5 57t48.5 38
t55 13.5q42 0 75 -25t52 -64.5t19 -85.5q0 -33 -10.5 -59t-29 -46.5t-44.5 -37t-57 -31.5q-26 -13 -55.5 -22.5t-60.5 -16t-63.5 -9.5t-65.5 -3zM489 -5q-43 0 -93.5 7t-97 19t-78.5 26l25 13q22 -6 55 -16t80.5 -17.5t111.5 -7.5q6 0 8.5 -3t2.5 -8q0 -4 -4 -8.5t-10 -4.5z
" />
    <glyph glyph-name="uni066F.fina" unicode="&#x66f;" horiz-adv-x="808" 
d="M328 -272q-66 0 -117.5 13.5t-87.5 41.5t-54.5 72.5t-18.5 106.5q0 10 3 38.5t15 70t39 89.5l21 -11q-13 -22 -25.5 -50.5t-20.5 -62t-8 -70.5q0 -82 32.5 -128.5t91.5 -66t136 -19.5q35 0 78 4.5t86.5 17t82 36t67 62t39.5 95.5q4 19 6 43.5t2 47.5q0 65 -16.5 117
t-44 82.5t-61.5 30.5q-25 0 -48 -16.5t-41 -43t-28.5 -57.5t-10.5 -60q0 -31 12.5 -49.5t33 -27.5t47.5 -12t55 -3h218q6 0 8.5 -3t2.5 -8q0 -4 -4 -8.5t-10 -4.5h-219q-31 0 -61 4t-54 15.5t-38.5 34t-14.5 59.5q0 33 12 68.5t33 66.5t49 50t61 19q43 0 75 -34t50 -91.5
t18 -129.5q0 -28 -3 -56t-8 -51q-17 -71 -59 -115t-98 -67t-114.5 -31.5t-108.5 -8.5z" />
    <glyph glyph-name="uni0672.fina" unicode="&#x672;" horiz-adv-x="262" 
d="M262 -5q-60 0 -92 12.5t-44.5 47t-15.5 99.5l-18 490h23l18 -479q3 -63 12 -94.5t36.5 -41.5t83.5 -10q6 0 8.5 -3t2.5 -8q0 -4 -4 -8.5t-10 -4.5zM-74 720l-17 11q13 20 27.5 30t32.5 10q22 0 40 -11.5t37 -11.5q12 0 30.5 4t26.5 8l14 -7q-49 5 -79 32.5t-30 64.5
t28.5 57.5t64.5 20.5q12 0 24.5 -2t22.5 -6l-5 -20q-10 3 -20.5 4.5t-20.5 1.5q-37 0 -54.5 -17t-17.5 -40q0 -22 14 -39t36.5 -27.5t49.5 -15.5l-23 -5q27 7 43.5 14t32.5 15l8 -18q-10 -6 -28.5 -14t-40 -15t-42 -12t-35.5 -5q-25 0 -42.5 11.5t-34.5 11.5q-14 0 -24 -9.5
t-18 -20.5z" />
    <glyph glyph-name="uni0673.fina" unicode="&#x673;" horiz-adv-x="264" 
d="M264 -5q-60 0 -92 12.5t-44.5 47t-15.5 99.5l-20 560h23l20 -549q3 -63 12 -94.5t36.5 -41.5t83.5 -10q6 0 8.5 -3t2.5 -8q0 -4 -4 -8.5t-10 -4.5zM-26 -292l-17 11q13 20 27.5 30t32.5 10q22 0 40 -11.5t37 -11.5q12 0 30.5 4t26.5 8l14 -7q-49 5 -79 32.5t-30 64.5
t28.5 57.5t64.5 20.5q12 0 24.5 -2t22.5 -6l-5 -20q-10 3 -20.5 4.5t-20.5 1.5q-37 0 -54.5 -17t-17.5 -40q0 -22 14 -39t36.5 -27.5t49.5 -15.5l-23 -5q27 7 43.5 14t32.5 15l8 -18q-10 -6 -28.5 -14t-40 -15t-42 -12t-35.5 -5q-25 0 -42.5 11.5t-34.5 11.5q-14 0 -24 -9.5
t-18 -20.5z" />
    <glyph glyph-name="uni0675.fina" unicode="&#x675;" horiz-adv-x="434" 
d="M434 -5h-172q-59 0 -90.5 12.5t-44 47t-15.5 99.5l-20 560h23l20 -549q3 -63 12 -94.5t36 -41.5t82 -10h172q6 0 8.5 -3t2.5 -8q0 -4 -4 -8.5t-10 -4.5zM195 592l-5 22q26 6 44.5 11t38.5 10l31 -7q-49 5 -79 33t-30 62q0 26 13 44t34.5 27t44.5 9q13 0 25.5 -2t22.5 -6
l-5 -20q-10 3 -21 4.5t-22 1.5q-36 0 -53 -17.5t-17 -40.5q0 -21 14 -38t36.5 -27.5t49.5 -15.5l-40 -5q27 7 50.5 14.5t42.5 14.5l7 -20q-24 -9 -56 -19t-65 -19t-61 -16z" />
    <glyph glyph-name="uni0676.fina" unicode="&#x676;" horiz-adv-x="476" 
d="M56 -230l-5 23q62 10 118 29.5t99.5 52t68.5 82t25 118.5q0 107 -36.5 160t-84.5 53q-30 0 -60 -24.5t-49.5 -63.5t-19.5 -81q0 -34 13 -54t35 -30t49.5 -13t55.5 -3h214q6 0 8.5 -3t2.5 -8q0 -4 -4 -8.5t-10 -4.5h-211q-43 0 -84 8.5t-67 34.5t-26 78q0 36 12.5 70.5
t34.5 63t50 45.5t58 17q43 0 75 -28t50 -81.5t18 -129.5q0 -77 -36.5 -140t-109.5 -105t-184 -58zM291 402l-5 22q26 6 44.5 11t38.5 10l31 -7q-49 5 -79 33t-30 62q0 26 13 44t34.5 27t44.5 9q13 0 25.5 -2t22.5 -6l-5 -20q-10 3 -21 4.5t-22 1.5q-36 0 -53 -17.5
t-17 -40.5q0 -21 14 -38t36.5 -27.5t49.5 -15.5l-40 -5q27 7 50.5 14.5t42.5 14.5l7 -20q-24 -9 -56.5 -19t-65 -19t-60.5 -16z" />
    <glyph glyph-name="uni0677.fina" unicode="&#x677;" horiz-adv-x="557" 
d="M137 -230l-5 23q62 10 118 29.5t99.5 52t68.5 82t25 118.5q0 107 -36.5 160t-84.5 53q-30 0 -60 -24.5t-49.5 -63.5t-19.5 -81q0 -34 13 -54t35 -30t49.5 -13t55.5 -3h214q6 0 8.5 -3t2.5 -8q0 -4 -4 -8.5t-10 -4.5h-211q-43 0 -84 8.5t-67 34.5t-26 78q0 36 12.5 70.5
t34.5 63t50 45.5t58 17q43 0 75 -28t50 -81.5t18 -129.5q0 -77 -36.5 -140t-109.5 -105t-184 -58zM372 402l-5 22q26 6 44.5 11t38.5 10l31 -7q-49 5 -79 33t-30 62q0 26 13 44t34.5 27t44.5 9q13 0 25.5 -2t22.5 -6l-5 -20q-10 3 -21 4.5t-22 1.5q-36 0 -53 -17.5
t-17 -40.5q0 -21 14 -38t36.5 -27.5t49.5 -15.5l-40 -5q27 7 50.5 14.5t42.5 14.5l7 -20q-24 -9 -56.5 -19t-65 -19t-60.5 -16zM55 388l-4 20q63 7 105 25t63 44.5t21 55.5q0 21 -11.5 40t-37.5 19q-22 0 -36 -15t-14 -35q0 -31 28.5 -48t59.5 -22l-11 -18q-45 8 -72 31.5
t-27 56.5q0 30 21.5 50.5t51.5 20.5q26 0 48 -19t22 -59t-26 -71t-72.5 -50t-108.5 -26z" />
    <glyph glyph-name="uni0678.init" unicode="&#x678;" horiz-adv-x="350" 
d="M0 -5l4 24q55 0 83.5 13t39.5 38.5t11 64.5q0 29 -5.5 62t-16.5 72t-28 85l23 9q16 -43 27.5 -84t17.5 -76.5t6 -62.5q0 -28 -4.5 -51.5t-15.5 -41t-29.5 -29t-46 -17.5t-66.5 -6zM160 592l-5 22q26 6 44.5 11t38.5 10l31 -7q-49 5 -79 33t-30 62q0 26 13 44t34.5 27
t44.5 9q13 0 25.5 -2t22.5 -6l-5 -20q-10 3 -21 4.5t-22 1.5q-36 0 -53 -17.5t-17 -40.5q0 -21 14 -38t36.5 -27.5t49.5 -15.5l-40 -5q27 7 50.5 14.5t42.5 14.5l7 -20q-24 -9 -56.5 -19t-65 -19t-60.5 -16z" />
    <glyph glyph-name="uni0678.medi" unicode="&#x678;" horiz-adv-x="343" 
d="M0 -5l4 24q40 0 69.5 5.5t51 28t39.5 72.5t36 139l25 -5q-7 -36 -12.5 -59.5t-8 -42t-2.5 -40.5q0 -28 10 -50t42.5 -35t100.5 -13q6 0 8.5 -3t2.5 -8q0 -4 -4 -8.5t-10 -4.5q-64 0 -103.5 14.5t-55.5 41.5t-10 66h3q-14 -41 -30.5 -65.5t-37.5 -36.5t-50 -16t-68 -4z
M156 423l-5 22q26 6 44.5 11t38.5 10l31 -7q-49 5 -79 33t-30 62q0 26 13 44t34.5 27t44.5 9q13 0 25.5 -2t22.5 -6l-5 -20q-10 3 -21 4.5t-22 1.5q-36 0 -53 -17.5t-17 -40.5q0 -21 14 -38t36.5 -27.5t49.5 -15.5l-40 -5q27 7 50.5 14.5t42.5 14.5l7 -20q-24 -9 -56.5 -19
t-65 -19t-60.5 -16z" />
    <glyph glyph-name="uni0678.fina" unicode="&#x678;" horiz-adv-x="756" 
d="M50 -22q0 25 4 52.5t15.5 61.5t32.5 79l23 -11q-16 -31 -27 -62.5t-16.5 -61t-5.5 -55.5q0 -42 16 -76.5t49.5 -59.5t86 -38t124.5 -13q74 0 129.5 17t93.5 43.5t57 57.5t19 58q0 21 -16 38t-40.5 31t-51.5 25t-50 21l9 23q56 -25 93 -42t63.5 -27.5t49.5 -15t51 -4.5
q8 0 9.5 -3.5t1.5 -7.5t-3.5 -8.5t-17.5 -4.5q-9 0 -26.5 2t-35.5 6.5t-29 9.5q11 -13 14 -26.5t3 -21.5q0 -28 -19 -62t-58.5 -64t-100 -49.5t-143.5 -19.5q-87 0 -156 21.5t-108.5 67.5t-39.5 119zM511 219l-5 22q26 6 44.5 11t38.5 10l31 -7q-49 5 -79 33t-30 62
q0 26 13 44t34.5 27t44.5 9q13 0 25.5 -2t22.5 -6l-5 -20q-10 3 -21 4.5t-22 1.5q-36 0 -53 -17.5t-17 -40.5q0 -21 14 -38t36.5 -27.5t49.5 -15.5l-40 -5q27 7 50.5 14.5t42.5 14.5l7 -20q-24 -9 -56.5 -19t-65 -19t-60.5 -16z" />
    <glyph glyph-name="uni067C.init" unicode="&#x67c;" horiz-adv-x="269" 
d="M0 -5l4 24q65 0 98 13t44.5 38.5t11.5 64.5q0 29 -5.5 62t-16.5 72t-28 85l23 9q16 -43 27.5 -84t17.5 -76.5t6 -62.5q0 -36 -7.5 -63t-27.5 -45t-55.5 -27.5t-91.5 -9.5zM123 -117q-32 0 -54.5 23t-22.5 55t22.5 54.5t54.5 22.5t55 -22.5t23 -54.5t-23 -55t-55 -23z
M123 -95q22 0 38.5 16.5t16.5 39.5t-16 39t-39 16q-22 0 -38 -16t-16 -39t16 -39.5t38 -16.5zM178 519q-11 0 -19 8t-8 18q0 11 8 19t19 8t18.5 -8t7.5 -19q0 -10 -7.5 -18t-18.5 -8zM73 519q-11 0 -19 8t-8 18q0 11 8 19t19 8t18.5 -8t7.5 -19q0 -10 -7.5 -18t-18.5 -8z
" />
    <glyph glyph-name="uni067C.medi" unicode="&#x67c;" horiz-adv-x="352" 
d="M108 -128q-32 0 -54.5 23t-22.5 55t22.5 54.5t54.5 22.5t55 -22.5t23 -54.5t-23 -55t-55 -23zM108 -106q22 0 38.5 16.5t16.5 39.5t-16 39t-39 16q-22 0 -38 -16t-16 -39t16 -39.5t38 -16.5zM0 -5l4 24q40 0 69.5 5.5t51 28t39.5 72.5t36 139l25 -5q-7 -36 -12.5 -59.5
t-8 -42t-2.5 -40.5q0 -28 10 -50t42.5 -35t100.5 -13q6 0 8.5 -3t2.5 -8q0 -4 -4 -8.5t-10 -4.5q-64 0 -103.5 14.5t-55.5 41.5t-10 66h3q-14 -41 -30.5 -65.5t-37.5 -36.5t-50 -16t-68 -4zM260 411q-11 0 -19 8t-8 18q0 11 8 19t19 8t18.5 -8t7.5 -19q0 -10 -7.5 -18
t-18.5 -8zM155 411q-11 0 -19 8t-8 18q0 11 8 19t19 8t18.5 -8t7.5 -19q0 -10 -7.5 -18t-18.5 -8z" />
    <glyph glyph-name="uni067C.fina" unicode="&#x67c;" horiz-adv-x="1032" 
d="M518 -151q-32 0 -54.5 23t-22.5 55t22.5 54.5t54.5 22.5t55 -22.5t23 -54.5t-23 -55t-55 -23zM518 -129q22 0 38.5 16.5t16.5 39.5t-16 39t-39 16q-22 0 -38 -16t-16 -39t16 -39.5t38 -16.5zM410 -21l26 24q116 0 196 16.5t133 44.5t85.5 64.5t51.5 76.5l23 -9
q-11 -29 -16.5 -50.5t-5.5 -38.5q0 -27 11.5 -46.5t40.5 -30.5t80 -11q6 0 8.5 -3t2.5 -8q0 -4 -4 -8.5t-10 -4.5q-62 0 -97.5 17t-48 48.5t-5.5 76.5l8 -4q-28 -31 -64.5 -59t-90 -49.5t-132.5 -33.5t-192 -12zM410 -21q-87 0 -154 11t-113 34.5t-69.5 60t-23.5 87.5
q0 22 3.5 46t9 48t12.5 45l22 -6q-6 -19 -11 -39.5t-8.5 -42.5t-3.5 -46q0 -64 42 -102.5t123 -55t197 -16.5l20 -15zM529 433q-11 0 -19 8t-8 18q0 11 8 19t19 8t18.5 -8t7.5 -19q0 -10 -7.5 -18t-18.5 -8zM424 433q-11 0 -19 8t-8 18q0 11 8 19t19 8t18.5 -8t7.5 -19
q0 -10 -7.5 -18t-18.5 -8z" />
    <glyph glyph-name="uni067D.init" unicode="&#x67d;" horiz-adv-x="269" 
d="M0 -5l4 24q65 0 98 13t44.5 38.5t11.5 64.5q0 29 -5.5 62t-16.5 72t-28 85l23 9q16 -43 27.5 -84t17.5 -76.5t6 -62.5q0 -36 -7.5 -63t-27.5 -45t-55.5 -27.5t-91.5 -9.5zM126 519q-11 0 -19 8t-8 18q0 11 8 19t19 8t18.5 -8t7.5 -19q0 -10 -7.5 -18t-18.5 -8zM73 602
q-11 0 -19 8t-8 18q0 11 8 19t19 8t18.5 -8t7.5 -19q0 -10 -7.5 -18t-18.5 -8zM178 602q-11 0 -19 8t-8 18q0 11 8 19t19 8t18.5 -8t7.5 -19q0 -10 -7.5 -18t-18.5 -8z" />
    <glyph glyph-name="uni067D.medi" unicode="&#x67d;" horiz-adv-x="352" 
d="M0 -5l4 24q34 0 63.5 6.5t54 30t44 73t34.5 135.5l25 -5q-7 -36 -12.5 -59.5t-8 -42t-2.5 -40.5q0 -21 5 -39t20.5 -31t46 -20.5t81.5 -7.5q6 0 8.5 -3t2.5 -8q0 -4 -4 -8.5t-10 -4.5q-50 0 -84.5 8t-54.5 23.5t-27 38.5t-3 52h3q-14 -41 -32.5 -65.5t-41.5 -36.5
t-51 -16t-61 -4zM208 411q-11 0 -19 8t-8 18q0 11 8 19t19 8t18.5 -8t7.5 -19q0 -10 -7.5 -18t-18.5 -8zM155 494q-11 0 -19 8t-8 18q0 11 8 19t19 8t18.5 -8t7.5 -19q0 -10 -7.5 -18t-18.5 -8zM260 494q-11 0 -19 8t-8 18q0 11 8 19t19 8t18.5 -8t7.5 -19q0 -10 -7.5 -18
t-18.5 -8z" />
    <glyph glyph-name="uni067D.fina" unicode="&#x67d;" horiz-adv-x="1032" 
d="M410 -21l26 24q116 0 196 16.5t133 44.5t85.5 64.5t51.5 76.5l23 -9q-11 -29 -16.5 -50.5t-5.5 -38.5q0 -27 11.5 -46.5t40.5 -30.5t80 -11q6 0 8.5 -3t2.5 -8q0 -4 -4 -8.5t-10 -4.5q-62 0 -97.5 17t-48 48.5t-5.5 76.5l8 -4q-28 -31 -64.5 -59t-90 -49.5t-132.5 -33.5
t-192 -12zM410 -21q-87 0 -154 11t-113 34.5t-69.5 60t-23.5 87.5q0 22 3.5 46t9 48t12.5 45l22 -6q-6 -19 -11 -39.5t-8.5 -42.5t-3.5 -46q0 -64 42 -102.5t123 -55t197 -16.5l20 -15zM477 433q-11 0 -19 8t-8 18q0 11 8 19t19 8t18.5 -8t7.5 -19q0 -10 -7.5 -18t-18.5 -8z
M424 516q-11 0 -19 8t-8 18q0 11 8 19t19 8t18.5 -8t7.5 -19q0 -10 -7.5 -18t-18.5 -8zM529 516q-11 0 -19 8t-8 18q0 11 8 19t19 8t18.5 -8t7.5 -19q0 -10 -7.5 -18t-18.5 -8z" />
    <glyph glyph-name="uni0681.init" unicode="&#x681;" horiz-adv-x="563" 
d="M0 -5l4 24q60 0 110 8t98 25t99 43t112 62q-49 38 -93 65.5t-87.5 42.5t-92.5 15q-16 0 -31.5 -1t-31.5 -4t-35 -9l-4 24q25 8 51 11t51 3q53 0 94.5 -13.5t74 -33t59 -39.5t50 -33.5t47.5 -13.5h25l3 -23q-31 0 -59.5 -11.5t-59 -28.5t-66.5 -36.5t-81 -37t-103.5 -28.5
t-133.5 -11zM57 429l-5 22q26 6 44.5 11t38.5 10l31 -7q-49 5 -79 33t-30 62q0 26 13 44t34.5 27t44.5 9q13 0 25.5 -2t22.5 -6l-5 -20q-10 3 -21 4.5t-22 1.5q-36 0 -53 -17.5t-17 -40.5q0 -21 14 -38t36.5 -27.5t49.5 -15.5l-40 -5q27 7 50.5 14.5t42.5 14.5l7 -20
q-24 -9 -56.5 -19t-65 -19t-60.5 -16z" />
    <glyph glyph-name="uni0681.medi" unicode="&#x681;" horiz-adv-x="607" 
d="M607 -5q-42 0 -77 2.5t-62.5 15t-46.5 41.5t-29 81l20 8q12 -61 37 -87t65 -31.5t96 -5.5q6 0 8.5 -3t2.5 -8q0 -4 -4 -8.5t-10 -4.5zM0 -5l4 24q60 0 110 8t98 25t99 43t112 62q-49 38 -93 65.5t-87.5 42.5t-92.5 15q-16 0 -31.5 -1t-31.5 -4t-35 -9l-4 24q25 8 51 11
t51 3q53 0 94.5 -13.5t74 -33t59 -39.5t50 -33.5t47.5 -13.5h25l3 -23q-31 0 -59.5 -11.5t-59 -28.5t-66.5 -36.5t-81 -37t-103.5 -28.5t-133.5 -11zM63 428l-5 22q26 6 44.5 11t38.5 10l31 -7q-49 5 -79 33t-30 62q0 26 13 44t34.5 27t44.5 9q13 0 25.5 -2t22.5 -6l-5 -20
q-10 3 -21 4.5t-22 1.5q-36 0 -53 -17.5t-17 -40.5q0 -21 14 -38t36.5 -27.5t49.5 -15.5l-40 -5q27 7 50.5 14.5t42.5 14.5l7 -20q-24 -9 -56.5 -19t-65 -19t-60.5 -16z" />
    <glyph glyph-name="uni0681.fina" unicode="&#x681;" horiz-adv-x="650" 
d="M650 -5q-63 0 -109 8t-77 32t-48 70.5t-20 124.5l21 7q3 -73 17.5 -117t43 -65.5t72 -28.5t103.5 -7q6 0 8.5 -3t2.5 -8q0 -4 -4 -8.5t-10 -4.5zM370 -394q-66 0 -124.5 16.5t-102.5 50t-69.5 83.5t-25.5 116q0 72 28.5 130.5t76 104.5t106 78.5t119 52.5t114.5 27l2 -8
q-39 5 -74 16.5t-69.5 25.5t-73 23.5t-85.5 9.5q-43 0 -70.5 -7.5t-47.5 -14.5l-4 23q21 8 54 15.5t71 7.5t73.5 -8t69 -19.5t66.5 -24t65.5 -21t65.5 -9.5h9v-27q-45 0 -97 -11.5t-104.5 -33.5t-101 -54.5t-86.5 -74t-60 -92.5t-22 -110q0 -62 24.5 -107.5t66.5 -75
t96.5 -44t114.5 -14.5q59 0 102 11t75 22l8 -21q-36 -15 -85 -25.5t-105 -10.5zM238 495l-5 22q26 6 44.5 11t38.5 10l31 -7q-49 5 -79 33t-30 62q0 26 13 44t34.5 27t44.5 9q13 0 25.5 -2t22.5 -6l-5 -20q-10 3 -21 4.5t-22 1.5q-36 0 -53 -17.5t-17 -40.5q0 -21 14 -38
t36.5 -27.5t49.5 -15.5l-40 -5q27 7 50.5 14.5t42.5 14.5l7 -20q-24 -9 -56.5 -19t-65 -19t-60.5 -16z" />
    <glyph glyph-name="uni0682.init" unicode="&#x682;" horiz-adv-x="563" 
d="M0 -5l4 24q60 0 110 8t98 25t99 43t112 62q-49 38 -93 65.5t-87.5 42.5t-92.5 15q-16 0 -31.5 -1t-31.5 -4t-35 -9l-4 24q25 8 51 11t51 3q53 0 94.5 -13.5t74 -33t59 -39.5t50 -33.5t47.5 -13.5h25l3 -23q-31 0 -59.5 -11.5t-59 -28.5t-66.5 -36.5t-81 -37t-103.5 -28.5
t-133.5 -11zM151 439q-11 0 -19 8t-8 18q0 11 8 19t19 8t18.5 -8t7.5 -19q0 -10 -7.5 -18t-18.5 -8zM150 547q-11 0 -19 8t-8 18q0 11 8 19t19 8t18.5 -8t7.5 -19q0 -10 -7.5 -18t-18.5 -8z" />
    <glyph glyph-name="uni0682.medi" unicode="&#x682;" horiz-adv-x="607" 
d="M607 -5q-42 0 -77 2.5t-62.5 15t-46.5 41.5t-29 81l20 8q12 -61 37 -87t65 -31.5t96 -5.5q6 0 8.5 -3t2.5 -8q0 -4 -4 -8.5t-10 -4.5zM0 -5l4 24q60 0 110 8t98 25t99 43t112 62q-49 38 -93 65.5t-87.5 42.5t-92.5 15q-16 0 -31.5 -1t-31.5 -4t-35 -9l-4 24q25 8 51 11
t51 3q53 0 94.5 -13.5t74 -33t59 -39.5t50 -33.5t47.5 -13.5h25l3 -23q-31 0 -59.5 -11.5t-59 -28.5t-66.5 -36.5t-81 -37t-103.5 -28.5t-133.5 -11zM157 438q-11 0 -19 8t-8 18q0 11 8 19t19 8t18.5 -8t7.5 -19q0 -10 -7.5 -18t-18.5 -8zM156 546q-11 0 -19 8t-8 18
q0 11 8 19t19 8t18.5 -8t7.5 -19q0 -10 -7.5 -18t-18.5 -8z" />
    <glyph glyph-name="uni0682.fina" unicode="&#x682;" horiz-adv-x="650" 
d="M650 -5q-63 0 -109 8t-77 32t-48 70.5t-20 124.5l21 7q3 -73 17.5 -117t43 -65.5t72 -28.5t103.5 -7q6 0 8.5 -3t2.5 -8q0 -4 -4 -8.5t-10 -4.5zM370 -394q-66 0 -124.5 16.5t-102.5 50t-69.5 83.5t-25.5 116q0 72 28.5 130.5t76 104.5t106 78.5t119 52.5t114.5 27l2 -8
q-39 5 -74 16.5t-69.5 25.5t-73 23.5t-85.5 9.5q-43 0 -70.5 -7.5t-47.5 -14.5l-4 23q21 8 54 15.5t71 7.5t73.5 -8t69 -19.5t66.5 -24t65.5 -21t65.5 -9.5h9v-27q-45 0 -97 -11.5t-104.5 -33.5t-101 -54.5t-86.5 -74t-60 -92.5t-22 -110q0 -62 24.5 -107.5t66.5 -75
t96.5 -44t114.5 -14.5q59 0 102 11t75 22l8 -21q-36 -15 -85 -25.5t-105 -10.5zM332 505q-11 0 -19 8t-8 18q0 11 8 19t19 8t18.5 -8t7.5 -19q0 -10 -7.5 -18t-18.5 -8zM331 613q-11 0 -19 8t-8 18q0 11 8 19t19 8t18.5 -8t7.5 -19q0 -10 -7.5 -18t-18.5 -8z" />
    <glyph glyph-name="uni0685.init" unicode="&#x685;" horiz-adv-x="563" 
d="M0 -5l4 24q60 0 110 8t98 25t99 43t112 62q-49 38 -93 65.5t-87.5 42.5t-92.5 15q-16 0 -31.5 -1t-31.5 -4t-35 -9l-4 24q25 8 51 11t51 3q53 0 94.5 -13.5t74 -33t59 -39.5t50 -33.5t47.5 -13.5h25l3 -23q-31 0 -59.5 -11.5t-59 -28.5t-66.5 -36.5t-81 -37t-103.5 -28.5
t-133.5 -11zM152 522q-10 0 -18 8t-8 19t8 18.5t18 7.5q11 0 19 -7.5t8 -18.5t-8 -19t-19 -8zM100 439q-10 0 -18 8t-8 19t8 18.5t18 7.5q11 0 19 -7.5t8 -18.5t-8 -19t-19 -8zM205 439q-10 0 -18 8t-8 19t8 18.5t18 7.5q11 0 19 -7.5t8 -18.5t-8 -19t-19 -8z" />
    <glyph glyph-name="uni0685.medi" unicode="&#x685;" horiz-adv-x="607" 
d="M607 -5q-42 0 -77 2.5t-62.5 15t-46.5 41.5t-29 81l20 8q12 -61 37 -87t65 -31.5t96 -5.5q6 0 8.5 -3t2.5 -8q0 -4 -4 -8.5t-10 -4.5zM0 -5l4 24q60 0 110 8t98 25t99 43t112 62q-49 38 -93 65.5t-87.5 42.5t-92.5 15q-16 0 -31.5 -1t-31.5 -4t-35 -9l-4 24q25 8 51 11
t51 3q53 0 94.5 -13.5t74 -33t59 -39.5t50 -33.5t47.5 -13.5h25l3 -23q-31 0 -59.5 -11.5t-59 -28.5t-66.5 -36.5t-81 -37t-103.5 -28.5t-133.5 -11zM158 521q-10 0 -18 8t-8 19t8 18.5t18 7.5q11 0 19 -7.5t8 -18.5t-8 -19t-19 -8zM106 438q-10 0 -18 8t-8 19t8 18.5
t18 7.5q11 0 19 -7.5t8 -18.5t-8 -19t-19 -8zM211 438q-10 0 -18 8t-8 19t8 18.5t18 7.5q11 0 19 -7.5t8 -18.5t-8 -19t-19 -8z" />
    <glyph glyph-name="uni0685.fina" unicode="&#x685;" horiz-adv-x="650" 
d="M650 -5q-63 0 -109 8t-77 32t-48 70.5t-20 124.5l21 7q3 -73 17.5 -117t43 -65.5t72 -28.5t103.5 -7q6 0 8.5 -3t2.5 -8q0 -4 -4 -8.5t-10 -4.5zM370 -394q-66 0 -124.5 16.5t-102.5 50t-69.5 83.5t-25.5 116q0 72 28.5 130.5t76 104.5t106 78.5t119 52.5t114.5 27l2 -8
q-39 5 -74 16.5t-69.5 25.5t-73 23.5t-85.5 9.5q-43 0 -70.5 -7.5t-47.5 -14.5l-4 23q21 8 54 15.5t71 7.5t73.5 -8t69 -19.5t66.5 -24t65.5 -21t65.5 -9.5h9v-27q-45 0 -97 -11.5t-104.5 -33.5t-101 -54.5t-86.5 -74t-60 -92.5t-22 -110q0 -62 24.5 -107.5t66.5 -75
t96.5 -44t114.5 -14.5q59 0 102 11t75 22l8 -21q-36 -15 -85 -25.5t-105 -10.5zM333 588q-10 0 -18 8t-8 19t8 18.5t18 7.5q11 0 19 -7.5t8 -18.5t-8 -19t-19 -8zM281 505q-10 0 -18 8t-8 19t8 18.5t18 7.5q11 0 19 -7.5t8 -18.5t-8 -19t-19 -8zM386 505q-10 0 -18 8t-8 19
t8 18.5t18 7.5q11 0 19 -7.5t8 -18.5t-8 -19t-19 -8z" />
    <glyph glyph-name="uni0689.fina" unicode="&#x689;" horiz-adv-x="508" 
d="M215 -137q-32 0 -54.5 23t-22.5 55t22.5 54.5t54.5 22.5t55 -22.5t23 -54.5t-23 -55t-55 -23zM215 -115q22 0 38.5 16.5t16.5 39.5t-16 39t-39 16q-22 0 -38 -16t-16 -39t16 -39.5t38 -16.5zM182 19q52 0 82.5 14t44 39t13.5 58q0 20 -6 47t-21 62.5t-42.5 81
t-69.5 102.5l20 14q50 -67 79 -120.5t43 -94.5t19 -71q7 -41 25 -71t52 -45.5t90 -15.5q6 0 8.5 -3t2.5 -8q0 -4 -4 -8.5t-10 -4.5q-60 0 -96.5 17t-55.5 48.5t-26 75.5l15 -6q0 -32 -13.5 -63t-48.5 -51.5t-100 -20.5q-26 0 -54.5 4t-53.5 12t-43 19l11 22q30 -19 69.5 -26
t69.5 -7z" />
    <glyph glyph-name="uni068A.fina" unicode="&#x68a;" horiz-adv-x="508" 
d="M182 19q52 0 82.5 14t44 39t13.5 58q0 20 -6 47t-21 62.5t-42.5 81t-69.5 102.5l20 14q50 -67 79 -120.5t43 -94.5t19 -71q7 -41 25 -71t52 -45.5t90 -15.5q6 0 8.5 -3t2.5 -8q0 -4 -4 -8.5t-10 -4.5q-60 0 -96.5 17t-55.5 48.5t-26 75.5l15 -6q0 -32 -13.5 -63
t-48.5 -51.5t-100 -20.5q-26 0 -54.5 4t-53.5 12t-43 19l11 22q30 -19 69.5 -26t69.5 -7zM184 -171q-11 0 -19 8t-8 18q0 11 8 19t19 8t18.5 -8t7.5 -19q0 -10 -7.5 -18t-18.5 -8z" />
    <glyph glyph-name="uni068B.fina" unicode="&#x68b;" horiz-adv-x="508" 
d="M182 19q52 0 82.5 14t44 39t13.5 58q0 20 -6 47t-21 62.5t-42.5 81t-69.5 102.5l20 14q50 -67 79 -120.5t43 -94.5t19 -71q7 -41 25 -71t52 -45.5t90 -15.5q6 0 8.5 -3t2.5 -8q0 -4 -4 -8.5t-10 -4.5q-60 0 -96.5 17t-55.5 48.5t-26 75.5l15 -6q0 -32 -13.5 -63
t-48.5 -51.5t-100 -20.5q-26 0 -54.5 4t-53.5 12t-43 19l11 22q30 -19 69.5 -26t69.5 -7zM167 582q-14 0 -33 1t-37 3t-30 3l1 18q33 -3 58.5 -5t44.5 -2q39 0 65 10t39 26t13 34q0 20 -10.5 33.5t-30.5 13.5q-26 0 -50 -17.5t-44 -44.5t-36 -54l-17 3q17 32 40 62
t50.5 49.5t57.5 19.5q27 0 42.5 -17.5t15.5 -46.5q0 -27 -16.5 -47t-47.5 -31t-75 -11zM124 641l-6 194h17l6 -173zM184 -171q-11 0 -19 8t-8 18q0 11 8 19t19 8t18.5 -8t7.5 -19q0 -10 -7.5 -18t-18.5 -8z" />
    <glyph glyph-name="uni068F.fina" unicode="&#x68f;" horiz-adv-x="508" 
d="M182 19q52 0 82.5 14t44 39t13.5 58q0 20 -6 47t-21 62.5t-42.5 81t-69.5 102.5l20 14q50 -67 79 -120.5t43 -94.5t19 -71q7 -41 25 -71t52 -45.5t90 -15.5q6 0 8.5 -3t2.5 -8q0 -4 -4 -8.5t-10 -4.5q-60 0 -96.5 17t-55.5 48.5t-26 75.5l15 -6q0 -32 -13.5 -63
t-48.5 -51.5t-100 -20.5q-26 0 -54.5 4t-53.5 12t-43 19l11 22q30 -19 69.5 -26t69.5 -7zM186 580q-11 0 -19 8t-8 18q0 11 8 19t19 8t18.5 -8t7.5 -19q0 -10 -7.5 -18t-18.5 -8zM133 663q-11 0 -19 8t-8 18q0 11 8 19t19 8t18.5 -8t7.5 -19q0 -10 -7.5 -18t-18.5 -8z
M238 663q-11 0 -19 8t-8 18q0 11 8 19t19 8t18.5 -8t7.5 -19q0 -10 -7.5 -18t-18.5 -8z" />
    <glyph glyph-name="uni0690.fina" unicode="&#x690;" horiz-adv-x="508" 
d="M182 19q52 0 82.5 14t44 39t13.5 58q0 20 -6 47t-21 62.5t-42.5 81t-69.5 102.5l20 14q50 -67 79 -120.5t43 -94.5t19 -71q7 -41 25 -71t52 -45.5t90 -15.5q6 0 8.5 -3t2.5 -8q0 -4 -4 -8.5t-10 -4.5q-60 0 -96.5 17t-55.5 48.5t-26 75.5l15 -6q0 -32 -13.5 -63
t-48.5 -51.5t-100 -20.5q-26 0 -54.5 4t-53.5 12t-43 19l11 22q30 -19 69.5 -26t69.5 -7zM135 688q-11 0 -19 8t-8 18q0 11 8 19t19 8t18.5 -8t7.5 -19q0 -10 -7.5 -18t-18.5 -8zM133 580q-11 0 -19 8t-8 18q0 11 8 19t19 8t18.5 -8t7.5 -19q0 -10 -7.5 -18t-18.5 -8z
M240 688q-11 0 -19 8t-8 18q0 11 8 19t19 8t18.5 -8t7.5 -19q0 -10 -7.5 -18t-18.5 -8zM238 580q-11 0 -19 8t-8 18q0 11 8 19t19 8t18.5 -8t7.5 -19q0 -10 -7.5 -18t-18.5 -8z" />
    <glyph glyph-name="uni0692.fina" unicode="&#x692;" horiz-adv-x="422" 
d="M4 -230l-9 24q54 20 100 50.5t80.5 69.5t53.5 84.5t19 94.5q0 45 -21.5 102.5t-56.5 115.5l23 13q18 -31 32.5 -62t25 -60.5t16.5 -57.5q13 -55 52 -90t106 -35q6 0 8.5 -3t2.5 -8q0 -4 -4 -8.5t-10 -4.5q-42 0 -74.5 12.5t-54 35.5t-31.5 53h10q0 -59 -22 -110
t-60 -92.5t-86 -72.5t-100 -51zM159 483q-7 16 -18 39.5t-23.5 50t-25 50t-21.5 39.5l19 10q6 -10 18 -32.5t25 -49.5t25 -52t18 -40l7 -13zM183 485l-20 6q6 18 17 46t23.5 57.5t23 52.5t14.5 31l20 -9q-5 -10 -15.5 -33.5t-23 -52t-23 -55t-16.5 -43.5z" />
    <glyph glyph-name="uni0693.fina" unicode="&#x693;" horiz-adv-x="422" 
d="M234 -217q-32 0 -54.5 23t-22.5 55t22.5 54.5t54.5 22.5t55 -22.5t23 -54.5t-23 -55t-55 -23zM234 -195q22 0 38.5 16.5t16.5 39.5t-16 39t-39 16q-22 0 -38 -16t-16 -39t16 -39.5t38 -16.5zM4 -230l-9 24q54 20 100 50.5t80.5 69.5t53.5 84.5t19 94.5q0 45 -21.5 102.5
t-56.5 115.5l23 13q18 -31 32.5 -62t25 -60.5t16.5 -57.5q13 -55 52 -90t106 -35q6 0 8.5 -3t2.5 -8q0 -4 -4 -8.5t-10 -4.5q-42 0 -74.5 12.5t-54 35.5t-31.5 53h10q0 -59 -22 -110t-60 -92.5t-86 -72.5t-100 -51z" />
    <glyph glyph-name="uni0694.fina" unicode="&#x694;" horiz-adv-x="422" 
d="M4 -230l-9 24q54 20 100 50.5t80.5 69.5t53.5 84.5t19 94.5q0 45 -21.5 102.5t-56.5 115.5l23 13q18 -31 32.5 -62t25 -60.5t16.5 -57.5q13 -55 52 -90t106 -35q6 0 8.5 -3t2.5 -8q0 -4 -4 -8.5t-10 -4.5q-42 0 -74.5 12.5t-54 35.5t-31.5 53h10q0 -59 -22 -110
t-60 -92.5t-86 -72.5t-100 -51zM132 -383q-11 0 -19 8t-8 18q0 11 8 19t19 8t18.5 -8t7.5 -19q0 -10 -7.5 -18t-18.5 -8z" />
    <glyph glyph-name="uni0695.fina" unicode="&#x695;" horiz-adv-x="422" 
d="M65 -91q-7 17 -19.5 44.5t-26.5 54.5t-24 44l15 8q5 -8 14.5 -26t20 -39.5t20 -41.5t14.5 -32l6 -10zM85 -89l-16 4q4 15 13 37.5t19 46t18 42t12 24.5l16 -7q-4 -8 -12.5 -27t-18.5 -42t-18.5 -44t-12.5 -34zM4 -230l-9 24q54 20 100 50.5t80.5 69.5t53.5 84.5t19 94.5
q0 45 -21.5 102.5t-56.5 115.5l23 13q18 -31 32.5 -62t25 -60.5t16.5 -57.5q13 -55 52 -90t106 -35q6 0 8.5 -3t2.5 -8q0 -4 -4 -8.5t-10 -4.5q-42 0 -74.5 12.5t-54 35.5t-31.5 53h10q0 -59 -22 -110t-60 -92.5t-86 -72.5t-100 -51z" />
    <glyph glyph-name="uni0696.fina" unicode="&#x696;" horiz-adv-x="422" 
d="M4 -230l-9 24q54 20 100 50.5t80.5 69.5t53.5 84.5t19 94.5q0 45 -21.5 102.5t-56.5 115.5l23 13q18 -31 32.5 -62t25 -60.5t16.5 -57.5q13 -55 52 -90t106 -35q6 0 8.5 -3t2.5 -8q0 -4 -4 -8.5t-10 -4.5q-42 0 -74.5 12.5t-54 35.5t-31.5 53h10q0 -59 -22 -110
t-60 -92.5t-86 -72.5t-100 -51zM46 25q-11 0 -19 8t-8 18q0 11 8 19t19 8t18.5 -8t7.5 -19q0 -10 -7.5 -18t-18.5 -8zM132 -383q-11 0 -19 8t-8 18q0 11 8 19t19 8t18.5 -8t7.5 -19q0 -10 -7.5 -18t-18.5 -8z" />
    <glyph glyph-name="uni0697.fina" unicode="&#x697;" horiz-adv-x="422" 
d="M4 -230l-9 24q54 20 100 50.5t80.5 69.5t53.5 84.5t19 94.5q0 45 -21.5 102.5t-56.5 115.5l23 13q18 -31 32.5 -62t25 -60.5t16.5 -57.5q13 -55 52 -90t106 -35q6 0 8.5 -3t2.5 -8q0 -4 -4 -8.5t-10 -4.5q-42 0 -74.5 12.5t-54 35.5t-31.5 53h10q0 -59 -22 -110
t-60 -92.5t-86 -72.5t-100 -51zM225 486q-11 0 -19 8t-8 18q0 11 8 19t19 8t18.5 -8t7.5 -19q0 -10 -7.5 -18t-18.5 -8zM120 486q-11 0 -19 8t-8 18q0 11 8 19t19 8t18.5 -8t7.5 -19q0 -10 -7.5 -18t-18.5 -8z" />
    <glyph glyph-name="uni0699.fina" unicode="&#x699;" horiz-adv-x="422" 
d="M4 -230l-9 24q54 20 100 50.5t80.5 69.5t53.5 84.5t19 94.5q0 45 -21.5 102.5t-56.5 115.5l23 13q18 -31 32.5 -62t25 -60.5t16.5 -57.5q13 -55 52 -90t106 -35q6 0 8.5 -3t2.5 -8q0 -4 -4 -8.5t-10 -4.5q-42 0 -74.5 12.5t-54 35.5t-31.5 53h10q0 -59 -22 -110
t-60 -92.5t-86 -72.5t-100 -51zM122 594q-11 0 -19 8t-8 18q0 11 8 19t19 8t18.5 -8t7.5 -19q0 -10 -7.5 -18t-18.5 -8zM120 486q-11 0 -19 8t-8 18q0 11 8 19t19 8t18.5 -8t7.5 -19q0 -10 -7.5 -18t-18.5 -8zM227 594q-11 0 -19 8t-8 18q0 11 8 19t19 8t18.5 -8t7.5 -19
q0 -10 -7.5 -18t-18.5 -8zM225 486q-11 0 -19 8t-8 18q0 11 8 19t19 8t18.5 -8t7.5 -19q0 -10 -7.5 -18t-18.5 -8z" />
    <glyph glyph-name="uni069A.init" unicode="&#x69a;" horiz-adv-x="741" 
d="M0 -5l4 24q38 0 61.5 6t39.5 27.5t29.5 68t31.5 126.5l23 -6q-4 -17 -9 -39.5t-9 -47t-4 -47.5q0 -54 25.5 -71t73.5 -17q36 0 59 9t36.5 34t23.5 72.5t20 123.5l23 -4q-4 -27 -8.5 -54.5t-7 -51.5t-2.5 -43q0 -35 11.5 -54t35 -25.5t59.5 -6.5q28 0 53.5 7t42.5 32.5
t17 81.5q0 55 -15 107t-31 106l25 10q11 -37 21.5 -74.5t17.5 -74.5t7 -73q0 -47 -12.5 -76t-33.5 -44t-46 -20.5t-50 -5.5q-54 0 -79.5 15t-33.5 39t-12 51h12q-10 -39 -26 -62t-42 -33t-67 -10q-31 0 -58 8t-44 33t-17 75h9q-14 -51 -34.5 -75.5t-49.5 -32.5t-70 -8z
M361 -171q-11 0 -19 8t-8 18q0 11 8 19t19 8t18.5 -8t7.5 -19q0 -10 -7.5 -18t-18.5 -8zM406 467q-11 0 -19 8t-8 18q0 11 8 19t19 8t18.5 -8t7.5 -19q0 -10 -7.5 -18t-18.5 -8z" />
    <glyph glyph-name="uni069A.medi" unicode="&#x69a;" horiz-adv-x="813" 
d="M0 -5l4 24q32 0 54.5 3t40 22.5t33.5 67t34 135.5l23 -6q-6 -25 -14 -62.5t-8 -68.5q0 -35 9.5 -55t30 -28t53.5 -8q34 0 57 7t39 30.5t27.5 71.5t22.5 130l25 -4q-3 -18 -8 -45.5t-9 -54.5t-4 -44q0 -32 9.5 -52t32.5 -29.5t62 -9.5q63 0 88 24t25 82q0 24 -1.5 61
t-4 74.5t-4.5 59.5l25 2q4 -102 12 -162t25.5 -90t50 -40t86.5 -11q6 0 8.5 -3t2.5 -8q0 -4 -4 -8.5t-10 -4.5q-39 0 -68 6.5t-49.5 19.5t-33 33.5t-17.5 47.5h2q-6 -45 -26 -68t-48 -31t-60 -8q-43 0 -69 11.5t-38.5 34.5t-16.5 59h8q-11 -34 -26 -57.5t-41.5 -35.5
t-70.5 -12q-26 0 -52.5 8.5t-43.5 33.5t-16 74h9q-14 -51 -34.5 -75.5t-50.5 -32.5t-71 -8zM360 -171q-11 0 -19 8t-8 18q0 11 8 19t19 8t18.5 -8t7.5 -19q0 -10 -7.5 -18t-18.5 -8zM423 467q-11 0 -19 8t-8 18q0 11 8 19t19 8t18.5 -8t7.5 -19q0 -10 -7.5 -18t-18.5 -8z
" />
    <glyph glyph-name="uni069A.fina" unicode="&#x69a;" horiz-adv-x="1170" 
d="M302 -230q-48 0 -93.5 12.5t-81 38t-56.5 64.5t-21 93q0 25 4 52.5t15.5 61.5t32.5 79l23 -11q-16 -31 -27 -62.5t-16.5 -61t-5.5 -55.5q0 -66 33.5 -107.5t86.5 -60.5t110 -19q77 0 125 22t74 56.5t36 75.5t10 78q0 34 -6 72t-15 78.5t-19 79.5l25 8q14 -57 21.5 -90.5
t16.5 -65.5q10 -33 21 -52.5t29 -28t48 -8.5q28 0 47.5 5.5t34 28t26 72t23.5 137.5l25 -4q-6 -40 -11 -67t-7.5 -45.5t-2.5 -35.5q0 -32 6 -52t28 -29.5t70 -9.5q51 0 76.5 27t25.5 79q0 24 -1.5 62t-4 76.5t-4.5 60.5l25 2q5 -85 9 -143t15.5 -94t39 -52.5t81.5 -17.5
q6 0 8.5 -3t2.5 -8q0 -4 -4 -8.5t-10 -4.5q-41 0 -70.5 11.5t-48 31.5t-25.5 47h4q-5 -27 -20 -47t-40 -31.5t-60 -11.5q-51 0 -77.5 11.5t-35.5 35t-10 58.5l9 1q-10 -42 -26.5 -65t-40.5 -32t-58 -9q-33 0 -53.5 8.5t-32 22.5t-17 31.5t-9.5 35.5l18 -32q2 -59 -10 -111.5
t-43 -93t-85 -63.5t-137 -23zM804 -171q-11 0 -19 8t-8 18q0 11 8 19t19 8t18.5 -8t7.5 -19q0 -10 -7.5 -18t-18.5 -8zM796 467q-11 0 -19 8t-8 18q0 11 8 19t19 8t18.5 -8t7.5 -19q0 -10 -7.5 -18t-18.5 -8z" />
    <glyph glyph-name="uni069B.init" unicode="&#x69b;" horiz-adv-x="741" 
d="M0 -5l4 24q38 0 61.5 6t39.5 27.5t29.5 68t31.5 126.5l23 -6q-4 -17 -9 -39.5t-9 -47t-4 -47.5q0 -54 25.5 -71t73.5 -17q36 0 59 9t36.5 34t23.5 72.5t20 123.5l23 -4q-4 -27 -8.5 -54.5t-7 -51.5t-2.5 -43q0 -35 11.5 -54t35 -25.5t59.5 -6.5q28 0 53.5 7t42.5 32.5
t17 81.5q0 55 -15 107t-31 106l25 10q11 -37 21.5 -74.5t17.5 -74.5t7 -73q0 -47 -12.5 -76t-33.5 -44t-46 -20.5t-50 -5.5q-54 0 -79.5 15t-33.5 39t-12 51h12q-10 -39 -26 -62t-42 -33t-67 -10q-31 0 -58 8t-44 33t-17 75h9q-14 -51 -34.5 -75.5t-49.5 -32.5t-70 -8z
M360 -255q-11 0 -19 8t-8 18q0 11 8 19t19 8t18.5 -8t7.5 -19q0 -10 -7.5 -18t-18.5 -8zM307 -172q-11 0 -19 8t-8 18q0 11 8 19t19 8t18.5 -8t7.5 -19q0 -10 -7.5 -18t-18.5 -8zM412 -172q-11 0 -19 8t-8 18q0 11 8 19t19 8t18.5 -8t7.5 -19q0 -10 -7.5 -18t-18.5 -8z" />
    <glyph glyph-name="uni069B.medi" unicode="&#x69b;" horiz-adv-x="813" 
d="M0 -5l4 24q32 0 54.5 3t40 22.5t33.5 67t34 135.5l23 -6q-6 -25 -14 -62.5t-8 -68.5q0 -35 9.5 -55t30 -28t53.5 -8q34 0 57 7t39 30.5t27.5 71.5t22.5 130l25 -4q-3 -18 -8 -45.5t-9 -54.5t-4 -44q0 -32 9.5 -52t32.5 -29.5t62 -9.5q63 0 88 24t25 82q0 24 -1.5 61
t-4 74.5t-4.5 59.5l25 2q4 -102 12 -162t25.5 -90t50 -40t86.5 -11q6 0 8.5 -3t2.5 -8q0 -4 -4 -8.5t-10 -4.5q-39 0 -68 6.5t-49.5 19.5t-33 33.5t-17.5 47.5h2q-6 -45 -26 -68t-48 -31t-60 -8q-43 0 -69 11.5t-38.5 34.5t-16.5 59h8q-11 -34 -26 -57.5t-41.5 -35.5
t-70.5 -12q-26 0 -52.5 8.5t-43.5 33.5t-16 74h9q-14 -51 -34.5 -75.5t-50.5 -32.5t-71 -8zM359 -255q-11 0 -19 8t-8 18q0 11 8 19t19 8t18.5 -8t7.5 -19q0 -10 -7.5 -18t-18.5 -8zM306 -172q-11 0 -19 8t-8 18q0 11 8 19t19 8t18.5 -8t7.5 -19q0 -10 -7.5 -18t-18.5 -8z
M411 -172q-11 0 -19 8t-8 18q0 11 8 19t19 8t18.5 -8t7.5 -19q0 -10 -7.5 -18t-18.5 -8z" />
    <glyph glyph-name="uni069B.fina" unicode="&#x69b;" horiz-adv-x="1170" 
d="M302 -230q-48 0 -93.5 12.5t-81 38t-56.5 64.5t-21 93q0 25 4 52.5t15.5 61.5t32.5 79l23 -11q-16 -31 -27 -62.5t-16.5 -61t-5.5 -55.5q0 -66 33.5 -107.5t86.5 -60.5t110 -19q77 0 125 22t74 56.5t36 75.5t10 78q0 34 -6 72t-15 78.5t-19 79.5l25 8q14 -57 21.5 -90.5
t16.5 -65.5q10 -33 21 -52.5t29 -28t48 -8.5q28 0 47.5 5.5t34 28t26 72t23.5 137.5l25 -4q-6 -40 -11 -67t-7.5 -45.5t-2.5 -35.5q0 -32 6 -52t28 -29.5t70 -9.5q51 0 76.5 27t25.5 79q0 24 -1.5 62t-4 76.5t-4.5 60.5l25 2q5 -85 9 -143t15.5 -94t39 -52.5t81.5 -17.5
q6 0 8.5 -3t2.5 -8q0 -4 -4 -8.5t-10 -4.5q-41 0 -70.5 11.5t-48 31.5t-25.5 47h4q-5 -27 -20 -47t-40 -31.5t-60 -11.5q-51 0 -77.5 11.5t-35.5 35t-10 58.5l9 1q-10 -42 -26.5 -65t-40.5 -32t-58 -9q-33 0 -53.5 8.5t-32 22.5t-17 31.5t-9.5 35.5l18 -32q2 -59 -10 -111.5
t-43 -93t-85 -63.5t-137 -23zM803 -255q-11 0 -19 8t-8 18q0 11 8 19t19 8t18.5 -8t7.5 -19q0 -10 -7.5 -18t-18.5 -8zM750 -172q-11 0 -19 8t-8 18q0 11 8 19t19 8t18.5 -8t7.5 -19q0 -10 -7.5 -18t-18.5 -8zM855 -172q-11 0 -19 8t-8 18q0 11 8 19t19 8t18.5 -8t7.5 -19
q0 -10 -7.5 -18t-18.5 -8z" />
    <glyph glyph-name="uni069D.init" unicode="&#x69d;" horiz-adv-x="892" 
d="M463 -18q-55 0 -109 5.5t-99 19.5t-72 39t-29 65h7q-14 -51 -34.5 -75.5t-50.5 -32.5t-76 -8l4 24q41 0 66 6.5t42.5 30t32.5 74.5t34 139l23 -6q-4 -17 -10.5 -42t-12 -51t-5.5 -47q0 -28 17 -50t52 -37t89 -22.5t128 -7.5q86 0 152 10.5t110.5 31.5t67.5 52.5t23 73.5
q0 39 -18 66t-49.5 41t-73.5 14q-46 0 -93.5 -24t-95 -64.5t-94.5 -92t-92 -105.5l-21 11q60 74 113 130t101 93.5t93.5 56.5t90.5 19q48 0 84.5 -16t57.5 -47.5t21 -78.5q0 -62 -39.5 -105.5t-122 -66.5t-212.5 -23zM543 -183q-11 0 -19 8t-8 18q0 11 8 19t19 8t18.5 -8
t7.5 -19q0 -10 -7.5 -18t-18.5 -8zM438 -183q-11 0 -19 8t-8 18q0 11 8 19t19 8t18.5 -8t7.5 -19q0 -10 -7.5 -18t-18.5 -8z" />
    <glyph glyph-name="uni069D.medi" unicode="&#x69d;" horiz-adv-x="949" 
d="M949 -5q-23 0 -59.5 4.5t-75 16.5t-68.5 34l19 13q50 -26 101.5 -35t85.5 -9q6 0 8.5 -3t2.5 -8q0 -4 -4 -8.5t-10 -4.5zM463 -18q-55 0 -109 5.5t-99 19.5t-72 39t-29 65h7q-14 -51 -34.5 -75.5t-50.5 -32.5t-76 -8l4 24q41 0 66 6.5t42.5 30t32.5 74.5t34 139l23 -6
q-4 -17 -10.5 -42t-12 -51t-5.5 -47q0 -28 17 -50t52 -37t89 -22.5t128 -7.5q86 0 152 10.5t110.5 31.5t67.5 52.5t23 73.5q0 39 -18 66t-49.5 41t-73.5 14q-46 0 -93.5 -24t-95 -64.5t-94.5 -92t-92 -105.5l-21 11q60 74 113 130t101 93.5t93.5 56.5t90.5 19q48 0 84.5 -16
t57.5 -47.5t21 -78.5q0 -62 -39.5 -105.5t-122 -66.5t-212.5 -23zM543 -183q-11 0 -19 8t-8 18q0 11 8 19t19 8t18.5 -8t7.5 -19q0 -10 -7.5 -18t-18.5 -8zM438 -183q-11 0 -19 8t-8 18q0 11 8 19t19 8t18.5 -8t7.5 -19q0 -10 -7.5 -18t-18.5 -8z" />
    <glyph glyph-name="uni069D.fina" unicode="&#x69d;" horiz-adv-x="1341" 
d="M1341 -5q-23 0 -59.5 4.5t-75 16.5t-68.5 34l19 13q50 -26 101.5 -35t85.5 -9q6 0 8.5 -3t2.5 -8q0 -4 -4 -8.5t-10 -4.5zM302 -230q-56 0 -102 14.5t-79.5 42t-52 65.5t-18.5 86q0 25 4 52.5t15.5 61.5t32.5 79l23 -11q-16 -31 -27 -62.5t-16.5 -61t-5.5 -55.5
q0 -58 29.5 -100t81.5 -64.5t119 -22.5q76 0 124 22t74.5 56.5t36.5 75.5t10 78q0 51 -12.5 111t-27.5 119l25 8q9 -38 15 -64.5t10.5 -45t8.5 -32.5q8 -27 24.5 -47.5t47.5 -35t80 -21.5t121 -7q46 0 96 4t97.5 14t85 29t60 48t22.5 72q0 31 -14 59t-44.5 46t-79.5 18
q-44 0 -88.5 -20t-90.5 -57.5t-95.5 -90.5t-103.5 -119l-20 10q47 59 89.5 106.5t82.5 84t78 61t75.5 37t75.5 12.5q58 0 92.5 -20.5t50.5 -53.5t16 -71q0 -60 -33.5 -97.5t-89 -58.5t-121 -29t-130.5 -8q-76 0 -126.5 7t-82.5 20t-51.5 30.5t-34.5 38.5l18 -10
q3 -63 -8.5 -118t-42.5 -96.5t-85.5 -65t-138.5 -23.5zM946 -178q-11 0 -19 8t-8 18q0 11 8 19t19 8t18.5 -8t7.5 -19q0 -10 -7.5 -18t-18.5 -8zM841 -178q-11 0 -19 8t-8 18q0 11 8 19t19 8t18.5 -8t7.5 -19q0 -10 -7.5 -18t-18.5 -8z" />
    <glyph glyph-name="uni069E.init" unicode="&#x69e;" horiz-adv-x="892" 
d="M463 -18q-55 0 -109 5.5t-99 19.5t-72 39t-29 65h7q-14 -51 -34.5 -75.5t-50.5 -32.5t-76 -8l4 24q41 0 66 6.5t42.5 30t32.5 74.5t34 139l23 -6q-4 -17 -10.5 -42t-12 -51t-5.5 -47q0 -28 17 -50t52 -37t89 -22.5t128 -7.5q86 0 152 10.5t110.5 31.5t67.5 52.5t23 73.5
q0 39 -18 66t-49.5 41t-73.5 14q-46 0 -93.5 -24t-95 -64.5t-94.5 -92t-92 -105.5l-21 11q60 74 113 130t101 93.5t93.5 56.5t90.5 19q48 0 84.5 -16t57.5 -47.5t21 -78.5q0 -62 -39.5 -105.5t-122 -66.5t-212.5 -23zM646 537q-10 0 -18 8t-8 19t8 18.5t18 7.5q11 0 19 -7.5
t8 -18.5t-8 -19t-19 -8zM594 454q-10 0 -18 8t-8 19t8 18.5t18 7.5q11 0 19 -7.5t8 -18.5t-8 -19t-19 -8zM699 454q-10 0 -18 8t-8 19t8 18.5t18 7.5q11 0 19 -7.5t8 -18.5t-8 -19t-19 -8z" />
    <glyph glyph-name="uni069E.medi" unicode="&#x69e;" horiz-adv-x="949" 
d="M949 -5q-23 0 -59.5 4.5t-75 16.5t-68.5 34l19 13q50 -26 101.5 -35t85.5 -9q6 0 8.5 -3t2.5 -8q0 -4 -4 -8.5t-10 -4.5zM463 -18q-55 0 -109 5.5t-99 19.5t-72 39t-29 65h7q-14 -51 -34.5 -75.5t-50.5 -32.5t-76 -8l4 24q41 0 66 6.5t42.5 30t32.5 74.5t34 139l23 -6
q-4 -17 -10.5 -42t-12 -51t-5.5 -47q0 -28 17 -50t52 -37t89 -22.5t128 -7.5q86 0 152 10.5t110.5 31.5t67.5 52.5t23 73.5q0 39 -18 66t-49.5 41t-73.5 14q-46 0 -93.5 -24t-95 -64.5t-94.5 -92t-92 -105.5l-21 11q60 74 113 130t101 93.5t93.5 56.5t90.5 19q48 0 84.5 -16
t57.5 -47.5t21 -78.5q0 -62 -39.5 -105.5t-122 -66.5t-212.5 -23zM646 537q-10 0 -18 8t-8 19t8 18.5t18 7.5q11 0 19 -7.5t8 -18.5t-8 -19t-19 -8zM594 454q-10 0 -18 8t-8 19t8 18.5t18 7.5q11 0 19 -7.5t8 -18.5t-8 -19t-19 -8zM699 454q-10 0 -18 8t-8 19t8 18.5t18 7.5
q11 0 19 -7.5t8 -18.5t-8 -19t-19 -8z" />
    <glyph glyph-name="uni069E.fina" unicode="&#x69e;" horiz-adv-x="1341" 
d="M1341 -5q-23 0 -59.5 4.5t-75 16.5t-68.5 34l19 13q50 -26 101.5 -35t85.5 -9q6 0 8.5 -3t2.5 -8q0 -4 -4 -8.5t-10 -4.5zM302 -230q-56 0 -102 14.5t-79.5 42t-52 65.5t-18.5 86q0 25 4 52.5t15.5 61.5t32.5 79l23 -11q-16 -31 -27 -62.5t-16.5 -61t-5.5 -55.5
q0 -58 29.5 -100t81.5 -64.5t119 -22.5q76 0 124 22t74.5 56.5t36.5 75.5t10 78q0 51 -12.5 111t-27.5 119l25 8q9 -38 15 -64.5t10.5 -45t8.5 -32.5q8 -27 24.5 -47.5t47.5 -35t80 -21.5t121 -7q46 0 96 4t97.5 14t85 29t60 48t22.5 72q0 31 -14 59t-44.5 46t-79.5 18
q-44 0 -88.5 -20t-90.5 -57.5t-95.5 -90.5t-103.5 -119l-20 10q47 59 89.5 106.5t82.5 84t78 61t75.5 37t75.5 12.5q58 0 92.5 -20.5t50.5 -53.5t16 -71q0 -60 -33.5 -97.5t-89 -58.5t-121 -29t-130.5 -8q-76 0 -126.5 7t-82.5 20t-51.5 30.5t-34.5 38.5l18 -10
q3 -63 -8.5 -118t-42.5 -96.5t-85.5 -65t-138.5 -23.5zM1041 543q-10 0 -18 8t-8 19t8 18.5t18 7.5q11 0 19 -7.5t8 -18.5t-8 -19t-19 -8zM989 460q-10 0 -18 8t-8 19t8 18.5t18 7.5q11 0 19 -7.5t8 -18.5t-8 -19t-19 -8zM1094 460q-10 0 -18 8t-8 19t8 18.5t18 7.5
q11 0 19 -7.5t8 -18.5t-8 -19t-19 -8z" />
    <glyph glyph-name="uni069F.init" unicode="&#x69f;" horiz-adv-x="667" 
d="M0 -5l4 24h287q69 0 123.5 10t93.5 30t59.5 49.5t20.5 69.5q0 34 -15.5 61.5t-46.5 44.5t-78 17q-50 0 -100.5 -26.5t-99 -69.5t-93.5 -93.5t-85 -98.5l-32 -11q52 67 102.5 125.5t101.5 103t103 69.5t106 25q57 0 92.5 -20.5t52 -53.5t16.5 -72q0 -53 -34 -97t-114 -67
q-42 -12 -93 -16t-116 -4h-150h-105zM95 64l-20 650h24l21 -613zM403 543q-10 0 -18 8t-8 19t8 18.5t18 7.5q11 0 19 -7.5t8 -18.5t-8 -19t-19 -8zM351 460q-10 0 -18 8t-8 19t8 18.5t18 7.5q11 0 19 -7.5t8 -18.5t-8 -19t-19 -8zM456 460q-10 0 -18 8t-8 19t8 18.5t18 7.5
q11 0 19 -7.5t8 -18.5t-8 -19t-19 -8z" />
    <glyph glyph-name="uni069F.medi" unicode="&#x69f;" horiz-adv-x="710" 
d="M710 -5q-23 0 -59.5 4.5t-75 16.5t-68.5 34l19 13q50 -26 101.5 -35t85.5 -9q6 0 8.5 -3t2.5 -8q0 -4 -4 -8.5t-10 -4.5zM0 -5l4 24h287q69 0 123.5 10t93.5 30t59.5 49.5t20.5 69.5q0 34 -15.5 61.5t-46.5 44.5t-78 17q-50 0 -100.5 -26.5t-99 -69.5t-93.5 -93.5
t-85 -98.5l-32 -11q52 67 102.5 125.5t101.5 103t103 69.5t106 25q57 0 92.5 -20.5t52 -53.5t16.5 -72q0 -53 -34 -97t-114 -67q-42 -12 -93 -16t-116 -4h-150h-105zM95 64l-20 650h24l21 -613zM403 543q-10 0 -18 8t-8 19t8 18.5t18 7.5q11 0 19 -7.5t8 -18.5t-8 -19
t-19 -8zM351 460q-10 0 -18 8t-8 19t8 18.5t18 7.5q11 0 19 -7.5t8 -18.5t-8 -19t-19 -8zM456 460q-10 0 -18 8t-8 19t8 18.5t18 7.5q11 0 19 -7.5t8 -18.5t-8 -19t-19 -8z" />
    <glyph glyph-name="uni069F.fina" unicode="&#x69f;" horiz-adv-x="849" 
d="M849 -5q-23 0 -59.5 4.5t-75 16.5t-68.5 34l19 13q50 -26 101.5 -35t85.5 -9q6 0 8.5 -3t2.5 -8q0 -4 -4 -8.5t-10 -4.5zM358 -13q-41 0 -87 2t-90 4.5t-80.5 6t-60.5 6.5l3 24q27 -3 65.5 -6.5t83 -6.5t88.5 -4.5t82 -1.5q78 0 144.5 8.5t115.5 28t76.5 51.5t27.5 80
q0 36 -16.5 63.5t-48 43t-75.5 15.5q-49 0 -96.5 -24t-94.5 -65t-93.5 -92.5t-93.5 -106.5l-32 -11q59 77 112.5 137t103.5 101.5t98.5 63t97.5 21.5q55 0 91 -19t53.5 -52t17.5 -74q0 -73 -49 -115t-137.5 -60t-205.5 -18zM233 72l-20 642h24l21 -612zM540 543q-10 0 -18 8
t-8 19t8 18.5t18 7.5q11 0 19 -7.5t8 -18.5t-8 -19t-19 -8zM488 460q-10 0 -18 8t-8 19t8 18.5t18 7.5q11 0 19 -7.5t8 -18.5t-8 -19t-19 -8zM593 460q-10 0 -18 8t-8 19t8 18.5t18 7.5q11 0 19 -7.5t8 -18.5t-8 -19t-19 -8z" />
    <glyph glyph-name="uni06A0.init" unicode="&#x6a0;" horiz-adv-x="434" 
d="M0 -5l4 24q54 0 95 3t75 8t66 11q-49 13 -87.5 38t-61 62.5t-22.5 85.5q0 51 24 92.5t66 66t97 24.5q26 0 50 -5t43 -11l-5 -22q-18 5 -41.5 9.5t-46.5 4.5q-44 0 -81.5 -20t-60 -55.5t-22.5 -82.5q0 -40 16.5 -69.5t41.5 -49t52.5 -31t50 -17t32.5 -7.5q22 5 34.5 8
t22.5 6.5t24.5 9.5t39.5 16l8 -22q-67 -26 -129.5 -43t-130.5 -25.5t-154 -8.5zM260 632q-10 0 -18 8t-8 19t8 18.5t18 7.5q11 0 19 -7.5t8 -18.5t-8 -19t-19 -8zM208 549q-10 0 -18 8t-8 19t8 18.5t18 7.5q11 0 19 -7.5t8 -18.5t-8 -19t-19 -8zM313 549q-10 0 -18 8t-8 19
t8 18.5t18 7.5q11 0 19 -7.5t8 -18.5t-8 -19t-19 -8z" />
    <glyph glyph-name="uni06A0.medi" unicode="&#x6a0;" horiz-adv-x="477" 
d="M0 -5l4 24q55 0 108 17.5t99 46.5t81 63.5t54.5 70.5t19.5 66q0 16 -10 34t-35 30.5t-70 12.5q-47 0 -84 -13t-59.5 -28.5t-28.5 -25.5q30 -29 60.5 -62t59 -66.5t51.5 -65.5q30 -29 60 -45t59 -23.5t56.5 -9.5t54.5 -2q6 0 8.5 -3t2.5 -8q0 -4 -4 -8.5t-10 -4.5
q-43 0 -83.5 6t-79 24.5t-76.5 55.5q-25 33 -55.5 69t-61.5 69t-58 57q-2 2 -3.5 4.5t-2 5.5t-0.5 5q0 12 16.5 28t44.5 30.5t63 24.5t72 10q42 0 73 -12t48 -33.5t17 -49.5q0 -35 -20.5 -75t-57 -78.5t-86 -70.5t-107.5 -51t-120 -19zM235 602q-10 0 -18 8t-8 19t8 18.5
t18 7.5q11 0 19 -7.5t8 -18.5t-8 -19t-19 -8zM183 519q-10 0 -18 8t-8 19t8 18.5t18 7.5q11 0 19 -7.5t8 -18.5t-8 -19t-19 -8zM288 519q-10 0 -18 8t-8 19t8 18.5t18 7.5q11 0 19 -7.5t8 -18.5t-8 -19t-19 -8z" />
    <glyph glyph-name="uni06A0.fina" unicode="&#x6a0;" horiz-adv-x="497" 
d="M309 -394q-42 0 -90.5 9t-91.5 32.5t-70 66.5t-27 110q0 59 26 106.5t66.5 86t86.5 71.5t86.5 63.5t66.5 62t26 67.5q0 11 -8 30t-33.5 34t-78.5 15q-42 0 -77 -11.5t-59 -27.5t-32 -28q26 -24 53.5 -54.5t54 -62.5t48.5 -62q31 -35 60 -54.5t58.5 -28t60.5 -10.5t65 -2
q6 0 8.5 -3t2.5 -8q0 -4 -4 -8.5t-10 -4.5q-53 0 -98 7.5t-84 30t-76 65.5q-18 24 -44 57t-55 65.5t-56 56.5q-2 2 -3.5 4.5t-2 5t-0.5 4.5q0 12 16.5 28t44.5 30.5t62.5 24.5t70.5 10q68 0 104 -27.5t36 -71.5q0 -42 -26 -77.5t-66.5 -67.5t-86.5 -64.5t-86.5 -68.5
t-66.5 -80t-26 -100q0 -46 16.5 -83t49 -62t80 -38.5t109.5 -13.5q37 0 73.5 4.5t69 13t55.5 20.5l9 -22q-34 -14 -70 -23t-71 -13t-66 -4zM278 602q-10 0 -18 8t-8 19t8 18.5t18 7.5q11 0 19 -7.5t8 -18.5t-8 -19t-19 -8zM226 519q-10 0 -18 8t-8 19t8 18.5t18 7.5
q11 0 19 -7.5t8 -18.5t-8 -19t-19 -8zM331 519q-10 0 -18 8t-8 19t8 18.5t18 7.5q11 0 19 -7.5t8 -18.5t-8 -19t-19 -8z" />
    <glyph glyph-name="uni06A1.init" unicode="&#x6a1;" horiz-adv-x="431" 
d="M0 -5l4 24q47 0 88.5 1.5t77.5 6t64 13t48 21.5q15 10 31.5 29t27.5 55t11 96q0 51 -14.5 100.5t-42.5 82t-69 32.5q-29 0 -58 -26.5t-47.5 -66t-18.5 -80.5q0 -44 17.5 -66.5t47 -29.5t64.5 -7t70 7.5t56 17.5l4 -21q-16 -10 -38.5 -16.5t-47 -9t-48.5 -2.5
q-40 0 -74 10.5t-54.5 37t-20.5 74.5q0 34 12 69.5t32.5 66t48.5 49t59 18.5q46 0 78.5 -34.5t50 -90.5t17.5 -121q0 -60 -16 -107.5t-62 -81.5q-18 -13 -43 -22.5t-61 -16t-83.5 -9.5t-110.5 -3z" />
    <glyph glyph-name="uni06A1.medi" unicode="&#x6a1;" horiz-adv-x="489" 
d="M0 -5l4 24q29 0 57.5 2.5t56 8t53.5 13t50 17.5q42 18 74 39t50.5 50t18.5 71q0 31 -14.5 66t-42 60.5t-67.5 25.5q-30 0 -60 -21t-49.5 -56t-19.5 -78q0 -44 19.5 -73t49.5 -48.5t63 -33.5l-29 -10q-26 13 -55 32.5t-49.5 51.5t-20.5 81q0 37 13 69.5t34.5 57t48.5 38
t55 13.5q42 0 75 -25t52 -64.5t19 -85.5q0 -33 -10.5 -59t-29 -46.5t-44.5 -37t-57 -31.5q-26 -13 -55.5 -22.5t-60.5 -16t-63.5 -9.5t-65.5 -3zM489 -5q-43 0 -93.5 7t-97 19t-78.5 26l25 13q22 -6 55 -16t80.5 -17.5t111.5 -7.5q6 0 8.5 -3t2.5 -8q0 -4 -4 -8.5t-10 -4.5z
" />
    <glyph glyph-name="uni06A1.fina" unicode="&#x6a1;" horiz-adv-x="1078" 
d="M410 -21l26 24q37 0 86.5 3t103.5 9.5t104 17t87 26.5q43 18 75 40.5t49.5 51.5t17.5 67q0 20 -8 46.5t-23.5 51t-38.5 40.5t-54 16q-30 0 -60 -22t-49.5 -58t-19.5 -79q0 -35 18.5 -64t48.5 -51t65 -36l-32 -10q-26 13 -54.5 34t-48 52t-19.5 73q0 37 13 70.5t34.5 59
t48.5 40t55 14.5q41 0 74 -26.5t52.5 -67t19.5 -83.5q0 -30 -10 -55t-28 -46.5t-43.5 -39t-55.5 -32.5q-39 -19 -91.5 -32t-111.5 -20.5t-118.5 -10.5t-112.5 -3zM1078 -5q-50 0 -98 7t-90.5 19t-74.5 26l25 13q22 -6 50.5 -16t73.5 -17.5t117 -7.5q6 0 8.5 -3t2.5 -8
q0 -4 -4 -8.5t-10 -4.5zM410 -21q-87 0 -154 11t-113 34.5t-69.5 60t-23.5 87.5q0 22 3.5 46t9 48t12.5 45l22 -6q-6 -19 -11 -39.5t-8.5 -42.5t-3.5 -46q0 -64 42 -102.5t123 -55t197 -16.5l20 -15z" />
    <glyph glyph-name="fehDotMovedbelowar.init" unicode="&#x6a2;" horiz-adv-x="431" 
d="M0 -5l4 24q47 0 88.5 1.5t77.5 6t64 13t48 21.5q15 10 31.5 29t27.5 55t11 96q0 51 -14.5 100.5t-42.5 82t-69 32.5q-29 0 -58 -26.5t-47.5 -66t-18.5 -80.5q0 -44 17.5 -66.5t47 -29.5t64.5 -7t70 7.5t56 17.5l4 -21q-16 -10 -38.5 -16.5t-47 -9t-48.5 -2.5
q-40 0 -74 10.5t-54.5 37t-20.5 74.5q0 34 12 69.5t32.5 66t48.5 49t59 18.5q46 0 78.5 -34.5t50 -90.5t17.5 -121q0 -60 -16 -107.5t-62 -81.5q-18 -13 -43 -22.5t-61 -16t-83.5 -9.5t-110.5 -3zM209 -171q-11 0 -19 8t-8 18q0 11 8 19t19 8t18.5 -8t7.5 -19
q0 -10 -7.5 -18t-18.5 -8z" />
    <glyph glyph-name="fehDotMovedbelowar.medi" unicode="&#x6a2;" horiz-adv-x="489" 
d="M0 -5l4 24q29 0 57.5 2.5t56 8t53.5 13t50 17.5q42 18 74 39t50.5 50t18.5 71q0 31 -14.5 66t-42 60.5t-67.5 25.5q-30 0 -60 -21t-49.5 -56t-19.5 -78q0 -44 19.5 -73t49.5 -48.5t63 -33.5l-29 -10q-26 13 -55 32.5t-49.5 51.5t-20.5 81q0 37 13 69.5t34.5 57t48.5 38
t55 13.5q42 0 75 -25t52 -64.5t19 -85.5q0 -33 -10.5 -59t-29 -46.5t-44.5 -37t-57 -31.5q-26 -13 -55.5 -22.5t-60.5 -16t-63.5 -9.5t-65.5 -3zM489 -5q-43 0 -93.5 7t-97 19t-78.5 26l25 13q22 -6 55 -16t80.5 -17.5t111.5 -7.5q6 0 8.5 -3t2.5 -8q0 -4 -4 -8.5t-10 -4.5z
M224 -171q-11 0 -19 8t-8 18q0 11 8 19t19 8t18.5 -8t7.5 -19q0 -10 -7.5 -18t-18.5 -8z" />
    <glyph glyph-name="fehDotMovedbelowar.fina" unicode="&#x6a2;" horiz-adv-x="1078" 
d="M410 -21l26 24q37 0 86.5 3t103.5 9.5t104 17t87 26.5q43 18 75 40.5t49.5 51.5t17.5 67q0 20 -8 46.5t-23.5 51t-38.5 40.5t-54 16q-30 0 -60 -22t-49.5 -58t-19.5 -79q0 -35 18.5 -64t48.5 -51t65 -36l-32 -10q-26 13 -54.5 34t-48 52t-19.5 73q0 37 13 70.5t34.5 59
t48.5 40t55 14.5q41 0 74 -26.5t52.5 -67t19.5 -83.5q0 -30 -10 -55t-28 -46.5t-43.5 -39t-55.5 -32.5q-39 -19 -91.5 -32t-111.5 -20.5t-118.5 -10.5t-112.5 -3zM1078 -5q-50 0 -98 7t-90.5 19t-74.5 26l25 13q22 -6 50.5 -16t73.5 -17.5t117 -7.5q6 0 8.5 -3t2.5 -8
q0 -4 -4 -8.5t-10 -4.5zM410 -21q-87 0 -154 11t-113 34.5t-69.5 60t-23.5 87.5q0 22 3.5 46t9 48t12.5 45l22 -6q-6 -19 -11 -39.5t-8.5 -42.5t-3.5 -46q0 -64 42 -102.5t123 -55t197 -16.5l20 -15zM451 -191q-11 0 -19 8t-8 18q0 11 8 19t19 8t18.5 -8t7.5 -19
q0 -10 -7.5 -18t-18.5 -8z" />
    <glyph glyph-name="uni06A3.init" unicode="&#x6a3;" horiz-adv-x="431" 
d="M0 -5l4 24q47 0 88.5 1.5t77.5 6t64 13t48 21.5q15 10 31.5 29t27.5 55t11 96q0 51 -14.5 100.5t-42.5 82t-69 32.5q-29 0 -58 -26.5t-47.5 -66t-18.5 -80.5q0 -44 17.5 -66.5t47 -29.5t64.5 -7t70 7.5t56 17.5l4 -21q-16 -10 -38.5 -16.5t-47 -9t-48.5 -2.5
q-40 0 -74 10.5t-54.5 37t-20.5 74.5q0 34 12 69.5t32.5 66t48.5 49t59 18.5q46 0 78.5 -34.5t50 -90.5t17.5 -121q0 -60 -16 -107.5t-62 -81.5q-18 -13 -43 -22.5t-61 -16t-83.5 -9.5t-110.5 -3zM226 616q-11 0 -19 8t-8 18q0 11 8 19t19 8t18.5 -8t7.5 -19q0 -10 -7.5 -18
t-18.5 -8zM209 -171q-11 0 -19 8t-8 18q0 11 8 19t19 8t18.5 -8t7.5 -19q0 -10 -7.5 -18t-18.5 -8z" />
    <glyph glyph-name="uni06A3.medi" unicode="&#x6a3;" horiz-adv-x="489" 
d="M0 -5l4 24q29 0 57.5 2.5t56 8t53.5 13t50 17.5q42 18 74 39t50.5 50t18.5 71q0 31 -14.5 66t-42 60.5t-67.5 25.5q-30 0 -60 -21t-49.5 -56t-19.5 -78q0 -44 19.5 -73t49.5 -48.5t63 -33.5l-29 -10q-26 13 -55 32.5t-49.5 51.5t-20.5 81q0 37 13 69.5t34.5 57t48.5 38
t55 13.5q42 0 75 -25t52 -64.5t19 -85.5q0 -33 -10.5 -59t-29 -46.5t-44.5 -37t-57 -31.5q-26 -13 -55.5 -22.5t-60.5 -16t-63.5 -9.5t-65.5 -3zM489 -5q-43 0 -93.5 7t-97 19t-78.5 26l25 13q22 -6 55 -16t80.5 -17.5t111.5 -7.5q6 0 8.5 -3t2.5 -8q0 -4 -4 -8.5t-10 -4.5z
M222 530q-11 0 -19 8t-8 18q0 11 8 19t19 8t18.5 -8t7.5 -19q0 -10 -7.5 -18t-18.5 -8zM224 -171q-11 0 -19 8t-8 18q0 11 8 19t19 8t18.5 -8t7.5 -19q0 -10 -7.5 -18t-18.5 -8z" />
    <glyph glyph-name="uni06A3.fina" unicode="&#x6a3;" horiz-adv-x="1078" 
d="M410 -21l26 24q37 0 86.5 3t103.5 9.5t104 17t87 26.5q43 18 75 40.5t49.5 51.5t17.5 67q0 20 -8 46.5t-23.5 51t-38.5 40.5t-54 16q-30 0 -60 -22t-49.5 -58t-19.5 -79q0 -35 18.5 -64t48.5 -51t65 -36l-32 -10q-26 13 -54.5 34t-48 52t-19.5 73q0 37 13 70.5t34.5 59
t48.5 40t55 14.5q41 0 74 -26.5t52.5 -67t19.5 -83.5q0 -30 -10 -55t-28 -46.5t-43.5 -39t-55.5 -32.5q-39 -19 -91.5 -32t-111.5 -20.5t-118.5 -10.5t-112.5 -3zM1078 -5q-50 0 -98 7t-90.5 19t-74.5 26l25 13q22 -6 50.5 -16t73.5 -17.5t117 -7.5q6 0 8.5 -3t2.5 -8
q0 -4 -4 -8.5t-10 -4.5zM410 -21q-87 0 -154 11t-113 34.5t-69.5 60t-23.5 87.5q0 22 3.5 46t9 48t12.5 45l22 -6q-6 -19 -11 -39.5t-8.5 -42.5t-3.5 -46q0 -64 42 -102.5t123 -55t197 -16.5l20 -15zM831 530q-11 0 -19 8t-8 18q0 11 8 19t19 8t18.5 -8t7.5 -19
q0 -10 -7.5 -18t-18.5 -8zM451 -191q-11 0 -19 8t-8 18q0 11 8 19t19 8t18.5 -8t7.5 -19q0 -10 -7.5 -18t-18.5 -8z" />
    <glyph glyph-name="uni06A5.init" unicode="&#x6a5;" horiz-adv-x="431" 
d="M0 -5l4 24q47 0 88.5 1.5t77.5 6t64 13t48 21.5q15 10 31.5 29t27.5 55t11 96q0 51 -14.5 100.5t-42.5 82t-69 32.5q-29 0 -58 -26.5t-47.5 -66t-18.5 -80.5q0 -44 17.5 -66.5t47 -29.5t64.5 -7t70 7.5t56 17.5l4 -21q-16 -10 -38.5 -16.5t-47 -9t-48.5 -2.5
q-40 0 -74 10.5t-54.5 37t-20.5 74.5q0 34 12 69.5t32.5 66t48.5 49t59 18.5q46 0 78.5 -34.5t50 -90.5t17.5 -121q0 -60 -16 -107.5t-62 -81.5q-18 -13 -43 -22.5t-61 -16t-83.5 -9.5t-110.5 -3zM208 -255q-11 0 -19 8t-8 18q0 11 8 19t19 8t18.5 -8t7.5 -19
q0 -10 -7.5 -18t-18.5 -8zM155 -172q-11 0 -19 8t-8 18q0 11 8 19t19 8t18.5 -8t7.5 -19q0 -10 -7.5 -18t-18.5 -8zM260 -172q-11 0 -19 8t-8 18q0 11 8 19t19 8t18.5 -8t7.5 -19q0 -10 -7.5 -18t-18.5 -8z" />
    <glyph glyph-name="uni06A5.medi" unicode="&#x6a5;" horiz-adv-x="489" 
d="M0 -5l4 24q29 0 57.5 2.5t56 8t53.5 13t50 17.5q42 18 74 39t50.5 50t18.5 71q0 31 -14.5 66t-42 60.5t-67.5 25.5q-30 0 -60 -21t-49.5 -56t-19.5 -78q0 -44 19.5 -73t49.5 -48.5t63 -33.5l-29 -10q-26 13 -55 32.5t-49.5 51.5t-20.5 81q0 37 13 69.5t34.5 57t48.5 38
t55 13.5q42 0 75 -25t52 -64.5t19 -85.5q0 -33 -10.5 -59t-29 -46.5t-44.5 -37t-57 -31.5q-26 -13 -55.5 -22.5t-60.5 -16t-63.5 -9.5t-65.5 -3zM489 -5q-43 0 -93.5 7t-97 19t-78.5 26l25 13q22 -6 55 -16t80.5 -17.5t111.5 -7.5q6 0 8.5 -3t2.5 -8q0 -4 -4 -8.5t-10 -4.5z
M223 -255q-11 0 -19 8t-8 18q0 11 8 19t19 8t18.5 -8t7.5 -19q0 -10 -7.5 -18t-18.5 -8zM170 -172q-11 0 -19 8t-8 18q0 11 8 19t19 8t18.5 -8t7.5 -19q0 -10 -7.5 -18t-18.5 -8zM275 -172q-11 0 -19 8t-8 18q0 11 8 19t19 8t18.5 -8t7.5 -19q0 -10 -7.5 -18t-18.5 -8z" />
    <glyph glyph-name="uni06A5.fina" unicode="&#x6a5;" horiz-adv-x="1078" 
d="M410 -21l26 24q37 0 86.5 3t103.5 9.5t104 17t87 26.5q43 18 75 40.5t49.5 51.5t17.5 67q0 20 -8 46.5t-23.5 51t-38.5 40.5t-54 16q-30 0 -60 -22t-49.5 -58t-19.5 -79q0 -35 18.5 -64t48.5 -51t65 -36l-32 -10q-26 13 -54.5 34t-48 52t-19.5 73q0 37 13 70.5t34.5 59
t48.5 40t55 14.5q41 0 74 -26.5t52.5 -67t19.5 -83.5q0 -30 -10 -55t-28 -46.5t-43.5 -39t-55.5 -32.5q-39 -19 -91.5 -32t-111.5 -20.5t-118.5 -10.5t-112.5 -3zM1078 -5q-50 0 -98 7t-90.5 19t-74.5 26l25 13q22 -6 50.5 -16t73.5 -17.5t117 -7.5q6 0 8.5 -3t2.5 -8
q0 -4 -4 -8.5t-10 -4.5zM410 -21q-87 0 -154 11t-113 34.5t-69.5 60t-23.5 87.5q0 22 3.5 46t9 48t12.5 45l22 -6q-6 -19 -11 -39.5t-8.5 -42.5t-3.5 -46q0 -64 42 -102.5t123 -55t197 -16.5l20 -15zM450 -275q-11 0 -19 8t-8 18q0 11 8 19t19 8t18.5 -8t7.5 -19
q0 -10 -7.5 -18t-18.5 -8zM397 -192q-11 0 -19 8t-8 18q0 11 8 19t19 8t18.5 -8t7.5 -19q0 -10 -7.5 -18t-18.5 -8zM502 -192q-11 0 -19 8t-8 18q0 11 8 19t19 8t18.5 -8t7.5 -19q0 -10 -7.5 -18t-18.5 -8z" />
    <glyph glyph-name="uni06A7.fina" unicode="&#x6a7;" horiz-adv-x="808" 
d="M328 -272q-66 0 -117.5 13.5t-87.5 41.5t-54.5 72.5t-18.5 106.5q0 10 3 38.5t15 70t39 89.5l21 -11q-13 -22 -25.5 -50.5t-20.5 -62t-8 -70.5q0 -82 32.5 -128.5t91.5 -66t136 -19.5q35 0 78 4.5t86.5 17t82 36t67 62t39.5 95.5q4 19 6 43.5t2 47.5q0 65 -16.5 117
t-44 82.5t-61.5 30.5q-25 0 -48 -16.5t-41 -43t-28.5 -57.5t-10.5 -60q0 -31 12.5 -49.5t33 -27.5t47.5 -12t55 -3h218q6 0 8.5 -3t2.5 -8q0 -4 -4 -8.5t-10 -4.5h-219q-31 0 -61 4t-54 15.5t-38.5 34t-14.5 59.5q0 33 12 68.5t33 66.5t49 50t61 19q43 0 75 -34t50 -91.5
t18 -129.5q0 -28 -3 -56t-8 -51q-17 -71 -59 -115t-98 -67t-114.5 -31.5t-108.5 -8.5zM566 447q-11 0 -19 8t-8 18q0 11 8 19t19 8t18.5 -8t7.5 -19q0 -10 -7.5 -18t-18.5 -8z" />
    <glyph glyph-name="uni06A8.init" unicode="&#x6a8;" horiz-adv-x="431" 
d="M0 -5l4 24q47 0 88.5 1.5t77.5 6t64 13t48 21.5q15 10 31.5 29t27.5 55t11 96q0 51 -14.5 100.5t-42.5 82t-69 32.5q-29 0 -58 -26.5t-47.5 -66t-18.5 -80.5q0 -44 17.5 -66.5t47 -29.5t64.5 -7t70 7.5t56 17.5l4 -21q-16 -10 -38.5 -16.5t-47 -9t-48.5 -2.5
q-40 0 -74 10.5t-54.5 37t-20.5 74.5q0 34 12 69.5t32.5 66t48.5 49t59 18.5q46 0 78.5 -34.5t50 -90.5t17.5 -121q0 -60 -16 -107.5t-62 -81.5q-18 -13 -43 -22.5t-61 -16t-83.5 -9.5t-110.5 -3zM227 699q-10 0 -18 8t-8 19t8 18.5t18 7.5q11 0 19 -7.5t8 -18.5t-8 -19
t-19 -8zM175 616q-10 0 -18 8t-8 19t8 18.5t18 7.5q11 0 19 -7.5t8 -18.5t-8 -19t-19 -8zM280 616q-10 0 -18 8t-8 19t8 18.5t18 7.5q11 0 19 -7.5t8 -18.5t-8 -19t-19 -8z" />
    <glyph glyph-name="uni06A8.medi" unicode="&#x6a8;" horiz-adv-x="489" 
d="M0 -5l4 24q29 0 57.5 2.5t56 8t53.5 13t50 17.5q42 18 74 39t50.5 50t18.5 71q0 31 -14.5 66t-42 60.5t-67.5 25.5q-30 0 -60 -21t-49.5 -56t-19.5 -78q0 -44 19.5 -73t49.5 -48.5t63 -33.5l-29 -10q-26 13 -55 32.5t-49.5 51.5t-20.5 81q0 37 13 69.5t34.5 57t48.5 38
t55 13.5q42 0 75 -25t52 -64.5t19 -85.5q0 -33 -10.5 -59t-29 -46.5t-44.5 -37t-57 -31.5q-26 -13 -55.5 -22.5t-60.5 -16t-63.5 -9.5t-65.5 -3zM489 -5q-43 0 -93.5 7t-97 19t-78.5 26l25 13q22 -6 55 -16t80.5 -17.5t111.5 -7.5q6 0 8.5 -3t2.5 -8q0 -4 -4 -8.5t-10 -4.5z
M223 613q-10 0 -18 8t-8 19t8 18.5t18 7.5q11 0 19 -7.5t8 -18.5t-8 -19t-19 -8zM171 530q-10 0 -18 8t-8 19t8 18.5t18 7.5q11 0 19 -7.5t8 -18.5t-8 -19t-19 -8zM276 530q-10 0 -18 8t-8 19t8 18.5t18 7.5q11 0 19 -7.5t8 -18.5t-8 -19t-19 -8z" />
    <glyph glyph-name="uni06A8.fina" unicode="&#x6a8;" horiz-adv-x="808" 
d="M328 -272q-66 0 -117.5 13.5t-87.5 41.5t-54.5 72.5t-18.5 106.5q0 10 3 38.5t15 70t39 89.5l21 -11q-13 -22 -25.5 -50.5t-20.5 -62t-8 -70.5q0 -82 32.5 -128.5t91.5 -66t136 -19.5q35 0 78 4.5t86.5 17t82 36t67 62t39.5 95.5q4 19 6 43.5t2 47.5q0 65 -16.5 117
t-44 82.5t-61.5 30.5q-25 0 -48 -16.5t-41 -43t-28.5 -57.5t-10.5 -60q0 -31 12.5 -49.5t33 -27.5t47.5 -12t55 -3h218q6 0 8.5 -3t2.5 -8q0 -4 -4 -8.5t-10 -4.5h-219q-31 0 -61 4t-54 15.5t-38.5 34t-14.5 59.5q0 33 12 68.5t33 66.5t49 50t61 19q43 0 75 -34t50 -91.5
t18 -129.5q0 -28 -3 -56t-8 -51q-17 -71 -59 -115t-98 -67t-114.5 -31.5t-108.5 -8.5zM567 530q-10 0 -18 8t-8 19t8 18.5t18 7.5q11 0 19 -7.5t8 -18.5t-8 -19t-19 -8zM515 447q-10 0 -18 8t-8 19t8 18.5t18 7.5q11 0 19 -7.5t8 -18.5t-8 -19t-19 -8zM620 447q-10 0 -18 8
t-8 19t8 18.5t18 7.5q11 0 19 -7.5t8 -18.5t-8 -19t-19 -8z" />
    <glyph glyph-name="uni06AA.init" unicode="&#x6aa;" horiz-adv-x="727" 
d="M0 -5l4 24h247q95 0 167 5.5t120 18.5t72.5 34t24.5 51q0 17 -8 34.5t-32.5 33.5t-72.5 29t-127 22q-106 12 -169.5 21.5t-92 27t-29.5 50.5q0 36 28.5 69.5t79.5 62.5t118.5 52.5t145.5 40.5l5 -23q-127 -29 -204.5 -65t-113 -71.5t-35.5 -63.5q0 -23 26.5 -35.5
t85.5 -21t158 -20.5q53 -6 99.5 -16t82.5 -25.5t56.5 -39.5t20.5 -59q0 -46 -34 -73t-91.5 -40.5t-130 -18t-149.5 -4.5h-252z" />
    <glyph glyph-name="uni06AA.medi" unicode="&#x6aa;" horiz-adv-x="812" 
d="M812 -5q-23 0 -59.5 4.5t-75 16.5t-68.5 34l19 13q50 -26 101.5 -35t85.5 -9q6 0 8.5 -3t2.5 -8q0 -4 -4 -8.5t-10 -4.5zM0 -5l4 24h247q95 0 167 5.5t120 18.5t72.5 34t24.5 51q0 17 -8 34.5t-32.5 33.5t-72.5 29t-127 22q-106 12 -169.5 21.5t-92 27t-29.5 50.5
q0 36 28.5 69.5t79.5 62.5t118.5 52.5t145.5 40.5l5 -23q-127 -29 -204.5 -65t-113 -71.5t-35.5 -63.5q0 -23 26.5 -35.5t85.5 -21t158 -20.5q53 -6 99.5 -16t82.5 -25.5t56.5 -39.5t20.5 -59q0 -46 -34 -73t-91.5 -40.5t-130 -18t-149.5 -4.5h-252z" />
    <glyph glyph-name="uni06AA.fina" unicode="&#x6aa;" horiz-adv-x="1091" 
d="M1091 -5q-23 0 -59.5 4.5t-75 16.5t-68.5 34l19 13q50 -26 101.5 -35t85.5 -9q6 0 8.5 -3t2.5 -8q0 -4 -4 -8.5t-10 -4.5zM533 -15q-40 0 -97.5 1t-122 3t-127 5.5t-111.5 9.5l2 23q49 -5 113 -9t129.5 -6t122 -3t90.5 -1q95 0 167 8t120 23.5t72.5 38t24.5 50.5
q0 17 -8 34.5t-32.5 33.5t-72.5 29t-127 22q-106 12 -169.5 21.5t-92 27t-29.5 50.5q0 36 28.5 69.5t79.5 62.5t118.5 52.5t145.5 40.5l5 -23q-127 -29 -204.5 -65t-113 -71.5t-35.5 -63.5q0 -23 26.5 -35.5t85.5 -21t158 -20.5q53 -6 99.5 -16t82.5 -25.5t56.5 -39.5
t20.5 -59q0 -44 -34 -72.5t-91.5 -44.5t-130 -22.5t-149.5 -6.5z" />
    <glyph glyph-name="uni06AB.init" unicode="&#x6ab;" horiz-adv-x="375" 
d="M296 509q-32 0 -54.5 23t-22.5 55t22.5 54.5t54.5 22.5t55 -22.5t23 -54.5t-23 -55t-55 -23zM296 531q22 0 38.5 16.5t16.5 39.5t-16 39t-39 16q-22 0 -38 -16t-16 -39t16 -39.5t38 -16.5zM0 -5l4 24h70q51 0 88.5 7t62.5 22t37.5 39.5t12.5 58.5q0 46 -32 99.5
t-82 105.5q-40 42 -67 67t-43 39t-23 20.5t-7 10.5q0 9 1.5 15t5 10.5t8.5 7.5q26 20 60 42t76 46t90.5 49t102.5 50l10 -22q-56 -25 -107.5 -51t-95.5 -52t-78.5 -49.5t-56.5 -43.5v9q42 -40 87.5 -83t85 -88t64 -90.5t24.5 -91.5q0 -42 -16 -71t-45.5 -46.5t-71 -25.5
t-92.5 -8h-73z" />
    <glyph glyph-name="uni06AB.medi" unicode="&#x6ab;" horiz-adv-x="452" 
d="M300 511q-32 0 -54.5 23t-22.5 55t22.5 54.5t54.5 22.5t55 -22.5t23 -54.5t-23 -55t-55 -23zM300 533q22 0 38.5 16.5t16.5 39.5t-16 39t-39 16q-22 0 -38 -16t-16 -39t16 -39.5t38 -16.5zM0 -5l4 24h77q68 0 110.5 14t63 42t20.5 71q0 28 -18.5 63t-47.5 72t-61 72
t-61 64t-47.5 49t-18.5 25q0 7 2 12.5t5.5 10.5t7.5 8q27 19 60 40.5t73 45t89 49t107 51.5l10 -22q-57 -25 -108 -51.5t-94.5 -51.5t-77.5 -48.5t-58 -44.5l2 10q36 -37 77.5 -80.5t80 -89t67.5 -88t39 -78.5q11 -37 29 -70t48 -54t75 -21q6 0 8.5 -3t2.5 -8q0 -4 -4 -8.5
t-10 -4.5q-39 0 -72.5 17.5t-58.5 53.5t-39 89l16 -13q-1 -46 -20.5 -75t-52 -44.5t-72 -21.5t-80.5 -6h-73z" />
    <glyph glyph-name="uni06AB.fina" unicode="&#x6ab;" horiz-adv-x="965" 
d="M815 513q-32 0 -54.5 23t-22.5 55t22.5 54.5t54.5 22.5t55 -22.5t23 -54.5t-23 -55t-55 -23zM815 535q22 0 38.5 16.5t16.5 39.5t-16 39t-39 16q-22 0 -38 -16t-16 -39t16 -39.5t38 -16.5zM410 -21l26 24q69 0 132 7.5t112.5 24.5t78.5 44.5t29 66.5q0 36 -18.5 74
t-47.5 75t-61 70t-61 59.5t-47.5 44t-18.5 22.5q0 7 2 12.5t5.5 10.5t7.5 8q29 22 78.5 53t114 66t136.5 67l10 -22q-66 -28 -133.5 -64t-121.5 -70.5t-83 -61.5l2 10q36 -35 75 -71t75.5 -76t66.5 -86.5t47 -102.5q9 -28 21 -54t29.5 -46.5t42.5 -32.5t59 -12q6 0 8.5 -3
t2.5 -8q0 -4 -4 -8.5t-10 -4.5q-39 0 -71 17.5t-56.5 53.5t-40.5 89l14 -13q-1 -44 -29 -75t-80 -50.5t-126 -28.5t-166 -9zM410 -21q-87 0 -154 11t-113 34.5t-69.5 60t-23.5 87.5q0 22 3.5 46t9 48t12.5 45l22 -6q-6 -19 -11 -39.5t-8.5 -42.5t-3.5 -46q0 -64 42 -102.5
t123 -55t197 -16.5l20 -15z" />
    <glyph glyph-name="uni06AC.init" unicode="&#x6ac;" horiz-adv-x="375" 
d="M0 -5l4 24h70q51 0 88.5 7t62.5 22t37.5 39.5t12.5 58.5q0 46 -32 99.5t-82 105.5q-40 42 -67 67t-43 39t-23 20.5t-7 10.5q0 9 1.5 15t5 10.5t8.5 7.5q26 20 60 42t76 46t90.5 49t102.5 50l10 -22q-56 -25 -107.5 -51t-95.5 -52t-78.5 -49.5t-56.5 -43.5v9
q42 -40 87.5 -83t85 -88t64 -90.5t24.5 -91.5q0 -42 -16 -71t-45.5 -46.5t-71 -25.5t-92.5 -8h-73zM153 771q-11 0 -19 8t-8 18q0 11 8 19t19 8t18.5 -8t7.5 -19q0 -10 -7.5 -18t-18.5 -8z" />
    <glyph glyph-name="uni06AC.medi" unicode="&#x6ac;" horiz-adv-x="452" 
d="M0 -5l4 24h77q68 0 110.5 14t63 42t20.5 71q0 28 -18.5 63t-47.5 72t-61 72t-61 64t-47.5 49t-18.5 25q0 7 2 12.5t5.5 10.5t7.5 8q27 19 60 40.5t73 45t89 49t107 51.5l10 -22q-57 -25 -108 -51.5t-94.5 -51.5t-77.5 -48.5t-58 -44.5l2 10q36 -37 77.5 -80.5t80 -89
t67.5 -88t39 -78.5q11 -37 29 -70t48 -54t75 -21q6 0 8.5 -3t2.5 -8q0 -4 -4 -8.5t-10 -4.5q-39 0 -72.5 17.5t-58.5 53.5t-39 89l16 -13q-1 -46 -20.5 -75t-52 -44.5t-72 -21.5t-80.5 -6h-73zM133 771q-11 0 -19 8t-8 18q0 11 8 19t19 8t18.5 -8t7.5 -19q0 -10 -7.5 -18
t-18.5 -8z" />
    <glyph glyph-name="uni06AC.fina" unicode="&#x6ac;" horiz-adv-x="864" 
d="M410 -21l26 24q78 0 136 8.5t95.5 27.5t55.5 50.5t16 76.5l-19 548h23l20 -542q2 -52 7.5 -86t26.5 -50.5t70 -16.5q6 0 8.5 -3t2.5 -8q0 -4 -4 -8.5t-10 -4.5q-31 0 -57.5 8t-42.5 32.5t-16 75.5h11q-9 -41 -39 -67t-76.5 -40t-106 -19.5t-127.5 -5.5zM364 204l-6 21
q59 15 89 29t41 26t11 20q0 16 -17 28.5t-39 25.5t-39 29t-17 38q0 13 9.5 31.5t36.5 41t78 46.5l10 -19q-45 -20 -78.5 -48.5t-33.5 -51.5q0 -17 17 -30t39 -25.5t39 -28t17 -37.5q0 -12 -8 -24.5t-26 -24.5t-48.5 -23.5t-74.5 -23.5zM410 -21q-87 0 -154 11t-113 34.5
t-69.5 60t-23.5 87.5q0 22 3.5 46t9 48t12.5 45l22 -6q-6 -19 -11 -39.5t-8.5 -42.5t-3.5 -46q0 -64 42 -102.5t123 -55t197 -16.5l20 -15zM448 671q-11 0 -19 8t-8 18q0 11 8 19t19 8t18.5 -8t7.5 -19q0 -10 -7.5 -18t-18.5 -8z" />
    <glyph glyph-name="uni06AE.init" unicode="&#x6ae;" horiz-adv-x="375" 
d="M0 -5l4 24h70q51 0 88.5 7t62.5 22t37.5 39.5t12.5 58.5q0 46 -32 99.5t-82 105.5q-40 42 -67 67t-43 39t-23 20.5t-7 10.5q0 9 1.5 15t5 10.5t8.5 7.5q26 20 60 42t76 46t90.5 49t102.5 50l10 -22q-56 -25 -107.5 -51t-95.5 -52t-78.5 -49.5t-56.5 -43.5v9
q42 -40 87.5 -83t85 -88t64 -90.5t24.5 -91.5q0 -42 -16 -71t-45.5 -46.5t-71 -25.5t-92.5 -8h-73zM157 -250q-11 0 -19 8t-8 18q0 11 8 19t19 8t18.5 -8t7.5 -19q0 -10 -7.5 -18t-18.5 -8zM104 -167q-11 0 -19 8t-8 18q0 11 8 19t19 8t18.5 -8t7.5 -19q0 -10 -7.5 -18
t-18.5 -8zM209 -167q-11 0 -19 8t-8 18q0 11 8 19t19 8t18.5 -8t7.5 -19q0 -10 -7.5 -18t-18.5 -8z" />
    <glyph glyph-name="uni06AE.medi" unicode="&#x6ae;" horiz-adv-x="452" 
d="M0 -5l4 24h77q68 0 110.5 14t63 42t20.5 71q0 28 -18.5 63t-47.5 72t-61 72t-61 64t-47.5 49t-18.5 25q0 7 2 12.5t5.5 10.5t7.5 8q27 19 60 40.5t73 45t89 49t107 51.5l10 -22q-57 -25 -108 -51.5t-94.5 -51.5t-77.5 -48.5t-58 -44.5l2 10q36 -37 77.5 -80.5t80 -89
t67.5 -88t39 -78.5q11 -37 29 -70t48 -54t75 -21q6 0 8.5 -3t2.5 -8q0 -4 -4 -8.5t-10 -4.5q-39 0 -72.5 17.5t-58.5 53.5t-39 89l16 -13q-1 -46 -20.5 -75t-52 -44.5t-72 -21.5t-80.5 -6h-73zM157 -250q-11 0 -19 8t-8 18q0 11 8 19t19 8t18.5 -8t7.5 -19q0 -10 -7.5 -18
t-18.5 -8zM104 -167q-11 0 -19 8t-8 18q0 11 8 19t19 8t18.5 -8t7.5 -19q0 -10 -7.5 -18t-18.5 -8zM209 -167q-11 0 -19 8t-8 18q0 11 8 19t19 8t18.5 -8t7.5 -19q0 -10 -7.5 -18t-18.5 -8z" />
    <glyph glyph-name="uni06AE.fina" unicode="&#x6ae;" horiz-adv-x="864" 
d="M410 -21l26 24q78 0 136 8.5t95.5 27.5t55.5 50.5t16 76.5l-19 548h23l20 -542q2 -52 7.5 -86t26.5 -50.5t70 -16.5q6 0 8.5 -3t2.5 -8q0 -4 -4 -8.5t-10 -4.5q-31 0 -57.5 8t-42.5 32.5t-16 75.5h11q-9 -41 -39 -67t-76.5 -40t-106 -19.5t-127.5 -5.5zM364 204l-6 21
q59 15 89 29t41 26t11 20q0 16 -17 28.5t-39 25.5t-39 29t-17 38q0 13 9.5 31.5t36.5 41t78 46.5l10 -19q-45 -20 -78.5 -48.5t-33.5 -51.5q0 -17 17 -30t39 -25.5t39 -28t17 -37.5q0 -12 -8 -24.5t-26 -24.5t-48.5 -23.5t-74.5 -23.5zM410 -21q-87 0 -154 11t-113 34.5
t-69.5 60t-23.5 87.5q0 22 3.5 46t9 48t12.5 45l22 -6q-6 -19 -11 -39.5t-8.5 -42.5t-3.5 -46q0 -64 42 -102.5t123 -55t197 -16.5l20 -15zM435 -271q-11 0 -19 8t-8 18q0 11 8 19t19 8t18.5 -8t7.5 -19q0 -10 -7.5 -18t-18.5 -8zM382 -188q-11 0 -19 8t-8 18q0 11 8 19
t19 8t18.5 -8t7.5 -19q0 -10 -7.5 -18t-18.5 -8zM487 -188q-11 0 -19 8t-8 18q0 11 8 19t19 8t18.5 -8t7.5 -19q0 -10 -7.5 -18t-18.5 -8z" />
    <glyph glyph-name="uni06B0.init" unicode="&#x6b0;" horiz-adv-x="375" 
d="M297 510q-32 0 -54.5 23t-22.5 55t22.5 54.5t54.5 22.5t55 -22.5t23 -54.5t-23 -55t-55 -23zM297 532q22 0 38.5 16.5t16.5 39.5t-16 39t-39 16q-22 0 -38 -16t-16 -39t16 -39.5t38 -16.5zM-2 591l-11 18q35 25 81.5 53t106 60.5t134.5 69.5l9 -19q-73 -38 -132 -70.5
t-105 -60t-83 -51.5zM0 -5l4 24h70q51 0 88.5 7t62.5 22t37.5 39.5t12.5 58.5q0 46 -32 99.5t-82 105.5q-40 42 -67 67t-43 39t-23 20.5t-7 10.5q0 9 1.5 15t5 10.5t8.5 7.5q26 20 60 42t76 46t90.5 49t102.5 50l10 -22q-56 -25 -107.5 -51t-95.5 -52t-78.5 -49.5
t-56.5 -43.5v9q42 -40 87.5 -83t85 -88t64 -90.5t24.5 -91.5q0 -42 -16 -71t-45.5 -46.5t-71 -25.5t-92.5 -8h-73z" />
    <glyph glyph-name="uni06B0.medi" unicode="&#x6b0;" horiz-adv-x="452" 
d="M298 511q-32 0 -54.5 23t-22.5 55t22.5 54.5t54.5 22.5t55 -22.5t23 -54.5t-23 -55t-55 -23zM298 533q22 0 38.5 16.5t16.5 39.5t-16 39t-39 16q-22 0 -38 -16t-16 -39t16 -39.5t38 -16.5zM1 591l-11 18q35 25 81.5 53t106 60.5t134.5 69.5l9 -19q-73 -38 -132 -70.5
t-105 -60t-83 -51.5zM0 -5l4 24h77q68 0 110.5 14t63 42t20.5 71q0 28 -18.5 63t-47.5 72t-61 72t-61 64t-47.5 49t-18.5 25q0 7 2 12.5t5.5 10.5t7.5 8q27 19 60 40.5t73 45t89 49t107 51.5l10 -22q-57 -25 -108 -51.5t-94.5 -51.5t-77.5 -48.5t-58 -44.5l2 10
q36 -37 77.5 -80.5t80 -89t67.5 -88t39 -78.5q11 -37 29 -70t48 -54t75 -21q6 0 8.5 -3t2.5 -8q0 -4 -4 -8.5t-10 -4.5q-39 0 -72.5 17.5t-58.5 53.5t-39 89l16 -13q-1 -46 -20.5 -75t-52 -44.5t-72 -21.5t-80.5 -6h-73z" />
    <glyph glyph-name="uni06B0.fina" unicode="&#x6b0;" horiz-adv-x="965" 
d="M810 510q-32 0 -54.5 23t-22.5 55t22.5 54.5t54.5 22.5t55 -22.5t23 -54.5t-23 -55t-55 -23zM810 532q22 0 38.5 16.5t16.5 39.5t-16 39t-39 16q-22 0 -38 -16t-16 -39t16 -39.5t38 -16.5zM517 591l-11 18q35 25 81.5 53t106.5 60.5t134 69.5l9 -19q-73 -38 -132 -70.5
t-105 -60t-83 -51.5zM410 -21l26 24q69 0 132 7.5t112.5 24.5t78.5 44.5t29 66.5q0 36 -18.5 74t-47.5 75t-61 70t-61 59.5t-47.5 44t-18.5 22.5q0 7 2 12.5t5.5 10.5t7.5 8q29 22 78.5 53t114 66t136.5 67l10 -22q-66 -28 -133.5 -64t-121.5 -70.5t-83 -61.5l2 10
q36 -35 75 -71t75.5 -76t66.5 -86.5t47 -102.5q9 -28 21 -54t29.5 -46.5t42.5 -32.5t59 -12q6 0 8.5 -3t2.5 -8q0 -4 -4 -8.5t-10 -4.5q-39 0 -71 17.5t-56.5 53.5t-40.5 89l14 -13q-1 -44 -29 -75t-80 -50.5t-126 -28.5t-166 -9zM410 -21q-87 0 -154 11t-113 34.5t-69.5 60
t-23.5 87.5q0 22 3.5 46t9 48t12.5 45l22 -6q-6 -19 -11 -39.5t-8.5 -42.5t-3.5 -46q0 -64 42 -102.5t123 -55t197 -16.5l20 -15z" />
    <glyph glyph-name="uni06B2.init" unicode="&#x6b2;" horiz-adv-x="375" 
d="M-2 591l-11 18q35 25 81.5 53t106 60.5t134.5 69.5l9 -19q-73 -38 -132 -70.5t-105 -60t-83 -51.5zM0 -5l4 24h70q51 0 88.5 7t62.5 22t37.5 39.5t12.5 58.5q0 46 -32 99.5t-82 105.5q-40 42 -67 67t-43 39t-23 20.5t-7 10.5q0 9 1.5 15t5 10.5t8.5 7.5q26 20 60 42
t76 46t90.5 49t102.5 50l10 -22q-56 -25 -107.5 -51t-95.5 -52t-78.5 -49.5t-56.5 -43.5v9q42 -40 87.5 -83t85 -88t64 -90.5t24.5 -91.5q0 -42 -16 -71t-45.5 -46.5t-71 -25.5t-92.5 -8h-73zM221 -165q-11 0 -19 8t-8 18q0 11 8 19t19 8t18.5 -8t7.5 -19q0 -10 -7.5 -18
t-18.5 -8zM116 -165q-11 0 -19 8t-8 18q0 11 8 19t19 8t18.5 -8t7.5 -19q0 -10 -7.5 -18t-18.5 -8z" />
    <glyph glyph-name="uni06B2.medi" unicode="&#x6b2;" horiz-adv-x="452" 
d="M1 591l-11 18q35 25 81.5 53t106 60.5t134.5 69.5l9 -19q-73 -38 -132 -70.5t-105 -60t-83 -51.5zM0 -5l4 24h77q68 0 110.5 14t63 42t20.5 71q0 28 -18.5 63t-47.5 72t-61 72t-61 64t-47.5 49t-18.5 25q0 7 2 12.5t5.5 10.5t7.5 8q27 19 60 40.5t73 45t89 49t107 51.5
l10 -22q-57 -25 -108 -51.5t-94.5 -51.5t-77.5 -48.5t-58 -44.5l2 10q36 -37 77.5 -80.5t80 -89t67.5 -88t39 -78.5q11 -37 29 -70t48 -54t75 -21q6 0 8.5 -3t2.5 -8q0 -4 -4 -8.5t-10 -4.5q-39 0 -72.5 17.5t-58.5 53.5t-39 89l16 -13q-1 -46 -20.5 -75t-52 -44.5
t-72 -21.5t-80.5 -6h-73zM221 -165q-11 0 -19 8t-8 18q0 11 8 19t19 8t18.5 -8t7.5 -19q0 -10 -7.5 -18t-18.5 -8zM116 -165q-11 0 -19 8t-8 18q0 11 8 19t19 8t18.5 -8t7.5 -19q0 -10 -7.5 -18t-18.5 -8z" />
    <glyph glyph-name="uni06B2.fina" unicode="&#x6b2;" horiz-adv-x="965" 
d="M517 591l-11 18q35 25 81.5 53t106.5 60.5t134 69.5l9 -19q-73 -38 -132 -70.5t-105 -60t-83 -51.5zM410 -21l26 24q69 0 132 7.5t112.5 24.5t78.5 44.5t29 66.5q0 36 -18.5 74t-47.5 75t-61 70t-61 59.5t-47.5 44t-18.5 22.5q0 7 2 12.5t5.5 10.5t7.5 8q29 22 78.5 53
t114 66t136.5 67l10 -22q-66 -28 -133.5 -64t-121.5 -70.5t-83 -61.5l2 10q36 -35 75 -71t75.5 -76t66.5 -86.5t47 -102.5q9 -28 21 -54t29.5 -46.5t42.5 -32.5t59 -12q6 0 8.5 -3t2.5 -8q0 -4 -4 -8.5t-10 -4.5q-39 0 -71 17.5t-56.5 53.5t-40.5 89l14 -13q-1 -44 -29 -75
t-80 -50.5t-126 -28.5t-166 -9zM410 -21q-87 0 -154 11t-113 34.5t-69.5 60t-23.5 87.5q0 22 3.5 46t9 48t12.5 45l22 -6q-6 -19 -11 -39.5t-8.5 -42.5t-3.5 -46q0 -64 42 -102.5t123 -55t197 -16.5l20 -15zM468 -186q-11 0 -19 8t-8 18q0 11 8 19t19 8t18.5 -8t7.5 -19
q0 -10 -7.5 -18t-18.5 -8zM363 -186q-11 0 -19 8t-8 18q0 11 8 19t19 8t18.5 -8t7.5 -19q0 -10 -7.5 -18t-18.5 -8z" />
    <glyph glyph-name="uni06B4.init" unicode="&#x6b4;" horiz-adv-x="375" 
d="M74 863q-10 0 -16.5 7t-6.5 16t6.5 15.5t16.5 6.5q9 0 15.5 -6.5t6.5 -15.5t-6.5 -16t-15.5 -7zM64 737q-10 0 -16.5 7t-6.5 16t6.5 15.5t16.5 6.5q9 0 15.5 -6.5t6.5 -15.5t-6.5 -16t-15.5 -7zM173 789q-10 0 -16.5 7t-6.5 16t6.5 15.5t16.5 6.5q9 0 15.5 -6.5
t6.5 -15.5t-6.5 -16t-15.5 -7zM-2 591l-11 18q35 25 81.5 53t106 60.5t134.5 69.5l9 -19q-73 -38 -132 -70.5t-105 -60t-83 -51.5zM0 -5l4 24h70q51 0 88.5 7t62.5 22t37.5 39.5t12.5 58.5q0 46 -32 99.5t-82 105.5q-40 42 -67 67t-43 39t-23 20.5t-7 10.5q0 9 1.5 15
t5 10.5t8.5 7.5q26 20 60 42t76 46t90.5 49t102.5 50l10 -22q-56 -25 -107.5 -51t-95.5 -52t-78.5 -49.5t-56.5 -43.5v9q42 -40 87.5 -83t85 -88t64 -90.5t24.5 -91.5q0 -42 -16 -71t-45.5 -46.5t-71 -25.5t-92.5 -8h-73z" />
    <glyph glyph-name="uni06B4.medi" unicode="&#x6b4;" horiz-adv-x="452" 
d="M74 864q-10 0 -16.5 7t-6.5 16t6.5 15.5t16.5 6.5q9 0 15.5 -6.5t6.5 -15.5t-6.5 -16t-15.5 -7zM64 738q-10 0 -16.5 7t-6.5 16t6.5 15.5t16.5 6.5q9 0 15.5 -6.5t6.5 -15.5t-6.5 -16t-15.5 -7zM173 790q-10 0 -16.5 7t-6.5 16t6.5 15.5t16.5 6.5q9 0 15.5 -6.5
t6.5 -15.5t-6.5 -16t-15.5 -7zM1 591l-11 18q35 25 81.5 53t106 60.5t134.5 69.5l9 -19q-73 -38 -132 -70.5t-105 -60t-83 -51.5zM0 -5l4 24h77q68 0 110.5 14t63 42t20.5 71q0 28 -18.5 63t-47.5 72t-61 72t-61 64t-47.5 49t-18.5 25q0 7 2 12.5t5.5 10.5t7.5 8
q27 19 60 40.5t73 45t89 49t107 51.5l10 -22q-57 -25 -108 -51.5t-94.5 -51.5t-77.5 -48.5t-58 -44.5l2 10q36 -37 77.5 -80.5t80 -89t67.5 -88t39 -78.5q11 -37 29 -70t48 -54t75 -21q6 0 8.5 -3t2.5 -8q0 -4 -4 -8.5t-10 -4.5q-39 0 -72.5 17.5t-58.5 53.5t-39 89l16 -13
q-1 -46 -20.5 -75t-52 -44.5t-72 -21.5t-80.5 -6h-73z" />
    <glyph glyph-name="uni06B4.fina" unicode="&#x6b4;" horiz-adv-x="965" 
d="M581 864q-10 0 -16.5 7t-6.5 16t6.5 15.5t16.5 6.5q9 0 15.5 -6.5t6.5 -15.5t-6.5 -16t-15.5 -7zM571 738q-10 0 -16.5 7t-6.5 16t6.5 15.5t16.5 6.5q9 0 15.5 -6.5t6.5 -15.5t-6.5 -16t-15.5 -7zM680 790q-10 0 -16.5 7t-6.5 16t6.5 15.5t16.5 6.5q9 0 15.5 -6.5
t6.5 -15.5t-6.5 -16t-15.5 -7zM517 591l-11 18q35 25 81.5 53t106.5 60.5t134 69.5l9 -19q-73 -38 -132 -70.5t-105 -60t-83 -51.5zM410 -21l26 24q69 0 132 7.5t112.5 24.5t78.5 44.5t29 66.5q0 36 -18.5 74t-47.5 75t-61 70t-61 59.5t-47.5 44t-18.5 22.5q0 7 2 12.5
t5.5 10.5t7.5 8q29 22 78.5 53t114 66t136.5 67l10 -22q-66 -28 -133.5 -64t-121.5 -70.5t-83 -61.5l2 10q36 -35 75 -71t75.5 -76t66.5 -86.5t47 -102.5q9 -28 21 -54t29.5 -46.5t42.5 -32.5t59 -12q6 0 8.5 -3t2.5 -8q0 -4 -4 -8.5t-10 -4.5q-39 0 -71 17.5t-56.5 53.5
t-40.5 89l14 -13q-1 -44 -29 -75t-80 -50.5t-126 -28.5t-166 -9zM410 -21q-87 0 -154 11t-113 34.5t-69.5 60t-23.5 87.5q0 22 3.5 46t9 48t12.5 45l22 -6q-6 -19 -11 -39.5t-8.5 -42.5t-3.5 -46q0 -64 42 -102.5t123 -55t197 -16.5l20 -15z" />
    <glyph glyph-name="uni06B5.init" unicode="&#x6b5;" horiz-adv-x="208" 
d="M0 -5l4 24q60 0 86.5 15t33 49t4.5 92l-19 539h23l20 -537q2 -50 -3 -84.5t-21.5 -56t-47 -31.5t-80.5 -10zM108 846q-7 16 -18 39.5t-23.5 50t-25 50t-21.5 39.5l19 10q6 -10 18 -32.5t25 -49.5t25 -52t18 -40l7 -13zM132 848l-20 6q6 18 17 46t23.5 57.5t23 52.5
t14.5 31l20 -9q-5 -10 -15.5 -33.5t-23 -52t-23 -55t-16.5 -43.5z" />
    <glyph glyph-name="uni06B5.medi" unicode="&#x6b5;" horiz-adv-x="274" 
d="M0 -5l4 24q63 0 90 22t32.5 64t3.5 100l-17 509h25l16 -507q3 -72 13.5 -113t36.5 -58t73 -17q6 0 8.5 -3t2.5 -8q0 -4 -4 -8.5t-10 -4.5q-43 0 -71 15.5t-42.5 41.5t-20.5 55h10q-6 -34 -21.5 -59t-46 -39t-82.5 -14zM111 846q-7 16 -18 39.5t-23.5 50t-25 50
t-21.5 39.5l19 10q6 -10 18 -32.5t25 -49.5t25 -52t18 -40l7 -13zM135 848l-20 6q6 18 17 46t23.5 57.5t23 52.5t14.5 31l20 -9q-5 -10 -15.5 -33.5t-23 -52t-23 -55t-16.5 -43.5z" />
    <glyph glyph-name="uni06B5.fina" unicode="&#x6b5;" horiz-adv-x="731" 
d="M50 -22q0 25 4 52.5t15.5 61.5t32.5 79l23 -11q-16 -31 -27 -62.5t-16.5 -61t-5.5 -55.5q0 -60 30 -101.5t79.5 -63.5t106.5 -22q92 0 149.5 47t84 129t22.5 188l-17 556h24l18 -539q2 -42 23 -77.5t57 -57t81 -21.5q6 0 8.5 -3t2.5 -8q0 -4 -4 -8.5t-10 -4.5
q-29 0 -56 9.5t-49 26t-36.5 36.5t-19.5 41l2 5q-2 -64 -17 -125t-47.5 -110.5t-85.5 -78.5t-131 -29q-49 0 -92.5 13.5t-77 39.5t-52.5 65t-19 90zM298 589q-7 16 -18 39.5t-23.5 50t-25 50t-21.5 39.5l19 10q6 -10 18 -32.5t25 -49.5t25 -52t18 -40l7 -13zM322 591l-20 6
q6 18 17 46t23.5 57.5t23 52.5t14.5 31l20 -9q-5 -10 -15.5 -33.5t-23 -52t-23 -55t-16.5 -43.5z" />
    <glyph glyph-name="uni06B6.init" unicode="&#x6b6;" horiz-adv-x="208" 
d="M0 -5l4 24q60 0 86.5 15t33 49t4.5 92l-19 539h23l20 -537q2 -50 -3 -84.5t-21.5 -56t-47 -31.5t-80.5 -10zM120 849q-11 0 -19 8t-8 18q0 11 8 19t19 8t18.5 -8t7.5 -19q0 -10 -7.5 -18t-18.5 -8z" />
    <glyph glyph-name="uni06B6.medi" unicode="&#x6b6;" horiz-adv-x="274" 
d="M0 -5l4 24q63 0 90 22t32.5 64t3.5 100l-17 509h25l16 -507q3 -72 13.5 -113t36.5 -58t73 -17q6 0 8.5 -3t2.5 -8q0 -4 -4 -8.5t-10 -4.5q-43 0 -71 15.5t-42.5 41.5t-20.5 55h10q-6 -34 -21.5 -59t-46 -39t-82.5 -14zM123 849q-11 0 -19 8t-8 18q0 11 8 19t19 8t18.5 -8
t7.5 -19q0 -10 -7.5 -18t-18.5 -8z" />
    <glyph glyph-name="uni06B6.fina" unicode="&#x6b6;" horiz-adv-x="731" 
d="M50 -22q0 25 4 52.5t15.5 61.5t32.5 79l23 -11q-16 -31 -27 -62.5t-16.5 -61t-5.5 -55.5q0 -60 30 -101.5t79.5 -63.5t106.5 -22q92 0 149.5 47t84 129t22.5 188l-17 556h24l18 -539q2 -42 23 -77.5t57 -57t81 -21.5q6 0 8.5 -3t2.5 -8q0 -4 -4 -8.5t-10 -4.5
q-29 0 -56 9.5t-49 26t-36.5 36.5t-19.5 41l2 5q-2 -64 -17 -125t-47.5 -110.5t-85.5 -78.5t-131 -29q-49 0 -92.5 13.5t-77 39.5t-52.5 65t-19 90zM310 592q-11 0 -19 8t-8 18q0 11 8 19t19 8t18.5 -8t7.5 -19q0 -10 -7.5 -18t-18.5 -8z" />
    <glyph glyph-name="uni06B7.init" unicode="&#x6b7;" horiz-adv-x="208" 
d="M0 -5l4 24q60 0 86.5 15t33 49t4.5 92l-19 539h23l20 -537q2 -50 -3 -84.5t-21.5 -56t-47 -31.5t-80.5 -10zM121 932q-10 0 -18 8t-8 19t8 18.5t18 7.5q11 0 19 -7.5t8 -18.5t-8 -19t-19 -8zM69 849q-10 0 -18 8t-8 19t8 18.5t18 7.5q11 0 19 -7.5t8 -18.5t-8 -19t-19 -8
zM174 849q-10 0 -18 8t-8 19t8 18.5t18 7.5q11 0 19 -7.5t8 -18.5t-8 -19t-19 -8z" />
    <glyph glyph-name="uni06B7.medi" unicode="&#x6b7;" horiz-adv-x="274" 
d="M0 -5l4 24q63 0 90 22t32.5 64t3.5 100l-17 509h25l16 -507q3 -72 13.5 -113t36.5 -58t73 -17q6 0 8.5 -3t2.5 -8q0 -4 -4 -8.5t-10 -4.5q-43 0 -71 15.5t-42.5 41.5t-20.5 55h10q-6 -34 -21.5 -59t-46 -39t-82.5 -14zM124 932q-10 0 -18 8t-8 19t8 18.5t18 7.5
q11 0 19 -7.5t8 -18.5t-8 -19t-19 -8zM72 849q-10 0 -18 8t-8 19t8 18.5t18 7.5q11 0 19 -7.5t8 -18.5t-8 -19t-19 -8zM177 849q-10 0 -18 8t-8 19t8 18.5t18 7.5q11 0 19 -7.5t8 -18.5t-8 -19t-19 -8z" />
    <glyph glyph-name="uni06B7.fina" unicode="&#x6b7;" horiz-adv-x="731" 
d="M50 -22q0 25 4 52.5t15.5 61.5t32.5 79l23 -11q-16 -31 -27 -62.5t-16.5 -61t-5.5 -55.5q0 -60 30 -101.5t79.5 -63.5t106.5 -22q92 0 149.5 47t84 129t22.5 188l-17 556h24l18 -539q2 -42 23 -77.5t57 -57t81 -21.5q6 0 8.5 -3t2.5 -8q0 -4 -4 -8.5t-10 -4.5
q-29 0 -56 9.5t-49 26t-36.5 36.5t-19.5 41l2 5q-2 -64 -17 -125t-47.5 -110.5t-85.5 -78.5t-131 -29q-49 0 -92.5 13.5t-77 39.5t-52.5 65t-19 90zM311 675q-10 0 -18 8t-8 19t8 18.5t18 7.5q11 0 19 -7.5t8 -18.5t-8 -19t-19 -8zM259 592q-10 0 -18 8t-8 19t8 18.5t18 7.5
q11 0 19 -7.5t8 -18.5t-8 -19t-19 -8zM364 592q-10 0 -18 8t-8 19t8 18.5t18 7.5q11 0 19 -7.5t8 -18.5t-8 -19t-19 -8z" />
    <glyph glyph-name="uni06B8.init" unicode="&#x6b8;" horiz-adv-x="208" 
d="M0 -5l4 24q60 0 86.5 15t33 49t4.5 92l-19 539h23l20 -537q2 -50 -3 -84.5t-21.5 -56t-47 -31.5t-80.5 -10zM89 -250q-11 0 -19 8t-8 18q0 11 8 19t19 8t18.5 -8t7.5 -19q0 -10 -7.5 -18t-18.5 -8zM36 -167q-11 0 -19 8t-8 18q0 11 8 19t19 8t18.5 -8t7.5 -19
q0 -10 -7.5 -18t-18.5 -8zM141 -167q-11 0 -19 8t-8 18q0 11 8 19t19 8t18.5 -8t7.5 -19q0 -10 -7.5 -18t-18.5 -8z" />
    <glyph glyph-name="uni06B8.medi" unicode="&#x6b8;" horiz-adv-x="274" 
d="M0 -5l4 24q63 0 90 22t32.5 64t3.5 100l-17 509h25l16 -507q3 -72 13.5 -113t36.5 -58t73 -17q6 0 8.5 -3t2.5 -8q0 -4 -4 -8.5t-10 -4.5q-43 0 -71 15.5t-42.5 41.5t-20.5 55h10q-6 -34 -21.5 -59t-46 -39t-82.5 -14zM128 -250q-11 0 -19 8t-8 18q0 11 8 19t19 8
t18.5 -8t7.5 -19q0 -10 -7.5 -18t-18.5 -8zM75 -167q-11 0 -19 8t-8 18q0 11 8 19t19 8t18.5 -8t7.5 -19q0 -10 -7.5 -18t-18.5 -8zM180 -167q-11 0 -19 8t-8 18q0 11 8 19t19 8t18.5 -8t7.5 -19q0 -10 -7.5 -18t-18.5 -8z" />
    <glyph glyph-name="uni06B8.fina" unicode="&#x6b8;" horiz-adv-x="731" 
d="M50 -22q0 25 4 52.5t15.5 61.5t32.5 79l23 -11q-16 -31 -27 -62.5t-16.5 -61t-5.5 -55.5q0 -60 30 -101.5t79.5 -63.5t106.5 -22q92 0 149.5 47t84 129t22.5 188l-17 556h24l18 -539q2 -42 23 -77.5t57 -57t81 -21.5q6 0 8.5 -3t2.5 -8q0 -4 -4 -8.5t-10 -4.5
q-29 0 -56 9.5t-49 26t-36.5 36.5t-19.5 41l2 5q-2 -64 -17 -125t-47.5 -110.5t-85.5 -78.5t-131 -29q-49 0 -92.5 13.5t-77 39.5t-52.5 65t-19 90zM291 -480q-11 0 -19 8t-8 18q0 11 8 19t19 8t18.5 -8t7.5 -19q0 -10 -7.5 -18t-18.5 -8zM238 -397q-11 0 -19 8t-8 18
q0 11 8 19t19 8t18.5 -8t7.5 -19q0 -10 -7.5 -18t-18.5 -8zM343 -397q-11 0 -19 8t-8 18q0 11 8 19t19 8t18.5 -8t7.5 -19q0 -10 -7.5 -18t-18.5 -8z" />
    <glyph glyph-name="uni06B9.init" unicode="&#x6b9;" horiz-adv-x="249" 
d="M0 -5l4 24q55 0 83.5 13t39.5 38.5t11 64.5q0 29 -5.5 62t-16.5 72t-28 85l23 9q16 -43 27.5 -84t17.5 -76.5t6 -62.5q0 -28 -4.5 -51.5t-15.5 -41t-29.5 -29t-46 -17.5t-66.5 -6zM94 519q-11 0 -19 8t-8 18q0 11 8 19t19 8t18.5 -8t7.5 -19q0 -10 -7.5 -18t-18.5 -8z
M99 -171q-11 0 -19 8t-8 18q0 11 8 19t19 8t18.5 -8t7.5 -19q0 -10 -7.5 -18t-18.5 -8z" />
    <glyph glyph-name="uni06B9.medi" unicode="&#x6b9;" horiz-adv-x="352" 
d="M0 -5l4 24q40 0 69.5 5.5t51 28t39.5 72.5t36 139l25 -5q-7 -36 -12.5 -59.5t-8 -42t-2.5 -40.5q0 -28 10 -50t42.5 -35t100.5 -13q6 0 8.5 -3t2.5 -8q0 -4 -4 -8.5t-10 -4.5q-64 0 -103.5 14.5t-55.5 41.5t-10 66h3q-14 -41 -30.5 -65.5t-37.5 -36.5t-50 -16t-68 -4z
M175 411q-11 0 -19 8t-8 18q0 11 8 19t19 8t18.5 -8t7.5 -19q0 -10 -7.5 -18t-18.5 -8zM175 -171q-11 0 -19 8t-8 18q0 11 8 19t19 8t18.5 -8t7.5 -19q0 -10 -7.5 -18t-18.5 -8z" />
    </font>
</defs>
</svg>
