<?xml version="1.0" standalone="no"?>
<!DOCTYPE svg PUBLIC "-//W3C//DTD SVG 1.1//EN" "http://www.w3.org/Graphics/SVG/1.1/DTD/svg11.dtd" >
<svg xmlns="http://www.w3.org/2000/svg" xmlns:xlink="http://www.w3.org/1999/xlink" version="1.1">
<metadata>
Created by FontForge 20170731 at Thu Nov 12 05:28:44 2020
 By Aleksey,,,
Copyright 2015-2020 Google LLC. All Rights Reserved.
</metadata>
<defs>
<font id="NotoSansArabicCondensed-Black" horiz-adv-x="0" >
  <font-face 
    font-family="Noto Sans Arabic Condensed Black"
    font-weight="900"
    font-stretch="condensed"
    units-per-em="1000"
    panose-1="0 0 0 0 0 0 0 0 0 0"
    ascent="800"
    descent="-200"
    bbox="-220 -738 2478 1160"
    underline-thickness="50"
    underline-position="-175"
    unicode-range="U+000D-FEFC"
  />
<missing-glyph horiz-adv-x="600" 
d="M94 0v714h411v-714h-411zM145 51h309v612h-309v-612z" />
    <glyph glyph-name="uniFC43" unicode="&#xfedf;&#xfef0;" horiz-adv-x="1054" arabic-form="isolated" 
d="M746 -5l10 164q34 0 49.5 9t19.5 37.5t1 86.5l-19 468h173l21 -490q3 -61 -4 -111.5t-32.5 -87t-77.5 -56.5t-141 -20zM24 27q0 26 4 58.5t16 75.5t35 101l152 -51q-14 -39 -21.5 -66t-10 -47t-2.5 -39q0 -30 12 -53t35.5 -39t56.5 -24.5t75 -8.5q53 0 87 10t53.5 25
t27.5 30t8 24q0 7 -6 14t-20 15.5t-36.5 17.5t-55.5 22l43 145q37 -15 75 -29t75 -25t69.5 -17.5t59.5 -6.5q41 0 60.5 -24t19.5 -56q0 -38 -23.5 -61t-66.5 -23h-12h-12h-12q1 -8 1.5 -13t0.5 -14q0 -32 -22 -66.5t-66 -64.5t-110 -48.5t-154 -18.5q-93 0 -169.5 28.5
t-121.5 85.5t-45 143z" />
    <glyph glyph-name="uniFC86" unicode="&#xfee0;&#xfef0;" horiz-adv-x="1077" arabic-form="final" 
d="M746 -5l10 164q31 0 46.5 9.5t20 38t2.5 85.5l-15 468h173l17 -467q2 -57 9 -86t25 -38.5t52 -9.5q41 0 60.5 -24t19.5 -56q0 -38 -24 -61t-66 -23q-35 0 -74 11t-68.5 42t-38.5 89h59q-21 -53 -50 -84.5t-68 -44.5t-90 -13zM24 27q0 26 4 58.5t16 75.5t35 101l152 -51
q-14 -39 -21.5 -66t-10 -47t-2.5 -39q0 -30 12 -53t35.5 -39t56.5 -24.5t75 -8.5q53 0 87 10t53.5 25t27.5 30t8 24q0 7 -6 14t-20 15.5t-36.5 17.5t-55.5 22l43 145q37 -15 75 -29t75 -25t69.5 -17.5t59.5 -6.5q41 0 60.5 -24t19.5 -56q0 -38 -23.5 -61t-66.5 -23h-12h-12
h-12q1 -8 1.5 -13t0.5 -14q0 -32 -22 -66.5t-66 -64.5t-110 -48.5t-154 -18.5q-93 0 -169.5 28.5t-121.5 85.5t-45 143z" />
    <glyph glyph-name="uniFD82" unicode="&#xfee0;&#xfea4;&#xfef0;" horiz-adv-x="1710" arabic-form="final" 
d="M1379 -5l10 164q31 0 46.5 9.5t20 38t2.5 85.5l-15 468h173l17 -467q2 -57 9 -86t25 -38.5t52 -9.5q41 0 60.5 -24t19.5 -56q0 -38 -24 -61t-66 -23q-35 0 -74 11t-68.5 42t-38.5 89h59q-21 -53 -50 -84.5t-68 -44.5t-90 -13zM1379 -5q-36 0 -68.5 8.5t-61 27.5t-51 51
t-37.5 79l92 72q13 -29 34 -45.5t47 -22.5t55 -6q40 0 59.5 -24t19.5 -56q0 -38 -23.5 -61t-65.5 -23zM746 -5l10 164q46 0 96.5 6t101 19t97 34.5t86.5 50.5q-33 13 -65.5 21.5t-65 12.5t-69.5 4q-16 0 -34.5 -1t-38 -3.5t-37.5 -6.5l-26 172q30 8 61.5 11.5t64.5 3.5
q57 0 103.5 -12t83.5 -29t68 -34t58.5 -29t53.5 -12h33l21 -148q-35 -5 -67.5 -22.5t-66.5 -43.5t-75.5 -53t-96.5 -51t-127 -39t-169 -15zM24 27q0 26 4 58.5t16 75.5t35 101l152 -51q-14 -39 -21.5 -66t-10 -47t-2.5 -39q0 -30 12 -53t35.5 -39t56.5 -24.5t75 -8.5
q53 0 87 10t53.5 25t27.5 30t8 24q0 7 -6 14t-20 15.5t-36.5 17.5t-55.5 22l43 145q37 -15 75 -29t75 -25t69.5 -17.5t59.5 -6.5q41 0 60.5 -24t19.5 -56q0 -38 -23.5 -61t-66.5 -23h-12h-12h-12q1 -8 1.5 -13t0.5 -14q0 -32 -22 -66.5t-66 -64.5t-110 -48.5t-154 -18.5
q-93 0 -169.5 28.5t-121.5 85.5t-45 143z" />
    <glyph glyph-name="uniFDF2" unicode="&#x627;&#xfedf;&#xfee0;&#xfeea;" horiz-adv-x="1480" arabic-form="isolated" 
d="M558 -5q-46 0 -84.5 9t-68 28.5t-48.5 50.5q-63 -10 -122 -5t-106 27.5t-74 64.5t-27 105q0 75 37.5 130t101.5 92.5t142 58.5l-4 78h169l17 -377q2 -40 9.5 -61t23.5 -29t44 -8t41.5 9.5t18 38t2.5 85.5l-10 355h175l12 -354q2 -57 8.5 -86t25 -38.5t53.5 -9.5
q32 0 47 9t18.5 37.5t0.5 86.5l-19 468h175l21 -490q3 -61 -4 -111.5t-32.5 -87t-77 -56.5t-139.5 -20q-27 0 -57 6.5t-57 22.5t-47 46q-29 -41 -70 -58t-95 -17zM323 237l-7 152q-33 -7 -61 -21.5t-44 -34.5t-16 -45q0 -16 10 -28t28 -19t41 -7.5t49 3.5zM1254 0l-21 760
h173l21 -760h-173zM602 728q-43 0 -56.5 28t-13.5 69q0 11 1.5 22t4.5 26l67 13q-2 -15 -3.5 -29t-1.5 -24q0 -18 4 -24.5t11 -6.5q12 0 17 14t6 55v28l56 17v-57q0 -16 4 -22.5t13 -6.5q12 0 15.5 9t3.5 24q0 16 -4 32t-10 33l63 13q10 -18 16 -41t6 -42q0 -43 -18.5 -71
t-63.5 -28q-22 0 -42 18t-20 53l21 -8q0 -46 -23.5 -70t-52.5 -24zM606 968l-5 161h107l6 -161h-108z" />
    <glyph glyph-name="uniFEF5" unicode="&#xfedf;&#xfe82;" horiz-adv-x="682" arabic-form="isolated" 
d="M368 560q0 18 -3.5 50.5t-8.5 65.5t-9 54l159 20q4 -20 8 -51t7 -65t3 -66q0 -55 -5 -107t-22 -95t-54 -74l-22 -16q-32 -33 -74.5 -67.5t-85.5 -61.5h105q24 0 37.5 5.5t19.5 15t6 20.5q0 19 -30 53t-84 78.5t-126.5 94.5t-157.5 99l77 135q127 -74 212 -135t137.5 -111
t80 -91.5t37 -78t9.5 -69.5q0 -25 -10 -53t-32 -53t-57.5 -41t-86.5 -16h-299v187q99 68 158 129.5t85 121t26 122.5zM215 703q-30 0 -54 10t-44 19.5t-37 9.5q-18 0 -32.5 -8.5t-29.5 -24.5l-49 55q29 35 56 51.5t55 16.5q25 0 46 -9.5t42.5 -19t46.5 -9.5q14 0 28 5t34 17
l37 -66q-36 -32 -60.5 -39.5t-38.5 -7.5z" />
    <glyph glyph-name="uniFEF6" unicode="&#xfee0;&#xfe82;" horiz-adv-x="678" arabic-form="final" 
d="M677 -5q-71 0 -122 20.5t-83 55.5t-47.5 78.5t-17.5 89.5l-19 521h167l21 -489q2 -47 15 -71.5t36.5 -32.5t55.5 -8q35 0 60 -19t25 -61q0 -37 -26 -60.5t-65 -23.5zM138 -5q-30 0 -55 3.5t-47 7.5l19 169q70 -10 132.5 -7.5t110.5 26t75.5 78t27.5 147.5l64 -185
q-8 -40 -24 -76.5t-41 -66t-61.5 -51t-86 -33.5t-114.5 -12zM317 138q-18 29 -40.5 65t-55 81.5t-79 101t-111.5 123.5l113 114q46 -53 90 -108.5t81.5 -107.5t64.5 -95.5t37 -72.5zM215 703q-30 0 -54 10t-44 19.5t-37 9.5q-18 0 -32.5 -8.5t-29.5 -24.5l-49 55
q29 35 56 51.5t55 16.5q25 0 46 -9.5t42.5 -19t46.5 -9.5q14 0 28 5t34 17l37 -66q-36 -32 -60.5 -39.5t-38.5 -7.5z" />
    <glyph glyph-name="uniFEF7" unicode="&#xfedf;&#xfe84;" horiz-adv-x="640" arabic-form="isolated" 
d="M368 560q0 18 -3.5 50.5t-8.5 65.5t-9 54l159 20q4 -20 8 -51t7 -65t3 -66q0 -55 -5 -107t-22 -95t-54 -74l-22 -16q-32 -33 -74.5 -67.5t-85.5 -61.5h105q24 0 37.5 5.5t19.5 15t6 20.5q0 19 -30 53t-84 78.5t-126.5 94.5t-157.5 99l77 135q127 -74 212 -135t137.5 -111
t80 -91.5t37 -78t9.5 -69.5q0 -25 -10 -53t-32 -53t-57.5 -41t-86.5 -16h-299v187q99 68 158 129.5t85 121t26 122.5zM37 681l-17 70q38 6 55.5 9.5t36.5 8.5l-18 -30q-25 9 -46.5 34.5t-21.5 58.5q0 36 16 57.5t40 31.5t50 10q17 0 29.5 -2t23.5 -6l-8 -66q-9 2 -18.5 4
t-21.5 2q-18 0 -28 -8t-10 -22q0 -18 11.5 -30.5t26.5 -19.5t25 -8l-42 -4q25 7 47.5 14t42.5 15l21 -67q-25 -8 -56.5 -18t-67 -18.5t-70.5 -15.5z" />
    <glyph glyph-name="uniFEF8" unicode="&#xfee0;&#xfe84;" horiz-adv-x="678" arabic-form="final" 
d="M677 -5q-71 0 -122 20.5t-83 55.5t-47.5 78.5t-17.5 89.5l-19 521h167l21 -489q2 -47 15 -71.5t36.5 -32.5t55.5 -8q35 0 60 -19t25 -61q0 -37 -26 -60.5t-65 -23.5zM138 -5q-30 0 -55 3.5t-47 7.5l19 169q70 -10 132.5 -7.5t110.5 26t75.5 78t27.5 147.5l64 -185
q-8 -40 -24 -76.5t-41 -66t-61.5 -51t-86 -33.5t-114.5 -12zM317 138q-18 29 -40.5 65t-55 81.5t-79 101t-111.5 123.5l113 114q46 -53 90 -108.5t81.5 -107.5t64.5 -95.5t37 -72.5zM56 681l-17 70q38 6 55.5 9.5t36.5 8.5l-18 -30q-25 9 -46.5 34.5t-21.5 58.5
q0 36 16 57.5t40 31.5t50 10q17 0 29.5 -2t23.5 -6l-8 -66q-9 2 -18.5 4t-21.5 2q-18 0 -28 -8t-10 -22q0 -18 11.5 -30.5t26.5 -19.5t25 -8l-42 -4q25 7 47.5 14t42.5 15l21 -67q-25 -8 -56.5 -18t-67 -18.5t-70.5 -15.5z" />
    <glyph glyph-name="uniFEF9" unicode="&#xfedf;&#xfe88;" horiz-adv-x="640" arabic-form="isolated" 
d="M368 560q0 18 -3.5 50.5t-8.5 65.5t-9 54l159 20q4 -20 8 -51t7 -65t3 -66q0 -55 -5 -107t-22 -95t-54 -74l-22 -16q-32 -33 -74.5 -67.5t-85.5 -61.5h105q24 0 37.5 5.5t19.5 15t6 20.5q0 19 -30 53t-84 78.5t-126.5 94.5t-157.5 99l77 135q127 -74 212 -135t137.5 -111
t80 -91.5t37 -78t9.5 -69.5q0 -25 -10 -53t-32 -53t-57.5 -41t-86.5 -16h-299v187q99 68 158 129.5t85 121t26 122.5zM94 -305l-17 70q38 6 55.5 9.5t36.5 8.5l-18 -30q-25 9 -46.5 34.5t-21.5 58.5q0 36 16 57.5t40 31.5t50 10q17 0 29.5 -2t23.5 -6l-8 -66q-9 2 -18.5 4
t-21.5 2q-18 0 -28 -8t-10 -22q0 -18 11.5 -30.5t26.5 -19.5t25 -8l-42 -4q25 7 47.5 14t42.5 15l21 -67q-25 -8 -56.5 -18t-67 -18.5t-70.5 -15.5z" />
    <glyph glyph-name="uniFEFA" unicode="&#xfee0;&#xfe88;" horiz-adv-x="678" arabic-form="final" 
d="M677 -5q-71 0 -122 20.5t-83 55.5t-47.5 78.5t-17.5 89.5l-19 521h167l21 -489q2 -47 15 -71.5t36.5 -32.5t55.5 -8q35 0 60 -19t25 -61q0 -37 -26 -60.5t-65 -23.5zM138 -5q-30 0 -55 3.5t-47 7.5l19 169q70 -10 132.5 -7.5t110.5 26t75.5 78t27.5 147.5l64 -185
q-8 -40 -24 -76.5t-41 -66t-61.5 -51t-86 -33.5t-114.5 -12zM317 138q-18 29 -40.5 65t-55 81.5t-79 101t-111.5 123.5l113 114q46 -53 90 -108.5t81.5 -107.5t64.5 -95.5t37 -72.5zM94 -305l-17 70q38 6 55.5 9.5t36.5 8.5l-18 -30q-25 9 -46.5 34.5t-21.5 58.5
q0 36 16 57.5t40 31.5t50 10q17 0 29.5 -2t23.5 -6l-8 -66q-9 2 -18.5 4t-21.5 2q-18 0 -28 -8t-10 -22q0 -18 11.5 -30.5t26.5 -19.5t25 -8l-42 -4q25 7 47.5 14t42.5 15l21 -67q-25 -8 -56.5 -18t-67 -18.5t-70.5 -15.5z" />
    <glyph glyph-name="uniFEFB" unicode="&#xfedf;&#xfe8e;" horiz-adv-x="640" arabic-form="isolated" 
d="M368 560q0 18 -3.5 50.5t-8.5 65.5t-9 54l159 20q4 -20 8 -51t7 -65t3 -66q0 -55 -5 -107t-22 -95t-54 -74l-22 -16q-32 -33 -74.5 -67.5t-85.5 -61.5h105q24 0 37.5 5.5t19.5 15t6 20.5q0 19 -30 53t-84 78.5t-126.5 94.5t-157.5 99l77 135q127 -74 212 -135t137.5 -111
t80 -91.5t37 -78t9.5 -69.5q0 -25 -10 -53t-32 -53t-57.5 -41t-86.5 -16h-299v187q99 68 158 129.5t85 121t26 122.5z" />
    <glyph glyph-name="uniFEFC" unicode="&#xfee0;&#xfe8e;" horiz-adv-x="678" arabic-form="final" 
d="M677 -5q-71 0 -122 20.5t-83 55.5t-47.5 78.5t-17.5 89.5l-19 521h167l21 -489q2 -47 15 -71.5t36.5 -32.5t55.5 -8q35 0 60 -19t25 -61q0 -37 -26 -60.5t-65 -23.5zM138 -5q-30 0 -55 3.5t-47 7.5l19 169q70 -10 132.5 -7.5t110.5 26t75.5 78t27.5 147.5l64 -185
q-8 -40 -24 -76.5t-41 -66t-61.5 -51t-86 -33.5t-114.5 -12zM317 138q-18 29 -40.5 65t-55 81.5t-79 101t-111.5 123.5l113 114q46 -53 90 -108.5t81.5 -107.5t64.5 -95.5t37 -72.5z" />
    <glyph glyph-name="lam_alefMaksura_meemar" unicode="&#xfedf;&#xfbe9;&#xfee2;" horiz-adv-x="1262" 
d="M955 -5l10 164q34 0 49.5 9t19.5 37.5t1 86.5l-19 468h173l21 -490q3 -61 -4 -111.5t-32.5 -87t-77.5 -56.5t-141 -20zM652 -5l10 164q26 0 42.5 7t25.5 24.5t9 45.5q0 34 -7.5 77t-18.5 86.5t-22 77.5l157 43q12 -35 25 -82.5t21.5 -100.5t8.5 -107q0 -63 -16.5 -105.5
t-44.5 -68t-62 -39t-67.5 -18t-60.5 -4.5zM82 -393q-23 81 -38 156.5t-22 133.5t-7 86q0 104 28.5 183t74.5 135t98 91t100.5 51.5t81.5 16.5q44 0 69.5 -23t43 -60.5t36.5 -82.5q23 -54 42 -83.5t36.5 -40.5t36.5 -11q40 0 59.5 -24t19.5 -56q0 -37 -24 -60.5t-65 -23.5
t-78 17.5t-73 59.5l26 13q-10 -28 -27.5 -51.5t-43.5 -37.5t-62 -14q-22 0 -51 6t-60.5 23t-63 48t-58.5 80l42 -7q-15 -31 -22.5 -72t-7.5 -74q0 -32 5 -72.5t13.5 -86t19.5 -91t22 -86.5zM397 139q16 0 24 6t10 15.5t-2 18.5q-16 38 -26 62t-17 38t-12 20t-11 6
q-9 0 -24.5 -8.5t-31.5 -21t-28.5 -26.5t-15.5 -26l-6 45q12 -30 35.5 -60t52 -49.5t52.5 -19.5z" />
    <glyph glyph-name="lam_alefWaslaar" unicode="&#xfedf;&#xfb51;" horiz-adv-x="597" 
d="M142 698q-21 0 -49.5 2t-54 5t-38.5 5l7 70q13 -1 36.5 -3.5t50 -4.5t48.5 -2q50 0 66 11.5t16 25.5q0 16 -9 24.5t-22 8.5q-9 0 -23 -8t-27.5 -25.5t-24.5 -44.5l-83 1q10 32 32 66.5t55 59t74 24.5q44 0 72.5 -28.5t28.5 -72.5q0 -32 -12 -57.5t-45.5 -41t-97.5 -15.5z
M368 560q0 18 -3.5 50.5t-8.5 65.5t-9 54l159 20q4 -20 8 -51t7 -65t3 -66q0 -55 -5 -107t-22 -95t-54 -74l-22 -16q-32 -33 -74.5 -67.5t-85.5 -61.5h105q24 0 37.5 5.5t19.5 15t6 20.5q0 19 -30 53t-84 78.5t-126.5 94.5t-157.5 99l77 135q127 -74 212 -135t137.5 -111
t80 -91.5t37 -78t9.5 -69.5q0 -25 -10 -53t-32 -53t-57.5 -41t-86.5 -16h-299v187q99 68 158 129.5t85 121t26 122.5z" />
    <glyph glyph-name="lam_alefWaslaar.fina" unicode="&#xfee0;&#xfb51;" horiz-adv-x="781" 
d="M142 698q-21 0 -49.5 2t-54 5t-38.5 5l7 70q14 -1 37 -3.5t49.5 -4.5t48.5 -2q50 0 66 11t16 26q0 16 -9 24.5t-22 8.5q-9 0 -23 -8t-27.5 -25.5t-24.5 -44.5l-83 1q10 32 32 66.5t54.5 59t73.5 24.5q45 0 73.5 -28.5t28.5 -72.5q0 -32 -12 -57.5t-45.5 -41t-97.5 -15.5z
M677 -5q-71 0 -122 20.5t-83 55.5t-47.5 78.5t-17.5 89.5l-19 521h167l21 -489q2 -47 15 -71.5t36.5 -32.5t55.5 -8q35 0 60 -19t25 -61q0 -37 -26 -60.5t-65 -23.5zM138 -5q-30 0 -55 3.5t-47 7.5l19 169q70 -10 132.5 -7.5t110.5 26t75.5 78t27.5 147.5l64 -185
q-8 -40 -24 -76.5t-41 -66t-61.5 -51t-86 -33.5t-114.5 -12zM317 138q-18 29 -40.5 65t-55 81.5t-79 101t-111.5 123.5l113 114q46 -53 90 -108.5t81.5 -107.5t64.5 -95.5t37 -72.5z" />
    <glyph glyph-name="uni0620.init" unicode="&#x620;" horiz-adv-x="379" 
d="M0 -5l10 164q57 0 87.5 9t42 26t11.5 42q0 34 -7 76.5t-18 86.5t-22 78l157 43q12 -35 25 -82t21.5 -99.5t8.5 -104.5q0 -79 -26 -127t-71.5 -72t-101.5 -32t-117 -8zM228 -87q-39 0 -66 27.5t-27 66.5t27 66t66 27q40 0 67 -27.5t27 -66.5t-27 -66t-67 -27zM228 -21
q13 0 21.5 7.5t8.5 20.5q0 12 -8.5 20t-21.5 8q-11 0 -20 -8t-9 -20t9 -20t20 -8z" />
    <glyph glyph-name="uni0620.medi" unicode="&#x620;" horiz-adv-x="417" 
d="M0 -5l10 164q35 0 57.5 6.5t37 28t24 65.5t18.5 117l161 -26q-1 -14 -3.5 -32t-4.5 -38t-2 -39q0 -21 6 -37t20.5 -26t39.5 -14.5t63 -4.5q40 0 59.5 -24t19.5 -56q0 -38 -23.5 -61t-65.5 -23q-58 0 -98.5 9.5t-67 29.5t-41 50.5t-18.5 72.5h59q-18 -56 -47 -89
t-63 -48.5t-70.5 -20t-70.5 -4.5zM141 -106q-39 0 -66 27.5t-27 66.5t27 66t66 27t66.5 -27.5t27.5 -66.5t-27.5 -66t-66.5 -27zM141 -40q12 0 21 7.5t9 19.5q0 13 -9 21t-21 8t-21 -8t-9 -20t9.5 -20t20.5 -8z" />
    <glyph glyph-name="uni0620.fina" unicode="&#x620;" horiz-adv-x="746" 
d="M355 -353q-39 0 -66 27.5t-27 66.5t27 66.5t66 27.5q40 0 67 -27.5t27 -66.5t-27 -66.5t-67 -27.5zM355 -287q12 0 21 8t9 20q0 13 -9 21t-21 8q-11 0 -20.5 -8.5t-9.5 -20.5t9.5 -20t20.5 -8zM24 27q0 26 4 58.5t16 75.5t35 101l152 -51q-14 -39 -21.5 -66t-10 -47
t-2.5 -39q0 -30 12 -53t35.5 -39t56.5 -24.5t75 -8.5q53 0 87 10t53.5 25t27.5 30t8 24q0 7 -6 14t-20 15.5t-36.5 17.5t-55.5 22l43 145q37 -15 75 -29t75 -25t69.5 -17.5t59.5 -6.5q41 0 60.5 -24t19.5 -56q0 -38 -23.5 -61t-66.5 -23h-12h-12h-12q1 -8 1.5 -13t0.5 -14
q0 -32 -22 -66.5t-66 -64.5t-110 -48.5t-154 -18.5q-93 0 -169.5 28.5t-121.5 85.5t-45 143z" />
    <glyph glyph-name="uni063B.init" unicode="&#x63b;" horiz-adv-x="432" 
d="M234 732q-23 0 -38 15.5t-15 37.5q0 23 15 39.5t38 16.5q22 0 37.5 -16.5t15.5 -39.5q0 -22 -15.5 -37.5t-37.5 -15.5zM107 669q-22 0 -37.5 15.5t-15.5 37.5q0 23 15.5 39.5t37.5 16.5t38 -16.5t16 -39.5q0 -22 -16 -37.5t-38 -15.5zM0 -5l10 164h120q16 0 27 2t17.5 6
t9.5 11.5t3 17.5q0 28 -19.5 59.5t-44.5 60.5q-22 27 -39.5 46t-29 33t-18 24.5t-6.5 18.5q0 15 2.5 37t7 42t11.5 27q17 18 46.5 40t69 47t88 52t105.5 56l78 -138q-57 -28 -101 -52t-77.5 -44t-58.5 -38t-43 -35l3 89q45 -42 82.5 -85t65 -85t42.5 -82.5t15 -79.5
q0 -33 -13.5 -67.5t-43.5 -63t-79 -46t-120 -17.5h-110z" />
    <glyph glyph-name="uni063B.medi" unicode="&#x63b;" horiz-adv-x="469" 
d="M237 733q-23 0 -38 15t-15 38t15 39t38 16q22 0 37.5 -16t15.5 -39t-15.5 -38t-37.5 -15zM110 670q-22 0 -37.5 15t-15.5 38t15.5 39t37.5 16q23 0 38.5 -16t15.5 -39t-15.5 -38t-38.5 -15zM0 -5l10 164h114q25 0 38.5 3.5t19 12t5.5 21.5q0 20 -11.5 43.5t-29.5 47.5
t-38.5 47.5t-38 44t-29 36.5t-11.5 24q0 18 2.5 40t7 40t11.5 25q17 18 44.5 39t65.5 45t87.5 51.5t112.5 59.5l78 -138q-63 -31 -108 -55.5t-78 -45t-57 -38t-43 -35.5l9 93q22 -25 47.5 -54.5t52 -63t50.5 -73t42 -85.5q16 -39 32.5 -57.5t39.5 -23t54 -4.5q40 0 59.5 -24
t19.5 -56q0 -37 -23.5 -60.5t-65.5 -23.5q-50 0 -88 12t-62.5 38.5t-34.5 71.5h59q-15 -29 -37 -52t-51.5 -38.5t-67.5 -23.5t-84 -8h-103z" />
    <glyph glyph-name="uni063B.fina" unicode="&#x63b;" horiz-adv-x="928" 
d="M673 737q-23 0 -38 15.5t-15 37.5q0 23 15 39.5t38 16.5q22 0 37.5 -16.5t15.5 -39.5q0 -22 -15.5 -37.5t-37.5 -15.5zM546 674q-22 0 -37.5 15.5t-15.5 37.5q0 23 15.5 39.5t37.5 16.5q23 0 38.5 -16.5t15.5 -39.5q0 -22 -15.5 -37.5t-38.5 -15.5zM412 -21l26 164
q47 0 82.5 2.5t60.5 9.5t37.5 19t12.5 29q0 18 -11 39t-29 44.5t-38 46.5t-38 43.5t-29.5 36t-11.5 24.5q0 18 2.5 39.5t7 40t11.5 25.5q21 25 61 53.5t101 64.5t146 79l78 -138q-66 -34 -118.5 -63.5t-92 -55.5t-68.5 -52l6 90q25 -26 51.5 -55t52.5 -63t49.5 -73t42.5 -85
q11 -27 24.5 -44t31 -26t37 -12t42.5 -3q40 0 59.5 -24t19.5 -56q0 -37 -24 -60.5t-65 -23.5q-46 0 -84.5 11t-65 37.5t-36.5 73.5h44q-22 -43 -57.5 -70t-83.5 -42t-107 -20.5t-127 -5.5zM412 -21q-110 0 -183 20t-116 54t-61 77t-18 89q0 40 7 77.5t16.5 70.5t18.5 58
l143 -37q-5 -19 -10.5 -40t-8.5 -41.5t-3 -40.5q0 -35 19.5 -63.5t71.5 -44t150 -15.5l20 -132z" />
    <glyph glyph-name="uni063C.init" unicode="&#x63c;" horiz-adv-x="432" 
d="M0 -5l10 164h120q16 0 27 2t17.5 6t9.5 11.5t3 17.5q0 28 -19.5 59.5t-44.5 60.5q-22 27 -39.5 46t-29 33t-18 24.5t-6.5 18.5q0 15 2.5 37t7 42t11.5 27q17 18 46.5 40t69 47t88 52t105.5 56l78 -138q-57 -28 -101 -52t-77.5 -44t-58.5 -38t-43 -35l3 89
q45 -42 82.5 -85t65 -85t42.5 -82.5t15 -79.5q0 -33 -13.5 -67.5t-43.5 -63t-79 -46t-120 -17.5h-110zM195 -390q-31 0 -52 21t-21 52q0 30 21 52.5t52 22.5q30 0 51 -22.5t21 -52.5q0 -31 -21 -52t-51 -21zM107 -234q-31 0 -52 21t-21 52q0 30 21 52.5t52 22.5t52 -22.5
t21 -52.5q0 -31 -21 -52t-52 -21zM287 -234q-31 0 -52 21t-21 52q0 30 21 52.5t52 22.5q32 0 52.5 -22.5t20.5 -52.5q0 -31 -20.5 -52t-52.5 -21z" />
    <glyph glyph-name="uni063C.medi" unicode="&#x63c;" horiz-adv-x="469" 
d="M0 -5l10 164h114q25 0 38.5 3.5t19 12t5.5 21.5q0 20 -11.5 43.5t-29.5 47.5t-38.5 47.5t-38 44t-29 36.5t-11.5 24q0 18 2.5 40t7 40t11.5 25q17 18 44.5 39t65.5 45t87.5 51.5t112.5 59.5l78 -138q-63 -31 -108 -55.5t-78 -45t-57 -38t-43 -35.5l9 93
q22 -25 47.5 -54.5t52 -63t50.5 -73t42 -85.5q16 -39 32.5 -57.5t39.5 -23t54 -4.5q40 0 59.5 -24t19.5 -56q0 -37 -23.5 -60.5t-65.5 -23.5q-50 0 -88 12t-62.5 38.5t-34.5 71.5h59q-15 -29 -37 -52t-51.5 -38.5t-67.5 -23.5t-84 -8h-103zM188 -390q-31 0 -52 21t-21 52
q0 30 21 52.5t52 22.5q30 0 51 -22.5t21 -52.5q0 -31 -21 -52t-51 -21zM100 -234q-31 0 -52 21t-21 52q0 30 21 52.5t52 22.5t52 -22.5t21 -52.5q0 -31 -21 -52t-52 -21zM280 -234q-31 0 -52 21t-21 52q0 30 21 52.5t52 22.5q32 0 52.5 -22.5t20.5 -52.5q0 -31 -20.5 -52
t-52.5 -21z" />
    <glyph glyph-name="uni063C.fina" unicode="&#x63c;" horiz-adv-x="928" 
d="M412 -21l26 164q47 0 82.5 2.5t60.5 9.5t37.5 19t12.5 29q0 18 -11 39t-29 44.5t-38 46.5t-38 43.5t-29.5 36t-11.5 24.5q0 18 2.5 39.5t7 40t11.5 25.5q21 25 61 53.5t101 64.5t146 79l78 -138q-66 -34 -118.5 -63.5t-92 -55.5t-68.5 -52l6 90q25 -26 51.5 -55t52.5 -63
t49.5 -73t42.5 -85q11 -27 24.5 -44t31 -26t37 -12t42.5 -3q40 0 59.5 -24t19.5 -56q0 -37 -24 -60.5t-65 -23.5q-46 0 -84.5 11t-65 37.5t-36.5 73.5h44q-22 -43 -57.5 -70t-83.5 -42t-107 -20.5t-127 -5.5zM412 -21q-110 0 -183 20t-116 54t-61 77t-18 89q0 40 7 77.5
t16.5 70.5t18.5 58l143 -37q-5 -19 -10.5 -40t-8.5 -41.5t-3 -40.5q0 -35 19.5 -63.5t71.5 -44t150 -15.5l20 -132zM426 -411q-31 0 -52 21t-21 52q0 30 21 52.5t52 22.5q30 0 51 -22.5t21 -52.5q0 -31 -21 -52t-51 -21zM338 -255q-31 0 -52 21t-21 52q0 30 21 52.5t52 22.5
t52 -22.5t21 -52.5q0 -31 -21 -52t-52 -21zM518 -255q-31 0 -52 21t-21 52q0 30 21 52.5t52 22.5q32 0 52.5 -22.5t20.5 -52.5q0 -31 -20.5 -52t-52.5 -21z" />
    <glyph glyph-name="uni063D.init" unicode="&#x63d;" horiz-adv-x="303" 
d="M0 -5l10 164q26 0 42.5 7t25.5 24.5t9 45.5q0 34 -7.5 77t-18.5 86.5t-22 77.5l157 43q12 -35 25 -82.5t21.5 -100.5t8.5 -107q0 -63 -16.5 -105.5t-44.5 -68t-62 -39t-67.5 -18t-60.5 -4.5zM152 820q6 -15 16 -38.5t21.5 -50.5t22 -51.5t18.5 -41.5l-62 -27
q-5 13 -14 35t-19.5 46.5t-20 47t-17.5 35.5l-20 40zM77 815l54 -19q-5 -16 -14 -43t-18.5 -56t-17.5 -53.5t-12 -35.5l-62 20q5 13 14 38t20 54t21 54.5t15 40.5zM203 -237q-31 0 -51.5 21t-20.5 52t20.5 52t51.5 21t53 -21t22 -52t-22 -52t-53 -21zM25 -237q-31 0 -52 21
t-21 52t21 52t52 21q30 0 52 -21t22 -52t-22 -52t-52 -21z" />
    <glyph glyph-name="uni063D.medi" unicode="&#x63d;" horiz-adv-x="350" 
d="M0 -5l10 164q24 0 41.5 6.5t29 28t20.5 65.5t18 117l161 -26q-1 -14 -3.5 -32t-4.5 -38t-2 -39q0 -28 10 -46.5t30 -27t50 -8.5q41 0 60.5 -24t19.5 -56q0 -38 -23.5 -61t-66.5 -23q-56 0 -96 17t-62 53t-28 92h59q-18 -56 -46 -89t-60 -48.5t-63 -20t-54 -4.5zM211 719
q6 -15 16 -38.5t21.5 -50.5t22 -51.5t18.5 -41.5l-62 -27q-5 13 -14 35t-19.5 46.5t-20 47t-17.5 35.5l-20 40zM136 714l54 -19q-5 -16 -14 -43t-18.5 -56t-17.5 -53.5t-12 -35.5l-62 20q5 13 14 38t20 54t21 54.5t15 40.5zM248 -237q-31 0 -51.5 21t-20.5 52t20.5 52
t51.5 21t53 -21t22 -52t-22 -52t-53 -21zM70 -237q-31 0 -52 21t-21 52t21 52t52 21q30 0 52 -21t22 -52t-22 -52t-52 -21z" />
    <glyph glyph-name="uni063D.fina" unicode="&#x63d;" horiz-adv-x="746" 
d="M24 27q0 26 4 58.5t16 75.5t35 101l152 -51q-14 -39 -21.5 -66t-10 -47t-2.5 -39q0 -30 12 -53t35.5 -39t56.5 -24.5t75 -8.5q53 0 87 10t53.5 25t27.5 30t8 24q0 7 -6 14t-20 15.5t-36.5 17.5t-55.5 22l43 145q37 -15 75 -29t75 -25t69.5 -17.5t59.5 -6.5q41 0 60.5 -24
t19.5 -56q0 -38 -23.5 -61t-66.5 -23h-12h-12h-12q1 -8 1.5 -13t0.5 -14q0 -32 -22 -66.5t-66 -64.5t-110 -48.5t-154 -18.5q-93 0 -169.5 28.5t-121.5 85.5t-45 143zM251 522q6 -15 16 -38.5t21.5 -50.5t22 -51.5t18.5 -41.5l-62 -27q-5 13 -14 35t-19.5 46.5t-20 47
t-17.5 35.5l-20 40zM176 517l54 -19q-5 -16 -14 -43t-18.5 -56t-17.5 -53.5t-12 -35.5l-62 20q5 13 14 38t20 54t21 54.5t15 40.5z" />
    <glyph glyph-name="uni063E.init" unicode="&#x63e;" horiz-adv-x="379" 
d="M0 -5l10 164q57 0 87.5 9t42 26t11.5 42q0 34 -7 76.5t-18 86.5t-22 78l157 43q12 -35 25 -82t21.5 -99.5t8.5 -104.5q0 -79 -26 -127t-71.5 -72t-101.5 -32t-117 -8zM275 614q-31 0 -51.5 21.5t-20.5 51.5q0 32 20.5 52.5t51.5 20.5t53 -20.5t22 -52.5q0 -30 -22 -51.5
t-53 -21.5zM97 614q-31 0 -52 21.5t-21 51.5q0 32 21 52.5t52 20.5q30 0 52 -20.5t22 -52.5q0 -30 -22 -51.5t-52 -21.5zM272 -237q-31 0 -51.5 21t-20.5 52t20.5 52t51.5 21t53 -21t22 -52t-22 -52t-53 -21zM94 -237q-31 0 -52 21t-21 52t21 52t52 21q30 0 52 -21t22 -52
t-22 -52t-52 -21z" />
    <glyph glyph-name="uni063E.medi" unicode="&#x63e;" horiz-adv-x="417" 
d="M0 -5l10 164q35 0 57.5 6.5t37 28t24 65.5t18.5 117l161 -26q-1 -14 -3.5 -32t-4.5 -38t-2 -39q0 -21 6 -37t20.5 -26t39.5 -14.5t63 -4.5q40 0 59.5 -24t19.5 -56q0 -38 -23.5 -61t-65.5 -23q-58 0 -98.5 9.5t-67 29.5t-41 50.5t-18.5 72.5h59q-18 -56 -47 -89
t-63 -48.5t-70.5 -20t-70.5 -4.5zM351 505q-31 0 -51.5 21.5t-20.5 51.5q0 32 20.5 52.5t51.5 20.5t53 -20.5t22 -52.5q0 -30 -22 -51.5t-53 -21.5zM173 505q-31 0 -52 21.5t-21 51.5q0 32 21 52.5t52 20.5q30 0 52 -20.5t22 -52.5q0 -30 -22 -51.5t-52 -21.5zM305 -237
q-31 0 -51.5 21t-20.5 52t20.5 52t51.5 21t53 -21t22 -52t-22 -52t-53 -21zM127 -237q-31 0 -52 21t-21 52t21 52t52 21q30 0 52 -21t22 -52t-22 -52t-52 -21z" />
    <glyph glyph-name="uni063E.fina" unicode="&#x63e;" horiz-adv-x="746" 
d="M24 27q0 26 4 58.5t16 75.5t35 101l152 -51q-14 -39 -21.5 -66t-10 -47t-2.5 -39q0 -30 12 -53t35.5 -39t56.5 -24.5t75 -8.5q53 0 87 10t53.5 25t27.5 30t8 24q0 7 -6 14t-20 15.5t-36.5 17.5t-55.5 22l43 145q37 -15 75 -29t75 -25t69.5 -17.5t59.5 -6.5q41 0 60.5 -24
t19.5 -56q0 -38 -23.5 -61t-66.5 -23h-12h-12h-12q1 -8 1.5 -13t0.5 -14q0 -32 -22 -66.5t-66 -64.5t-110 -48.5t-154 -18.5q-93 0 -169.5 28.5t-121.5 85.5t-45 143zM339 385q-31 0 -51.5 21.5t-20.5 51.5q0 32 20.5 52.5t51.5 20.5t53 -20.5t22 -52.5q0 -30 -22 -51.5
t-53 -21.5zM162 385q-32 0 -53 21.5t-21 51.5q0 32 21 52.5t52 20.5q30 0 52 -20.5t22 -52.5q0 -30 -21.5 -51.5t-51.5 -21.5z" />
    <glyph glyph-name="uni063F.init" unicode="&#x63f;" horiz-adv-x="379" 
d="M0 -5l10 164q57 0 87.5 9t42 26t11.5 42q0 34 -7 76.5t-18 86.5t-22 78l157 43q12 -35 25 -82t21.5 -99.5t8.5 -104.5q0 -79 -26 -127t-71.5 -72t-101.5 -32t-117 -8zM191 762q-32 0 -53 21.5t-21 50.5q0 31 21 53t53 22q31 0 52.5 -22t21.5 -53q0 -29 -21.5 -50.5
t-52.5 -21.5zM106 605q-31 0 -53.5 23t-22.5 53q0 29 22.5 52t53.5 23q29 0 50.5 -23t21.5 -52q0 -30 -21.5 -53t-50.5 -23zM279 605q-30 0 -50 23t-20 53q0 29 20 52t50 23q31 0 53 -23t22 -52q0 -30 -22 -53t-53 -23zM272 -237q-31 0 -51.5 21t-20.5 52t20.5 52t51.5 21
t53 -21t22 -52t-22 -52t-53 -21zM94 -237q-31 0 -52 21t-21 52t21 52t52 21q30 0 52 -21t22 -52t-22 -52t-52 -21z" />
    <glyph glyph-name="uni063F.medi" unicode="&#x63f;" horiz-adv-x="417" 
d="M0 -5l10 164q35 0 57.5 6.5t37 28t24 65.5t18.5 117l161 -26q-1 -14 -3.5 -32t-4.5 -38t-2 -39q0 -21 6 -37t20.5 -26t39.5 -14.5t63 -4.5q40 0 59.5 -24t19.5 -56q0 -38 -23.5 -61t-65.5 -23q-58 0 -98.5 9.5t-67 29.5t-41 50.5t-18.5 72.5h59q-18 -56 -47 -89
t-63 -48.5t-70.5 -20t-70.5 -4.5zM231 654q-32 0 -53 21.5t-21 50.5q0 31 21 53t53 22q31 0 52.5 -22t21.5 -53q0 -29 -21.5 -50.5t-52.5 -21.5zM146 497q-31 0 -53.5 23t-22.5 53q0 29 22.5 52t53.5 23q29 0 50.5 -23t21.5 -52q0 -30 -21.5 -53t-50.5 -23zM319 497
q-30 0 -50 23t-20 53q0 29 20 52t50 23q31 0 53 -23t22 -52q0 -30 -22 -53t-53 -23zM286 -237q-31 0 -51.5 21t-20.5 52t20.5 52t51.5 21t53 -21t22 -52t-22 -52t-53 -21zM108 -237q-31 0 -52 21t-21 52t21 52t52 21q30 0 52 -21t22 -52t-22 -52t-52 -21z" />
    <glyph glyph-name="uni063F.fina" unicode="&#x63f;" horiz-adv-x="746" 
d="M24 27q0 26 4 58.5t16 75.5t35 101l152 -51q-14 -39 -21.5 -66t-10 -47t-2.5 -39q0 -30 12 -53t35.5 -39t56.5 -24.5t75 -8.5q53 0 87 10t53.5 25t27.5 30t8 24q0 7 -6 14t-20 15.5t-36.5 17.5t-55.5 22l43 145q37 -15 75 -29t75 -25t69.5 -17.5t59.5 -6.5q41 0 60.5 -24
t19.5 -56q0 -38 -23.5 -61t-66.5 -23h-12h-12h-12q1 -8 1.5 -13t0.5 -14q0 -32 -22 -66.5t-66 -64.5t-110 -48.5t-154 -18.5q-93 0 -169.5 28.5t-121.5 85.5t-45 143zM246 540q-32 0 -53 21.5t-21 50.5q0 31 21 53t53 22q31 0 52.5 -22t21.5 -53q0 -29 -21.5 -50.5
t-52.5 -21.5zM161 383q-31 0 -53.5 23t-22.5 53q0 29 22.5 52t53.5 23q29 0 50.5 -23t21.5 -52q0 -30 -21.5 -53t-50.5 -23zM334 383q-30 0 -50 23t-20 53q0 29 20 52t50 23q31 0 53 -23t22 -52q0 -30 -22 -53t-53 -23z" />
    <glyph glyph-name="uni066E.init" unicode="&#x66e;" horiz-adv-x="303" 
d="M0 -5l10 164q26 0 42.5 7t25.5 24.5t9 45.5q0 34 -7.5 77t-18.5 86.5t-22 77.5l157 43q12 -35 25 -82.5t21.5 -100.5t8.5 -107q0 -63 -16.5 -105.5t-44.5 -68t-62 -39t-67.5 -18t-60.5 -4.5z" />
    <glyph glyph-name="uni066E.medi" unicode="&#x66e;" horiz-adv-x="350" 
d="M0 -5l10 164q24 0 41.5 6.5t29 28t20.5 65.5t18 117l161 -26q-1 -14 -3.5 -32t-4.5 -38t-2 -39q0 -28 10 -46.5t30 -27t50 -8.5q41 0 60.5 -24t19.5 -56q0 -38 -23.5 -61t-66.5 -23q-56 0 -96 17t-62 53t-28 92h59q-18 -56 -46 -89t-60 -48.5t-63 -20t-54 -4.5z" />
    <glyph glyph-name="uni066E.fina" unicode="&#x66e;" horiz-adv-x="1076" 
d="M436 -21l26 164q89 0 155 14t113.5 40.5t81 64.5t58.5 85l139 -63q-10 -24 -15 -39.5t-5 -27.5q0 -19 13 -32.5t35 -19.5t48 -6q41 0 60.5 -24t19.5 -56q0 -38 -23.5 -61t-65.5 -23q-60 0 -107.5 16t-75 51t-27.5 92l52 4q-31 -46 -75 -79.5t-103.5 -55.5t-135 -33
t-168.5 -11zM436 -21q-110 0 -183 20t-116 54t-61 77t-18 89q0 40 7 77.5t16.5 70.5t18.5 58l143 -37q-5 -19 -10.5 -40t-8.5 -41.5t-3 -40.5q0 -35 19.5 -63.5t71.5 -44t150 -15.5l20 -132z" />
    <glyph glyph-name="uni066F.init" unicode="&#x66f;" horiz-adv-x="493" 
d="M0 -5l10 164h68t65.5 1.5t56.5 5t41 10.5q21 10 32 27t15 43t4 61q0 55 -6 89t-17 49t-26 15q-12 0 -21 -9t-14 -26.5t-5 -40.5q0 -15 5.5 -26t15 -16.5t23.5 -5.5q16 0 34 5t39 16l4 -114q-16 -13 -35.5 -23t-41.5 -15t-48 -5q-41 0 -76 18.5t-55.5 54.5t-20.5 86
q0 46 14.5 88t41.5 75t64 52.5t83 19.5q60 0 105.5 -36.5t71 -103.5t25.5 -161q0 -90 -25 -152t-82 -95q-30 -18 -69 -28t-83.5 -15t-93.5 -6.5t-99 -1.5z" />
    <glyph glyph-name="uni066F.medi" unicode="&#x66f;" horiz-adv-x="489" 
d="M0 -5l10 164q18 0 45 1t56.5 3.5t57 7.5t46.5 12q29 11 46.5 28t25.5 37t8 40q0 17 -6 32t-16 24t-21 9q-10 0 -20.5 -8.5t-17.5 -24t-7 -37.5q0 -15 5.5 -32.5t19.5 -34.5t37 -31l-141 -60q-26 27 -44.5 53t-27 54.5t-8.5 62.5q0 44 17.5 81.5t47 65.5t67 43.5
t76.5 15.5q56 0 101 -29t71 -74t26 -95q0 -52 -17 -92.5t-45 -71t-61.5 -53.5t-67.5 -41q-26 -14 -62 -23.5t-74.5 -15.5t-72 -8.5t-54.5 -2.5zM489 -5q-45 0 -97 7.5t-100 20t-79 30.5l69 131q30 -12 69.5 -17.5t78.5 -6.5t69 -1q41 0 60.5 -24t19.5 -56q0 -37 -24 -60.5
t-66 -23.5z" />
    <glyph glyph-name="uni066F.fina" unicode="&#x66f;" horiz-adv-x="805" 
d="M339 -272q-61 0 -118 15t-101.5 47.5t-70 83t-25.5 120.5q0 28 4 58.5t16 71.5t36 100l151 -55q-14 -39 -21.5 -63.5t-10 -43t-2.5 -39.5q0 -39 19.5 -68.5t57 -46t91.5 -16.5q35 0 65.5 6.5t56.5 17.5t46 26t34 32.5t21 36.5q9 23 12 54.5t3 76.5q0 50 -5.5 80t-16 43
t-26.5 13q-10 0 -17 -6t-12 -15.5t-7.5 -21t-2.5 -22.5q0 -20 5.5 -34t24.5 -21.5t59 -7.5t110 9h100q41 0 60.5 -24t19.5 -56q0 -37 -22.5 -60.5t-67.5 -23.5h-168q-54 0 -104.5 8t-90 28t-62.5 55t-23 90q0 47 14.5 89.5t42 75.5t66 52t86.5 19q59 0 104 -36t70 -101
t25 -151q0 -58 -16 -110.5t-37 -90.5q-25 -46 -62.5 -82t-86 -61.5t-105 -38.5t-119.5 -13z" />
    <glyph glyph-name="uni0672.fina" unicode="&#x672;" horiz-adv-x="305" 
d="M305 -5q-86 0 -135 20t-70 61t-24 105l-20 498h170l20 -408q3 -51 10 -75t21.5 -30.5t37.5 -6.5q41 0 60.5 -24t19.5 -56q0 -38 -23.5 -61t-66.5 -23zM12 748l-58 42q11 25 32 37t38 12q19 0 36 -10.5t28 -10.5q14 0 26 1t20 5l-14 -24q-28 10 -46 35.5t-18 57.5
q0 42 30 68.5t76 26.5q15 0 29 -2t24 -6l-8 -66q-9 2 -17 4t-19 2q-21 0 -31.5 -7.5t-10.5 -22.5q0 -17 11.5 -30.5t27.5 -20.5t27 -7l-34 -3q24 6 42.5 14t35.5 15l22 -64q-8 -4 -26.5 -11.5t-42 -15t-44.5 -13t-34 -5.5q-28 0 -44.5 10.5t-26.5 10.5q-8 0 -15 -5t-16 -17z
" />
    <glyph glyph-name="uni0673.fina" unicode="&#x673;" horiz-adv-x="309" 
d="M309 -5q-86 0 -135 20t-70.5 61t-24.5 105l-23 579h170l23 -489q3 -51 10.5 -75t22 -30.5t37.5 -6.5q40 0 59.5 -24t19.5 -56q0 -38 -23.5 -61t-65.5 -23zM41 -313l-59 42q11 26 32 37.5t38 11.5q19 0 36.5 -10t27.5 -10q15 0 26.5 0.5t19.5 4.5l-14 -24q-28 10 -46 35.5
t-18 57.5q0 42 30 68.5t76 26.5q16 0 29.5 -2t23.5 -6l-8 -66q-9 2 -17 4t-19 2q-20 0 -31 -7.5t-11 -22.5q0 -17 12 -30.5t28 -20.5t26 -7l-34 -3q25 6 43 14t35 15l22 -64q-7 -4 -26 -11.5t-42.5 -15t-44.5 -13t-33 -5.5q-29 0 -45.5 10.5t-25.5 10.5t-16 -5t-15 -17z" />
    <glyph glyph-name="uni0675.fina" unicode="&#x675;" horiz-adv-x="522" 
d="M522 -5h-212q-84 0 -133.5 20t-71.5 61.5t-26 104.5l-23 579h170l23 -489q3 -47 10 -71.5t21 -32.5t38 -8h214q40 0 60 -24t20 -56q0 -38 -24 -61t-66 -23zM299 578l-18 74q41 6 59.5 10t38.5 9l-18 -31q-27 9 -50.5 36t-23.5 62q0 39 17 62t43.5 33.5t53.5 10.5
q17 0 31 -2t25 -6l-8 -70l-20 4t-23 2q-19 0 -30 -9t-11 -23q0 -19 12 -32.5t28 -21t27 -8.5l-45 -4q27 7 51 14.5t46 15.5l22 -71q-26 -9 -60 -19.5t-71.5 -19.5t-75.5 -16z" />
    <glyph glyph-name="uni0676.fina" unicode="&#x676;" horiz-adv-x="502" 
d="M43 -230l-33 148q66 4 118.5 19t90 41t57.5 62.5t20 84.5q0 76 -13 119.5t-40 43.5q-13 0 -22.5 -12.5t-14.5 -32t-5 -38.5q0 -17 6 -28.5t21 -17.5t43 -6.5t73 6.5h168q40 0 59.5 -24t19.5 -56q0 -39 -21 -61.5t-68 -22.5h-211q-83 0 -138 22t-82.5 62.5t-27.5 95.5
q0 45 15 90.5t42.5 85t65.5 62.5t83 23q65 0 110.5 -41.5t69.5 -109t24 -146.5q0 -105 -50 -182.5t-142 -124.5t-218 -62zM348 445l-17 70q38 6 55.5 9.5t36.5 8.5l-18 -30q-25 9 -46.5 34.5t-21.5 58.5q0 36 16 57.5t40 31.5t50 10q17 0 29.5 -2t23.5 -6l-8 -66
q-9 2 -18.5 4t-21.5 2q-18 0 -28 -8t-10 -22q0 -18 11.5 -30.5t26.5 -19.5t25 -8l-42 -4q25 7 47.5 14t42.5 15l21 -67q-25 -8 -56.5 -18t-67 -18.5t-70.5 -15.5z" />
    <glyph glyph-name="uni0677.fina" unicode="&#x677;" horiz-adv-x="504" 
d="M45 -230l-33 148q66 4 118.5 19t90 41t57.5 62.5t20 84.5q0 76 -13 119.5t-40 43.5q-13 0 -22.5 -12.5t-14.5 -32t-5 -38.5q0 -17 6 -28.5t21 -17.5t43 -6.5t73 6.5h168q40 0 59.5 -24t19.5 -56q0 -39 -21 -61.5t-68 -22.5h-211q-83 0 -138 22t-82.5 62.5t-27.5 95.5
q0 45 15 90.5t42.5 85t65.5 62.5t83 23q65 0 110.5 -41.5t69.5 -109t24 -146.5q0 -105 -50 -182.5t-142 -124.5t-218 -62zM319 445l-17 70q38 6 55.5 9.5t36.5 8.5l-18 -30q-25 9 -46.5 34.5t-21.5 58.5q0 36 16 57.5t40 31.5t50 10q17 0 29.5 -2t23.5 -6l-8 -66
q-9 2 -18.5 4t-21.5 2q-18 0 -28 -8t-10 -22q0 -18 11.5 -30.5t26.5 -19.5t25 -8l-42 -4q25 7 47.5 14t42.5 15l21 -67q-25 -8 -56.5 -18t-67 -18.5t-70.5 -15.5zM26 437l-12 64q58 1 101 16t66.5 36.5t23.5 42.5q0 12 -7.5 22.5t-21.5 10.5q-13 0 -21.5 -9t-8.5 -23
q0 -18 13.5 -30t31.5 -22l-47 -39q-27 13 -47 37t-20 59q0 42 28.5 67.5t71.5 25.5q48 0 72 -29.5t24 -68.5q0 -43 -28.5 -77t-84 -56t-134.5 -27z" />
    <glyph glyph-name="uni0678.init" unicode="&#x678;" horiz-adv-x="390" 
d="M0 -5l10 164q26 0 42.5 7t25.5 24.5t9 45.5q0 34 -7.5 77t-18.5 86.5t-22 77.5l157 43q12 -35 25 -82.5t21.5 -100.5t8.5 -107q0 -63 -16.5 -105.5t-44.5 -68t-62 -39t-67.5 -18t-60.5 -4.5zM183 578l-18 74q41 6 59.5 10t38.5 9l-19 -31q-26 9 -49.5 36t-23.5 62
q0 39 17 62t43.5 33.5t53.5 10.5q17 0 31 -2t25 -6l-8 -70q-10 2 -20.5 4t-22.5 2q-19 0 -30 -9t-11 -23q0 -19 12 -32.5t28 -21t27 -8.5l-45 -4q27 7 51 14.5t46 15.5l22 -71q-26 -9 -60 -19.5t-71.5 -19.5t-75.5 -16z" />
    <glyph glyph-name="uni0678.medi" unicode="&#x678;" horiz-adv-x="350" 
d="M0 -5l10 164q24 0 41.5 6.5t29 28t20.5 65.5t18 117l161 -26q-1 -14 -3.5 -32t-4.5 -38t-2 -39q0 -28 10 -46.5t30 -27t50 -8.5q41 0 60.5 -24t19.5 -56q0 -38 -23.5 -61t-66.5 -23q-56 0 -96 17t-62 53t-28 92h59q-18 -56 -46 -89t-60 -48.5t-63 -20t-54 -4.5zM163 409
l-18 74q41 6 59.5 10t38.5 9l-19 -31q-26 9 -49.5 36t-23.5 62q0 39 17 62t43.5 33.5t53.5 10.5q17 0 31 -2t25 -6l-8 -70q-10 2 -20.5 4t-22.5 2q-19 0 -30 -9t-11 -23q0 -19 12 -32.5t28 -21t27 -8.5l-45 -4q27 7 51 14.5t46 15.5l22 -71q-26 -9 -60 -19.5t-71.5 -19.5
t-75.5 -16z" />
    <glyph glyph-name="uni0678.fina" unicode="&#x678;" horiz-adv-x="746" 
d="M24 27q0 26 4 58.5t16 75.5t35 101l152 -51q-14 -39 -21.5 -66t-10 -47t-2.5 -39q0 -30 12 -53t35.5 -39t56.5 -24.5t75 -8.5q53 0 87 10t53.5 25t27.5 30t8 24q0 7 -6 14t-20 15.5t-36.5 17.5t-55.5 22l43 145q37 -15 75 -29t75 -25t69.5 -17.5t59.5 -6.5q41 0 60.5 -24
t19.5 -56q0 -38 -23.5 -61t-66.5 -23h-12h-12h-12q1 -8 1.5 -13t0.5 -14q0 -32 -22 -66.5t-66 -64.5t-110 -48.5t-154 -18.5q-93 0 -169.5 28.5t-121.5 85.5t-45 143zM523 255l-18 74q41 6 59.5 10t38.5 9l-19 -31q-26 9 -49.5 36t-23.5 62q0 39 17 62t43.5 33.5t53.5 10.5
q17 0 31 -2t25 -6l-8 -70q-10 2 -20.5 4t-22.5 2q-19 0 -30 -9t-11 -23q0 -19 12 -32.5t28 -21t27 -8.5l-45 -4q27 7 51 14.5t46 15.5l22 -71q-26 -9 -60 -19.5t-71.5 -19.5t-75.5 -16z" />
    <glyph glyph-name="uni067C.init" unicode="&#x67c;" horiz-adv-x="379" 
d="M0 -5l10 164q57 0 87.5 9t42 26t11.5 42q0 34 -7 76.5t-18 86.5t-22 78l157 43q12 -35 25 -82t21.5 -99.5t8.5 -104.5q0 -79 -26 -127t-71.5 -72t-101.5 -32t-117 -8zM208 -102q-39 0 -66 27t-27 67q0 39 27 66t67 27q38 0 65.5 -27t27.5 -67q0 -39 -27.5 -66t-66.5 -27z
M209 -36q11 0 20 7.5t9 20.5q0 12 -8.5 20t-21.5 8q-11 0 -20 -8t-9 -21q0 -11 9 -19t21 -8zM278 607q-31 0 -51.5 21.5t-20.5 51.5q0 32 20.5 52.5t51.5 20.5t53 -20.5t22 -52.5q0 -30 -22 -51.5t-53 -21.5zM100 607q-31 0 -52 21.5t-21 51.5q0 32 21 52.5t52 20.5
q30 0 52 -20.5t22 -52.5q0 -30 -22 -51.5t-52 -21.5z" />
    <glyph glyph-name="uni067C.medi" unicode="&#x67c;" horiz-adv-x="350" 
d="M109 -110q-39 0 -66 27.5t-27 66.5t27 66t66 27t66.5 -27t27.5 -66t-27.5 -66.5t-66.5 -27.5zM109 -44q12 0 21 7.5t9 20.5t-9 21t-21 8t-21 -8.5t-9 -20.5t9.5 -20t20.5 -8zM0 -5l10 164q24 0 41.5 6.5t29 28t20.5 65.5t18 117l161 -26q-1 -14 -3.5 -32t-4.5 -38t-2 -39
q0 -28 10 -46.5t30 -27t50 -8.5q41 0 60.5 -24t19.5 -56q0 -38 -23.5 -61t-66.5 -23q-56 0 -96 17t-62 53t-28 92h59q-18 -56 -46 -89t-60 -48.5t-63 -20t-54 -4.5zM283 499q-31 0 -51.5 21.5t-20.5 51.5q0 32 20.5 52.5t51.5 20.5t53 -20.5t22 -52.5q0 -30 -22 -51.5
t-53 -21.5zM105 499q-31 0 -52 21.5t-21 51.5q0 32 21 52.5t52 20.5q30 0 52 -20.5t22 -52.5q0 -30 -22 -51.5t-52 -21.5z" />
    <glyph glyph-name="uni067C.fina" unicode="&#x67c;" horiz-adv-x="1076" 
d="M561 -139q-39 0 -66.5 27.5t-27.5 66.5t27.5 66t66.5 27t66.5 -27t27.5 -66t-27.5 -66.5t-66.5 -27.5zM561 -73q12 0 21 7.5t9 20.5t-9 21t-21 8t-21 -8.5t-9 -20.5t9.5 -20t20.5 -8zM436 -21l26 164q89 0 155 14t113.5 40.5t81 64.5t58.5 85l139 -63q-10 -24 -15 -39.5
t-5 -27.5q0 -19 13 -32.5t35 -19.5t48 -6q41 0 60.5 -24t19.5 -56q0 -38 -23.5 -61t-65.5 -23q-60 0 -107.5 16t-75 51t-27.5 92l52 4q-31 -46 -75 -79.5t-103.5 -55.5t-135 -33t-168.5 -11zM436 -21q-110 0 -183 20t-116 54t-61 77t-18 89q0 40 7 77.5t16.5 70.5t18.5 58
l143 -37q-5 -19 -10.5 -40t-8.5 -41.5t-3 -40.5q0 -35 19.5 -63.5t71.5 -44t150 -15.5l20 -132zM623 461q-31 0 -51.5 21.5t-20.5 51.5q0 32 20.5 52.5t51.5 20.5t53 -20.5t22 -52.5q0 -30 -22 -51.5t-53 -21.5zM445 461q-31 0 -52 21.5t-21 51.5q0 32 21 52.5t52 20.5
q30 0 52 -20.5t22 -52.5q0 -30 -22 -51.5t-52 -21.5z" />
    <glyph glyph-name="uni067D.init" unicode="&#x67d;" horiz-adv-x="379" 
d="M0 -5l10 164q57 0 87.5 9t42 26t11.5 42q0 34 -7 76.5t-18 86.5t-22 78l157 43q12 -35 25 -82t21.5 -99.5t8.5 -104.5q0 -79 -26 -127t-71.5 -72t-101.5 -32t-117 -8zM186 605q-31 0 -52 21.5t-21 51.5q0 31 21 53t52 22q30 0 51.5 -22t21.5 -53q0 -30 -21.5 -51.5
t-51.5 -21.5zM100 761q-31 0 -52 21t-21 52t21 53t52 22q30 0 51 -22t21 -53t-21 -52t-51 -21zM277 761q-30 0 -51 21t-21 52t21 53t51 22q32 0 52.5 -22t20.5 -53t-20.5 -52t-52.5 -21z" />
    <glyph glyph-name="uni067D.medi" unicode="&#x67d;" horiz-adv-x="417" 
d="M0 -5l10 164q35 0 57.5 6.5t37 28t24 65.5t18.5 117l161 -26q-1 -14 -3.5 -32t-4.5 -38t-2 -39q0 -21 6 -37t20.5 -26t39.5 -14.5t63 -4.5q40 0 59.5 -24t19.5 -56q0 -38 -23.5 -61t-65.5 -23q-58 0 -98.5 9.5t-67 29.5t-41 50.5t-18.5 72.5h59q-18 -56 -47 -89
t-63 -48.5t-70.5 -20t-70.5 -4.5zM226 497q-31 0 -52 21.5t-21 51.5q0 31 21 53t52 22q30 0 51.5 -22t21.5 -53q0 -30 -21.5 -51.5t-51.5 -21.5zM140 653q-31 0 -52 21t-21 52t21 53t52 22q30 0 51 -22t21 -53t-21 -52t-51 -21zM317 653q-30 0 -51 21t-21 52t21 53t51 22
q32 0 52.5 -22t20.5 -53t-20.5 -52t-52.5 -21z" />
    <glyph glyph-name="uni067D.fina" unicode="&#x67d;" horiz-adv-x="1076" 
d="M436 -21l26 164q89 0 155 14t113.5 40.5t81 64.5t58.5 85l139 -63q-10 -24 -15 -39.5t-5 -27.5q0 -19 13 -32.5t35 -19.5t48 -6q41 0 60.5 -24t19.5 -56q0 -38 -23.5 -61t-65.5 -23q-60 0 -107.5 16t-75 51t-27.5 92l52 4q-31 -46 -75 -79.5t-103.5 -55.5t-135 -33
t-168.5 -11zM436 -21q-110 0 -183 20t-116 54t-61 77t-18 89q0 40 7 77.5t16.5 70.5t18.5 58l143 -37q-5 -19 -10.5 -40t-8.5 -41.5t-3 -40.5q0 -35 19.5 -63.5t71.5 -44t150 -15.5l20 -132zM532 459q-31 0 -52 22t-21 51q0 31 21 53t52 22q30 0 51.5 -22t21.5 -52
q0 -31 -21.5 -52.5t-51.5 -21.5zM446 615q-31 0 -52 21t-21 52t21 53t52 22q30 0 51 -22t21 -53t-21 -52t-51 -21zM623 615q-30 0 -51 21t-21 52t21 53t51 22q32 0 52.5 -22t20.5 -53t-20.5 -52t-52.5 -21z" />
    <glyph glyph-name="uni0681.init" unicode="&#x681;" horiz-adv-x="620" 
d="M0 -5l10 164q46 0 96.5 6t101 19t97 34.5t86.5 50.5q-33 13 -65.5 21.5t-65 12.5t-69.5 4q-16 0 -34.5 -1t-38 -3.5t-37.5 -6.5l-26 172q30 8 61.5 11.5t64.5 3.5q57 0 103.5 -12t83.5 -29t68 -34t58.5 -29t53.5 -12h33l21 -148q-35 -5 -67.5 -22.5t-66.5 -43.5
t-75.5 -53t-96.5 -51t-127 -39t-169 -15zM138 575l-17 70q38 6 55.5 9.5t36.5 8.5l-18 -30q-25 9 -46.5 34.5t-21.5 58.5q0 36 16 57.5t40 31.5t50 10q17 0 29.5 -2t23.5 -6l-8 -66q-9 2 -18.5 4t-21.5 2q-18 0 -28 -8t-10 -22q0 -18 11.5 -30.5t26.5 -19.5t25 -8l-42 -4
q25 7 47.5 14t42.5 15l21 -67q-25 -8 -56.5 -18t-67 -18.5t-70.5 -15.5z" />
    <glyph glyph-name="uni0681.medi" unicode="&#x681;" horiz-adv-x="633" 
d="M633 -5q-36 0 -68.5 8.5t-61 27.5t-51 51t-37.5 79l92 72q13 -29 34 -45.5t47 -22.5t55 -6q40 0 59.5 -24t19.5 -56q0 -38 -23.5 -61t-65.5 -23zM0 -5l10 164q46 0 96.5 6t101 19t97 34.5t86.5 50.5q-33 13 -65.5 21.5t-65 12.5t-69.5 4q-16 0 -34.5 -1t-38 -3.5
t-37.5 -6.5l-26 172q30 8 61.5 11.5t64.5 3.5q57 0 103.5 -12t83.5 -29t68 -34t58.5 -29t53.5 -12h33l21 -148q-35 -5 -67.5 -22.5t-66.5 -43.5t-75.5 -53t-96.5 -51t-127 -39t-169 -15zM109 581l-17 70q38 6 55.5 9.5t36.5 8.5l-18 -30q-25 9 -46.5 34.5t-21.5 58.5
q0 36 16 57.5t40 31.5t50 10q17 0 29.5 -2t23.5 -6l-8 -66q-9 2 -18.5 4t-21.5 2q-18 0 -28 -8t-10 -22q0 -18 11.5 -30.5t26.5 -19.5t25 -8l-42 -4q25 7 47.5 14t42.5 15l21 -67q-25 -8 -56.5 -18t-67 -18.5t-70.5 -15.5z" />
    <glyph glyph-name="uni0681.fina" unicode="&#x681;" horiz-adv-x="653" 
d="M653 -5q-44 0 -84.5 9.5t-73.5 34t-56.5 69.5t-34.5 116l118 59q8 -41 22 -66.5t32 -37.5t40.5 -16t46.5 -4q40 0 59.5 -24t19.5 -56q0 -38 -23.5 -61t-65.5 -23zM369 -394q-71 0 -134 19.5t-110.5 58.5t-74.5 97t-27 136q0 75 24 137.5t65 112t94 87.5t111.5 65
t115.5 43l11 -41q-22 8 -52 17t-64.5 17.5t-70 13.5t-68.5 5q-28 0 -59.5 -4t-58.5 -11l-25 171q31 9 62.5 14.5t59.5 5.5q51 0 97.5 -10.5t87 -26t76 -31t65 -26t51.5 -10.5h31l20 -188q-38 -3 -82.5 -14t-89.5 -29.5t-85.5 -44.5t-72.5 -59t-50.5 -73t-18.5 -88
q0 -46 15.5 -78t42 -52.5t60 -30.5t70.5 -10q38 0 82.5 7t105.5 28l50 -152q-82 -35 -144 -45.5t-110 -10.5zM197 629l-17 70q38 6 55.5 9.5t36.5 8.5l-18 -30q-25 9 -46.5 34.5t-21.5 58.5q0 36 16 57.5t40 31.5t50 10q17 0 29.5 -2t23.5 -6l-8 -66q-9 2 -18.5 4t-21.5 2
q-18 0 -28 -8t-10 -22q0 -18 11.5 -30.5t26.5 -19.5t25 -8l-42 -4q25 7 47.5 14t42.5 15l21 -67q-25 -8 -56.5 -18t-67 -18.5t-70.5 -15.5z" />
    <glyph glyph-name="uni0682.init" unicode="&#x682;" horiz-adv-x="620" 
d="M0 -5l10 164q46 0 96.5 6t101 19t97 34.5t86.5 50.5q-33 13 -65.5 21.5t-65 12.5t-69.5 4q-16 0 -34.5 -1t-38 -3.5t-37.5 -6.5l-26 172q30 8 61.5 11.5t64.5 3.5q57 0 103.5 -12t83.5 -29t68 -34t58.5 -29t53.5 -12h33l21 -148q-35 -5 -67.5 -22.5t-66.5 -43.5
t-75.5 -53t-96.5 -51t-127 -39t-169 -15zM185 594q-31 0 -51.5 21t-20.5 51t21 51.5t51 21.5q29 0 50 -21.5t21 -51.5t-21 -51t-50 -21zM185 771q-31 0 -51.5 20.5t-20.5 50.5t21 52t51 22q29 0 50 -22t21 -51q0 -31 -21 -51.5t-50 -20.5z" />
    <glyph glyph-name="uni0682.medi" unicode="&#x682;" horiz-adv-x="633" 
d="M633 -5q-36 0 -68.5 8.5t-61 27.5t-51 51t-37.5 79l92 72q13 -29 34 -45.5t47 -22.5t55 -6q40 0 59.5 -24t19.5 -56q0 -38 -23.5 -61t-65.5 -23zM0 -5l10 164q46 0 96.5 6t101 19t97 34.5t86.5 50.5q-33 13 -65.5 21.5t-65 12.5t-69.5 4q-16 0 -34.5 -1t-38 -3.5
t-37.5 -6.5l-26 172q30 8 61.5 11.5t64.5 3.5q57 0 103.5 -12t83.5 -29t68 -34t58.5 -29t53.5 -12h33l21 -148q-35 -5 -67.5 -22.5t-66.5 -43.5t-75.5 -53t-96.5 -51t-127 -39t-169 -15zM182 600q-31 0 -51.5 21t-20.5 51t21 51.5t51 21.5q29 0 50 -21.5t21 -51.5t-21 -51
t-50 -21zM182 777q-31 0 -51.5 20.5t-20.5 50.5t21 52t51 22q29 0 50 -22t21 -51q0 -31 -21 -51.5t-50 -20.5z" />
    <glyph glyph-name="uni0682.fina" unicode="&#x682;" horiz-adv-x="653" 
d="M653 -5q-44 0 -84.5 9.5t-73.5 34t-56.5 69.5t-34.5 116l118 59q8 -41 22 -66.5t32 -37.5t40.5 -16t46.5 -4q40 0 59.5 -24t19.5 -56q0 -38 -23.5 -61t-65.5 -23zM369 -394q-71 0 -134 19.5t-110.5 58.5t-74.5 97t-27 136q0 75 24 137.5t65 112t94 87.5t111.5 65
t115.5 43l11 -41q-22 8 -52 17t-64.5 17.5t-70 13.5t-68.5 5q-28 0 -59.5 -4t-58.5 -11l-25 171q31 9 62.5 14.5t59.5 5.5q51 0 97.5 -10.5t87 -26t76 -31t65 -26t51.5 -10.5h31l20 -188q-38 -3 -82.5 -14t-89.5 -29.5t-85.5 -44.5t-72.5 -59t-50.5 -73t-18.5 -88
q0 -46 15.5 -78t42 -52.5t60 -30.5t70.5 -10q38 0 82.5 7t105.5 28l50 -152q-82 -35 -144 -45.5t-110 -10.5zM310 647q-31 0 -51.5 21t-20.5 51t21 51.5t51 21.5q29 0 50 -21.5t21 -51.5t-21 -51t-50 -21zM310 824q-31 0 -51.5 20.5t-20.5 50.5t21 52t51 22q29 0 50 -22
t21 -51q0 -31 -21 -51.5t-50 -20.5z" />
    <glyph glyph-name="uni0685.init" unicode="&#x685;" horiz-adv-x="620" 
d="M0 -5l10 164q46 0 96.5 6t101 19t97 34.5t86.5 50.5q-33 13 -65.5 21.5t-65 12.5t-69.5 4q-16 0 -34.5 -1t-38 -3.5t-37.5 -6.5l-26 172q30 8 61.5 11.5t64.5 3.5q57 0 103.5 -12t83.5 -29t68 -34t58.5 -29t53.5 -12h33l21 -148q-35 -5 -67.5 -22.5t-66.5 -43.5
t-75.5 -53t-96.5 -51t-127 -39t-169 -15zM185 747q-32 0 -53 21.5t-21 50.5q0 31 21 53t53 22q31 0 52.5 -22t21.5 -53q0 -29 -21.5 -50.5t-52.5 -21.5zM100 590q-31 0 -53.5 23t-22.5 53q0 29 22.5 52t53.5 23q29 0 50.5 -23t21.5 -52q0 -30 -21.5 -53t-50.5 -23zM273 590
q-30 0 -50 23t-20 53q0 29 20 52t50 23q31 0 53 -23t22 -52q0 -30 -22 -53t-53 -23z" />
    <glyph glyph-name="uni0685.medi" unicode="&#x685;" horiz-adv-x="633" 
d="M633 -5q-36 0 -68.5 8.5t-61 27.5t-51 51t-37.5 79l92 72q13 -29 34 -45.5t47 -22.5t55 -6q40 0 59.5 -24t19.5 -56q0 -38 -23.5 -61t-65.5 -23zM0 -5l10 164q46 0 96.5 6t101 19t97 34.5t86.5 50.5q-33 13 -65.5 21.5t-65 12.5t-69.5 4q-16 0 -34.5 -1t-38 -3.5
t-37.5 -6.5l-26 172q30 8 61.5 11.5t64.5 3.5q57 0 103.5 -12t83.5 -29t68 -34t58.5 -29t53.5 -12h33l21 -148q-35 -5 -67.5 -22.5t-66.5 -43.5t-75.5 -53t-96.5 -51t-127 -39t-169 -15zM181 753q-32 0 -53 21.5t-21 50.5q0 31 21 53t53 22q31 0 52.5 -22t21.5 -53
q0 -29 -21.5 -50.5t-52.5 -21.5zM96 596q-31 0 -53.5 23t-22.5 53q0 29 22.5 52t53.5 23q29 0 50.5 -23t21.5 -52q0 -30 -21.5 -53t-50.5 -23zM269 596q-30 0 -50 23t-20 53q0 29 20 52t50 23q31 0 53 -23t22 -52q0 -30 -22 -53t-53 -23z" />
    <glyph glyph-name="uni0685.fina" unicode="&#x685;" horiz-adv-x="653" 
d="M653 -5q-44 0 -84.5 9.5t-73.5 34t-56.5 69.5t-34.5 116l118 59q8 -41 22 -66.5t32 -37.5t40.5 -16t46.5 -4q40 0 59.5 -24t19.5 -56q0 -38 -23.5 -61t-65.5 -23zM369 -394q-71 0 -134 19.5t-110.5 58.5t-74.5 97t-27 136q0 75 24 137.5t65 112t94 87.5t111.5 65
t115.5 43l11 -41q-22 8 -52 17t-64.5 17.5t-70 13.5t-68.5 5q-28 0 -59.5 -4t-58.5 -11l-25 171q31 9 62.5 14.5t59.5 5.5q51 0 97.5 -10.5t87 -26t76 -31t65 -26t51.5 -10.5h31l20 -188q-38 -3 -82.5 -14t-89.5 -29.5t-85.5 -44.5t-72.5 -59t-50.5 -73t-18.5 -88
q0 -46 15.5 -78t42 -52.5t60 -30.5t70.5 -10q38 0 82.5 7t105.5 28l50 -152q-82 -35 -144 -45.5t-110 -10.5zM309 800q-32 0 -53 21.5t-21 50.5q0 31 21 53t53 22q31 0 52.5 -22t21.5 -53q0 -29 -21.5 -50.5t-52.5 -21.5zM224 643q-31 0 -53.5 23t-22.5 53q0 29 22.5 52
t53.5 23q29 0 50.5 -23t21.5 -52q0 -30 -21.5 -53t-50.5 -23zM397 643q-30 0 -50 23t-20 53q0 29 20 52t50 23q31 0 53 -23t22 -52q0 -30 -22 -53t-53 -23z" />
    <glyph glyph-name="uni0689.fina" unicode="&#x689;" horiz-adv-x="529" 
d="M209 -127q-40 0 -67 27t-27 66t27 66.5t67 27.5q39 0 66 -27.5t27 -66.5t-27 -66t-66 -27zM209 -62q11 0 20 8t9 20q0 13 -9 21t-20 8q-12 0 -21 -8.5t-9 -20.5t9 -20t21 -8zM186 167q26 0 41.5 5.5t23.5 18t8 33.5q0 13 -4.5 32t-16.5 48t-34.5 70.5t-58.5 97.5l157 92
q39 -55 67.5 -107.5t47 -100t27.5 -87.5q12 -44 25 -68t30.5 -33t39.5 -9q40 0 59.5 -24t19.5 -56q0 -38 -23.5 -61t-65.5 -23q-40 0 -77 12t-67 38.5t-51 68.5l70 7q-10 -37 -33.5 -65.5t-64 -44.5t-103.5 -16q-25 0 -56.5 3t-62.5 10.5t-58 20.5l38 159q29 -9 61.5 -15
t60.5 -6z" />
    <glyph glyph-name="uni068A.fina" unicode="&#x68a;" horiz-adv-x="529" 
d="M186 167q26 0 41.5 5.5t23.5 18t8 33.5q0 13 -4.5 32t-16.5 48t-34.5 70.5t-58.5 97.5l157 92q39 -55 67.5 -107.5t47 -100t27.5 -87.5q12 -44 25 -68t30.5 -33t39.5 -9q40 0 59.5 -24t19.5 -56q0 -38 -23.5 -61t-65.5 -23q-40 0 -77 12t-67 38.5t-51 68.5l70 7
q-10 -37 -33.5 -65.5t-64 -44.5t-103.5 -16q-25 0 -56.5 3t-62.5 10.5t-58 20.5l38 159q29 -9 61.5 -15t60.5 -6zM223 -251q-34 0 -57 23.5t-23 55.5q0 34 23 58t57 24q33 0 56 -24t23 -58q0 -32 -23 -55.5t-56 -23.5z" />
    <glyph glyph-name="uni068B.fina" unicode="&#x68b;" horiz-adv-x="529" 
d="M186 167q26 0 41.5 5.5t23.5 18t8 33.5q0 13 -4.5 32t-16.5 48t-34.5 70.5t-58.5 97.5l157 92q39 -55 67.5 -107.5t47 -100t27.5 -87.5q12 -44 25 -68t30.5 -33t39.5 -9q40 0 59.5 -24t19.5 -56q0 -38 -23.5 -61t-65.5 -23q-40 0 -77 12t-67 38.5t-51 68.5l70 7
q-10 -37 -33.5 -65.5t-64 -44.5t-103.5 -16q-25 0 -56.5 3t-62.5 10.5t-58 20.5l38 159q29 -9 61.5 -15t60.5 -6zM237 666q-17 0 -40.5 1.5t-44.5 3t-31 2.5l4 69q19 -3 49 -5.5t56 -2.5q40 0 60.5 6.5t28 15t7.5 17.5t-7 16.5t-19 7.5q-14 0 -30.5 -12t-30 -28.5
t-21.5 -31.5l-67 12q17 39 43.5 68.5t56.5 45.5t59 16q40 0 63.5 -26.5t23.5 -65.5q0 -22 -12 -47.5t-46 -43.5t-102 -18zM165 744l-6 180h69l7 -161zM202 -251q-34 0 -57 23.5t-23 55.5q0 34 23 58t57 24q33 0 56 -24t23 -58q0 -32 -23 -55.5t-56 -23.5z" />
    <glyph glyph-name="uni068F.fina" unicode="&#x68f;" horiz-adv-x="529" 
d="M186 167q26 0 41.5 5.5t23.5 18t8 33.5q0 13 -4.5 32t-16.5 48t-34.5 70.5t-58.5 97.5l157 92q39 -55 67.5 -107.5t47 -100t27.5 -87.5q12 -44 25 -68t30.5 -33t39.5 -9q40 0 59.5 -24t19.5 -56q0 -38 -23.5 -61t-65.5 -23q-40 0 -77 12t-67 38.5t-51 68.5l70 7
q-10 -37 -33.5 -65.5t-64 -44.5t-103.5 -16q-25 0 -56.5 3t-62.5 10.5t-58 20.5l38 159q29 -9 61.5 -15t60.5 -6zM247 662q-31 0 -52 22t-21 51q0 31 21 53t52 22q30 0 51.5 -22t21.5 -52q0 -31 -21.5 -52.5t-51.5 -21.5zM161 818q-31 0 -52 21t-21 52t21 53t52 22
q30 0 51 -22t21 -53t-21 -52t-51 -21zM338 818q-30 0 -51 21t-21 52t21 53t51 22q32 0 52.5 -22t20.5 -53t-20.5 -52t-52.5 -21z" />
    <glyph glyph-name="uni0690.fina" unicode="&#x690;" horiz-adv-x="529" 
d="M186 167q26 0 41.5 5.5t23.5 18t8 33.5q0 13 -4.5 32t-16.5 48t-34.5 70.5t-58.5 97.5l157 92q39 -55 67.5 -107.5t47 -100t27.5 -87.5q12 -44 25 -68t30.5 -33t39.5 -9q40 0 59.5 -24t19.5 -56q0 -38 -23.5 -61t-65.5 -23q-40 0 -77 12t-67 38.5t-51 68.5l70 7
q-10 -37 -33.5 -65.5t-64 -44.5t-103.5 -16q-25 0 -56.5 3t-62.5 10.5t-58 20.5l38 159q29 -9 61.5 -15t60.5 -6zM109 785q-27 0 -46 19.5t-19 45.5q0 28 19 48t46 20t46 -20t19 -47q0 -28 -19 -47t-46 -19zM110 633q-27 0 -46 19t-19 46q0 28 19 48t46 20t46 -20t19 -47
q0 -28 -19 -47t-46 -19zM266 785q-27 0 -46 19.5t-19 45.5q0 28 19 48t46 20t46 -20t19 -47q0 -28 -19 -47t-46 -19zM263 633q-27 0 -46 19t-19 46q0 28 19 48t46 20t46 -20t19 -47q0 -28 -19 -47t-46 -19z" />
    <glyph glyph-name="uni0692.fina" unicode="&#x692;" horiz-adv-x="409" 
d="M37 -230l-69 146q55 20 92 46.5t59.5 56t32.5 59.5t10 56q0 43 -22 95t-58 112l154 76q18 -30 32.5 -61.5t26.5 -61t19 -54.5q14 -45 39.5 -63t65.5 -18t59.5 -24t19.5 -56q0 -38 -23.5 -61t-65.5 -23q-33 0 -61 11.5t-46.5 34.5t-23.5 56l51 41q0 -48 -16.5 -102
t-51 -105t-90 -93.5t-134.5 -67.5zM113 521q-6 16 -16 39.5t-21.5 50.5t-22 51.5t-18.5 41.5l62 27q5 -13 14 -35t19.5 -46.5t20.5 -47t17 -35.5l20 -40zM188 527l-54 19q5 16 14 43t18.5 56t17.5 53.5t12 35.5l62 -20q-4 -13 -13.5 -38t-20.5 -54t-20.5 -54.5t-15.5 -40.5z
" />
    <glyph glyph-name="uni0693.fina" unicode="&#x693;" horiz-adv-x="409" 
d="M258 -218q-39 0 -66.5 27.5t-27.5 66.5t27.5 66.5t66.5 27.5t66.5 -27.5t27.5 -66.5t-27.5 -66.5t-66.5 -27.5zM258 -152q12 0 21 8t9 20q0 13 -9 21t-21 8t-21 -8.5t-9 -20.5t9 -20t21 -8zM37 -230l-69 146q55 20 92 46.5t59.5 56t32.5 59.5t10 56q0 43 -22 95t-58 112
l154 76q18 -30 32.5 -61.5t26.5 -61t19 -54.5q14 -45 39.5 -63t65.5 -18t59.5 -24t19.5 -56q0 -38 -23.5 -61t-65.5 -23q-33 0 -61 11.5t-46.5 34.5t-23.5 56l51 41q0 -48 -16.5 -102t-51 -105t-90 -93.5t-134.5 -67.5z" />
    <glyph glyph-name="uni0694.fina" unicode="&#x694;" horiz-adv-x="409" 
d="M37 -230l-69 146q55 20 92 46.5t59.5 56t32.5 59.5t10 56q0 43 -22 95t-58 112l154 76q18 -30 32.5 -61.5t26.5 -61t19 -54.5q14 -45 39.5 -63t65.5 -18t59.5 -24t19.5 -56q0 -38 -23.5 -61t-65.5 -23q-33 0 -61 11.5t-46.5 34.5t-23.5 56l51 41q0 -48 -16.5 -102
t-51 -105t-90 -93.5t-134.5 -67.5zM208 -460q-34 0 -57 23.5t-23 55.5q0 34 23 58t57 24q33 0 56 -24t23 -58q0 -32 -23 -55.5t-56 -23.5z" />
    <glyph glyph-name="uni0695.fina" unicode="&#x695;" horiz-adv-x="409" 
d="M7 8q-8 14 -20.5 39.5t-25 50.5t-22.5 41l50 26q5 -7 12 -22t15 -33t16 -34.5t15 -27.5l15 -36zM62 12l-47 19q5 13 13 33.5t16 42t15 38.5t9 23l50 -21q-4 -7 -11 -24.5t-16 -38.5t-16.5 -40.5t-12.5 -31.5zM37 -230l-69 146q55 20 92 46.5t59.5 56t32.5 59.5t10 56
q0 43 -22 95t-58 112l154 76q18 -30 32.5 -61.5t26.5 -61t19 -54.5q14 -45 39.5 -63t65.5 -18t59.5 -24t19.5 -56q0 -38 -23.5 -61t-65.5 -23q-33 0 -61 11.5t-46.5 34.5t-23.5 56l51 41q0 -48 -16.5 -102t-51 -105t-90 -93.5t-134.5 -67.5z" />
    <glyph glyph-name="uni0696.fina" unicode="&#x696;" horiz-adv-x="409" 
d="M37 -230l-69 146q55 20 92 46.5t59.5 56t32.5 59.5t10 56q0 43 -22 95t-58 112l154 76q18 -30 32.5 -61.5t26.5 -61t19 -54.5q14 -45 39.5 -63t65.5 -18t59.5 -24t19.5 -56q0 -38 -23.5 -61t-65.5 -23q-33 0 -61 11.5t-46.5 34.5t-23.5 56l51 41q0 -48 -16.5 -102
t-51 -105t-90 -93.5t-134.5 -67.5zM65 27q-34 0 -57 23.5t-23 55.5q0 34 23 58.5t57 24.5q33 0 56 -24.5t23 -57.5t-23 -56.5t-56 -23.5zM187 -460q-34 0 -57 23.5t-23 55.5q0 34 23 58t57 24q33 0 56 -24t23 -58q0 -32 -23 -55.5t-56 -23.5z" />
    <glyph glyph-name="uni0697.fina" unicode="&#x697;" horiz-adv-x="409" 
d="M37 -230l-69 146q55 20 92 46.5t59.5 56t32.5 59.5t10 56q0 43 -22 95t-58 112l154 76q18 -30 32.5 -61.5t26.5 -61t19 -54.5q14 -45 39.5 -63t65.5 -18t59.5 -24t19.5 -56q0 -38 -23.5 -61t-65.5 -23q-33 0 -61 11.5t-46.5 34.5t-23.5 56l51 41q0 -48 -16.5 -102
t-51 -105t-90 -93.5t-134.5 -67.5zM276 514q-31 0 -51.5 21.5t-20.5 51.5q0 32 20.5 52.5t51.5 20.5t53 -20.5t22 -52.5q0 -30 -22 -51.5t-53 -21.5zM99 514q-32 0 -53 21.5t-21 51.5q0 32 21 52.5t52 20.5q30 0 52 -20.5t22 -52.5q0 -30 -21.5 -51.5t-51.5 -21.5z" />
    <glyph glyph-name="uni0699.fina" unicode="&#x699;" horiz-adv-x="409" 
d="M37 -230l-69 146q55 20 92 46.5t59.5 56t32.5 59.5t10 56q0 43 -22 95t-58 112l154 76q18 -30 32.5 -61.5t26.5 -61t19 -54.5q14 -45 39.5 -63t65.5 -18t59.5 -24t19.5 -56q0 -38 -23.5 -61t-65.5 -23q-33 0 -61 11.5t-46.5 34.5t-23.5 56l51 41q0 -48 -16.5 -102
t-51 -105t-90 -93.5t-134.5 -67.5zM75 665q-27 0 -46 19.5t-19 45.5q0 28 19 48t46 20t46 -20t19 -47q0 -28 -19 -47t-46 -19zM76 513q-27 0 -46 19t-19 46q0 28 19 48t46 20t46 -20t19 -47q0 -28 -19 -47t-46 -19zM232 665q-27 0 -46 19.5t-19 45.5q0 28 19 48t46 20
t46 -20t19 -47q0 -28 -19 -47t-46 -19zM229 513q-27 0 -46 19t-19 46q0 28 19 48t46 20t46 -20t19 -47q0 -28 -19 -47t-46 -19z" />
    <glyph glyph-name="uni069A.init" unicode="&#x69a;" horiz-adv-x="944" 
d="M0 -5l10 164q24 0 40 6.5t27 27t20.5 63t20.5 112.5l161 -26q-2 -13 -5.5 -34t-6 -43.5t-2.5 -43.5q0 -27 14.5 -44.5t48.5 -17.5q25 0 41 6.5t26.5 27.5t19 64.5t19.5 118.5l164 -26q-4 -22 -8.5 -48t-7.5 -49.5t-3 -38.5q0 -16 7.5 -28.5t23 -19.5t40.5 -7q27 0 44 7
t24.5 22t7.5 41q0 41 -15 103t-40 135l162 49q18 -50 31.5 -103.5t20.5 -102.5t7 -85q0 -55 -18 -97.5t-50 -72t-74.5 -45t-90.5 -15.5q-46 0 -79.5 13t-55 45t-30.5 88h35q-22 -67 -51.5 -98t-64.5 -39.5t-76 -8.5q-29 0 -63.5 9t-65 39t-49.5 94h70q-24 -60 -61.5 -90.5
t-81 -41t-86.5 -10.5zM462 -251q-34 0 -57 23.5t-23 55.5q0 34 23 58t57 24q33 0 56 -24t23 -58q0 -32 -23 -55.5t-56 -23.5zM505 521q-34 0 -57 23.5t-23 55.5q0 34 23 58.5t57 24.5q33 0 56 -24.5t23 -57.5t-23 -56.5t-56 -23.5z" />
    <glyph glyph-name="uni069A.medi" unicode="&#x69a;" horiz-adv-x="1000" 
d="M0 -5l10 164q24 0 40 6.5t27 27t20.5 63t20.5 112.5l161 -26q-3 -20 -8.5 -52t-5.5 -57q0 -24 6.5 -40.5t22.5 -24.5t42 -8q22 0 37 6t26.5 27t20 65t17.5 118l164 -26q-5 -27 -9.5 -52.5t-7 -47t-2.5 -36.5q0 -16 7.5 -28.5t25 -19.5t45.5 -7q39 0 54.5 21t15.5 66
q0 23 -1 50.5t-4 62.5t-9 79l161 13q8 -94 17 -152t23 -88.5t36.5 -41t56.5 -10.5q40 0 59.5 -24t19.5 -56q0 -38 -23.5 -61t-65.5 -23q-13 0 -38 4t-53.5 17.5t-55 41.5t-43.5 76l18 -6q-15 -45 -38.5 -74.5t-57.5 -44t-82 -14.5q-36 0 -72 14t-58.5 46t-21.5 86h34
q-22 -64 -47.5 -95.5t-60.5 -41t-84 -9.5q-32 0 -67.5 10.5t-65.5 41t-48 90.5h70q-28 -62 -62 -92.5t-75.5 -40t-91.5 -9.5zM444 -251q-34 0 -57 23.5t-23 55.5q0 34 23 58t57 24q33 0 56 -24t23 -58q0 -32 -23 -55.5t-56 -23.5zM499 521q-34 0 -57 23.5t-23 55.5
q0 34 23 58.5t57 24.5q33 0 56 -24.5t23 -57.5t-23 -56.5t-56 -23.5z" />
    <glyph glyph-name="uni069A.fina" unicode="&#x69a;" horiz-adv-x="1368" 
d="M322 -232q-56 0 -109 15t-96 47t-68 82.5t-25 120.5q0 28 4 59t15.5 72t35.5 99l152 -54q-14 -39 -21.5 -65.5t-10 -48.5t-2.5 -46q0 -38 17 -64t47.5 -39.5t70.5 -13.5q35 0 61.5 9t45 27t28.5 45t10 63q0 32 -8 72.5t-21.5 88t-29.5 98.5l174 45q14 -59 23.5 -95
t14.5 -51q10 -31 19.5 -47.5t23 -21.5t35.5 -5q20 0 34 6.5t24.5 27t20 64.5t18.5 118l164 -26q-5 -27 -9.5 -52.5t-7 -47t-2.5 -36.5q0 -16 7.5 -28.5t25 -19.5t45.5 -7q39 0 54.5 21t15.5 66q0 23 -1 50.5t-4 62.5t-9 79l163 13q9 -105 20 -165t26 -87t36 -33.5t49 -6.5
q40 0 60 -24t20 -56q0 -38 -24 -61t-66 -23q-27 0 -64.5 11t-71.5 41t-54 87l18 -6q-14 -51 -43 -80t-62.5 -41t-63.5 -12q-50 0 -86 16.5t-55.5 49.5t-19.5 80h34q-19 -63 -45.5 -94t-58 -41.5t-67.5 -10.5q-11 0 -30.5 3t-40 12t-36 28t-20.5 50l46 -45
q-3 -66 -30.5 -117.5t-72.5 -86.5t-102.5 -53t-120.5 -18zM877 -246q-34 0 -57 23.5t-23 55.5q0 34 23 58t57 24q33 0 56 -24t23 -58q0 -32 -23 -55.5t-56 -23.5zM811 521q-34 0 -57 23.5t-23 55.5q0 34 23 58.5t57 24.5q33 0 56 -24.5t23 -57.5t-23 -56.5t-56 -23.5z" />
    <glyph glyph-name="uni069B.init" unicode="&#x69b;" horiz-adv-x="944" 
d="M0 -5l10 164q24 0 40 6.5t27 27t20.5 63t20.5 112.5l161 -26q-2 -13 -5.5 -34t-6 -43.5t-2.5 -43.5q0 -27 14.5 -44.5t48.5 -17.5q25 0 41 6.5t26.5 27.5t19 64.5t19.5 118.5l164 -26q-4 -22 -8.5 -48t-7.5 -49.5t-3 -38.5q0 -16 7.5 -28.5t23 -19.5t40.5 -7q27 0 44 7
t24.5 22t7.5 41q0 41 -15 103t-40 135l162 49q18 -50 31.5 -103.5t20.5 -102.5t7 -85q0 -55 -18 -97.5t-50 -72t-74.5 -45t-90.5 -15.5q-46 0 -79.5 13t-55 45t-30.5 88h35q-22 -67 -51.5 -98t-64.5 -39.5t-76 -8.5q-29 0 -63.5 9t-65 39t-49.5 94h70q-24 -60 -61.5 -90.5
t-81 -41t-86.5 -10.5zM460 -395q-31 0 -52 21t-21 52q0 30 21 52.5t52 22.5q30 0 51 -22.5t21 -52.5q0 -31 -21 -52t-51 -21zM372 -239q-31 0 -52 21t-21 52q0 30 21 52.5t52 22.5t52 -22.5t21 -52.5q0 -31 -21 -52t-52 -21zM552 -239q-31 0 -52 21t-21 52q0 30 21 52.5
t52 22.5q32 0 52.5 -22.5t20.5 -52.5q0 -31 -20.5 -52t-52.5 -21z" />
    <glyph glyph-name="uni069B.medi" unicode="&#x69b;" horiz-adv-x="1000" 
d="M0 -5l10 164q24 0 40 6.5t27 27t20.5 63t20.5 112.5l161 -26q-3 -20 -8.5 -52t-5.5 -57q0 -24 6.5 -40.5t22.5 -24.5t42 -8q22 0 37 6t26.5 27t20 65t17.5 118l164 -26q-5 -27 -9.5 -52.5t-7 -47t-2.5 -36.5q0 -16 7.5 -28.5t25 -19.5t45.5 -7q39 0 54.5 21t15.5 66
q0 23 -1 50.5t-4 62.5t-9 79l161 13q8 -94 17 -152t23 -88.5t36.5 -41t56.5 -10.5q40 0 59.5 -24t19.5 -56q0 -38 -23.5 -61t-65.5 -23q-13 0 -38 4t-53.5 17.5t-55 41.5t-43.5 76l18 -6q-15 -45 -38.5 -74.5t-57.5 -44t-82 -14.5q-36 0 -72 14t-58.5 46t-21.5 86h34
q-22 -64 -47.5 -95.5t-60.5 -41t-84 -9.5q-32 0 -67.5 10.5t-65.5 41t-48 90.5h70q-28 -62 -62 -92.5t-75.5 -40t-91.5 -9.5zM442 -395q-31 0 -52 21t-21 52q0 30 21 52.5t52 22.5q30 0 51 -22.5t21 -52.5q0 -31 -21 -52t-51 -21zM354 -239q-31 0 -52 21t-21 52
q0 30 21 52.5t52 22.5t52 -22.5t21 -52.5q0 -31 -21 -52t-52 -21zM534 -239q-31 0 -52 21t-21 52q0 30 21 52.5t52 22.5q32 0 52.5 -22.5t20.5 -52.5q0 -31 -20.5 -52t-52.5 -21z" />
    <glyph glyph-name="uni069B.fina" unicode="&#x69b;" horiz-adv-x="1368" 
d="M322 -232q-56 0 -109 15t-96 47t-68 82.5t-25 120.5q0 28 4 59t15.5 72t35.5 99l152 -54q-14 -39 -21.5 -65.5t-10 -48.5t-2.5 -46q0 -38 17 -64t47.5 -39.5t70.5 -13.5q35 0 61.5 9t45 27t28.5 45t10 63q0 32 -8 72.5t-21.5 88t-29.5 98.5l174 45q14 -59 23.5 -95
t14.5 -51q10 -31 19.5 -47.5t23 -21.5t35.5 -5q20 0 34 6.5t24.5 27t20 64.5t18.5 118l164 -26q-5 -27 -9.5 -52.5t-7 -47t-2.5 -36.5q0 -16 7.5 -28.5t25 -19.5t45.5 -7q39 0 54.5 21t15.5 66q0 23 -1 50.5t-4 62.5t-9 79l163 13q9 -105 20 -165t26 -87t36 -33.5t49 -6.5
q40 0 60 -24t20 -56q0 -38 -24 -61t-66 -23q-27 0 -64.5 11t-71.5 41t-54 87l18 -6q-14 -51 -43 -80t-62.5 -41t-63.5 -12q-50 0 -86 16.5t-55.5 49.5t-19.5 80h34q-19 -63 -45.5 -94t-58 -41.5t-67.5 -10.5q-11 0 -30.5 3t-40 12t-36 28t-20.5 50l46 -45
q-3 -66 -30.5 -117.5t-72.5 -86.5t-102.5 -53t-120.5 -18zM875 -390q-31 0 -52 21t-21 52q0 30 21 52.5t52 22.5q30 0 51 -22.5t21 -52.5q0 -31 -21 -52t-51 -21zM787 -234q-31 0 -52 21t-21 52q0 30 21 52.5t52 22.5t52 -22.5t21 -52.5q0 -31 -21 -52t-52 -21zM967 -234
q-31 0 -52 21t-21 52q0 30 21 52.5t52 22.5q32 0 52.5 -22.5t20.5 -52.5q0 -31 -20.5 -52t-52.5 -21z" />
    <glyph glyph-name="uni069D.init" unicode="&#x69d;" horiz-adv-x="948" 
d="M512 -18q-88 0 -147.5 9.5t-98.5 25.5t-63.5 37t-42.5 45l32 8q-25 -48 -58.5 -72t-68 -32t-65.5 -8l10 164q24 0 37.5 10.5t22.5 35.5t17.5 65t23.5 99l158 -40q-7 -29 -12 -49t-7 -33t-2 -22q0 -19 7.5 -34t30.5 -25t68 -14.5t120 -4.5q82 0 133.5 7t79.5 19.5t39 29.5
t11 38q0 17 -7.5 30t-21.5 21.5t-34 8.5q-24 0 -50 -12.5t-53 -36t-55 -54.5t-55 -69l-175 26q45 69 93.5 127t100.5 101t106 66.5t107 23.5q65 0 113.5 -28.5t74.5 -78.5t26 -115q0 -82 -42.5 -142.5t-130 -93.5t-222.5 -33zM603 -250q-31 0 -51.5 21t-20.5 52t20.5 52
t51.5 21t53 -21t22 -52t-22 -52t-53 -21zM425 -250q-31 0 -52 21t-21 52t21 52t52 21q30 0 52 -21t22 -52t-22 -52t-52 -21z" />
    <glyph glyph-name="uni069D.medi" unicode="&#x69d;" horiz-adv-x="977" 
d="M977 -5q-45 0 -87.5 12.5t-76.5 30t-55 34.5l95 118q32 -17 66 -24t67 -7q41 0 60.5 -24t19.5 -56q0 -38 -24 -61t-65 -23zM512 -18q-88 0 -147.5 9.5t-98.5 25.5t-63.5 37t-42.5 45l32 8q-25 -48 -58.5 -72t-68 -32t-65.5 -8l10 164q24 0 37.5 10.5t22.5 35.5t17.5 65
t23.5 99l158 -40q-7 -29 -12 -49t-7 -33t-2 -22q0 -19 7.5 -34t30.5 -25t68 -14.5t120 -4.5q82 0 133.5 7t79.5 19.5t39 29.5t11 38q0 17 -7.5 30t-21.5 21.5t-34 8.5q-24 0 -50 -12.5t-53 -36t-55 -54.5t-55 -69l-175 26q45 69 93.5 127t100.5 101t106 66.5t107 23.5
q65 0 113.5 -28.5t74.5 -78.5t26 -115q0 -82 -42.5 -142.5t-130 -93.5t-222.5 -33zM603 -250q-31 0 -51.5 21t-20.5 52t20.5 52t51.5 21t53 -21t22 -52t-22 -52t-53 -21zM425 -250q-31 0 -52 21t-21 52t21 52t52 21q30 0 52 -21t22 -52t-22 -52t-52 -21z" />
    <glyph glyph-name="uni069D.fina" unicode="&#x69d;" horiz-adv-x="1377" 
d="M1377 -5q-44 0 -86.5 12.5t-76.5 30t-55 34.5l95 118q31 -17 65 -24t67 -7q42 0 61.5 -24t19.5 -56q0 -38 -24 -61t-66 -23zM320 -232q-55 0 -108 14.5t-95.5 46.5t-67.5 83.5t-25 124.5q0 28 4 58t15.5 70t35.5 98l152 -54q-14 -39 -21.5 -64.5t-10 -47t-2.5 -46.5
q0 -39 17 -65.5t47 -40t69 -13.5q36 0 63.5 9t46.5 26.5t28 44t9 61.5q0 51 -17 119t-40 143l174 45q9 -38 16.5 -67.5t13 -49t8.5 -29.5q7 -20 18.5 -35.5t37 -26t75 -15.5t133.5 -5q58 0 100 4t70 12.5t44.5 20t23.5 25.5t7 30t-7 30t-20.5 23t-34.5 9q-26 0 -53 -14.5
t-54.5 -38.5t-54 -54.5t-51.5 -62.5l-173 26q32 51 68 97.5t76.5 86.5t83.5 69.5t87.5 46t89.5 16.5q64 0 112 -29.5t75 -79.5t27 -113q0 -61 -24 -111t-71.5 -85t-119.5 -54t-169 -19q-44 0 -97 4.5t-104 15.5t-90.5 30t-55.5 48l67 -42q-3 -66 -30.5 -117.5t-73 -86.5
t-103 -53t-121.5 -18zM995 -245q-31 0 -51.5 21t-20.5 52t20.5 52t51.5 21t53 -21t22 -52t-22 -52t-53 -21zM817 -245q-31 0 -52 21t-21 52t21 52t52 21q30 0 52 -21t22 -52t-22 -52t-52 -21z" />
    <glyph glyph-name="uni069E.init" unicode="&#x69e;" horiz-adv-x="948" 
d="M512 -18q-88 0 -147.5 9.5t-98.5 25.5t-63.5 37t-42.5 45l32 8q-25 -48 -58.5 -72t-68 -32t-65.5 -8l10 164q24 0 37.5 10.5t22.5 35.5t17.5 65t23.5 99l158 -40q-7 -29 -12 -49t-7 -33t-2 -22q0 -19 7.5 -34t30.5 -25t68 -14.5t120 -4.5q82 0 133.5 7t79.5 19.5t39 29.5
t11 38q0 17 -7.5 30t-21.5 21.5t-34 8.5q-24 0 -50 -12.5t-53 -36t-55 -54.5t-55 -69l-175 26q45 69 93.5 127t100.5 101t106 66.5t107 23.5q65 0 113.5 -28.5t74.5 -78.5t26 -115q0 -82 -42.5 -142.5t-130 -93.5t-222.5 -33zM664 723q-32 0 -53 21.5t-21 50.5q0 31 21 53
t53 22q31 0 52.5 -22t21.5 -53q0 -29 -21.5 -50.5t-52.5 -21.5zM579 566q-31 0 -53.5 23t-22.5 53q0 29 22.5 52t53.5 23q29 0 50.5 -23t21.5 -52q0 -30 -21.5 -53t-50.5 -23zM752 566q-30 0 -50 23t-20 53q0 29 20 52t50 23q31 0 53 -23t22 -52q0 -30 -22 -53t-53 -23z" />
    <glyph glyph-name="uni069E.medi" unicode="&#x69e;" horiz-adv-x="977" 
d="M977 -5q-45 0 -87.5 12.5t-76.5 30t-55 34.5l95 118q32 -17 66 -24t67 -7q41 0 60.5 -24t19.5 -56q0 -38 -24 -61t-65 -23zM512 -18q-88 0 -147.5 9.5t-98.5 25.5t-63.5 37t-42.5 45l32 8q-25 -48 -58.5 -72t-68 -32t-65.5 -8l10 164q24 0 37.5 10.5t22.5 35.5t17.5 65
t23.5 99l158 -40q-7 -29 -12 -49t-7 -33t-2 -22q0 -19 7.5 -34t30.5 -25t68 -14.5t120 -4.5q82 0 133.5 7t79.5 19.5t39 29.5t11 38q0 17 -7.5 30t-21.5 21.5t-34 8.5q-24 0 -50 -12.5t-53 -36t-55 -54.5t-55 -69l-175 26q45 69 93.5 127t100.5 101t106 66.5t107 23.5
q65 0 113.5 -28.5t74.5 -78.5t26 -115q0 -82 -42.5 -142.5t-130 -93.5t-222.5 -33zM664 723q-32 0 -53 21.5t-21 50.5q0 31 21 53t53 22q31 0 52.5 -22t21.5 -53q0 -29 -21.5 -50.5t-52.5 -21.5zM579 566q-31 0 -53.5 23t-22.5 53q0 29 22.5 52t53.5 23q29 0 50.5 -23
t21.5 -52q0 -30 -21.5 -53t-50.5 -23zM752 566q-30 0 -50 23t-20 53q0 29 20 52t50 23q31 0 53 -23t22 -52q0 -30 -22 -53t-53 -23z" />
    <glyph glyph-name="uni069E.fina" unicode="&#x69e;" horiz-adv-x="1377" 
d="M1377 -5q-44 0 -86.5 12.5t-76.5 30t-55 34.5l95 118q31 -17 65 -24t67 -7q42 0 61.5 -24t19.5 -56q0 -38 -24 -61t-66 -23zM320 -232q-55 0 -108 14.5t-95.5 46.5t-67.5 83.5t-25 124.5q0 28 4 58t15.5 70t35.5 98l152 -54q-14 -39 -21.5 -64.5t-10 -47t-2.5 -46.5
q0 -39 17 -65.5t47 -40t69 -13.5q36 0 63.5 9t46.5 26.5t28 44t9 61.5q0 51 -17 119t-40 143l174 45q9 -38 16.5 -67.5t13 -49t8.5 -29.5q7 -20 18.5 -35.5t37 -26t75 -15.5t133.5 -5q58 0 100 4t70 12.5t44.5 20t23.5 25.5t7 30t-7 30t-20.5 23t-34.5 9q-26 0 -53 -14.5
t-54.5 -38.5t-54 -54.5t-51.5 -62.5l-173 26q32 51 68 97.5t76.5 86.5t83.5 69.5t87.5 46t89.5 16.5q64 0 112 -29.5t75 -79.5t27 -113q0 -61 -24 -111t-71.5 -85t-119.5 -54t-169 -19q-44 0 -97 4.5t-104 15.5t-90.5 30t-55.5 48l67 -42q-3 -66 -30.5 -117.5t-73 -86.5
t-103 -53t-121.5 -18zM1067 728q-32 0 -53 21.5t-21 50.5q0 31 21 53t53 22q31 0 52.5 -22t21.5 -53q0 -29 -21.5 -50.5t-52.5 -21.5zM982 571q-31 0 -53.5 23t-22.5 53q0 29 22.5 52t53.5 23q29 0 50.5 -23t21.5 -52q0 -30 -21.5 -53t-50.5 -23zM1155 571q-30 0 -50 23
t-20 53q0 29 20 52t50 23q31 0 53 -23t22 -52q0 -30 -22 -53t-53 -23z" />
    <glyph glyph-name="uni069F.init" unicode="&#x69f;" horiz-adv-x="722" 
d="M0 -5l10 164h233q81 0 133 6.5t81.5 19t41.5 30t12 40.5q0 18 -8 31.5t-21 21t-31 7.5q-26 0 -53 -12t-55.5 -34.5t-58 -54.5t-61.5 -72l-178 14q49 75 99.5 135.5t103 104t107.5 67t112 23.5q67 0 115 -29.5t73.5 -79.5t25.5 -112q0 -79 -39 -136.5t-114 -90.5
q-28 -13 -66.5 -22t-85 -14.5t-100.5 -5.5zM110 99l-21 661h172l16 -452zM478 707q-32 0 -53 21.5t-21 50.5q0 31 21 53t53 22q31 0 52.5 -22t21.5 -53q0 -29 -21.5 -50.5t-52.5 -21.5zM393 550q-31 0 -53.5 23t-22.5 53q0 29 22.5 52t53.5 23q29 0 50.5 -23t21.5 -52
q0 -30 -21.5 -53t-50.5 -23zM566 550q-30 0 -50 23t-20 53q0 29 20 52t50 23q31 0 53 -23t22 -52q0 -30 -22 -53t-53 -23z" />
    <glyph glyph-name="uni069F.medi" unicode="&#x69f;" horiz-adv-x="733" 
d="M733 -5q-45 0 -87 12.5t-76 30t-55 34.5l95 118q31 -17 65 -24t67 -7q42 0 61.5 -24t19.5 -56q0 -38 -24 -61t-66 -23zM0 -5l10 164h233q81 0 133 6.5t81.5 19t41.5 30t12 40.5q0 18 -8 31.5t-21 21t-31 7.5q-26 0 -53 -12t-55.5 -34.5t-58 -54.5t-61.5 -72l-178 14
q49 75 99.5 135.5t103 104t107.5 67t112 23.5q67 0 115 -29.5t73.5 -79.5t25.5 -112q0 -79 -39 -136.5t-114 -90.5q-28 -13 -66.5 -22t-85 -14.5t-100.5 -5.5zM110 99l-21 661h172l16 -452zM478 707q-32 0 -53 21.5t-21 50.5q0 31 21 53t53 22q31 0 52.5 -22t21.5 -53
q0 -29 -21.5 -50.5t-52.5 -21.5zM393 550q-31 0 -53.5 23t-22.5 53q0 29 22.5 52t53.5 23q29 0 50.5 -23t21.5 -52q0 -30 -21.5 -53t-50.5 -23zM566 550q-30 0 -50 23t-20 53q0 29 20 52t50 23q31 0 53 -23t22 -52q0 -30 -22 -53t-53 -23z" />
    <glyph glyph-name="uni069F.fina" unicode="&#x69f;" horiz-adv-x="818" 
d="M818 -5q-45 0 -87 12.5t-76 30t-55 34.5l95 118q31 -17 65 -24t67 -7q42 0 61.5 -24t19.5 -56q0 -38 -24 -61t-66 -23zM378 -13q-46 0 -93 1t-94 3t-90.5 5.5t-80.5 9.5l20 166q55 -7 98 -11t78.5 -6.5t67 -3t62.5 -0.5q74 0 122.5 7t76 19.5t39 29t11.5 35.5t-8.5 33
t-22.5 22t-33 8q-22 0 -49 -13.5t-56.5 -36.5t-58.5 -54.5t-55 -66.5l-176 22q45 71 95 129.5t103.5 101.5t108.5 66.5t109 23.5q61 0 109.5 -27.5t76 -77.5t27.5 -117q0 -81 -42 -141.5t-128 -93.5t-217 -33zM194 99l-21 661h172l16 -452zM569 698q-32 0 -53 21.5t-21 50.5
q0 31 21 53t53 22q31 0 52.5 -22t21.5 -53q0 -29 -21.5 -50.5t-52.5 -21.5zM484 541q-31 0 -53.5 23t-22.5 53q0 29 22.5 52t53.5 23q29 0 50.5 -23t21.5 -52q0 -30 -21.5 -53t-50.5 -23zM657 541q-30 0 -50 23t-20 53q0 29 20 52t50 23q31 0 53 -23t22 -52q0 -30 -22 -53
t-53 -23z" />
    <glyph glyph-name="uni06A0.init" unicode="&#x6a0;" horiz-adv-x="523" 
d="M0 -5l10 164q24 0 40 0.5t32.5 3t39.5 5.5q-9 10 -22 30.5t-23.5 52t-10.5 75.5q0 65 31.5 111t84 71t114.5 25q26 0 52.5 -3.5t56.5 -11.5l-25 -152q-19 6 -34.5 7.5t-31.5 1.5q-21 0 -37.5 -8t-26 -23.5t-9.5 -37.5q0 -15 4 -29t11.5 -26t17 -22t20.5 -17.5t23 -11.5
q7 3 16 6t22.5 8t34.5 13t52 21l50 -144q-91 -41 -175.5 -65t-163.5 -34t-153 -10zM250 783q-32 0 -53 21.5t-21 50.5q0 31 21 53t53 22q31 0 52.5 -22t21.5 -53q0 -29 -21.5 -50.5t-52.5 -21.5zM165 626q-31 0 -53.5 23t-22.5 53q0 29 22.5 52t53.5 23q29 0 50.5 -23
t21.5 -52q0 -30 -21.5 -53t-50.5 -23zM338 626q-30 0 -50 23t-20 53q0 29 20 52t50 23q31 0 53 -23t22 -52q0 -30 -22 -53t-53 -23z" />
    <glyph glyph-name="uni06A0.medi" unicode="&#x6a0;" horiz-adv-x="545" 
d="M0 -5l10 164q66 0 119 9.5t93 26t67 37.5t41 44.5t14 46.5q0 12 -6.5 22t-20 15.5t-35.5 5.5q-17 0 -34.5 -3.5t-32.5 -10t-29 -16.5q21 -22 39.5 -43t36 -43t34.5 -47q23 -11 44 -19.5t48.5 -14t68 -8t99.5 -2.5q39 0 58.5 -24t19.5 -58q0 -36 -24 -59t-64 -23
q-71 0 -135 11t-123 35.5t-115 65.5q-21 32 -41 57.5t-39 47.5t-37 44q-4 5 -9 21.5t-8.5 34t-3.5 22.5q0 27 21.5 56.5t58 56t84 43.5t99.5 17q67 0 112 -20t68.5 -55t23.5 -82q0 -58 -26.5 -110.5t-74 -97t-110.5 -78t-137.5 -51.5t-153.5 -18zM286 757q-32 0 -53 21.5
t-21 50.5q0 31 21 53t53 22q31 0 52.5 -22t21.5 -53q0 -29 -21.5 -50.5t-52.5 -21.5zM201 600q-31 0 -53.5 23t-22.5 53q0 29 22.5 52t53.5 23q29 0 50.5 -23t21.5 -52q0 -30 -21.5 -53t-50.5 -23zM374 600q-30 0 -50 23t-20 53q0 29 20 52t50 23q31 0 53 -23t22 -52
q0 -30 -22 -53t-53 -23z" />
    <glyph glyph-name="uni06A0.fina" unicode="&#x6a0;" horiz-adv-x="565" 
d="M326 -394q-70 0 -127 17t-98 49.5t-63 78t-22 103.5q0 63 25 112t64.5 89t84 73t84.5 63.5t66 61.5t28 67q0 15 -7.5 25t-21.5 15.5t-33 5.5q-17 0 -34 -3t-33 -9.5t-30 -17.5q23 -23 41 -43.5t37.5 -43.5t43.5 -55q23 -14 55 -21.5t66.5 -10t66.5 -3t56 -0.5
q40 0 59.5 -24t19.5 -56q0 -38 -23.5 -61t-65.5 -23q-63 0 -126 7.5t-123.5 31t-117.5 71.5q-20 31 -39.5 55.5t-38.5 47t-39 46.5q-5 6 -10.5 23t-9 34t-3.5 23q0 26 21 56t57.5 56.5t84.5 43.5t103 17q92 0 146.5 -42.5t54.5 -118.5q0 -61 -24 -109.5t-62 -86t-80.5 -71
t-80 -65t-61.5 -65.5t-24 -77q0 -28 11.5 -47.5t31 -31.5t44 -17.5t49.5 -5.5t54 4.5t61 14t63 24.5l53 -143q-36 -20 -77 -35t-81.5 -22t-75.5 -7zM308 758q-32 0 -53 21.5t-21 50.5q0 31 21 53t53 22q31 0 52.5 -22t21.5 -53q0 -29 -21.5 -50.5t-52.5 -21.5zM223 601
q-31 0 -53.5 23t-22.5 53q0 29 22.5 52t53.5 23q29 0 50.5 -23t21.5 -52q0 -30 -21.5 -53t-50.5 -23zM396 601q-30 0 -50 23t-20 53q0 29 20 52t50 23q31 0 53 -23t22 -52q0 -30 -22 -53t-53 -23z" />
    <glyph glyph-name="uni06A1.init" unicode="&#x6a1;" horiz-adv-x="493" 
d="M0 -5l10 164h68t65.5 1.5t56.5 5t41 10.5q21 10 32 27t15 43t4 61q0 55 -6 89t-17 49t-26 15q-12 0 -21 -9t-14 -26.5t-5 -40.5q0 -15 5.5 -26t15 -16.5t23.5 -5.5q16 0 34 5t39 16l4 -114q-16 -13 -35.5 -23t-41.5 -15t-48 -5q-41 0 -76 18.5t-55.5 54.5t-20.5 86
q0 46 14.5 88t41.5 75t64 52.5t83 19.5q60 0 105.5 -36.5t71 -103.5t25.5 -161q0 -90 -25 -152t-82 -95q-30 -18 -69 -28t-83.5 -15t-93.5 -6.5t-99 -1.5z" />
    <glyph glyph-name="uni06A1.medi" unicode="&#x6a1;" horiz-adv-x="489" 
d="M0 -5l10 164q18 0 45 1t56.5 3.5t57 7.5t46.5 12q29 11 46.5 28t25.5 37t8 40q0 17 -6 32t-16 24t-21 9q-10 0 -20.5 -8.5t-17.5 -24t-7 -37.5q0 -15 5.5 -32.5t19.5 -34.5t37 -31l-141 -60q-26 27 -44.5 53t-27 54.5t-8.5 62.5q0 44 17.5 81.5t47 65.5t67 43.5
t76.5 15.5q56 0 101 -29t71 -74t26 -95q0 -52 -17 -92.5t-45 -71t-61.5 -53.5t-67.5 -41q-26 -14 -62 -23.5t-74.5 -15.5t-72 -8.5t-54.5 -2.5zM489 -5q-45 0 -97 7.5t-100 20t-79 30.5l69 131q30 -12 69.5 -17.5t78.5 -6.5t69 -1q41 0 60.5 -24t19.5 -56q0 -37 -24 -60.5
t-66 -23.5z" />
    <glyph glyph-name="uni06A1.fina" unicode="&#x6a1;" horiz-adv-x="1050" 
d="M412 -21l26 164q47 0 96.5 3.5t96 9.5t83.5 13t56 15q33 12 51.5 30t25.5 37.5t7 36.5q0 11 -2.5 22.5t-8.5 21.5t-13 15.5t-17 5.5t-21 -8.5t-18 -24.5t-7 -38q0 -12 5.5 -28t18.5 -33.5t36 -35.5l-146 -60q-22 27 -39 53.5t-26.5 55t-9.5 60.5q0 43 18 80.5t48.5 66
t67.5 44.5t76 16q58 0 102.5 -29.5t70.5 -75.5t26 -95q0 -51 -18.5 -91.5t-47 -71.5t-62.5 -54t-65 -39q-27 -14 -76 -26t-108 -21t-118.5 -14t-107.5 -5zM1050 -5q-50 0 -102.5 7t-98.5 19.5t-77 30.5l69 132q30 -10 67.5 -15.5t77 -7.5t74.5 -2q40 0 60 -24t20 -56
q0 -37 -24 -60.5t-66 -23.5zM412 -21q-110 0 -183 20t-116 54t-61 77t-18 89q0 40 7 77.5t16.5 70.5t18.5 58l143 -37q-5 -19 -10.5 -40t-8.5 -41.5t-3 -40.5q0 -35 19.5 -63.5t71.5 -44t150 -15.5l20 -132z" />
    <glyph glyph-name="fehDotMovedbelowar.init" unicode="&#x6a2;" horiz-adv-x="493" 
d="M0 -5l10 164h68t65.5 1.5t56.5 5t41 10.5q21 10 32 27t15 43t4 61q0 55 -6 89t-17 49t-26 15q-12 0 -21 -9t-14 -26.5t-5 -40.5q0 -15 5.5 -26t15 -16.5t23.5 -5.5q16 0 34 5t39 16l4 -114q-16 -13 -35.5 -23t-41.5 -15t-48 -5q-41 0 -76 18.5t-55.5 54.5t-20.5 86
q0 46 14.5 88t41.5 75t64 52.5t83 19.5q60 0 105.5 -36.5t71 -103.5t25.5 -161q0 -90 -25 -152t-82 -95q-30 -18 -69 -28t-83.5 -15t-93.5 -6.5t-99 -1.5zM197 -271q-34 0 -57 23.5t-23 55.5q0 34 23 58t57 24q33 0 56 -24t23 -58q0 -32 -23 -55.5t-56 -23.5z" />
    <glyph glyph-name="fehDotMovedbelowar.medi" unicode="&#x6a2;" horiz-adv-x="489" 
d="M0 -5l10 164q18 0 45 1t56.5 3.5t57 7.5t46.5 12q29 11 46.5 28t25.5 37t8 40q0 17 -6 32t-16 24t-21 9q-10 0 -20.5 -8.5t-17.5 -24t-7 -37.5q0 -15 5.5 -32.5t19.5 -34.5t37 -31l-141 -60q-26 27 -44.5 53t-27 54.5t-8.5 62.5q0 44 17.5 81.5t47 65.5t67 43.5
t76.5 15.5q56 0 101 -29t71 -74t26 -95q0 -52 -17 -92.5t-45 -71t-61.5 -53.5t-67.5 -41q-26 -14 -62 -23.5t-74.5 -15.5t-72 -8.5t-54.5 -2.5zM489 -5q-45 0 -97 7.5t-100 20t-79 30.5l69 131q30 -12 69.5 -17.5t78.5 -6.5t69 -1q41 0 60.5 -24t19.5 -56q0 -37 -24 -60.5
t-66 -23.5zM251 -272q-34 0 -57 23.5t-23 55.5q0 34 23 58t57 24q33 0 56 -24t23 -58q0 -32 -23 -55.5t-56 -23.5z" />
    <glyph glyph-name="fehDotMovedbelowar.fina" unicode="&#x6a2;" horiz-adv-x="1050" 
d="M412 -21l26 164q47 0 96.5 3.5t96 9.5t83.5 13t56 15q33 12 51.5 30t25.5 37.5t7 36.5q0 11 -2.5 22.5t-8.5 21.5t-13 15.5t-17 5.5t-21 -8.5t-18 -24.5t-7 -38q0 -12 5.5 -28t18.5 -33.5t36 -35.5l-146 -60q-22 27 -39 53.5t-26.5 55t-9.5 60.5q0 43 18 80.5t48.5 66
t67.5 44.5t76 16q58 0 102.5 -29.5t70.5 -75.5t26 -95q0 -51 -18.5 -91.5t-47 -71.5t-62.5 -54t-65 -39q-27 -14 -76 -26t-108 -21t-118.5 -14t-107.5 -5zM1050 -5q-50 0 -102.5 7t-98.5 19.5t-77 30.5l69 132q30 -10 67.5 -15.5t77 -7.5t74.5 -2q40 0 60 -24t20 -56
q0 -37 -24 -60.5t-66 -23.5zM412 -21q-110 0 -183 20t-116 54t-61 77t-18 89q0 40 7 77.5t16.5 70.5t18.5 58l143 -37q-5 -19 -10.5 -40t-8.5 -41.5t-3 -40.5q0 -35 19.5 -63.5t71.5 -44t150 -15.5l20 -132zM484 -266q-34 0 -57 23.5t-23 55.5q0 34 23 58t57 24q33 0 56 -24
t23 -58q0 -32 -23 -55.5t-56 -23.5z" />
    <glyph glyph-name="uni06A3.init" unicode="&#x6a3;" horiz-adv-x="493" 
d="M0 -5l10 164h68t65.5 1.5t56.5 5t41 10.5q21 10 32 27t15 43t4 61q0 55 -6 89t-17 49t-26 15q-12 0 -21 -9t-14 -26.5t-5 -40.5q0 -15 5.5 -26t15 -16.5t23.5 -5.5q16 0 34 5t39 16l4 -114q-16 -13 -35.5 -23t-41.5 -15t-48 -5q-41 0 -76 18.5t-55.5 54.5t-20.5 86
q0 46 14.5 88t41.5 75t64 52.5t83 19.5q60 0 105.5 -36.5t71 -103.5t25.5 -161q0 -90 -25 -152t-82 -95q-30 -18 -69 -28t-83.5 -15t-93.5 -6.5t-99 -1.5zM234 689q-34 0 -57 23.5t-23 55.5q0 34 23 58.5t57 24.5q33 0 56 -24.5t23 -57.5t-23 -56.5t-56 -23.5zM197 -271
q-34 0 -57 23.5t-23 55.5q0 34 23 58t57 24q33 0 56 -24t23 -58q0 -32 -23 -55.5t-56 -23.5z" />
    <glyph glyph-name="uni06A3.medi" unicode="&#x6a3;" horiz-adv-x="489" 
d="M0 -5l10 164q18 0 45 1t56.5 3.5t57 7.5t46.5 12q29 11 46.5 28t25.5 37t8 40q0 17 -6 32t-16 24t-21 9q-10 0 -20.5 -8.5t-17.5 -24t-7 -37.5q0 -15 5.5 -32.5t19.5 -34.5t37 -31l-141 -60q-26 27 -44.5 53t-27 54.5t-8.5 62.5q0 44 17.5 81.5t47 65.5t67 43.5
t76.5 15.5q56 0 101 -29t71 -74t26 -95q0 -52 -17 -92.5t-45 -71t-61.5 -53.5t-67.5 -41q-26 -14 -62 -23.5t-74.5 -15.5t-72 -8.5t-54.5 -2.5zM489 -5q-45 0 -97 7.5t-100 20t-79 30.5l69 131q30 -12 69.5 -17.5t78.5 -6.5t69 -1q41 0 60.5 -24t19.5 -56q0 -37 -24 -60.5
t-66 -23.5zM259 596q-34 0 -57 23.5t-23 55.5q0 34 23 58.5t57 24.5q33 0 56 -24.5t23 -57.5t-23 -56.5t-56 -23.5zM251 -272q-34 0 -57 23.5t-23 55.5q0 34 23 58t57 24q33 0 56 -24t23 -58q0 -32 -23 -55.5t-56 -23.5z" />
    <glyph glyph-name="uni06A3.fina" unicode="&#x6a3;" horiz-adv-x="1050" 
d="M412 -21l26 164q47 0 96.5 3.5t96 9.5t83.5 13t56 15q33 12 51.5 30t25.5 37.5t7 36.5q0 11 -2.5 22.5t-8.5 21.5t-13 15.5t-17 5.5t-21 -8.5t-18 -24.5t-7 -38q0 -12 5.5 -28t18.5 -33.5t36 -35.5l-146 -60q-22 27 -39 53.5t-26.5 55t-9.5 60.5q0 43 18 80.5t48.5 66
t67.5 44.5t76 16q58 0 102.5 -29.5t70.5 -75.5t26 -95q0 -51 -18.5 -91.5t-47 -71.5t-62.5 -54t-65 -39q-27 -14 -76 -26t-108 -21t-118.5 -14t-107.5 -5zM1050 -5q-50 0 -102.5 7t-98.5 19.5t-77 30.5l69 132q30 -10 67.5 -15.5t77 -7.5t74.5 -2q40 0 60 -24t20 -56
q0 -37 -24 -60.5t-66 -23.5zM412 -21q-110 0 -183 20t-116 54t-61 77t-18 89q0 40 7 77.5t16.5 70.5t18.5 58l143 -37q-5 -19 -10.5 -40t-8.5 -41.5t-3 -40.5q0 -35 19.5 -63.5t71.5 -44t150 -15.5l20 -132zM817 596q-34 0 -57 23.5t-23 55.5q0 34 23 58.5t57 24.5
q33 0 56 -24.5t23 -57.5t-23 -56.5t-56 -23.5zM484 -266q-34 0 -57 23.5t-23 55.5q0 34 23 58t57 24q33 0 56 -24t23 -58q0 -32 -23 -55.5t-56 -23.5z" />
    <glyph glyph-name="uni06A5.init" unicode="&#x6a5;" horiz-adv-x="493" 
d="M0 -5l10 164h68t65.5 1.5t56.5 5t41 10.5q21 10 32 27t15 43t4 61q0 55 -6 89t-17 49t-26 15q-12 0 -21 -9t-14 -26.5t-5 -40.5q0 -15 5.5 -26t15 -16.5t23.5 -5.5q16 0 34 5t39 16l4 -114q-16 -13 -35.5 -23t-41.5 -15t-48 -5q-41 0 -76 18.5t-55.5 54.5t-20.5 86
q0 46 14.5 88t41.5 75t64 52.5t83 19.5q60 0 105.5 -36.5t71 -103.5t25.5 -161q0 -90 -25 -152t-82 -95q-30 -18 -69 -28t-83.5 -15t-93.5 -6.5t-99 -1.5zM195 -415q-31 0 -52 21t-21 52q0 30 21 52.5t52 22.5q30 0 51 -22.5t21 -52.5q0 -31 -21 -52t-51 -21zM107 -259
q-31 0 -52 21t-21 52q0 30 21 52.5t52 22.5t52 -22.5t21 -52.5q0 -31 -21 -52t-52 -21zM287 -259q-31 0 -52 21t-21 52q0 30 21 52.5t52 22.5q32 0 52.5 -22.5t20.5 -52.5q0 -31 -20.5 -52t-52.5 -21z" />
    <glyph glyph-name="uni06A5.medi" unicode="&#x6a5;" horiz-adv-x="489" 
d="M0 -5l10 164q18 0 45 1t56.5 3.5t57 7.5t46.5 12q29 11 46.5 28t25.5 37t8 40q0 17 -6 32t-16 24t-21 9q-10 0 -20.5 -8.5t-17.5 -24t-7 -37.5q0 -15 5.5 -32.5t19.5 -34.5t37 -31l-141 -60q-26 27 -44.5 53t-27 54.5t-8.5 62.5q0 44 17.5 81.5t47 65.5t67 43.5
t76.5 15.5q56 0 101 -29t71 -74t26 -95q0 -52 -17 -92.5t-45 -71t-61.5 -53.5t-67.5 -41q-26 -14 -62 -23.5t-74.5 -15.5t-72 -8.5t-54.5 -2.5zM489 -5q-45 0 -97 7.5t-100 20t-79 30.5l69 131q30 -12 69.5 -17.5t78.5 -6.5t69 -1q41 0 60.5 -24t19.5 -56q0 -37 -24 -60.5
t-66 -23.5zM248 -415q-31 0 -52 21t-21 52q0 30 21 52.5t52 22.5q30 0 51 -22.5t21 -52.5q0 -31 -21 -52t-51 -21zM160 -259q-31 0 -52 21t-21 52q0 30 21 52.5t52 22.5t52 -22.5t21 -52.5q0 -31 -21 -52t-52 -21zM340 -259q-31 0 -52 21t-21 52q0 30 21 52.5t52 22.5
q32 0 52.5 -22.5t20.5 -52.5q0 -31 -20.5 -52t-52.5 -21z" />
    <glyph glyph-name="uni06A5.fina" unicode="&#x6a5;" horiz-adv-x="1050" 
d="M412 -21l26 164q47 0 96.5 3.5t96 9.5t83.5 13t56 15q33 12 51.5 30t25.5 37.5t7 36.5q0 11 -2.5 22.5t-8.5 21.5t-13 15.5t-17 5.5t-21 -8.5t-18 -24.5t-7 -38q0 -12 5.5 -28t18.5 -33.5t36 -35.5l-146 -60q-22 27 -39 53.5t-26.5 55t-9.5 60.5q0 43 18 80.5t48.5 66
t67.5 44.5t76 16q58 0 102.5 -29.5t70.5 -75.5t26 -95q0 -51 -18.5 -91.5t-47 -71.5t-62.5 -54t-65 -39q-27 -14 -76 -26t-108 -21t-118.5 -14t-107.5 -5zM1050 -5q-50 0 -102.5 7t-98.5 19.5t-77 30.5l69 132q30 -10 67.5 -15.5t77 -7.5t74.5 -2q40 0 60 -24t20 -56
q0 -37 -24 -60.5t-66 -23.5zM412 -21q-110 0 -183 20t-116 54t-61 77t-18 89q0 40 7 77.5t16.5 70.5t18.5 58l143 -37q-5 -19 -10.5 -40t-8.5 -41.5t-3 -40.5q0 -35 19.5 -63.5t71.5 -44t150 -15.5l20 -132zM482 -410q-31 0 -52 21t-21 52q0 30 21 52.5t52 22.5
q30 0 51 -22.5t21 -52.5q0 -31 -21 -52t-51 -21zM394 -254q-31 0 -52 21t-21 52q0 30 21 52.5t52 22.5t52 -22.5t21 -52.5q0 -31 -21 -52t-52 -21zM574 -254q-31 0 -52 21t-21 52q0 30 21 52.5t52 22.5q32 0 52.5 -22.5t20.5 -52.5q0 -31 -20.5 -52t-52.5 -21z" />
    <glyph glyph-name="uni06A7.fina" unicode="&#x6a7;" horiz-adv-x="805" 
d="M339 -272q-61 0 -118 15t-101.5 47.5t-70 83t-25.5 120.5q0 28 4 58.5t16 71.5t36 100l151 -55q-14 -39 -21.5 -63.5t-10 -43t-2.5 -39.5q0 -39 19.5 -68.5t57 -46t91.5 -16.5q35 0 65.5 6.5t56.5 17.5t46 26t34 32.5t21 36.5q9 23 12 54.5t3 76.5q0 50 -5.5 80t-16 43
t-26.5 13q-10 0 -17 -6t-12 -15.5t-7.5 -21t-2.5 -22.5q0 -20 5.5 -34t24.5 -21.5t59 -7.5t110 9h100q41 0 60.5 -24t19.5 -56q0 -37 -22.5 -60.5t-67.5 -23.5h-168q-54 0 -104.5 8t-90 28t-62.5 55t-23 90q0 47 14.5 89.5t42 75.5t66 52t86.5 19q59 0 104 -36t70 -101
t25 -151q0 -58 -16 -110.5t-37 -90.5q-25 -46 -62.5 -82t-86 -61.5t-105 -38.5t-119.5 -13zM567 507q-34 0 -57 23.5t-23 55.5q0 34 23 58.5t57 24.5q33 0 56 -24.5t23 -57.5t-23 -56.5t-56 -23.5z" />
    <glyph glyph-name="uni06A8.init" unicode="&#x6a8;" horiz-adv-x="493" 
d="M0 -5l10 164h68t65.5 1.5t56.5 5t41 10.5q21 10 32 27t15 43t4 61q0 55 -6 89t-17 49t-26 15q-12 0 -21 -9t-14 -26.5t-5 -40.5q0 -15 5.5 -26t15 -16.5t23.5 -5.5q16 0 34 5t39 16l4 -114q-16 -13 -35.5 -23t-41.5 -15t-48 -5q-41 0 -76 18.5t-55.5 54.5t-20.5 86
q0 46 14.5 88t41.5 75t64 52.5t83 19.5q60 0 105.5 -36.5t71 -103.5t25.5 -161q0 -90 -25 -152t-82 -95q-30 -18 -69 -28t-83.5 -15t-93.5 -6.5t-99 -1.5zM233 844q-32 0 -53 21.5t-21 50.5q0 31 21 53t53 22q31 0 52.5 -22t21.5 -53q0 -29 -21.5 -50.5t-52.5 -21.5z
M148 687q-31 0 -53.5 23t-22.5 53q0 29 22.5 52t53.5 23q29 0 50.5 -23t21.5 -52q0 -30 -21.5 -53t-50.5 -23zM321 687q-30 0 -50 23t-20 53q0 29 20 52t50 23q31 0 53 -23t22 -52q0 -30 -22 -53t-53 -23z" />
    <glyph glyph-name="uni06A8.medi" unicode="&#x6a8;" horiz-adv-x="489" 
d="M0 -5l10 164q18 0 45 1t56.5 3.5t57 7.5t46.5 12q29 11 46.5 28t25.5 37t8 40q0 17 -6 32t-16 24t-21 9q-10 0 -20.5 -8.5t-17.5 -24t-7 -37.5q0 -15 5.5 -32.5t19.5 -34.5t37 -31l-141 -60q-26 27 -44.5 53t-27 54.5t-8.5 62.5q0 44 17.5 81.5t47 65.5t67 43.5
t76.5 15.5q56 0 101 -29t71 -74t26 -95q0 -52 -17 -92.5t-45 -71t-61.5 -53.5t-67.5 -41q-26 -14 -62 -23.5t-74.5 -15.5t-72 -8.5t-54.5 -2.5zM489 -5q-45 0 -97 7.5t-100 20t-79 30.5l69 131q30 -12 69.5 -17.5t78.5 -6.5t69 -1q41 0 60.5 -24t19.5 -56q0 -37 -24 -60.5
t-66 -23.5zM258 751q-32 0 -53 21.5t-21 50.5q0 31 21 53t53 22q31 0 52.5 -22t21.5 -53q0 -29 -21.5 -50.5t-52.5 -21.5zM173 594q-31 0 -53.5 23t-22.5 53q0 29 22.5 52t53.5 23q29 0 50.5 -23t21.5 -52q0 -30 -21.5 -53t-50.5 -23zM346 594q-30 0 -50 23t-20 53
q0 29 20 52t50 23q31 0 53 -23t22 -52q0 -30 -22 -53t-53 -23z" />
    <glyph glyph-name="uni06A8.fina" unicode="&#x6a8;" horiz-adv-x="805" 
d="M339 -272q-61 0 -118 15t-101.5 47.5t-70 83t-25.5 120.5q0 28 4 58.5t16 71.5t36 100l151 -55q-14 -39 -21.5 -63.5t-10 -43t-2.5 -39.5q0 -39 19.5 -68.5t57 -46t91.5 -16.5q35 0 65.5 6.5t56.5 17.5t46 26t34 32.5t21 36.5q9 23 12 54.5t3 76.5q0 50 -5.5 80t-16 43
t-26.5 13q-10 0 -17 -6t-12 -15.5t-7.5 -21t-2.5 -22.5q0 -20 5.5 -34t24.5 -21.5t59 -7.5t110 9h100q41 0 60.5 -24t19.5 -56q0 -37 -22.5 -60.5t-67.5 -23.5h-168q-54 0 -104.5 8t-90 28t-62.5 55t-23 90q0 47 14.5 89.5t42 75.5t66 52t86.5 19q59 0 104 -36t70 -101
t25 -151q0 -58 -16 -110.5t-37 -90.5q-25 -46 -62.5 -82t-86 -61.5t-105 -38.5t-119.5 -13zM566 662q-32 0 -53 21.5t-21 50.5q0 31 21 53t53 22q31 0 52.5 -22t21.5 -53q0 -29 -21.5 -50.5t-52.5 -21.5zM481 505q-31 0 -53.5 23t-22.5 53q0 29 22.5 52t53.5 23
q29 0 50.5 -23t21.5 -52q0 -30 -21.5 -53t-50.5 -23zM654 505q-30 0 -50 23t-20 53q0 29 20 52t50 23q31 0 53 -23t22 -52q0 -30 -22 -53t-53 -23z" />
    <glyph glyph-name="uni06AA.init" unicode="&#x6aa;" horiz-adv-x="799" 
d="M0 -4l10 163h299h147t91 2.5t46.5 8t13.5 16.5q0 8 -8.5 14t-28 11.5t-54.5 11t-90 12.5q-112 15 -178 35t-93.5 51t-27.5 76q0 57 30.5 100t82.5 75t118 54.5t138 38.5l34 -142q-67 -14 -120 -30.5t-83.5 -32.5t-30.5 -31q0 -11 14 -18.5t51.5 -14t106.5 -16.5
q82 -12 138 -28t89.5 -40.5t48.5 -58t15 -78.5q0 -51 -24.5 -85.5t-78 -55t-139.5 -29.5t-208 -9h-309z" />
    <glyph glyph-name="uni06AA.medi" unicode="&#x6aa;" horiz-adv-x="846" 
d="M846 -5q-45 0 -87.5 12.5t-76 30t-54.5 34.5l95 118q31 -17 65 -24t67 -7q41 0 61 -24t20 -56q0 -38 -24 -61t-66 -23zM0 -4l10 163h299h147t91 2.5t46.5 8t13.5 16.5q0 8 -8.5 14t-28 11.5t-54.5 11t-90 12.5q-112 15 -178 35t-93.5 51t-27.5 76q0 57 30.5 100t82.5 75
t118 54.5t138 38.5l34 -142q-67 -14 -120 -30.5t-83.5 -32.5t-30.5 -31q0 -11 14 -18.5t51.5 -14t106.5 -16.5q82 -12 138 -28t89.5 -40.5t48.5 -58t15 -78.5q0 -51 -24.5 -85.5t-78 -55t-139.5 -29.5t-208 -9h-309z" />
    <glyph glyph-name="uni06AA.fina" unicode="&#x6aa;" horiz-adv-x="1031" 
d="M1031 -5q-44 0 -86.5 12.5t-76.5 30t-55 34.5l95 118q31 -17 65 -24t67 -7q42 0 61.5 -24t19.5 -56q0 -38 -24 -61t-66 -23zM494 -15q-38 0 -94 1t-120.5 3t-126 6t-108.5 9l6 156q50 -3 105.5 -6t113.5 -5.5t114.5 -4t109.5 -1.5q89 0 147 1.5t91 6t46.5 12t13.5 18.5
q0 10 -8.5 17t-28 12.5t-54.5 11.5t-90 13q-112 15 -178 35t-93.5 51t-27.5 76q0 57 30.5 100t82.5 75t118 54.5t138 38.5l34 -142q-67 -14 -120.5 -30.5t-83.5 -32.5t-30 -31q0 -11 14 -18.5t51.5 -14t106.5 -16.5q82 -12 138 -28t89.5 -40.5t48.5 -58t15 -78.5
q0 -51 -24.5 -87t-78 -59t-139.5 -33.5t-208 -10.5z" />
    <glyph glyph-name="uni06AB.init" unicode="&#x6ab;" horiz-adv-x="432" 
d="M337 422q-39 0 -66 27.5t-27 66.5t27 66.5t66 27.5q40 0 67 -27.5t27 -66.5t-27 -66.5t-67 -27.5zM337 488q12 0 21 8t9 20q0 13 -9 21t-21 8q-11 0 -20 -8.5t-9 -20.5t9 -20t20 -8zM0 -5l10 164h120q16 0 27 2t17.5 6t9.5 11.5t3 17.5q0 28 -19.5 59.5t-44.5 60.5
q-22 27 -39.5 46t-29 33t-18 24.5t-6.5 18.5q0 15 2.5 37t7 42t11.5 27q17 18 46.5 40t69 47t88 52t105.5 56l78 -138q-57 -28 -101 -52t-77.5 -44t-58.5 -38t-43 -35l3 89q45 -42 82.5 -85t65 -85t42.5 -82.5t15 -79.5q0 -33 -13.5 -67.5t-43.5 -63t-79 -46t-120 -17.5
h-110z" />
    <glyph glyph-name="uni06AB.medi" unicode="&#x6ab;" horiz-adv-x="469" 
d="M339 422q-40 0 -67 27.5t-27 66.5t27 66.5t67 27.5q39 0 66 -27.5t27 -66.5t-27 -66.5t-66 -27.5zM339 488q11 0 20 8t9 20q0 13 -9 21t-20 8q-12 0 -21 -8.5t-9 -20.5t9 -20t21 -8zM0 -5l10 164h114q25 0 38.5 3.5t19 12t5.5 21.5q0 20 -11.5 43.5t-29.5 47.5
t-38.5 47.5t-38 44t-29 36.5t-11.5 24q0 18 2.5 40t7 40t11.5 25q17 18 44.5 39t65.5 45t87.5 51.5t112.5 59.5l78 -138q-63 -31 -108 -55.5t-78 -45t-57 -38t-43 -35.5l9 93q22 -25 47.5 -54.5t52 -63t50.5 -73t42 -85.5q16 -39 32.5 -57.5t39.5 -23t54 -4.5q40 0 59.5 -24
t19.5 -56q0 -37 -23.5 -60.5t-65.5 -23.5q-50 0 -88 12t-62.5 38.5t-34.5 71.5h59q-15 -29 -37 -52t-51.5 -38.5t-67.5 -23.5t-84 -8h-103z" />
    <glyph glyph-name="uni06AB.fina" unicode="&#x6ab;" horiz-adv-x="928" 
d="M782 423q-39 0 -66 27.5t-27 66.5t27 66t66 27q40 0 67 -27t27 -66t-27 -66.5t-67 -27.5zM782 489q12 0 21 8t9 20t-9 20t-21 8q-11 0 -20 -8.5t-9 -19.5q0 -12 9 -20t20 -8zM412 -21l26 164q47 0 82.5 2.5t60.5 9.5t37.5 19t12.5 29q0 18 -11 39t-29 44.5t-38 46.5
t-38 43.5t-29.5 36t-11.5 24.5q0 18 2.5 39.5t7 40t11.5 25.5q21 25 61 53.5t101 64.5t146 79l78 -138q-66 -34 -118.5 -63.5t-92 -55.5t-68.5 -52l6 90q25 -26 51.5 -55t52.5 -63t49.5 -73t42.5 -85q11 -27 24.5 -44t31 -26t37 -12t42.5 -3q40 0 59.5 -24t19.5 -56
q0 -37 -24 -60.5t-65 -23.5q-46 0 -84.5 11t-65 37.5t-36.5 73.5h44q-22 -43 -57.5 -70t-83.5 -42t-107 -20.5t-127 -5.5zM412 -21q-110 0 -183 20t-116 54t-61 77t-18 89q0 40 7 77.5t16.5 70.5t18.5 58l143 -37q-5 -19 -10.5 -40t-8.5 -41.5t-3 -40.5q0 -35 19.5 -63.5
t71.5 -44t150 -15.5l20 -132z" />
    <glyph glyph-name="uni06AC.init" unicode="&#x6ac;" horiz-adv-x="432" 
d="M0 -5l10 164h120q16 0 27 2t17.5 6t9.5 11.5t3 17.5q0 28 -19.5 59.5t-44.5 60.5q-22 27 -39.5 46t-29 33t-18 24.5t-6.5 18.5q0 15 2.5 37t7 42t11.5 27q17 18 46.5 40t69 47t88 52t105.5 56l78 -138q-57 -28 -101 -52t-77.5 -44t-58.5 -38t-43 -35l3 89
q45 -42 82.5 -85t65 -85t42.5 -82.5t15 -79.5q0 -33 -13.5 -67.5t-43.5 -63t-79 -46t-120 -17.5h-110zM162 730q-34 0 -57 23.5t-23 55.5q0 34 23 58.5t57 24.5q33 0 56 -24.5t23 -57.5t-23 -56.5t-56 -23.5z" />
    <glyph glyph-name="uni06AC.medi" unicode="&#x6ac;" horiz-adv-x="469" 
d="M0 -5l10 164h114q25 0 38.5 3.5t19 12t5.5 21.5q0 20 -11.5 43.5t-29.5 47.5t-38.5 47.5t-38 44t-29 36.5t-11.5 24q0 18 2.5 40t7 40t11.5 25q17 18 44.5 39t65.5 45t87.5 51.5t112.5 59.5l78 -138q-63 -31 -108 -55.5t-78 -45t-57 -38t-43 -35.5l9 93
q22 -25 47.5 -54.5t52 -63t50.5 -73t42 -85.5q16 -39 32.5 -57.5t39.5 -23t54 -4.5q40 0 59.5 -24t19.5 -56q0 -37 -23.5 -60.5t-65.5 -23.5q-50 0 -88 12t-62.5 38.5t-34.5 71.5h59q-15 -29 -37 -52t-51.5 -38.5t-67.5 -23.5t-84 -8h-103zM179 729q-34 0 -57 23.5t-23 55.5
q0 34 23 58.5t57 24.5q33 0 56 -24.5t23 -57.5t-23 -56.5t-56 -23.5z" />
    <glyph glyph-name="uni06AC.fina" unicode="&#x6ac;" horiz-adv-x="960" 
d="M412 -21l26 164q87 -2 142 5t84 28.5t39 63t6 109.5l-22 411h169l20 -428q4 -72 13.5 -109.5t29 -50.5t51.5 -13q40 0 59.5 -24t19.5 -56q0 -37 -23.5 -60.5t-65.5 -23.5q-36 0 -72 13t-63 44t-37 85h60q-25 -55 -71 -87.5t-105.5 -48t-126 -19.5t-133.5 -3zM365 224
l-30 116q36 7 59.5 14t34.5 14.5t11 17.5q0 7 -9 18.5t-21.5 25t-21.5 31t-9 38.5q0 30 16 55t48.5 46t83.5 40l51 -105q-39 -14 -55.5 -27t-16.5 -26q0 -10 9.5 -22.5t21.5 -28t22 -33t10 -37.5q0 -18 -6 -36.5t-26.5 -36.5t-61 -34t-110.5 -30zM412 -21q-110 0 -183 20
t-116 54t-61 77t-18 89q0 40 7 77.5t16.5 70.5t18.5 58l143 -37q-5 -19 -10.5 -40t-8.5 -41.5t-3 -40.5q0 -35 19.5 -63.5t71.5 -44t150 -15.5l20 -132zM481 666q-34 0 -57 23.5t-23 55.5q0 34 23 58.5t57 24.5q33 0 56 -24.5t23 -57.5t-23 -56.5t-56 -23.5z" />
    <glyph glyph-name="uni06AE.init" unicode="&#x6ae;" horiz-adv-x="432" 
d="M0 -5l10 164h120q16 0 27 2t17.5 6t9.5 11.5t3 17.5q0 28 -19.5 59.5t-44.5 60.5q-22 27 -39.5 46t-29 33t-18 24.5t-6.5 18.5q0 15 2.5 37t7 42t11.5 27q17 18 46.5 40t69 47t88 52t105.5 56l78 -138q-57 -28 -101 -52t-77.5 -44t-58.5 -38t-43 -35l3 89
q45 -42 82.5 -85t65 -85t42.5 -82.5t15 -79.5q0 -33 -13.5 -67.5t-43.5 -63t-79 -46t-120 -17.5h-110zM195 -390q-31 0 -52 21t-21 52q0 30 21 52.5t52 22.5q30 0 51 -22.5t21 -52.5q0 -31 -21 -52t-51 -21zM107 -234q-31 0 -52 21t-21 52q0 30 21 52.5t52 22.5t52 -22.5
t21 -52.5q0 -31 -21 -52t-52 -21zM287 -234q-31 0 -52 21t-21 52q0 30 21 52.5t52 22.5q32 0 52.5 -22.5t20.5 -52.5q0 -31 -20.5 -52t-52.5 -21z" />
    <glyph glyph-name="uni06AE.medi" unicode="&#x6ae;" horiz-adv-x="469" 
d="M0 -5l10 164h114q25 0 38.5 3.5t19 12t5.5 21.5q0 20 -11.5 43.5t-29.5 47.5t-38.5 47.5t-38 44t-29 36.5t-11.5 24q0 18 2.5 40t7 40t11.5 25q17 18 44.5 39t65.5 45t87.5 51.5t112.5 59.5l78 -138q-63 -31 -108 -55.5t-78 -45t-57 -38t-43 -35.5l9 93
q22 -25 47.5 -54.5t52 -63t50.5 -73t42 -85.5q16 -39 32.5 -57.5t39.5 -23t54 -4.5q40 0 59.5 -24t19.5 -56q0 -37 -23.5 -60.5t-65.5 -23.5q-50 0 -88 12t-62.5 38.5t-34.5 71.5h59q-15 -29 -37 -52t-51.5 -38.5t-67.5 -23.5t-84 -8h-103zM188 -390q-31 0 -52 21t-21 52
q0 30 21 52.5t52 22.5q30 0 51 -22.5t21 -52.5q0 -31 -21 -52t-51 -21zM100 -234q-31 0 -52 21t-21 52q0 30 21 52.5t52 22.5t52 -22.5t21 -52.5q0 -31 -21 -52t-52 -21zM280 -234q-31 0 -52 21t-21 52q0 30 21 52.5t52 22.5q32 0 52.5 -22.5t20.5 -52.5q0 -31 -20.5 -52
t-52.5 -21z" />
    <glyph glyph-name="uni06AE.fina" unicode="&#x6ae;" horiz-adv-x="960" 
d="M412 -21l26 164q87 -2 142 5t84 28.5t39 63t6 109.5l-22 411h169l20 -428q4 -72 13.5 -109.5t29 -50.5t51.5 -13q40 0 59.5 -24t19.5 -56q0 -37 -23.5 -60.5t-65.5 -23.5q-36 0 -72 13t-63 44t-37 85h60q-25 -55 -71 -87.5t-105.5 -48t-126 -19.5t-133.5 -3zM365 224
l-30 116q36 7 59.5 14t34.5 14.5t11 17.5q0 7 -9 18.5t-21.5 25t-21.5 31t-9 38.5q0 30 16 55t48.5 46t83.5 40l51 -105q-39 -14 -55.5 -27t-16.5 -26q0 -10 9.5 -22.5t21.5 -28t22 -33t10 -37.5q0 -18 -6 -36.5t-26.5 -36.5t-61 -34t-110.5 -30zM412 -21q-110 0 -183 20
t-116 54t-61 77t-18 89q0 40 7 77.5t16.5 70.5t18.5 58l143 -37q-5 -19 -10.5 -40t-8.5 -41.5t-3 -40.5q0 -35 19.5 -63.5t71.5 -44t150 -15.5l20 -132zM437 -411q-31 0 -52 21t-21 52q0 30 21 52.5t52 22.5q30 0 51 -22.5t21 -52.5q0 -31 -21 -52t-51 -21zM349 -255
q-31 0 -52 21t-21 52q0 30 21 52.5t52 22.5t52 -22.5t21 -52.5q0 -31 -21 -52t-52 -21zM529 -255q-31 0 -52 21t-21 52q0 30 21 52.5t52 22.5q32 0 52.5 -22.5t20.5 -52.5q0 -31 -20.5 -52t-52.5 -21z" />
    <glyph glyph-name="uni06B0.init" unicode="&#x6b0;" horiz-adv-x="430" 
d="M339 423q-39 0 -66 27.5t-27 66.5t27 66t66 27q40 0 67 -27t27 -66t-27 -66.5t-67 -27.5zM339 489q12 0 21 8t9 20q0 13 -9 20.5t-21 7.5q-11 0 -20.5 -8t-9.5 -20t9.5 -20t20.5 -8zM29 619l-66 115q36 23 79 49.5t99 58t125 70.5l65 -121q-70 -37 -124.5 -67.5t-98 -56
t-79.5 -48.5zM0 -5l10 164h120q16 0 27 2t17.5 6t9.5 11.5t3 17.5q0 28 -19.5 59.5t-44.5 60.5q-22 27 -39.5 46t-29 33t-18 24.5t-6.5 18.5q0 15 2.5 37t7 42t11.5 27q17 18 46.5 40t69 47t88 52t105.5 56l78 -138q-57 -28 -101 -52t-77.5 -44t-58.5 -38t-43 -35l3 89
q45 -42 82.5 -85t65 -85t42.5 -82.5t15 -79.5q0 -33 -13.5 -67.5t-43.5 -63t-79 -46t-120 -17.5h-110z" />
    <glyph glyph-name="uni06B0.medi" unicode="&#x6b0;" horiz-adv-x="469" 
d="M339 423q-39 0 -66 27.5t-27 66.5t27 66t66 27q40 0 67 -27t27 -66t-27 -66.5t-67 -27.5zM339 489q12 0 21 8t9 20q0 13 -9 20.5t-21 7.5q-11 0 -20.5 -8t-9.5 -20t9.5 -20t20.5 -8zM30 619l-66 115q35 23 78.5 49.5t99.5 58t125 70.5l65 -121q-70 -37 -124.5 -67.5
t-98 -56t-79.5 -48.5zM0 -5l10 164h114q25 0 38.5 3.5t19 12t5.5 21.5q0 20 -11.5 43.5t-29.5 47.5t-38.5 47.5t-38 44t-29 36.5t-11.5 24q0 18 2.5 40t7 40t11.5 25q17 18 44.5 39t65.5 45t87.5 51.5t112.5 59.5l78 -138q-63 -31 -108 -55.5t-78 -45t-57 -38t-43 -35.5
l9 93q22 -25 47.5 -54.5t52 -63t50.5 -73t42 -85.5q16 -39 32.5 -57.5t39.5 -23t54 -4.5q40 0 59.5 -24t19.5 -56q0 -37 -23.5 -60.5t-65.5 -23.5q-50 0 -88 12t-62.5 38.5t-34.5 71.5h59q-15 -29 -37 -52t-51.5 -38.5t-67.5 -23.5t-84 -8h-103z" />
    <glyph glyph-name="uni06B0.fina" unicode="&#x6b0;" horiz-adv-x="914" 
d="M786 424q-39 0 -66 27t-27 66t27 66.5t66 27.5q40 0 67 -27.5t27 -66.5t-27 -66t-67 -27zM786 490q12 0 21 7.5t9 19.5q0 13 -9 21t-21 8q-11 0 -20 -8.5t-9 -20.5t9 -19.5t20 -7.5zM481 618l-67 115q36 23 79.5 49t99 57.5t124.5 71.5l65 -121q-69 -37 -124 -68
t-98.5 -56.5t-78.5 -47.5zM412 -21l26 164q47 0 82.5 2.5t60.5 9.5t37.5 19t12.5 29q0 18 -11 39t-29 44.5t-38 46.5t-38 43.5t-29.5 36t-11.5 24.5q0 18 2.5 39.5t7 40t11.5 25.5q21 25 61 53.5t101 64.5t146 79l78 -138q-66 -34 -118.5 -63.5t-92 -55.5t-68.5 -52l6 90
q25 -26 51.5 -55t52.5 -63t49.5 -73t42.5 -85q11 -27 24.5 -44t31 -26t37 -12t42.5 -3q40 0 59.5 -24t19.5 -56q0 -37 -24 -60.5t-65 -23.5q-46 0 -84.5 11t-65 37.5t-36.5 73.5h44q-22 -43 -57.5 -70t-83.5 -42t-107 -20.5t-127 -5.5zM412 -21q-110 0 -183 20t-116 54
t-61 77t-18 89q0 40 7 77.5t16.5 70.5t18.5 58l143 -37q-5 -19 -10.5 -40t-8.5 -41.5t-3 -40.5q0 -35 19.5 -63.5t71.5 -44t150 -15.5l20 -132z" />
    <glyph glyph-name="uni06B2.init" unicode="&#x6b2;" horiz-adv-x="430" 
d="M29 619l-66 115q36 23 79 49.5t99 58t125 70.5l65 -121q-70 -37 -124.5 -67.5t-98 -56t-79.5 -48.5zM0 -5l10 164h120q16 0 27 2t17.5 6t9.5 11.5t3 17.5q0 28 -19.5 59.5t-44.5 60.5q-22 27 -39.5 46t-29 33t-18 24.5t-6.5 18.5q0 15 2.5 37t7 42t11.5 27q17 18 46.5 40
t69 47t88 52t105.5 56l78 -138q-57 -28 -101 -52t-77.5 -44t-58.5 -38t-43 -35l3 89q45 -42 82.5 -85t65 -85t42.5 -82.5t15 -79.5q0 -33 -13.5 -67.5t-43.5 -63t-79 -46t-120 -17.5h-110zM288 -232q-31 0 -51.5 21t-20.5 52t20.5 52t51.5 21t53 -21t22 -52t-22 -52t-53 -21
zM110 -232q-31 0 -52 21t-21 52t21 52t52 21q30 0 52 -21t22 -52t-22 -52t-52 -21z" />
    <glyph glyph-name="uni06B2.medi" unicode="&#x6b2;" horiz-adv-x="469" 
d="M30 619l-66 115q35 23 78.5 49.5t99.5 58t125 70.5l65 -121q-70 -37 -124.5 -67.5t-98 -56t-79.5 -48.5zM0 -5l10 164h114q25 0 38.5 3.5t19 12t5.5 21.5q0 20 -11.5 43.5t-29.5 47.5t-38.5 47.5t-38 44t-29 36.5t-11.5 24q0 18 2.5 40t7 40t11.5 25q17 18 44.5 39
t65.5 45t87.5 51.5t112.5 59.5l78 -138q-63 -31 -108 -55.5t-78 -45t-57 -38t-43 -35.5l9 93q22 -25 47.5 -54.5t52 -63t50.5 -73t42 -85.5q16 -39 32.5 -57.5t39.5 -23t54 -4.5q40 0 59.5 -24t19.5 -56q0 -37 -23.5 -60.5t-65.5 -23.5q-50 0 -88 12t-62.5 38.5t-34.5 71.5
h59q-15 -29 -37 -52t-51.5 -38.5t-67.5 -23.5t-84 -8h-103zM307 -232q-31 0 -51.5 21t-20.5 52t20.5 52t51.5 21t53 -21t22 -52t-22 -52t-53 -21zM129 -232q-31 0 -52 21t-21 52t21 52t52 21q30 0 52 -21t22 -52t-22 -52t-52 -21z" />
    <glyph glyph-name="uni06B2.fina" unicode="&#x6b2;" horiz-adv-x="914" 
d="M481 618l-67 115q36 23 79.5 49t99 57.5t124.5 71.5l65 -121q-69 -37 -124 -68t-98.5 -56.5t-78.5 -47.5zM412 -21l26 164q47 0 82.5 2.5t60.5 9.5t37.5 19t12.5 29q0 18 -11 39t-29 44.5t-38 46.5t-38 43.5t-29.5 36t-11.5 24.5q0 18 2.5 39.5t7 40t11.5 25.5
q21 25 61 53.5t101 64.5t146 79l78 -138q-66 -34 -118.5 -63.5t-92 -55.5t-68.5 -52l6 90q25 -26 51.5 -55t52.5 -63t49.5 -73t42.5 -85q11 -27 24.5 -44t31 -26t37 -12t42.5 -3q40 0 59.5 -24t19.5 -56q0 -37 -24 -60.5t-65 -23.5q-46 0 -84.5 11t-65 37.5t-36.5 73.5h44
q-22 -43 -57.5 -70t-83.5 -42t-107 -20.5t-127 -5.5zM412 -21q-110 0 -183 20t-116 54t-61 77t-18 89q0 40 7 77.5t16.5 70.5t18.5 58l143 -37q-5 -19 -10.5 -40t-8.5 -41.5t-3 -40.5q0 -35 19.5 -63.5t71.5 -44t150 -15.5l20 -132zM501 -253q-31 0 -51.5 21t-20.5 52
t20.5 52t51.5 21t53 -21t22 -52t-22 -52t-53 -21zM323 -253q-31 0 -52 21t-21 52t21 52t52 21q30 0 52 -21t22 -52t-22 -52t-52 -21z" />
    <glyph glyph-name="uni06B4.init" unicode="&#x6b4;" horiz-adv-x="430" 
d="M14 973q-23 0 -39 15.5t-16 37.5q0 23 16 39t39 16q22 0 37 -16t15 -39q0 -22 -15 -37.5t-37 -15.5zM3 834q-23 0 -38.5 15t-15.5 38t15.5 39t38.5 16q22 0 37.5 -16t15.5 -39t-15.5 -38t-37.5 -15zM130 895q-23 0 -38.5 15.5t-15.5 37.5q0 24 15.5 40t38.5 16
q22 0 37 -16t15 -40q0 -22 -15 -37.5t-37 -15.5zM29 619l-66 115q36 23 79 49.5t99 58t125 70.5l65 -121q-70 -37 -124.5 -67.5t-98 -56t-79.5 -48.5zM0 -5l10 164h120q16 0 27 2t17.5 6t9.5 11.5t3 17.5q0 28 -19.5 59.5t-44.5 60.5q-22 27 -39.5 46t-29 33t-18 24.5
t-6.5 18.5q0 15 2.5 37t7 42t11.5 27q17 18 46.5 40t69 47t88 52t105.5 56l78 -138q-57 -28 -101 -52t-77.5 -44t-58.5 -38t-43 -35l3 89q45 -42 82.5 -85t65 -85t42.5 -82.5t15 -79.5q0 -33 -13.5 -67.5t-43.5 -63t-79 -46t-120 -17.5h-110z" />
    <glyph glyph-name="uni06B4.medi" unicode="&#x6b4;" horiz-adv-x="469" 
d="M14 973q-23 0 -39 15.5t-16 37.5q0 23 16 39t39 16q22 0 37 -16t15 -39q0 -22 -15 -37.5t-37 -15.5zM3 834q-23 0 -38.5 15t-15.5 38t15.5 39t38.5 16q22 0 37.5 -16t15.5 -39t-15.5 -38t-37.5 -15zM130 895q-23 0 -38.5 15.5t-15.5 37.5q0 24 15.5 40t38.5 16
q22 0 37 -16t15 -40q0 -22 -15 -37.5t-37 -15.5zM30 619l-66 115q35 23 78.5 49.5t99.5 58t125 70.5l65 -121q-70 -37 -124.5 -67.5t-98 -56t-79.5 -48.5zM0 -5l10 164h114q25 0 38.5 3.5t19 12t5.5 21.5q0 20 -11.5 43.5t-29.5 47.5t-38.5 47.5t-38 44t-29 36.5t-11.5 24
q0 18 2.5 40t7 40t11.5 25q17 18 44.5 39t65.5 45t87.5 51.5t112.5 59.5l78 -138q-63 -31 -108 -55.5t-78 -45t-57 -38t-43 -35.5l9 93q22 -25 47.5 -54.5t52 -63t50.5 -73t42 -85.5q16 -39 32.5 -57.5t39.5 -23t54 -4.5q40 0 59.5 -24t19.5 -56q0 -37 -23.5 -60.5
t-65.5 -23.5q-50 0 -88 12t-62.5 38.5t-34.5 71.5h59q-15 -29 -37 -52t-51.5 -38.5t-67.5 -23.5t-84 -8h-103z" />
    <glyph glyph-name="uni06B4.fina" unicode="&#x6b4;" horiz-adv-x="914" 
d="M468 972q-23 0 -39 15.5t-16 38.5q0 22 16 38.5t39 16.5q22 0 37 -16.5t15 -38.5q0 -23 -15 -38.5t-37 -15.5zM457 833q-22 0 -38 15.5t-16 37.5q0 23 16 39.5t38 16.5t37.5 -16.5t15.5 -39.5q0 -22 -15.5 -37.5t-37.5 -15.5zM584 895q-23 0 -38.5 15t-15.5 38t15.5 39
t38.5 16q22 0 37.5 -16t15.5 -39t-15.5 -38t-37.5 -15zM481 618l-67 115q36 23 79.5 49t99 57.5t124.5 71.5l65 -121q-69 -37 -124 -68t-98.5 -56.5t-78.5 -47.5zM412 -21l26 164q47 0 82.5 2.5t60.5 9.5t37.5 19t12.5 29q0 18 -11 39t-29 44.5t-38 46.5t-38 43.5t-29.5 36
t-11.5 24.5q0 18 2.5 39.5t7 40t11.5 25.5q21 25 61 53.5t101 64.5t146 79l78 -138q-66 -34 -118.5 -63.5t-92 -55.5t-68.5 -52l6 90q25 -26 51.5 -55t52.5 -63t49.5 -73t42.5 -85q11 -27 24.5 -44t31 -26t37 -12t42.5 -3q40 0 59.5 -24t19.5 -56q0 -37 -24 -60.5t-65 -23.5
q-46 0 -84.5 11t-65 37.5t-36.5 73.5h44q-22 -43 -57.5 -70t-83.5 -42t-107 -20.5t-127 -5.5zM412 -21q-110 0 -183 20t-116 54t-61 77t-18 89q0 40 7 77.5t16.5 70.5t18.5 58l143 -37q-5 -19 -10.5 -40t-8.5 -41.5t-3 -40.5q0 -35 19.5 -63.5t71.5 -44t150 -15.5l20 -132z
" />
    <glyph glyph-name="uni06B5.init" unicode="&#x6b5;" horiz-adv-x="307" 
d="M0 -5l10 164q34 0 49.5 9t19.5 37.5t1 86.5l-19 468h173l21 -490q3 -61 -4 -111.5t-32.5 -87t-77.5 -56.5t-141 -20zM116 838q-6 16 -16 39.5t-21.5 50.5t-22 51.5t-18.5 41.5l62 27q5 -13 14 -35t19.5 -46.5t20.5 -47t17 -35.5l20 -40zM191 844l-54 19q5 16 14 43
t18.5 56t17.5 53.5t12 35.5l62 -20q-4 -13 -13.5 -38t-20.5 -54t-20.5 -54.5t-15.5 -40.5z" />
    <glyph glyph-name="uni06B5.medi" unicode="&#x6b5;" horiz-adv-x="330" 
d="M0 -5l10 164q31 0 46.5 9.5t20 38t2.5 85.5l-15 468h173l17 -467q2 -57 9 -86t25 -38.5t52 -9.5q41 0 60.5 -24t19.5 -56q0 -38 -24 -61t-66 -23q-35 0 -74 11t-68.5 42t-38.5 89h59q-21 -53 -50 -84.5t-68 -44.5t-90 -13zM117 838q-6 16 -16 39.5t-21.5 50.5t-22 51.5
t-18.5 41.5l62 27q5 -13 14 -35t19.5 -46.5t20.5 -47t17 -35.5l20 -40zM192 844l-54 19q5 16 14 43t18.5 56t17.5 53.5t12 35.5l62 -20q-4 -13 -13.5 -38t-20.5 -54t-20.5 -54.5t-15.5 -40.5z" />
    <glyph glyph-name="uni06B5.fina" unicode="&#x6b5;" horiz-adv-x="741" 
d="M24 35q0 28 4 59t15.5 72t35.5 99l152 -54q-14 -39 -21.5 -64t-10 -45t-2.5 -46q0 -38 16 -65.5t45.5 -42.5t70.5 -15q61 0 93.5 26t44 81.5t8.5 142.5l-20 577h173l16 -467q2 -57 11.5 -86t32.5 -38.5t63 -9.5t59.5 -24t19.5 -56q0 -40 -24 -62t-65 -22q-16 0 -40 4
t-49.5 16.5t-46 37.5t-28.5 66l66 -44q-7 -68 -29 -124.5t-60 -97t-95 -62t-134 -21.5q-57 0 -110.5 15t-96.5 46.5t-68.5 82t-25.5 121.5zM183 559q-6 16 -16 39.5t-21.5 50.5t-22 51.5t-18.5 41.5l62 27q5 -13 14 -35t19.5 -46.5t20.5 -47t17 -35.5l20 -40zM258 565
l-54 19q5 16 14 43t18.5 56t17.5 53.5t12 35.5l62 -20q-4 -13 -13.5 -38t-20.5 -54t-20.5 -54.5t-15.5 -40.5z" />
    <glyph glyph-name="uni06B6.init" unicode="&#x6b6;" horiz-adv-x="307" 
d="M0 -5l10 164q34 0 49.5 9t19.5 37.5t1 86.5l-19 468h173l21 -490q3 -61 -4 -111.5t-32.5 -87t-77.5 -56.5t-141 -20zM152 831q-34 0 -57 23.5t-23 55.5q0 34 23 58.5t57 24.5q33 0 56 -24.5t23 -57.5t-23 -56.5t-56 -23.5z" />
    <glyph glyph-name="uni06B6.medi" unicode="&#x6b6;" horiz-adv-x="330" 
d="M0 -5l10 164q31 0 46.5 9.5t20 38t2.5 85.5l-15 468h173l17 -467q2 -57 9 -86t25 -38.5t52 -9.5q41 0 60.5 -24t19.5 -56q0 -38 -24 -61t-66 -23q-35 0 -74 11t-68.5 42t-38.5 89h59q-21 -53 -50 -84.5t-68 -44.5t-90 -13zM154 831q-34 0 -57 23.5t-23 55.5q0 34 23 58.5
t57 24.5q33 0 56 -24.5t23 -57.5t-23 -56.5t-56 -23.5z" />
    <glyph glyph-name="uni06B6.fina" unicode="&#x6b6;" horiz-adv-x="741" 
d="M24 35q0 28 4 59t15.5 72t35.5 99l152 -54q-14 -39 -21.5 -64t-10 -45t-2.5 -46q0 -38 16 -65.5t45.5 -42.5t70.5 -15q61 0 93.5 26t44 81.5t8.5 142.5l-20 577h173l16 -467q2 -57 11.5 -86t32.5 -38.5t63 -9.5t59.5 -24t19.5 -56q0 -40 -24 -62t-65 -22q-16 0 -40 4
t-49.5 16.5t-46 37.5t-28.5 66l66 -44q-7 -68 -29 -124.5t-60 -97t-95 -62t-134 -21.5q-57 0 -110.5 15t-96.5 46.5t-68.5 82t-25.5 121.5zM220 552q-34 0 -57 23.5t-23 55.5q0 34 23 58.5t57 24.5q33 0 56 -24.5t23 -57.5t-23 -56.5t-56 -23.5z" />
    <glyph glyph-name="uni06B7.init" unicode="&#x6b7;" horiz-adv-x="307" 
d="M0 -5l10 164q34 0 49.5 9t19.5 37.5t1 86.5l-19 468h173l21 -490q3 -61 -4 -111.5t-32.5 -87t-77.5 -56.5t-141 -20zM151 986q-32 0 -53 21.5t-21 50.5q0 31 21 53t53 22q31 0 52.5 -22t21.5 -53q0 -29 -21.5 -50.5t-52.5 -21.5zM66 829q-31 0 -53.5 23t-22.5 53
q0 29 22.5 52t53.5 23q29 0 50.5 -23t21.5 -52q0 -30 -21.5 -53t-50.5 -23zM239 829q-30 0 -50 23t-20 53q0 29 20 52t50 23q31 0 53 -23t22 -52q0 -30 -22 -53t-53 -23z" />
    <glyph glyph-name="uni06B7.medi" unicode="&#x6b7;" horiz-adv-x="330" 
d="M0 -5l10 164q31 0 46.5 9.5t20 38t2.5 85.5l-15 468h173l17 -467q2 -57 9 -86t25 -38.5t52 -9.5q41 0 60.5 -24t19.5 -56q0 -38 -24 -61t-66 -23q-35 0 -74 11t-68.5 42t-38.5 89h59q-21 -53 -50 -84.5t-68 -44.5t-90 -13zM153 986q-32 0 -53 21.5t-21 50.5q0 31 21 53
t53 22q31 0 52.5 -22t21.5 -53q0 -29 -21.5 -50.5t-52.5 -21.5zM68 829q-31 0 -53.5 23t-22.5 53q0 29 22.5 52t53.5 23q29 0 50.5 -23t21.5 -52q0 -30 -21.5 -53t-50.5 -23zM241 829q-30 0 -50 23t-20 53q0 29 20 52t50 23q31 0 53 -23t22 -52q0 -30 -22 -53t-53 -23z" />
    </font>
</defs>
</svg>
