<?xml version="1.0" standalone="no"?>
<!DOCTYPE svg PUBLIC "-//W3C//DTD SVG 1.1//EN" "http://www.w3.org/Graphics/SVG/1.1/DTD/svg11.dtd" >
<svg xmlns="http://www.w3.org/2000/svg" xmlns:xlink="http://www.w3.org/1999/xlink" version="1.1">
<metadata>
Created by FontForge 20170731 at Thu Nov 12 05:28:44 2020
 By Aleksey,,,
Copyright 2015-2020 Google LLC. All Rights Reserved.
</metadata>
<defs>
<font id="NotoSansArabicCondensed-Bold" horiz-adv-x="0" >
  <font-face 
    font-family="Noto Sans Arabic Condensed"
    font-weight="700"
    font-stretch="condensed"
    units-per-em="1000"
    panose-1="0 0 0 0 0 0 0 0 0 0"
    ascent="800"
    descent="-200"
    bbox="-220 -644 2283 1130"
    underline-thickness="50"
    underline-position="-175"
    unicode-range="U+000D-FEFC"
  />
<missing-glyph horiz-adv-x="600" 
d="M94 0v714h411v-714h-411zM145 51h309v612h-309v-612z" />
    <glyph glyph-name="uniFC43" unicode="&#xfedf;&#xfef0;" horiz-adv-x="988" arabic-form="isolated" 
d="M711 -5l9 132q37 0 53.5 10t20.5 39t2 83l-19 477h137l20 -488q3 -58 -3.5 -104.5t-29.5 -79.5t-68.5 -51t-121.5 -18zM30 17q0 22 4 55t16 75t34 93l119 -43q-13 -36 -21.5 -64t-12 -50.5t-3.5 -42.5q0 -33 11.5 -58.5t33.5 -43t54.5 -27.5t75.5 -10q52 0 91.5 9
t66 23.5t39.5 32t13 32.5q0 7 -6 15t-20.5 16.5t-38.5 18t-60 21.5l36 129q43 -18 80.5 -31t70 -22t59.5 -13.5t50 -4.5q32 0 47.5 -18.5t15.5 -45.5q0 -31 -18.5 -49.5t-54.5 -18.5h-11.5t-12 0.5t-11.5 0.5q2 -8 3 -15t1 -15q0 -32 -20.5 -66.5t-63 -64t-107 -47.5
t-151.5 -18q-96 0 -165 26.5t-106.5 81.5t-37.5 139z" />
    <glyph glyph-name="uniFC86" unicode="&#xfee0;&#xfef0;" horiz-adv-x="1014" arabic-form="final" 
d="M711 -5l10 132q34 0 50 10.5t20 39.5t2 83l-16 476h137l18 -474q2 -55 10.5 -84.5t28 -40t54.5 -10.5q33 0 48.5 -18.5t15.5 -45.5q0 -31 -19 -49.5t-54 -18.5q-36 0 -71 11t-60 38.5t-32 77.5h46q-17 -47 -43 -75t-61.5 -40t-83.5 -12zM30 17q0 22 4 55t16 75t34 93
l119 -43q-13 -36 -21.5 -64t-12 -50.5t-3.5 -42.5q0 -33 11.5 -58.5t33.5 -43t54.5 -27.5t75.5 -10q52 0 91.5 9t66 23.5t39.5 32t13 32.5q0 7 -6 15t-20.5 16.5t-38.5 18t-60 21.5l36 129q43 -18 80.5 -31t70 -22t59.5 -13.5t50 -4.5q32 0 47.5 -18.5t15.5 -45.5
q0 -31 -18.5 -49.5t-54.5 -18.5h-11.5t-12 0.5t-11.5 0.5q2 -8 3 -15t1 -15q0 -32 -20.5 -66.5t-63 -64t-107 -47.5t-151.5 -18q-96 0 -165 26.5t-106.5 81.5t-37.5 139z" />
    <glyph glyph-name="uniFD82" unicode="&#xfee0;&#xfea4;&#xfef0;" horiz-adv-x="1583" arabic-form="final" 
d="M1280 -5l10 132q34 0 50 10.5t20 39.5t2 83l-16 476h137l18 -474q2 -55 10.5 -84.5t28 -40t54.5 -10.5q33 0 48.5 -18.5t15.5 -45.5q0 -31 -19 -49.5t-54 -18.5q-36 0 -71 11t-60 38.5t-32 77.5h46q-17 -47 -43 -75t-61.5 -40t-83.5 -12zM1280 -5q-32 0 -62.5 7.5
t-57.5 25t-48.5 48.5t-35.5 77l77 57q14 -34 34.5 -52t46.5 -24.5t56 -6.5q33 0 48.5 -18.5t15.5 -45.5q0 -31 -19 -49.5t-55 -18.5zM711 -5l9 132q46 0 91.5 7t90.5 20.5t88.5 34.5t85.5 50q-33 19 -66 32t-65.5 19.5t-66.5 6.5q-16 0 -31 -1t-30.5 -3.5t-31.5 -6.5
l-23 132q27 8 54.5 11.5t54.5 3.5q54 0 97 -12t77.5 -29.5t63.5 -35t55 -29.5t52 -12h26l16 -122q-34 -3 -65 -18.5t-63.5 -38t-71.5 -47t-88 -46t-112.5 -35t-146.5 -13.5zM30 17q0 22 4 55t16 75t34 93l119 -43q-13 -36 -21.5 -64t-12 -50.5t-3.5 -42.5q0 -33 11.5 -58.5
t33.5 -43t54.5 -27.5t75.5 -10q52 0 91.5 9t66 23.5t39.5 32t13 32.5q0 7 -6 15t-20.5 16.5t-38.5 18t-60 21.5l36 129q43 -18 80.5 -31t70 -22t59.5 -13.5t50 -4.5q32 0 47.5 -18.5t15.5 -45.5q0 -31 -18.5 -49.5t-54.5 -18.5h-11.5t-12 0.5t-11.5 0.5q2 -8 3 -15t1 -15
q0 -32 -20.5 -66.5t-63 -64t-107 -47.5t-151.5 -18q-96 0 -165 26.5t-106.5 81.5t-37.5 139z" />
    <glyph glyph-name="uniFDF2" unicode="&#x627;&#xfedf;&#xfee0;&#xfeea;" horiz-adv-x="1347" arabic-form="isolated" 
d="M508 -5q-43 0 -78.5 9t-62 29.5t-43.5 54.5q-56 -10 -109.5 -6t-96.5 24t-68 57t-25 93q0 66 34.5 116.5t93.5 86t133 54.5l-4 78h134l17 -361q2 -42 10.5 -64.5t26.5 -30.5t48 -8t45.5 10t20 38.5t2.5 84.5l-13 371h137l14 -369q3 -56 11 -86t27.5 -40.5t52.5 -10.5
q36 0 52 10t20 39.5t2 84.5l-19 477h136l21 -488q2 -58 -4.5 -104.5t-28.5 -79.5t-67.5 -51t-121.5 -18q-26 0 -53 6.5t-50 22.5t-38 42q-26 -37 -64.5 -54t-91.5 -17zM300 213l-8 166q-39 -8 -69.5 -24.5t-47 -39t-16.5 -47.5q0 -18 12 -31.5t32 -20t45.5 -7.5t51.5 4z
M1154 0l-21 736h136l21 -736h-136zM547 695q-39 0 -52 26t-13 60q0 11 1.5 22t4.5 27l58 13q-3 -16 -4.5 -29.5t-1.5 -24.5q0 -16 4.5 -23.5t14.5 -7.5q12 0 19 14.5t7 54.5v30l52 16v-58q0 -13 5 -21t16 -8q13 0 17.5 9.5t4.5 23.5q0 17 -4 33.5t-9 32.5l53 12
q9 -17 15 -40t6 -42q0 -36 -17.5 -62.5t-59.5 -26.5q-24 0 -43 16.5t-19 43.5l21 -8q0 -38 -22.5 -60.5t-53.5 -22.5zM571 932l-5 163h76l6 -163h-77z" />
    <glyph glyph-name="uniFEF5" unicode="&#xfedf;&#xfe82;" horiz-adv-x="717" arabic-form="isolated" 
d="M364 536q0 33 -3.5 66t-8.5 62.5t-9 51.5l134 20q4 -20 8 -53t7 -69.5t3 -69.5q0 -46 -8.5 -87.5t-25 -80.5t-40.5 -76l-21 -30q-25 -36 -58 -70.5t-71 -68.5h56q35 0 53.5 4.5t25 13t6.5 19.5q0 22 -28.5 57.5t-80 81t-120 97t-147.5 104.5l69 107q109 -73 185.5 -134
t126.5 -111t77.5 -91t38.5 -73.5t11 -58.5q0 -29 -9 -55.5t-29 -47t-52 -32.5t-79 -12h-267v134q92 74 148 140t82 130t26 132zM200 674q-29 0 -52.5 10t-43 19.5t-35.5 9.5q-17 0 -31.5 -8.5t-30.5 -24.5l-43 45q26 33 51.5 49t52.5 16q25 0 45.5 -9.5t41.5 -19t45 -9.5
q15 0 29 5t33 17l33 -55q-34 -29 -57 -37t-38 -8z" />
    <glyph glyph-name="uniFEF6" unicode="&#xfee0;&#xfe82;" horiz-adv-x="631" arabic-form="final" 
d="M632 -5q-56 0 -97 10.5t-68.5 33t-41.5 56.5t-16 81l-22 560h134l22 -493q2 -50 10.5 -74.5t29 -33t54.5 -8.5q37 0 53 -18t16 -43q0 -31 -17.5 -51t-56.5 -20zM143 -5q-32 0 -59.5 4.5t-38.5 6.5l19 141q69 -10 130 -4t107.5 33t73 79.5t26.5 135.5l54 -157
q-11 -64 -36.5 -107.5t-60.5 -69.5t-73.5 -39.5t-75 -18t-66.5 -4.5zM334 132q-13 29 -38.5 68.5t-62.5 88t-86.5 103t-110.5 112.5l87 95q84 -88 137.5 -148t84.5 -100.5t47.5 -69.5t28.5 -56zM200 674q-29 0 -52.5 10t-43 19.5t-35.5 9.5q-17 0 -31.5 -8.5t-30.5 -24.5
l-43 45q26 33 51.5 49t52.5 16q25 0 45.5 -9.5t41.5 -19t45 -9.5q15 0 29 5t33 17l33 -55q-34 -29 -57 -37t-38 -8z" />
    <glyph glyph-name="uniFEF7" unicode="&#xfedf;&#xfe84;" horiz-adv-x="628" arabic-form="isolated" 
d="M364 536q0 33 -3.5 66t-8.5 62.5t-9 51.5l134 20q4 -20 8 -53t7 -69.5t3 -69.5q0 -46 -8.5 -87.5t-25 -80.5t-40.5 -76l-21 -30q-25 -36 -58 -70.5t-71 -68.5h56q35 0 53.5 4.5t25 13t6.5 19.5q0 22 -28.5 57.5t-80 81t-120 97t-147.5 104.5l69 107q109 -73 185.5 -134
t126.5 -111t77.5 -91t38.5 -73.5t11 -58.5q0 -29 -9 -55.5t-29 -47t-52 -32.5t-79 -12h-267v134q92 74 148 140t82 130t26 132zM33 660l-15 61q33 6 49.5 10t34.5 8l-11 -24q-24 8 -46 32t-22 59q0 31 13.5 50.5t36 29.5t49.5 10q12 0 26 -2t24 -6l-7 -59q-9 2 -19 3.5
t-19 1.5q-18 0 -28 -8.5t-10 -21.5q0 -17 11.5 -30t26.5 -20t26 -8l-44 -5q25 7 47 14t41 14l18 -59q-23 -8 -54 -17.5t-63.5 -18t-64.5 -14.5z" />
    <glyph glyph-name="uniFEF8" unicode="&#xfee0;&#xfe84;" horiz-adv-x="647" arabic-form="final" 
d="M632 -5q-56 0 -97 10.5t-68.5 33t-41.5 56.5t-16 81l-22 560h134l22 -493q2 -50 10.5 -74.5t29 -33t54.5 -8.5q37 0 53 -18t16 -43q0 -31 -17.5 -51t-56.5 -20zM143 -5q-32 0 -59.5 4.5t-38.5 6.5l19 141q69 -10 130 -4t107.5 33t73 79.5t26.5 135.5l54 -157
q-11 -64 -36.5 -107.5t-60.5 -69.5t-73.5 -39.5t-75 -18t-66.5 -4.5zM334 132q-13 29 -38.5 68.5t-62.5 88t-86.5 103t-110.5 112.5l87 95q84 -88 137.5 -148t84.5 -100.5t47.5 -69.5t28.5 -56zM51 660l-15 61q33 6 49.5 10t34.5 8l-11 -24q-24 8 -46 32t-22 59
q0 31 13.5 50.5t36 29.5t49.5 10q12 0 26 -2t24 -6l-7 -59q-9 2 -19 3.5t-19 1.5q-18 0 -28 -8.5t-10 -21.5q0 -17 11.5 -30t26.5 -20t26 -8l-44 -5q25 7 47 14t41 14l18 -59q-23 -8 -54 -17.5t-63.5 -18t-64.5 -14.5z" />
    <glyph glyph-name="uniFEF9" unicode="&#xfedf;&#xfe88;" horiz-adv-x="600" arabic-form="isolated" 
d="M364 536q0 33 -3.5 66t-8.5 62.5t-9 51.5l134 20q4 -20 8 -53t7 -69.5t3 -69.5q0 -46 -8.5 -87.5t-25 -80.5t-40.5 -76l-21 -30q-25 -36 -58 -70.5t-71 -68.5h56q35 0 53.5 4.5t25 13t6.5 19.5q0 22 -28.5 57.5t-80 81t-120 97t-147.5 104.5l69 107q109 -73 185.5 -134
t126.5 -111t77.5 -91t38.5 -73.5t11 -58.5q0 -29 -9 -55.5t-29 -47t-52 -32.5t-79 -12h-267v134q92 74 148 140t82 130t26 132zM97 -300l-15 61q33 6 49.5 10t34.5 8l-11 -24q-24 8 -46 32t-22 59q0 31 13.5 50.5t36 29.5t49.5 10q12 0 26 -2t24 -6l-7 -59q-9 2 -19 3.5
t-19 1.5q-18 0 -28 -8.5t-10 -21.5q0 -17 11.5 -30t26.5 -20t26 -8l-44 -5q25 7 47 14t41 14l18 -59q-23 -8 -54 -17.5t-63.5 -18t-64.5 -14.5z" />
    <glyph glyph-name="uniFEFA" unicode="&#xfee0;&#xfe88;" horiz-adv-x="631" arabic-form="final" 
d="M632 -5q-56 0 -97 10.5t-68.5 33t-41.5 56.5t-16 81l-22 560h134l22 -493q2 -50 10.5 -74.5t29 -33t54.5 -8.5q37 0 53 -18t16 -43q0 -31 -17.5 -51t-56.5 -20zM143 -5q-32 0 -59.5 4.5t-38.5 6.5l19 141q69 -10 130 -4t107.5 33t73 79.5t26.5 135.5l54 -157
q-11 -64 -36.5 -107.5t-60.5 -69.5t-73.5 -39.5t-75 -18t-66.5 -4.5zM334 132q-13 29 -38.5 68.5t-62.5 88t-86.5 103t-110.5 112.5l87 95q84 -88 137.5 -148t84.5 -100.5t47.5 -69.5t28.5 -56zM96 -300l-15 61q33 6 49.5 10t34.5 8l-11 -24q-24 8 -46 32t-22 59
q0 31 13.5 50.5t36 29.5t49.5 10q12 0 26 -2t24 -6l-7 -59q-9 2 -19 3.5t-19 1.5q-18 0 -28 -8.5t-10 -21.5q0 -17 11.5 -30t26.5 -20t26 -8l-44 -5q25 7 47 14t41 14l18 -59q-23 -8 -54 -17.5t-63.5 -18t-64.5 -14.5z" />
    <glyph glyph-name="uniFEFB" unicode="&#xfedf;&#xfe8e;" horiz-adv-x="600" arabic-form="isolated" 
d="M364 536q0 33 -3.5 66t-8.5 62.5t-9 51.5l134 20q4 -20 8 -53t7 -69.5t3 -69.5q0 -46 -8.5 -87.5t-25 -80.5t-40.5 -76l-21 -30q-25 -36 -58 -70.5t-71 -68.5h56q35 0 53.5 4.5t25 13t6.5 19.5q0 22 -28.5 57.5t-80 81t-120 97t-147.5 104.5l69 107q109 -73 185.5 -134
t126.5 -111t77.5 -91t38.5 -73.5t11 -58.5q0 -29 -9 -55.5t-29 -47t-52 -32.5t-79 -12h-267v134q92 74 148 140t82 130t26 132z" />
    <glyph glyph-name="uniFEFC" unicode="&#xfee0;&#xfe8e;" horiz-adv-x="631" arabic-form="final" 
d="M632 -5q-56 0 -97 10.5t-68.5 33t-41.5 56.5t-16 81l-22 560h134l22 -493q2 -50 10.5 -74.5t29 -33t54.5 -8.5q37 0 53 -18t16 -43q0 -31 -17.5 -51t-56.5 -20zM143 -5q-32 0 -59.5 4.5t-38.5 6.5l19 141q69 -10 130 -4t107.5 33t73 79.5t26.5 135.5l54 -157
q-11 -64 -36.5 -107.5t-60.5 -69.5t-73.5 -39.5t-75 -18t-66.5 -4.5zM334 132q-13 29 -38.5 68.5t-62.5 88t-86.5 103t-110.5 112.5l87 95q84 -88 137.5 -148t84.5 -100.5t47.5 -69.5t28.5 -56z" />
    <glyph glyph-name="lam_alefMaksura_meemar" unicode="&#xfedf;&#xfbe9;&#xfee2;" horiz-adv-x="1151" 
d="M874 -5l9 132q37 0 53.5 10t20.5 39t2 83l-19 477h137l20 -488q3 -58 -3.5 -104.5t-29.5 -79.5t-68.5 -51t-121.5 -18zM598 -5l10 132q28 0 47 7t28.5 24.5t9.5 49.5q0 30 -7 70t-18.5 82.5t-23.5 78.5l127 36q13 -34 25 -79t20 -94t8 -96q0 -53 -13.5 -89.5t-36 -60.5
t-52 -37t-61.5 -18.5t-63 -5.5zM81 -389q-23 80 -38 153.5t-22 131t-7 88.5q0 95 26 167.5t67.5 124t88.5 84.5t91.5 48t74.5 15q37 0 59.5 -20t38.5 -56.5t35 -84.5q22 -53 39.5 -82.5t35.5 -41t38 -11.5q32 0 48 -18.5t16 -45.5q0 -29 -19 -48.5t-55 -19.5q-41 0 -73 17
t-59 49l25 19q-9 -28 -25.5 -50t-41.5 -35t-59 -13q-24 0 -51.5 6t-57.5 22.5t-60 48t-58 82.5l38 -1q-19 -38 -26.5 -77.5t-7.5 -75.5q0 -32 5.5 -74t14.5 -88t20.5 -91.5t22.5 -85.5zM368 111q18 0 28 7.5t12 19.5t-3 25q-15 41 -25.5 66.5t-17.5 39t-13 18.5t-13 5
q-11 0 -29.5 -10.5t-37 -25t-32 -29.5t-16.5 -23l-9 37q21 -35 46 -65t53 -47.5t57 -17.5z" />
    <glyph glyph-name="lam_alefWaslaar" unicode="&#xfedf;&#xfb51;" horiz-adv-x="562" 
d="M139 681q-21 0 -49 2t-52.5 4.5t-37.5 4.5l6 61q14 -2 37 -4.5t48.5 -4.5t47.5 -2q50 0 66 12t16 27q0 18 -10 26t-22 8t-26.5 -9t-28 -27t-25.5 -43l-69 1q11 30 32 62.5t51 55.5t69 23q38 0 65 -25t27 -68q0 -27 -12.5 -51t-44 -38.5t-88.5 -14.5zM364 536
q0 33 -3.5 66t-8.5 62.5t-9 51.5l135 20q3 -20 7 -53t7 -69.5t3 -69.5q0 -46 -8.5 -87.5t-25 -80.5t-40.5 -76l-21 -30q-25 -36 -58 -70.5t-71 -68.5h56q35 0 53.5 4.5t25 13t6.5 19.5q0 21 -28.5 57t-80.5 81.5t-120 97t-147 104.5l69 107q109 -73 185.5 -134t126.5 -111
t77.5 -91t38.5 -73.5t11 -58.5q0 -29 -9 -55.5t-29 -47t-52 -32.5t-79 -12h-267v134q92 74 148 140t82 130t26 132z" />
    <glyph glyph-name="lam_alefWaslaar.fina" unicode="&#xfee0;&#xfb51;" horiz-adv-x="724" 
d="M138 681q-20 0 -48 2t-52.5 4.5t-37.5 4.5l6 61q14 -2 37 -4.5t48.5 -4.5t46.5 -2q51 0 67 12t16 27q0 18 -10 26t-22 8t-26.5 -9t-28 -26.5t-25.5 -43.5l-69 1q11 30 32 62.5t51 55.5t68 23q39 0 66 -25t27 -67q0 -28 -12.5 -52t-44 -38.5t-89.5 -14.5zM632 -5
q-56 0 -97 10.5t-68.5 33t-41.5 56.5t-16 81l-22 560h134l22 -493q2 -50 10.5 -74.5t29 -33t54.5 -8.5q37 0 53 -18t16 -43q0 -31 -17.5 -51t-56.5 -20zM143 -5q-32 0 -59.5 4.5t-38.5 6.5l19 141q69 -10 130 -4t107.5 33t73 79.5t26.5 135.5l54 -157q-11 -64 -36.5 -107.5
t-60.5 -69.5t-73.5 -39.5t-75 -18t-66.5 -4.5zM334 132q-13 29 -38.5 68.5t-62.5 88t-86.5 103t-110.5 112.5l87 95q84 -88 137.5 -148t84.5 -100.5t47.5 -69.5t28.5 -56z" />
    <glyph glyph-name="uni0620.init" unicode="&#x620;" horiz-adv-x="342" 
d="M0 -5l10 132q57 0 88.5 6.5t44 24t12.5 49.5q0 31 -7.5 71t-19 82.5t-24.5 78.5l128 36q13 -34 25 -79t20.5 -93t8.5 -93q0 -68 -21.5 -110.5t-60.5 -65t-91 -31t-113 -8.5zM177 -101q-38 0 -63.5 26t-25.5 62q0 37 25.5 62.5t63.5 25.5q36 0 61.5 -25.5t25.5 -62.5
q0 -36 -25.5 -62t-61.5 -26zM176 -43q14 0 23.5 8t9.5 22q0 15 -9.5 23.5t-23.5 8.5q-13 0 -22.5 -9t-9.5 -23q0 -13 9.5 -21.5t22.5 -8.5z" />
    <glyph glyph-name="uni0620.medi" unicode="&#x620;" horiz-adv-x="382" 
d="M0 -5l10 132q34 0 57 7t37.5 28.5t25.5 65t21 115.5l127 -21q-2 -16 -5.5 -35.5t-6 -40t-2.5 -39.5t6 -34t20.5 -25.5t39.5 -15.5t63 -5q33 0 48.5 -18.5t15.5 -45.5q0 -31 -19 -49.5t-55 -18.5q-50 0 -86.5 8t-60.5 25.5t-37.5 44.5t-17.5 65l46 -1q-18 -48 -43.5 -76.5
t-56 -42.5t-63 -18.5t-64.5 -4.5zM125 -106q-37 0 -62.5 26t-25.5 62t25.5 62t62.5 26t62.5 -26t25.5 -63q0 -35 -25.5 -61t-62.5 -26zM125 -49q14 0 23.5 8.5t9.5 22.5t-9.5 22.5t-23.5 8.5t-23 -9t-9 -22q0 -14 9.5 -22.5t22.5 -8.5z" />
    <glyph glyph-name="uni0620.fina" unicode="&#x620;" horiz-adv-x="711" 
d="M334 -350q-37 0 -62.5 26t-25.5 62q0 37 25.5 62.5t62.5 25.5t62.5 -25.5t25.5 -62.5q0 -36 -25.5 -62t-62.5 -26zM334 -292q14 0 23.5 8.5t9.5 21.5q0 15 -9.5 23.5t-23.5 8.5q-13 0 -22.5 -9t-9.5 -23q0 -13 9.5 -21.5t22.5 -8.5zM30 17q0 22 4 55t16 75t34 93l119 -43
q-13 -36 -21.5 -64t-12 -50.5t-3.5 -42.5q0 -33 11.5 -58.5t33.5 -43t54.5 -27.5t75.5 -10q52 0 91.5 9t66 23.5t39.5 32t13 32.5q0 7 -6 15t-20.5 16.5t-38.5 18t-60 21.5l36 129q43 -18 80.5 -31t70 -22t59.5 -13.5t50 -4.5q32 0 47.5 -18.5t15.5 -45.5q0 -31 -18.5 -49.5
t-54.5 -18.5h-11.5t-12 0.5t-11.5 0.5q2 -8 3 -15t1 -15q0 -32 -20.5 -66.5t-63 -64t-107 -47.5t-151.5 -18q-96 0 -165 26.5t-106.5 81.5t-37.5 139z" />
    <glyph glyph-name="uni063B.init" unicode="&#x63b;" horiz-adv-x="408" 
d="M228 730q-23 0 -38 15t-15 36q0 22 15 37.5t38 15.5q21 0 35.5 -15.5t14.5 -37.5q0 -21 -14.5 -36t-35.5 -15zM105 668q-22 0 -37 14.5t-15 36.5q0 21 15 36.5t37 15.5q21 0 36 -15.5t15 -36.5q0 -22 -15 -36.5t-36 -14.5zM0 -5l10 132h100q23 0 38.5 5.5t24.5 15t13 21
t4 22.5q0 28 -20 61.5t-52 68.5q-16 18 -33 35.5t-31.5 33t-23.5 28t-9 20.5q0 14 2 33t6.5 36t11.5 24q15 16 42 36t65.5 44t90 53t115.5 61l62 -111q-56 -28 -101.5 -52.5t-82 -45.5t-65 -41t-50.5 -38l9 67q58 -56 98.5 -102t65 -84.5t35.5 -74t11 -69.5q0 -29 -10.5 -60
t-37.5 -58.5t-73.5 -44t-118.5 -16.5h-96z" />
    <glyph glyph-name="uni063B.medi" unicode="&#x63b;" horiz-adv-x="445" 
d="M231 728q-23 0 -38 15t-15 36q0 22 15 37.5t38 15.5q21 0 35.5 -15.5t14.5 -37.5q0 -21 -14.5 -36t-35.5 -15zM108 666q-22 0 -37 15t-15 36t15 37t37 16q21 0 36 -16t15 -37t-15 -36t-36 -15zM0 -5l9 132h100q31 0 48.5 8.5t25 22.5t7.5 30q0 17 -12.5 40t-31.5 48.5
t-40.5 50.5t-41 47t-31.5 38.5t-12 23.5q0 18 2.5 37.5t7 35t11.5 22.5q18 19 48 40.5t70.5 46.5t89 52t103.5 55l62 -111q-55 -28 -100 -52.5t-81 -46t-64.5 -40.5t-49.5 -36l-1 70q31 -32 59.5 -64.5t55 -67t50.5 -73.5t46 -85q21 -41 40.5 -61t40.5 -25.5t44 -5.5
q33 0 48.5 -18.5t15.5 -45.5q0 -29 -18.5 -48.5t-55.5 -19.5q-38 0 -72.5 11.5t-61 38t-42.5 71.5l45 -3q-11 -30 -29 -52.5t-44 -37.5t-61.5 -21.5t-80.5 -6.5h-99z" />
    <glyph glyph-name="uni063B.fina" unicode="&#x63b;" horiz-adv-x="874" 
d="M651 730q-23 0 -38 15t-15 36q0 22 15 37.5t38 15.5q21 0 35.5 -15.5t14.5 -37.5q0 -21 -14.5 -36t-35.5 -15zM527 668q-22 0 -37 14.5t-15 36.5q0 21 15 36.5t37 15.5q21 0 36 -15.5t15 -36.5q0 -22 -15 -36.5t-36 -14.5zM377 -21l25 132q55 0 95 2.5t67 10.5t40.5 23
t13.5 40q0 18 -12 40.5t-31.5 48t-41 50.5t-40.5 47t-31.5 38.5t-12.5 23.5q0 19 2.5 38t7.5 34t11 22q25 25 70.5 56t107 66t134.5 73l62 -110q-74 -39 -130 -70t-97 -57.5t-70 -50.5l1 73q32 -34 61 -67t55.5 -68.5t50.5 -74t45 -81.5q15 -31 29 -49t28.5 -27.5t31 -12
t35.5 -2.5q32 0 48 -19t16 -46q0 -29 -19 -48t-54 -19q-36 0 -71.5 11.5t-62.5 38t-41 71.5l43 5q-14 -45 -43 -73t-74.5 -43t-107 -20.5t-141.5 -5.5zM377 -21q-93 0 -158.5 16t-107 45.5t-60 71t-18.5 92.5q0 29 5.5 62.5t14.5 65.5t18 57l115 -29q-4 -19 -10 -40
t-9 -42.5t-3 -41.5q0 -35 19.5 -64t71 -45t147.5 -16l20 -101z" />
    <glyph glyph-name="uni063C.init" unicode="&#x63c;" horiz-adv-x="408" 
d="M0 -5l10 132h100q23 0 38.5 5.5t24.5 15t13 21t4 22.5q0 28 -20 61.5t-52 68.5q-16 18 -33 35.5t-31.5 33t-23.5 28t-9 20.5q0 14 2 33t6.5 36t11.5 24q15 16 42 36t65.5 44t90 53t115.5 61l62 -111q-56 -28 -101.5 -52.5t-82 -45.5t-65 -41t-50.5 -38l9 67
q58 -56 98.5 -102t65 -84.5t35.5 -74t11 -69.5q0 -29 -10.5 -60t-37.5 -58.5t-73.5 -44t-118.5 -16.5h-96zM182 -355q-26 0 -44 17.5t-18 43.5q0 25 18 43.5t44 18.5q24 0 42 -19t18 -43q0 -26 -18 -43.5t-42 -17.5zM103 -216q-26 0 -44 17.5t-18 43.5q0 25 18 43.5t44 18.5
q24 0 42 -18.5t18 -43.5q0 -26 -18 -43.5t-42 -17.5zM264 -216q-26 0 -44 17.5t-18 43.5q0 25 18 43.5t44 18.5q24 0 42 -18.5t18 -43.5q0 -26 -18 -43.5t-42 -17.5z" />
    <glyph glyph-name="uni063C.medi" unicode="&#x63c;" horiz-adv-x="445" 
d="M0 -5l9 132h100q31 0 48.5 8.5t25 22.5t7.5 30q0 17 -12.5 40t-31.5 48.5t-40.5 50.5t-41 47t-31.5 38.5t-12 23.5q0 18 2.5 37.5t7 35t11.5 22.5q18 19 48 40.5t70.5 46.5t89 52t103.5 55l62 -111q-55 -28 -100 -52.5t-81 -46t-64.5 -40.5t-49.5 -36l-1 70
q31 -32 59.5 -64.5t55 -67t50.5 -73.5t46 -85q21 -41 40.5 -61t40.5 -25.5t44 -5.5q33 0 48.5 -18.5t15.5 -45.5q0 -29 -18.5 -48.5t-55.5 -19.5q-38 0 -72.5 11.5t-61 38t-42.5 71.5l45 -3q-11 -30 -29 -52.5t-44 -37.5t-61.5 -21.5t-80.5 -6.5h-99zM178 -355
q-26 0 -44 17.5t-18 43.5q0 25 18 43.5t44 18.5q24 0 42 -19t18 -43q0 -26 -18 -43.5t-42 -17.5zM99 -216q-26 0 -44 17.5t-18 43.5q0 25 18 43.5t44 18.5q24 0 42 -18.5t18 -43.5q0 -26 -18 -43.5t-42 -17.5zM260 -216q-26 0 -44 17.5t-18 43.5q0 25 18 43.5t44 18.5
q24 0 42 -18.5t18 -43.5q0 -26 -18 -43.5t-42 -17.5z" />
    <glyph glyph-name="uni063C.fina" unicode="&#x63c;" horiz-adv-x="874" 
d="M377 -21l25 132q55 0 95 2.5t67 10.5t40.5 23t13.5 40q0 18 -12 40.5t-31.5 48t-41 50.5t-40.5 47t-31.5 38.5t-12.5 23.5q0 19 2.5 38t7.5 34t11 22q25 25 70.5 56t107 66t134.5 73l62 -110q-74 -39 -130 -70t-97 -57.5t-70 -50.5l1 73q32 -34 61 -67t55.5 -68.5
t50.5 -74t45 -81.5q15 -31 29 -49t28.5 -27.5t31 -12t35.5 -2.5q32 0 48 -19t16 -46q0 -29 -19 -48t-54 -19q-36 0 -71.5 11.5t-62.5 38t-41 71.5l43 5q-14 -45 -43 -73t-74.5 -43t-107 -20.5t-141.5 -5.5zM377 -21q-93 0 -158.5 16t-107 45.5t-60 71t-18.5 92.5
q0 29 5.5 62.5t14.5 65.5t18 57l115 -29q-4 -19 -10 -40t-9 -42.5t-3 -41.5q0 -35 19.5 -64t71 -45t147.5 -16l20 -101zM405 -376q-26 0 -44 17.5t-18 43.5q0 25 18 43.5t44 18.5q24 0 42 -19t18 -43q0 -26 -18 -43.5t-42 -17.5zM326 -237q-26 0 -44 17.5t-18 43.5
q0 25 18 43.5t44 18.5q24 0 42 -18.5t18 -43.5q0 -26 -18 -43.5t-42 -17.5zM487 -237q-26 0 -44 17.5t-18 43.5q0 25 18 43.5t44 18.5q24 0 42 -18.5t18 -43.5q0 -26 -18 -43.5t-42 -17.5z" />
    <glyph glyph-name="uni063D.init" unicode="&#x63d;" horiz-adv-x="276" 
d="M0 -5l10 132q28 0 47 7t28.5 24.5t9.5 49.5q0 30 -7 70t-18.5 82.5t-23.5 78.5l127 36q13 -34 25 -79t20 -94t8 -96q0 -53 -13.5 -89.5t-36 -60.5t-52 -37t-61.5 -18.5t-63 -5.5zM114 743q7 -13 17 -38t21.5 -52.5t22 -52.5t18.5 -40l-54 -24q-5 9 -14 30t-20 46t-21 48
t-17 37l-21 41zM47 738l49 -21q-5 -15 -15 -42.5t-20.5 -57.5t-18.5 -53.5t-11 -30.5l-54 18q4 9 13 33.5t20.5 54.5t21.5 57t15 42zM197 -227q-28 0 -47.5 19t-19.5 46t19 47t48 20q26 0 45 -20t19 -47t-19 -46t-45 -19zM31 -227q-28 0 -47.5 19t-19.5 46t19 47t48 20
q27 0 45.5 -20t18.5 -47t-19 -46t-45 -19z" />
    <glyph glyph-name="uni063D.medi" unicode="&#x63d;" horiz-adv-x="324" 
d="M0 -5l10 132q26 0 43.5 7t29.5 28.5t21.5 64.5t19.5 115l127 -20q-2 -16 -5.5 -36t-6 -40t-2.5 -39q0 -25 9.5 -43.5t31 -27.5t57.5 -9q33 0 48.5 -18.5t15.5 -45.5q0 -31 -18.5 -49.5t-54.5 -18.5q-54 0 -90.5 15t-57 46t-25.5 81h47q-16 -49 -40.5 -78t-52.5 -42.5
t-56 -17.5t-51 -4zM191 670q7 -13 17 -38t21.5 -52.5t22 -52.5t18.5 -40l-54 -24q-5 9 -14 30t-20 46t-21 48t-17 37l-21 41zM124 665l49 -21q-5 -15 -15 -42.5t-20.5 -57.5t-18.5 -53.5t-11 -30.5l-54 18q4 9 13 33.5t20.5 54.5t21.5 57t15 42zM234 -227q-28 0 -47.5 19
t-19.5 46t19 47t48 20q26 0 45 -20t19 -47t-19 -46t-45 -19zM68 -227q-28 0 -47.5 19t-19.5 46t19 47t48 20q27 0 45.5 -20t18.5 -47t-19 -46t-45 -19z" />
    <glyph glyph-name="uni063D.fina" unicode="&#x63d;" horiz-adv-x="711" 
d="M30 17q0 22 4 55t16 75t34 93l119 -43q-13 -36 -21.5 -64t-12 -50.5t-3.5 -42.5q0 -33 11.5 -58.5t33.5 -43t54.5 -27.5t75.5 -10q52 0 91.5 9t66 23.5t39.5 32t13 32.5q0 7 -6 15t-20.5 16.5t-38.5 18t-60 21.5l36 129q43 -18 80.5 -31t70 -22t59.5 -13.5t50 -4.5
q32 0 47.5 -18.5t15.5 -45.5q0 -31 -18.5 -49.5t-54.5 -18.5h-11.5t-12 0.5t-11.5 0.5q2 -8 3 -15t1 -15q0 -32 -20.5 -66.5t-63 -64t-107 -47.5t-151.5 -18q-96 0 -165 26.5t-106.5 81.5t-37.5 139zM234 525q7 -13 17 -38t21.5 -52.5t22 -52.5t18.5 -40l-54 -24
q-5 9 -14 30t-20 46t-21 48t-17 37l-21 41zM167 520l49 -21q-5 -15 -15 -42.5t-20.5 -57.5t-18.5 -53.5t-11 -30.5l-54 18q4 9 13 33.5t20.5 54.5t21.5 57t15 42z" />
    <glyph glyph-name="uni063E.init" unicode="&#x63e;" horiz-adv-x="342" 
d="M0 -5l10 132q57 0 88.5 6.5t44 24t12.5 49.5q0 31 -7.5 71t-19 82.5t-24.5 78.5l128 36q13 -34 25 -79t20.5 -93t8.5 -93q0 -68 -21.5 -110.5t-60.5 -65t-91 -31t-113 -8.5zM249 584q-28 0 -47 19t-19 46t18.5 47t47.5 20q27 0 46 -20t19 -47t-19.5 -46t-45.5 -19z
M83 584q-28 0 -47 19t-19 46t18.5 47t47.5 20q27 0 46 -20t19 -47t-19.5 -46t-45.5 -19zM233 -227q-28 0 -47.5 19t-19.5 46t19 47t48 20q27 0 45.5 -20t18.5 -47t-19 -46t-45 -19zM67 -227q-28 0 -47.5 19t-19.5 46t19 47t48 20q27 0 45.5 -20t18.5 -47t-19 -46t-45 -19z
" />
    <glyph glyph-name="uni063E.medi" unicode="&#x63e;" horiz-adv-x="382" 
d="M0 -5l10 132q34 0 57 7t37.5 28.5t25.5 65t21 115.5l127 -21q-2 -16 -5.5 -35.5t-6 -40t-2.5 -39.5t6 -34t20.5 -25.5t39.5 -15.5t63 -5q33 0 48.5 -18.5t15.5 -45.5q0 -31 -19 -49.5t-55 -18.5q-50 0 -86.5 8t-60.5 25.5t-37.5 44.5t-17.5 65l46 -1q-18 -48 -43.5 -76.5
t-56 -42.5t-63 -18.5t-64.5 -4.5zM308 475q-28 0 -47 19t-19 46q0 26 19 46.5t47 20.5q27 0 46 -20.5t19 -46.5q0 -27 -19 -46t-46 -19zM142 475q-28 0 -47 19t-19 46t19 47t47 20q27 0 46 -20t19 -47t-19 -46t-46 -19zM262 -227q-28 0 -47 19t-19 46t18.5 47t47.5 20
q27 0 46 -20t19 -47t-19.5 -46t-45.5 -19zM96 -227q-28 0 -47 19t-19 46t18.5 47t47.5 20q27 0 46 -20t19 -47t-19.5 -46t-45.5 -19z" />
    <glyph glyph-name="uni063E.fina" unicode="&#x63e;" horiz-adv-x="711" 
d="M30 17q0 22 4 55t16 75t34 93l119 -43q-13 -36 -21.5 -64t-12 -50.5t-3.5 -42.5q0 -33 11.5 -58.5t33.5 -43t54.5 -27.5t75.5 -10q52 0 91.5 9t66 23.5t39.5 32t13 32.5q0 7 -6 15t-20.5 16.5t-38.5 18t-60 21.5l36 129q43 -18 80.5 -31t70 -22t59.5 -13.5t50 -4.5
q32 0 47.5 -18.5t15.5 -45.5q0 -31 -18.5 -49.5t-54.5 -18.5h-11.5t-12 0.5t-11.5 0.5q2 -8 3 -15t1 -15q0 -32 -20.5 -66.5t-63 -64t-107 -47.5t-151.5 -18q-96 0 -165 26.5t-106.5 81.5t-37.5 139zM309 357q-28 0 -47 19t-19 46t19 47t47 20q27 0 46 -20t19 -47t-19 -46
t-46 -19zM143 357q-28 0 -47 19t-19 46t19 47t47 20q27 0 46 -20t19 -47t-19 -46t-46 -19z" />
    <glyph glyph-name="uni063F.init" unicode="&#x63f;" horiz-adv-x="342" 
d="M0 -5l10 132q57 0 88.5 6.5t44 24t12.5 49.5q0 31 -7.5 71t-19 82.5t-24.5 78.5l128 36q13 -34 25 -79t20.5 -93t8.5 -93q0 -68 -21.5 -110.5t-60.5 -65t-91 -31t-113 -8.5zM173 704q-27 0 -45.5 18.5t-18.5 45.5q0 26 18.5 45t45.5 19q26 0 44 -19t18 -45
q0 -27 -18 -45.5t-44 -18.5zM94 563q-26 0 -45 19t-19 45t19 45t45 19t45 -19t19 -45q0 -27 -19 -45.5t-45 -18.5zM257 563q-27 0 -45.5 19t-18.5 45q0 27 18.5 45.5t45.5 18.5q26 0 44.5 -18.5t18.5 -45.5t-18.5 -45.5t-44.5 -18.5zM233 -227q-28 0 -47.5 19t-19.5 46
t19 47t48 20q27 0 45.5 -20t18.5 -47t-19 -46t-45 -19zM67 -227q-28 0 -47.5 19t-19.5 46t19 47t48 20q27 0 45.5 -20t18.5 -47t-19 -46t-45 -19z" />
    <glyph glyph-name="uni063F.medi" unicode="&#x63f;" horiz-adv-x="382" 
d="M0 -5l10 132q34 0 57 7t37.5 28.5t25.5 65t21 115.5l127 -21q-2 -16 -5.5 -35.5t-6 -40t-2.5 -39.5t6 -34t20.5 -25.5t39.5 -15.5t63 -5q33 0 48.5 -18.5t15.5 -45.5q0 -31 -19 -49.5t-55 -18.5q-50 0 -86.5 8t-60.5 25.5t-37.5 44.5t-17.5 65l46 -1q-18 -48 -43.5 -76.5
t-56 -42.5t-63 -18.5t-64.5 -4.5zM207 595q-27 0 -45.5 18.5t-18.5 45.5q0 26 18.5 45t45.5 19q26 0 44.5 -19t18.5 -45q0 -27 -18.5 -45.5t-44.5 -18.5zM129 454q-27 0 -45.5 19t-18.5 44q0 27 18.5 46t45.5 19q26 0 44.5 -19t18.5 -45q0 -27 -18.5 -45.5t-44.5 -18.5z
M291 454q-27 0 -45.5 19t-18.5 44q0 28 18.5 46.5t45.5 18.5q26 0 44.5 -18.5t18.5 -45.5t-18.5 -45.5t-44.5 -18.5zM262 -227q-28 0 -47 19t-19 46t19 47t47 20q27 0 46 -20t19 -47t-19 -46t-46 -19zM96 -227q-28 0 -47 19t-19 46t19 47t47 20q27 0 46 -20t19 -47t-19 -46
t-46 -19z" />
    <glyph glyph-name="uni063F.fina" unicode="&#x63f;" horiz-adv-x="711" 
d="M30 17q0 22 4 55t16 75t34 93l119 -43q-13 -36 -21.5 -64t-12 -50.5t-3.5 -42.5q0 -33 11.5 -58.5t33.5 -43t54.5 -27.5t75.5 -10q52 0 91.5 9t66 23.5t39.5 32t13 32.5q0 7 -6 15t-20.5 16.5t-38.5 18t-60 21.5l36 129q43 -18 80.5 -31t70 -22t59.5 -13.5t50 -4.5
q32 0 47.5 -18.5t15.5 -45.5q0 -31 -18.5 -49.5t-54.5 -18.5h-11.5t-12 0.5t-11.5 0.5q2 -8 3 -15t1 -15q0 -32 -20.5 -66.5t-63 -64t-107 -47.5t-151.5 -18q-96 0 -165 26.5t-106.5 81.5t-37.5 139zM219 484q-27 0 -45.5 18.5t-18.5 45.5q0 26 18.5 45t45.5 19
q26 0 44.5 -19t18.5 -45q0 -27 -18.5 -45.5t-44.5 -18.5zM141 343q-27 0 -45.5 19t-18.5 45t18.5 45t45.5 19q26 0 44.5 -19t18.5 -45t-18.5 -45t-44.5 -19zM303 343q-27 0 -45.5 19t-18.5 45q0 27 18.5 45.5t45.5 18.5t45 -18.5t18 -45.5q0 -26 -18.5 -45t-44.5 -19z" />
    <glyph glyph-name="uni066E.init" unicode="&#x66e;" horiz-adv-x="276" 
d="M0 -5l10 132q28 0 47 7t28.5 24.5t9.5 49.5q0 30 -7 70t-18.5 82.5t-23.5 78.5l127 36q13 -34 25 -79t20 -94t8 -96q0 -53 -13.5 -89.5t-36 -60.5t-52 -37t-61.5 -18.5t-63 -5.5z" />
    <glyph glyph-name="uni066E.medi" unicode="&#x66e;" horiz-adv-x="324" 
d="M0 -5l10 132q26 0 43.5 7t29.5 28.5t21.5 64.5t19.5 115l127 -20q-2 -16 -5.5 -36t-6 -40t-2.5 -39q0 -25 9.5 -43.5t31 -27.5t57.5 -9q33 0 48.5 -18.5t15.5 -45.5q0 -31 -18.5 -49.5t-54.5 -18.5q-54 0 -90.5 15t-57 46t-25.5 81h47q-16 -49 -40.5 -78t-52.5 -42.5
t-56 -17.5t-51 -4z" />
    <glyph glyph-name="uni066E.fina" unicode="&#x66e;" horiz-adv-x="994" 
d="M386 -21l27 132q59 0 113.5 8.5t105 29.5t95.5 58t86 94l103 -53q-6 -17 -9.5 -32t-3.5 -26q0 -19 10.5 -33.5t33 -22t57.5 -7.5q33 0 48.5 -18.5t15.5 -45.5q0 -31 -19 -49.5t-55 -18.5q-55 0 -101 17.5t-71 51.5t-20 83l36 -1q-28 -42 -73 -73t-103 -52t-127.5 -31.5
t-148.5 -10.5zM388 -21q-94 0 -159.5 16t-106.5 45.5t-60 71t-19 92.5q0 29 6 62.5t15 65.5t17 57l116 -29q-5 -19 -10.5 -40t-9 -42.5t-3.5 -41.5q0 -35 19.5 -64t71.5 -45t148 -16l20 -101z" />
    <glyph glyph-name="uni066F.init" unicode="&#x66f;" horiz-adv-x="456" 
d="M0 -5l9 131q43 0 78.5 1t64 3t49.5 6.5t36 12.5q19 10 31 27.5t18 45.5t6 68q0 50 -7.5 84.5t-22 53t-33.5 18.5q-14 0 -27 -12t-20.5 -32t-7.5 -46q0 -18 8 -30t22 -17.5t31 -5.5q18 0 38.5 5t40.5 15l4 -100q-15 -12 -34 -20.5t-39.5 -12.5t-43.5 -4q-46 0 -81 17
t-54 50.5t-19 82.5q0 43 13 84t38.5 74t60 52.5t77.5 19.5q59 0 100 -36.5t62.5 -101t21.5 -147.5q0 -79 -23.5 -137t-71.5 -90q-26 -19 -59 -31t-73 -18t-88 -8t-105 -2z" />
    <glyph glyph-name="uni066F.medi" unicode="&#x66f;" horiz-adv-x="463" 
d="M0 -5l9 131q26 0 53 1.5t53 5.5t49 9.5t40 12.5q29 11 49 27t30.5 37.5t10.5 48.5q0 20 -7.5 39t-19.5 30.5t-27 11.5q-13 0 -26 -11t-21.5 -29.5t-8.5 -43.5q0 -22 8.5 -42t25.5 -37.5t41 -34.5l-119 -49q-24 22 -43 47t-30.5 55.5t-11.5 69.5q0 40 15.5 75.5t42 63
t60 43t70.5 15.5q54 0 94.5 -28t63 -71.5t22.5 -90.5t-15 -84.5t-40.5 -66.5t-56.5 -50.5t-63 -37.5q-23 -12 -53 -21.5t-64 -15t-67.5 -8t-63.5 -2.5zM464 -5q-44 0 -92 6.5t-92 18.5t-76 29l67 100q29 -9 65.5 -14t73 -6.5t64.5 -1.5q32 0 48 -18.5t16 -45.5
q0 -29 -19 -48.5t-55 -19.5z" />
    <glyph glyph-name="uni066F.fina" unicode="&#x66f;" horiz-adv-x="781" 
d="M327 -272q-58 0 -112 14.5t-96.5 44.5t-67 78.5t-24.5 115.5q0 23 3.5 53t15.5 71t37 95l118 -46q-14 -37 -23 -61.5t-12.5 -45.5t-3.5 -45q0 -45 22 -77t63.5 -48.5t100.5 -16.5q35 0 66.5 5.5t58.5 16t48.5 25.5t37 33t24.5 39q11 26 15.5 60.5t4.5 77.5q0 44 -7.5 77
t-21 51.5t-31.5 18.5q-13 0 -23 -8t-17 -21t-11 -27t-4 -26q0 -19 6 -32t23.5 -20t51.5 -8t90 5h133q33 0 48.5 -18.5t15.5 -45.5q0 -30 -18.5 -49t-55.5 -19h-189q-54 0 -97.5 8.5t-73.5 27.5t-46 50t-16 75q0 43 14 84t39.5 73.5t60.5 51.5t76 19q55 0 96 -35t64 -97.5
t23 -147.5q0 -55 -14 -105.5t-35 -89.5q-25 -45 -61 -79t-82 -57t-100 -34t-114 -11z" />
    <glyph glyph-name="uni0672.fina" unicode="&#x672;" horiz-adv-x="286" 
d="M286 -5q-75 0 -119.5 19t-63.5 59t-22 102l-19 488h134l19 -419q3 -51 10 -76t24 -33t47 -8q33 0 48.5 -18.5t15.5 -45.5q0 -31 -19 -49.5t-55 -18.5zM-12 735l-51 34q12 26 32.5 37.5t36.5 11.5q21 0 39.5 -10t31.5 -10q12 0 22.5 0.5t18.5 4.5l-9 -20q-28 10 -49 34.5
t-21 57.5q0 41 30 65.5t74 24.5q12 0 25.5 -1.5t23.5 -5.5l-8 -58q-9 2 -17.5 4t-19.5 2q-21 0 -32 -8.5t-11 -24.5q0 -18 11.5 -32t27.5 -21t27 -8l-33 -4q26 6 44 13.5t36 14.5l19 -55q-7 -4 -25.5 -11.5t-41.5 -15t-44.5 -13t-36.5 -5.5q-24 0 -41.5 10.5t-28.5 10.5
q-9 0 -16.5 -6.5t-13.5 -15.5z" />
    <glyph glyph-name="uni0673.fina" unicode="&#x673;" horiz-adv-x="289" 
d="M289 -5q-76 0 -120 19t-63.5 59t-21.5 102l-22 561h134l20 -492q2 -51 10 -76t25.5 -33t47.5 -8q33 0 48.5 -18.5t15.5 -45.5q0 -31 -19 -49.5t-55 -18.5zM21 -305l-50 34q11 26 31.5 37.5t37.5 11.5q21 0 39 -10t32 -10q12 0 22.5 0.5t17.5 4.5l-9 -20q-28 10 -48.5 35
t-20.5 57q0 42 29.5 66t73.5 24q12 0 25.5 -1.5t23.5 -5.5l-8 -58q-9 2 -17.5 4t-18.5 2q-22 0 -33 -8.5t-11 -23.5q0 -19 12 -32.5t28 -21t27 -8.5l-33 -4q25 6 43.5 14t35.5 15l20 -56q-8 -4 -26.5 -11.5t-41 -15t-44.5 -12.5t-37 -5q-24 0 -41.5 10t-27.5 10t-17 -6.5
t-14 -15.5z" />
    <glyph glyph-name="uni0675.fina" unicode="&#x675;" horiz-adv-x="512" 
d="M512 -5h-226q-74 0 -118 19t-63 59t-21 102l-22 561h134l20 -492q2 -49 10 -74.5t24.5 -34t44.5 -8.5h227q33 0 48.5 -18.5t15.5 -45.5q0 -31 -19 -49.5t-55 -18.5zM285 581l-15 64q35 6 52 10t37 9l-12 -27q-27 9 -50 35t-23 60q0 35 15.5 57t40 32t51.5 10
q15 0 28.5 -2.5t24.5 -6.5l-9 -60q-9 2 -19.5 4t-21.5 2q-21 0 -32.5 -9.5t-11.5 -24.5q0 -19 12.5 -33t29 -21.5t27.5 -8.5l-43 -4q26 7 50 14t44 15l19 -62q-25 -9 -57.5 -19t-67.5 -18.5t-69 -15.5z" />
    <glyph glyph-name="uni0676.fina" unicode="&#x676;" horiz-adv-x="478" 
d="M53 -230l-29 127q65 9 115 22.5t84.5 37t52 60.5t17.5 95q1 71 -15 113t-46 42q-17 0 -28.5 -14t-18 -35t-6.5 -42q0 -16 5 -28t20.5 -19t46.5 -7.5t83 5.5h154q32 0 48.5 -18.5t16.5 -45.5q0 -32 -18.5 -50t-55.5 -18h-216q-68 0 -115.5 18t-72 53.5t-24.5 86.5
q0 43 14 87t39 81t59.5 59t76.5 22q58 0 98.5 -36.5t62.5 -100t22 -143.5q0 -111 -47 -185t-130 -114.5t-193 -52.5zM282 431l-15 61q33 6 49.5 10t34.5 8l-11 -24q-24 8 -46 32t-22 59q0 31 13.5 50.5t36 29.5t49.5 10q12 0 26 -2t24 -6l-7 -59q-9 2 -19 3.5t-19 1.5
q-18 0 -28 -8.5t-10 -21.5q0 -17 11.5 -30t26.5 -20t26 -8l-44 -5q25 7 47 14t41 14l18 -59q-23 -8 -54 -17.5t-63.5 -18t-64.5 -14.5z" />
    <glyph glyph-name="uni0677.fina" unicode="&#x677;" horiz-adv-x="494" 
d="M68 -230l-29 127q65 9 115 22.5t84.5 37t52 60.5t17.5 95q1 71 -15 113t-46 42q-17 0 -28.5 -14t-18 -35t-6.5 -42q0 -16 5 -28t20.5 -19t46.5 -7.5t83 5.5h154q32 0 48.5 -18.5t16.5 -45.5q0 -32 -18.5 -50t-55.5 -18h-216q-68 0 -115.5 18t-72 53.5t-24.5 86.5
q0 43 14 87t39 81t59.5 59t76.5 22q58 0 98.5 -36.5t62.5 -100t22 -143.5q0 -111 -47 -185t-130 -114.5t-193 -52.5zM306 430l-15 61q33 6 49.5 10t34.5 8l-11 -24q-24 8 -46 32t-22 59q0 31 13.5 50.5t36 29.5t49.5 10q12 0 26 -2t24 -6l-7 -59q-9 2 -19 3.5t-19 1.5
q-18 0 -28 -8.5t-10 -21.5q0 -17 11.5 -30t26.5 -20t26 -8l-44 -5q25 7 47 14t41 14l18 -59q-23 -8 -54 -17.5t-63.5 -18t-64.5 -14.5zM25 418l-10 57q56 2 98 16.5t65 37t23 43.5q0 14 -7.5 24.5t-23.5 10.5q-13 0 -22 -9t-9 -23q0 -19 15 -32.5t34 -21.5l-40 -36
q-29 13 -49.5 35t-20.5 58q0 38 27 63t67 25q43 0 66 -28t23 -65q0 -43 -29.5 -76.5t-82.5 -53.5t-124 -25z" />
    <glyph glyph-name="uni0678.init" unicode="&#x678;" horiz-adv-x="350" 
d="M0 -5l10 132q28 0 47 7t28.5 24.5t9.5 49.5q0 30 -7 70t-18.5 82.5t-23.5 78.5l127 36q13 -34 25 -79t20 -94t8 -96q0 -53 -13.5 -89.5t-36 -60.5t-52 -37t-61.5 -18.5t-63 -5.5zM161 581l-15 64q35 6 52 10t37 9l-12 -27q-27 9 -50 35t-23 60q0 35 15.5 57t40 32
t50.5 10q15 0 28.5 -2.5t24.5 -6.5l-8 -60l-20 4t-21 2q-21 0 -32.5 -9.5t-11.5 -24.5q0 -19 12 -33t29 -21.5t28 -8.5l-43 -4q26 7 50 14t44 15l19 -62q-25 -9 -57.5 -19t-67.5 -18.5t-69 -15.5z" />
    <glyph glyph-name="uni0678.medi" unicode="&#x678;" horiz-adv-x="327" 
d="M0 -5l10 132q26 0 43.5 7t29.5 28.5t21.5 64.5t19.5 115l127 -20q-2 -16 -5.5 -36t-6 -40t-2.5 -39q0 -25 9.5 -43.5t31 -27.5t57.5 -9q33 0 48.5 -18.5t15.5 -45.5q0 -31 -18.5 -49.5t-54.5 -18.5q-54 0 -90.5 15t-57 46t-25.5 81h47q-16 -49 -40.5 -78t-52.5 -42.5
t-56 -17.5t-51 -4zM143 412l-15 64q35 6 52 10t37 9l-12 -27q-27 9 -50 35t-23 60q0 35 15.5 57t40 32t50.5 10q15 0 28.5 -2.5t24.5 -6.5l-8 -60l-20 4t-21 2q-21 0 -32.5 -9.5t-11.5 -24.5q0 -19 12 -33t29 -21.5t28 -8.5l-43 -4q26 7 50 14t44 15l19 -62
q-25 -9 -57.5 -19t-67.5 -18.5t-69 -15.5z" />
    <glyph glyph-name="uni0678.fina" unicode="&#x678;" horiz-adv-x="711" 
d="M30 17q0 22 4 55t16 75t34 93l119 -43q-13 -36 -21.5 -64t-12 -50.5t-3.5 -42.5q0 -33 11.5 -58.5t33.5 -43t54.5 -27.5t75.5 -10q52 0 91.5 9t66 23.5t39.5 32t13 32.5q0 7 -6 15t-20.5 16.5t-38.5 18t-60 21.5l36 129q43 -18 80.5 -31t70 -22t59.5 -13.5t50 -4.5
q32 0 47.5 -18.5t15.5 -45.5q0 -31 -18.5 -49.5t-54.5 -18.5h-11.5t-12 0.5t-11.5 0.5q2 -8 3 -15t1 -15q0 -32 -20.5 -66.5t-63 -64t-107 -47.5t-151.5 -18q-96 0 -165 26.5t-106.5 81.5t-37.5 139zM468 244l-15 64q35 6 52 10t37 9l-12 -27q-27 9 -50 35t-23 60
q0 35 15.5 57t40 32t50.5 10q15 0 28.5 -2.5t24.5 -6.5l-8 -60l-20 4t-21 2q-21 0 -32.5 -9.5t-11.5 -24.5q0 -19 12 -33t29 -21.5t28 -8.5l-43 -4q26 7 50 14t44 15l19 -62q-25 -9 -57.5 -19t-67.5 -18.5t-69 -15.5z" />
    <glyph glyph-name="uni067C.init" unicode="&#x67c;" horiz-adv-x="342" 
d="M0 -5l10 132q57 0 88.5 6.5t44 24t12.5 49.5q0 31 -7.5 71t-19 82.5t-24.5 78.5l128 36q13 -34 25 -79t20.5 -93t8.5 -93q0 -68 -21.5 -110.5t-60.5 -65t-91 -31t-113 -8.5zM161 -107q-37 0 -62.5 26t-25.5 62q0 37 25.5 62.5t62.5 25.5t62.5 -25.5t25.5 -62.5
q0 -36 -25.5 -62t-62.5 -26zM161 -49q14 0 23.5 8t9.5 22q0 15 -9.5 23.5t-23.5 8.5t-23.5 -9t-9.5 -23q0 -13 9.5 -21.5t23.5 -8.5zM256 563q-29 0 -48 19t-19 46t19 47t47 20q27 0 46 -20t19 -47t-19 -46t-45 -19zM90 563q-29 0 -48 19.5t-19 45.5q0 27 19 47t47 20
q27 0 46 -20t19 -47t-19 -46t-45 -19z" />
    <glyph glyph-name="uni067C.medi" unicode="&#x67c;" horiz-adv-x="324" 
d="M104 -108q-37 0 -62.5 26t-25.5 62q0 37 25.5 62.5t62.5 25.5t62.5 -26t25.5 -62t-25 -62t-63 -26zM104 -51q14 0 23.5 8.5t9.5 22.5t-9.5 22.5t-22.5 8.5q-14 0 -23.5 -9t-9.5 -22q0 -14 9.5 -22.5t22.5 -8.5zM0 -5l10 132q26 0 43.5 7t30 29t21.5 64.5t19 114.5
l127 -20q-2 -16 -5.5 -36t-6 -40t-2.5 -39q0 -25 9.5 -43.5t31 -27.5t57.5 -9q33 0 48.5 -18.5t15.5 -45.5q0 -31 -18.5 -49.5t-54.5 -18.5q-54 0 -90.5 15t-57 46t-25.5 81h47q-16 -49 -40.5 -78t-52.5 -42.5t-56 -17.5t-51 -4zM276 441q-29 0 -48 19t-19 46t19 47t48 20
q27 0 45.5 -20t18.5 -47t-19 -46t-45 -19zM110 441q-29 0 -48 19.5t-19 45.5q0 27 19 47t48 20q27 0 45.5 -20t18.5 -47t-19 -46t-45 -19z" />
    <glyph glyph-name="uni067C.fina" unicode="&#x67c;" horiz-adv-x="994" 
d="M501 -135q-37 0 -62.5 26t-25.5 62q0 37 25.5 62.5t62.5 25.5t62.5 -26t25.5 -62t-25.5 -62t-62.5 -26zM501 -78q14 0 23.5 8.5t9.5 22.5q0 15 -9.5 23t-23.5 8q-13 0 -22.5 -8.5t-9.5 -22.5t9.5 -22.5t22.5 -8.5zM386 -21l27 132q59 0 113.5 8.5t105 29.5t95.5 58t86 94
l103 -53q-6 -17 -9.5 -32t-3.5 -26q0 -19 10.5 -33.5t33 -22t57.5 -7.5q33 0 48.5 -18.5t15.5 -45.5q0 -31 -19 -49.5t-55 -18.5q-55 0 -101 17.5t-71 51.5t-20 83l36 -1q-28 -42 -73 -73t-103 -52t-127.5 -31.5t-148.5 -10.5zM388 -21q-94 0 -159.5 16t-106.5 45.5t-60 71
t-19 92.5q0 29 6 62.5t15 65.5t17 57l116 -29q-5 -19 -10.5 -40t-9 -42.5t-3.5 -41.5q0 -35 19.5 -64t71.5 -45t148 -16l20 -101zM566 441q-28 0 -47 19t-19 46t19 47t47 20q27 0 46 -20t19 -47t-19 -46t-46 -19zM400 441q-28 0 -47 19.5t-19 45.5q0 28 19 47.5t47 19.5
q27 0 46 -19.5t19 -47.5q0 -27 -19 -46t-46 -19z" />
    <glyph glyph-name="uni067D.init" unicode="&#x67d;" horiz-adv-x="342" 
d="M0 -5l10 132q57 0 88.5 6.5t44 24t12.5 49.5q0 31 -7.5 71t-19 82.5t-24.5 78.5l128 36q13 -34 25 -79t20.5 -93t8.5 -93q0 -68 -21.5 -110.5t-60.5 -65t-91 -31t-113 -8.5zM169 562q-25 0 -43.5 17.5t-18.5 42.5q0 26 18.5 44.5t43.5 18.5t43 -19t18 -44t-18 -42.5
t-43 -17.5zM90 701q-25 0 -43 17.5t-18 42.5q0 26 18 44.5t43 18.5t43 -19t18 -44t-18 -42.5t-43 -17.5zM251 701q-25 0 -43.5 17.5t-18.5 42.5q0 26 18.5 44.5t43.5 18.5t43 -19t18 -44t-18 -42.5t-43 -17.5z" />
    <glyph glyph-name="uni067D.medi" unicode="&#x67d;" horiz-adv-x="382" 
d="M0 -5l10 132q34 0 57 7t37.5 28.5t25.5 65t21 115.5l127 -21q-2 -16 -5.5 -35.5t-6 -40t-2.5 -39.5t6 -34t20.5 -25.5t39.5 -15.5t63 -5q33 0 48.5 -18.5t15.5 -45.5q0 -31 -19 -49.5t-55 -18.5q-50 0 -86.5 8t-60.5 25.5t-37.5 44.5t-17.5 65l46 -1q-18 -48 -43.5 -76.5
t-56 -42.5t-63 -18.5t-64.5 -4.5zM203 452q-25 0 -43 18t-18 43t18 44t43 19q26 0 43.5 -19t17.5 -44t-17.5 -43t-43.5 -18zM125 591q-26 0 -44 18t-18 43t18 44t44 19q25 0 42.5 -19t17.5 -44t-17.5 -43t-42.5 -18zM286 591q-26 0 -44 18t-18 43t18 44t44 19q25 0 42.5 -19
t17.5 -44t-17.5 -43t-42.5 -18z" />
    <glyph glyph-name="uni067D.fina" unicode="&#x67d;" horiz-adv-x="994" 
d="M386 -21l27 132q59 0 113.5 8.5t105 29.5t95.5 58t86 94l103 -53q-6 -17 -9.5 -32t-3.5 -26q0 -19 10.5 -33.5t33 -22t57.5 -7.5q33 0 48.5 -18.5t15.5 -45.5q0 -31 -19 -49.5t-55 -18.5q-55 0 -101 17.5t-71 51.5t-20 83l36 -1q-28 -42 -73 -73t-103 -52t-127.5 -31.5
t-148.5 -10.5zM388 -21q-94 0 -159.5 16t-106.5 45.5t-60 71t-19 92.5q0 29 6 62.5t15 65.5t17 57l116 -29q-5 -19 -10.5 -40t-9 -42.5t-3.5 -41.5q0 -35 19.5 -64t71.5 -45t148 -16l20 -101zM489 443q-25 0 -43.5 17.5t-18.5 42.5t18.5 44t43.5 19t43 -19t18 -44t-18 -42.5
t-43 -17.5zM410 582q-25 0 -43 17.5t-18 42.5t18 44t43 19t43 -19t18 -44t-18 -42.5t-43 -17.5zM571 582q-25 0 -43.5 17.5t-18.5 42.5t18.5 44t43.5 19t43 -19t18 -44t-18 -42.5t-43 -17.5z" />
    <glyph glyph-name="uni0681.init" unicode="&#x681;" horiz-adv-x="565" 
d="M0 -5l9 132q46 0 91.5 7t90.5 20.5t88.5 34.5t85.5 50q-33 19 -66 32t-65.5 19.5t-66.5 6.5q-16 0 -31 -1t-30.5 -3.5t-31.5 -6.5l-23 132q27 8 54.5 11.5t54.5 3.5q54 0 97 -12t77.5 -29.5t63.5 -35t55 -29.5t52 -12h26l16 -122q-34 -3 -65 -18.5t-63.5 -38t-71.5 -47
t-88 -46t-112.5 -35t-146.5 -13.5zM90 502l-15 61q33 6 49.5 10t34.5 8l-11 -24q-24 8 -46 32t-22 59q0 31 13.5 50.5t36 29.5t49.5 10q12 0 26 -2t24 -6l-7 -59q-9 2 -19 3.5t-19 1.5q-18 0 -28 -8.5t-10 -21.5q0 -17 11.5 -30t26.5 -20t26 -8l-44 -5q25 7 47 14t41 14
l18 -59q-23 -8 -54 -17.5t-63.5 -18t-64.5 -14.5z" />
    <glyph glyph-name="uni0681.medi" unicode="&#x681;" horiz-adv-x="569" 
d="M569 -5q-32 0 -62.5 7.5t-57.5 25t-48.5 48.5t-35.5 77l77 57q14 -34 34.5 -52t46.5 -24.5t56 -6.5q33 0 48.5 -18.5t15.5 -45.5q0 -31 -19 -49.5t-55 -18.5zM0 -5l9 132q46 0 91.5 7t90.5 20.5t88.5 34.5t85.5 50q-33 19 -66 32t-65.5 19.5t-66.5 6.5q-16 0 -31 -1
t-30.5 -3.5t-31.5 -6.5l-23 132q27 8 54.5 11.5t54.5 3.5q54 0 97 -12t77.5 -29.5t63.5 -35t55 -29.5t52 -12h26l16 -122q-34 -3 -65 -18.5t-63.5 -38t-71.5 -47t-88 -46t-112.5 -35t-146.5 -13.5zM102 502l-15 61q33 6 49.5 10t34.5 8l-11 -24q-24 8 -46 32t-22 59
q0 31 13.5 50.5t36 29.5t49.5 10q12 0 26 -2t24 -6l-7 -59q-9 2 -19 3.5t-19 1.5q-18 0 -28 -8.5t-10 -21.5q0 -17 11.5 -30t26.5 -20t26 -8l-44 -5q25 7 47 14t41 14l18 -59q-23 -8 -54 -17.5t-63.5 -18t-64.5 -14.5z" />
    <glyph glyph-name="uni0681.fina" unicode="&#x681;" horiz-adv-x="626" 
d="M626 -5q-43 0 -83 9t-72.5 34.5t-55 72.5t-29.5 124l96 42q7 -49 21 -79t34 -45.5t45.5 -20.5t53.5 -5q33 0 48.5 -18.5t15.5 -45.5q0 -31 -19 -49.5t-55 -18.5zM354 -390q-67 0 -128 18t-107.5 55t-74 92.5t-27.5 129.5q0 65 21.5 122.5t58 106t85.5 87t105.5 67.5
t115.5 47l8 -33q-24 8 -52.5 18.5t-60.5 20t-65.5 15.5t-67.5 6q-26 0 -54 -4t-51 -10l-20 132q28 8 57.5 13.5t58.5 5.5q47 0 88 -10t78 -25t71.5 -30t66 -25t61.5 -10h24l14 -145q-42 -3 -87.5 -14.5t-90.5 -31t-86.5 -47t-72.5 -62.5t-49.5 -77.5t-18.5 -91.5t17.5 -84
t47.5 -57t68 -32.5t78 -10.5q45 0 89 10t90 29l41 -119q-65 -31 -123.5 -43.5t-107.5 -12.5zM194 578l-15 61q33 6 49.5 10t34.5 8l-11 -24q-24 8 -46 32t-22 59q0 31 13.5 50.5t36 29.5t49.5 10q12 0 26 -2t24 -6l-7 -59q-9 2 -19 3.5t-19 1.5q-18 0 -28 -8.5t-10 -21.5
q0 -17 11.5 -30t26.5 -20t26 -8l-44 -5q25 7 47 14t41 14l18 -59q-23 -8 -54 -17.5t-63.5 -18t-64.5 -14.5z" />
    <glyph glyph-name="uni0682.init" unicode="&#x682;" horiz-adv-x="565" 
d="M0 -5l9 132q46 0 91.5 7t90.5 20.5t88.5 34.5t85.5 50q-33 19 -66 32t-65.5 19.5t-66.5 6.5q-16 0 -31 -1t-30.5 -3.5t-31.5 -6.5l-23 132q27 8 54.5 11.5t54.5 3.5q54 0 97 -12t77.5 -29.5t63.5 -35t55 -29.5t52 -12h26l16 -122q-34 -3 -65 -18.5t-63.5 -38t-71.5 -47
t-88 -46t-112.5 -35t-146.5 -13.5zM151 531q-26 0 -44 17t-18 42q0 26 17.5 44.5t44.5 18.5q25 0 42.5 -18.5t17.5 -43.5q0 -26 -18 -43t-42 -17zM151 690q-26 0 -44 17t-18 42q0 26 17.5 44.5t44.5 18.5q25 0 42.5 -18.5t17.5 -43.5q0 -26 -18 -43t-42 -17z" />
    <glyph glyph-name="uni0682.medi" unicode="&#x682;" horiz-adv-x="569" 
d="M569 -5q-32 0 -62.5 7.5t-57.5 25t-48.5 48.5t-35.5 77l77 57q14 -34 34.5 -52t46.5 -24.5t56 -6.5q33 0 48.5 -18.5t15.5 -45.5q0 -31 -19 -49.5t-55 -18.5zM0 -5l9 132q46 0 91.5 7t90.5 20.5t88.5 34.5t85.5 50q-33 19 -66 32t-65.5 19.5t-66.5 6.5q-16 0 -31 -1
t-30.5 -3.5t-31.5 -6.5l-23 132q27 8 54.5 11.5t54.5 3.5q54 0 97 -12t77.5 -29.5t63.5 -35t55 -29.5t52 -12h26l16 -122q-34 -3 -65 -18.5t-63.5 -38t-71.5 -47t-88 -46t-112.5 -35t-146.5 -13.5zM169 534q-26 0 -44 17t-18 42q0 26 17.5 44.5t44.5 18.5q25 0 42.5 -18.5
t17.5 -43.5q0 -26 -18 -43t-42 -17zM169 693q-26 0 -44 17t-18 42q0 26 17.5 44.5t44.5 18.5q25 0 42.5 -18.5t17.5 -43.5q0 -26 -18 -43t-42 -17z" />
    <glyph glyph-name="uni0682.fina" unicode="&#x682;" horiz-adv-x="626" 
d="M626 -5q-43 0 -83 9t-72.5 34.5t-55 72.5t-29.5 124l96 42q7 -49 21 -79t34 -45.5t45.5 -20.5t53.5 -5q33 0 48.5 -18.5t15.5 -45.5q0 -31 -19 -49.5t-55 -18.5zM354 -390q-67 0 -128 18t-107.5 55t-74 92.5t-27.5 129.5q0 65 21.5 122.5t58 106t85.5 87t105.5 67.5
t115.5 47l8 -33q-24 8 -52.5 18.5t-60.5 20t-65.5 15.5t-67.5 6q-26 0 -54 -4t-51 -10l-20 132q28 8 57.5 13.5t58.5 5.5q47 0 88 -10t78 -25t71.5 -30t66 -25t61.5 -10h24l14 -145q-42 -3 -87.5 -14.5t-90.5 -31t-86.5 -47t-72.5 -62.5t-49.5 -77.5t-18.5 -91.5t17.5 -84
t47.5 -57t68 -32.5t78 -10.5q45 0 89 10t90 29l41 -119q-65 -31 -123.5 -43.5t-107.5 -12.5zM318 594q-26 0 -44 17t-18 42q0 26 17.5 44.5t44.5 18.5q25 0 42.5 -18.5t17.5 -43.5q0 -26 -18 -43t-42 -17zM318 753q-26 0 -44 17t-18 42q0 26 17.5 44.5t44.5 18.5
q25 0 42.5 -18.5t17.5 -43.5q0 -26 -18 -43t-42 -17z" />
    <glyph glyph-name="uni0685.init" unicode="&#x685;" horiz-adv-x="565" 
d="M0 -5l9 132q46 0 91.5 7t90.5 20.5t88.5 34.5t85.5 50q-33 19 -66 32t-65.5 19.5t-66.5 6.5q-16 0 -31 -1t-30.5 -3.5t-31.5 -6.5l-23 132q27 8 54.5 11.5t54.5 3.5q54 0 97 -12t77.5 -29.5t63.5 -35t55 -29.5t52 -12h26l16 -122q-34 -3 -65 -18.5t-63.5 -38t-71.5 -47
t-88 -46t-112.5 -35t-146.5 -13.5zM155 671q-27 0 -45.5 18.5t-18.5 45.5q0 26 18.5 45t45.5 19q26 0 44.5 -19t18.5 -45q0 -27 -18.5 -45.5t-44.5 -18.5zM77 530q-27 0 -45.5 19t-18.5 45t18.5 45t45.5 19q26 0 44.5 -19t18.5 -45t-18.5 -45t-44.5 -19zM239 530
q-27 0 -45.5 19t-18.5 45q0 27 18.5 45.5t45.5 18.5t45 -18.5t18 -45.5q0 -26 -18.5 -45t-44.5 -19z" />
    <glyph glyph-name="uni0685.medi" unicode="&#x685;" horiz-adv-x="569" 
d="M569 -5q-32 0 -62.5 7.5t-57.5 25t-48.5 48.5t-35.5 77l77 57q14 -34 34.5 -52t46.5 -24.5t56 -6.5q33 0 48.5 -18.5t15.5 -45.5q0 -31 -19 -49.5t-55 -18.5zM0 -5l9 132q46 0 91.5 7t90.5 20.5t88.5 34.5t85.5 50q-33 19 -66 32t-65.5 19.5t-66.5 6.5q-16 0 -31 -1
t-30.5 -3.5t-31.5 -6.5l-23 132q27 8 54.5 11.5t54.5 3.5q54 0 97 -12t77.5 -29.5t63.5 -35t55 -29.5t52 -12h26l16 -122q-34 -3 -65 -18.5t-63.5 -38t-71.5 -47t-88 -46t-112.5 -35t-146.5 -13.5zM173 671q-27 0 -45.5 18.5t-18.5 45.5q0 26 18.5 45t45.5 19q26 0 44.5 -19
t18.5 -45q0 -27 -18.5 -45.5t-44.5 -18.5zM95 530q-27 0 -45.5 19t-18.5 45t18.5 45t45.5 19q26 0 44.5 -19t18.5 -45t-18.5 -45t-44.5 -19zM257 530q-27 0 -45.5 19t-18.5 45q0 27 18.5 45.5t45.5 18.5t45 -18.5t18 -45.5q0 -26 -18.5 -45t-44.5 -19z" />
    <glyph glyph-name="uni0685.fina" unicode="&#x685;" horiz-adv-x="626" 
d="M626 -5q-43 0 -83 9t-72.5 34.5t-55 72.5t-29.5 124l96 42q7 -49 21 -79t34 -45.5t45.5 -20.5t53.5 -5q33 0 48.5 -18.5t15.5 -45.5q0 -31 -19 -49.5t-55 -18.5zM354 -390q-67 0 -128 18t-107.5 55t-74 92.5t-27.5 129.5q0 65 21.5 122.5t58 106t85.5 87t105.5 67.5
t115.5 47l8 -33q-24 8 -52.5 18.5t-60.5 20t-65.5 15.5t-67.5 6q-26 0 -54 -4t-51 -10l-20 132q28 8 57.5 13.5t58.5 5.5q47 0 88 -10t78 -25t71.5 -30t66 -25t61.5 -10h24l14 -145q-42 -3 -87.5 -14.5t-90.5 -31t-86.5 -47t-72.5 -62.5t-49.5 -77.5t-18.5 -91.5t17.5 -84
t47.5 -57t68 -32.5t78 -10.5q45 0 89 10t90 29l41 -119q-65 -31 -123.5 -43.5t-107.5 -12.5zM304 739q-27 0 -45.5 18.5t-18.5 45.5q0 26 18.5 45t45.5 19q26 0 44.5 -19t18.5 -45q0 -27 -18.5 -45.5t-44.5 -18.5zM226 598q-27 0 -45.5 19t-18.5 45t18.5 45t45.5 19
q26 0 44.5 -19t18.5 -45t-18.5 -45t-44.5 -19zM388 598q-27 0 -45.5 19t-18.5 45q0 27 18.5 45.5t45.5 18.5t45 -18.5t18 -45.5q0 -26 -18.5 -45t-44.5 -19z" />
    <glyph glyph-name="uni0689.fina" unicode="&#x689;" horiz-adv-x="511" 
d="M200 -126q-37 0 -62.5 26t-25.5 63q0 36 25.5 62t62.5 26t62 -26t25 -62q0 -37 -25 -63t-62 -26zM199 -68q14 0 23.5 8.5t9.5 22.5t-9.5 22.5t-23.5 8.5q-13 0 -22.5 -9t-9.5 -22q0 -14 9.5 -22.5t22.5 -8.5zM192 129q30 0 49.5 6.5t29 20t9.5 35.5t-9.5 50t-25 61.5
t-37 71t-47.5 79.5l124 72q38 -55 65 -109.5t44.5 -100t26.5 -76.5q12 -41 28 -66t34.5 -35.5t37.5 -10.5q33 0 48.5 -18.5t15.5 -45.5q0 -31 -18.5 -49.5t-55.5 -18.5q-35 0 -69.5 11.5t-61 37.5t-39.5 66l47 -8q-8 -31 -30.5 -55t-59.5 -38.5t-92 -14.5q-27 0 -59 3.5
t-61.5 11t-50.5 18.5l30 124q31 -11 66 -16.5t61 -5.5z" />
    <glyph glyph-name="uni068A.fina" unicode="&#x68a;" horiz-adv-x="511" 
d="M192 129q30 0 49.5 6.5t29 20t9.5 35.5t-9.5 50t-25 61.5t-37 71t-47.5 79.5l124 72q38 -55 65 -109.5t44.5 -100t26.5 -76.5q12 -41 28 -66t34.5 -35.5t37.5 -10.5q33 0 48.5 -18.5t15.5 -45.5q0 -31 -18.5 -49.5t-55.5 -18.5q-35 0 -69.5 11.5t-61 37.5t-39.5 66l47 -8
q-8 -31 -30.5 -55t-59.5 -38.5t-92 -14.5q-27 0 -59 3.5t-61.5 11t-50.5 18.5l30 124q31 -11 66 -16.5t61 -5.5zM180 -229q-28 0 -47 19t-19 46t19 47.5t47 20.5q27 0 46.5 -20.5t19.5 -47.5t-19.5 -46t-46.5 -19z" />
    <glyph glyph-name="uni068B.fina" unicode="&#x68b;" horiz-adv-x="511" 
d="M192 129q30 0 49.5 6.5t29 20t9.5 35.5t-9.5 50t-25 61.5t-37 71t-47.5 79.5l124 72q38 -55 65 -109.5t44.5 -100t26.5 -76.5q12 -41 28 -66t34.5 -35.5t37.5 -10.5q33 0 48.5 -18.5t15.5 -45.5q0 -31 -18.5 -49.5t-55.5 -18.5q-35 0 -69.5 11.5t-61 37.5t-39.5 66l47 -8
q-8 -31 -30.5 -55t-59.5 -38.5t-92 -14.5q-27 0 -59 3.5t-61.5 11t-50.5 18.5l30 124q31 -11 66 -16.5t61 -5.5zM215 623q-17 0 -40.5 1.5t-43.5 3t-30 2.5l3 58q19 -2 49 -4.5t56 -2.5q37 0 57.5 6t28.5 15t8 19q0 11 -7.5 18.5t-20.5 7.5q-17 0 -34 -12.5t-30.5 -29.5
t-21.5 -32l-58 11q16 36 41.5 63.5t54 44t57.5 16.5q36 0 58 -24t22 -60q0 -21 -11.5 -44.5t-43.5 -40t-94 -16.5zM148 692l-6 181h59l7 -160zM180 -229q-28 0 -47 19t-19 46t19 47.5t47 20.5q27 0 46.5 -20.5t19.5 -47.5t-19.5 -46t-46.5 -19z" />
    <glyph glyph-name="uni068F.fina" unicode="&#x68f;" horiz-adv-x="511" 
d="M192 129q30 0 49.5 6.5t29 20t9.5 35.5t-9.5 50t-25 61.5t-37 71t-47.5 79.5l124 72q38 -55 65 -109.5t44.5 -100t26.5 -76.5q12 -41 28 -66t34.5 -35.5t37.5 -10.5q33 0 48.5 -18.5t15.5 -45.5q0 -31 -18.5 -49.5t-55.5 -18.5q-35 0 -69.5 11.5t-61 37.5t-39.5 66l47 -8
q-8 -31 -30.5 -55t-59.5 -38.5t-92 -14.5q-27 0 -59 3.5t-61.5 11t-50.5 18.5l30 124q31 -11 66 -16.5t61 -5.5zM229 626q-25 0 -43.5 17.5t-18.5 42.5t18.5 44t43.5 19t43 -19t18 -44t-18 -42.5t-43 -17.5zM150 765q-25 0 -43 17.5t-18 42.5t18 44t43 19t43 -19t18 -44
t-18 -42.5t-43 -17.5zM311 765q-25 0 -43.5 17.5t-18.5 42.5t18.5 44t43.5 19t43 -19t18 -44t-18 -42.5t-43 -17.5z" />
    <glyph glyph-name="uni0690.fina" unicode="&#x690;" horiz-adv-x="511" 
d="M192 129q30 0 49.5 6.5t29 20t9.5 35.5t-9.5 50t-25 61.5t-37 71t-47.5 79.5l124 72q38 -55 65 -109.5t44.5 -100t26.5 -76.5q12 -41 28 -66t34.5 -35.5t37.5 -10.5q33 0 48.5 -18.5t15.5 -45.5q0 -31 -18.5 -49.5t-55.5 -18.5q-35 0 -69.5 11.5t-61 37.5t-39.5 66l47 -8
q-8 -31 -30.5 -55t-59.5 -38.5t-92 -14.5q-27 0 -59 3.5t-61.5 11t-50.5 18.5l30 124q31 -11 66 -16.5t61 -5.5zM126 735q-25 0 -41 16t-16 39t16 39.5t41 16.5q22 0 38 -17t16 -39q0 -23 -15.5 -39t-38.5 -16zM126 596q-25 0 -41 16.5t-16 38.5q0 24 16 40.5t41 16.5
q22 0 38 -17t16 -39q0 -23 -15.5 -39.5t-38.5 -16.5zM264 736q-25 0 -41 16t-16 39t16 40t41 17q22 0 38 -17t16 -40t-15.5 -39t-38.5 -16zM264 596q-25 0 -41 16.5t-16 38.5q0 24 16 40.5t41 16.5q22 0 38 -17t16 -39q0 -23 -15.5 -39.5t-38.5 -16.5z" />
    <glyph glyph-name="uni0692.fina" unicode="&#x692;" horiz-adv-x="379" 
d="M30 -230l-69 124q47 23 83 48.5t60.5 54t36.5 60t12 67.5q0 44 -18.5 93t-46.5 103l127 63q16 -30 28.5 -62t22.5 -60t15 -47q14 -51 40 -69t68 -18q32 0 48 -18.5t16 -45.5q0 -31 -19 -49.5t-55 -18.5q-35 0 -62.5 12.5t-45.5 35.5t-24 53l39 18q-1 -53 -18 -102.5
t-49.5 -93.5t-79.5 -81t-109 -67zM103 476q-7 15 -17.5 39t-21.5 52t-21.5 52.5t-18.5 40.5l54 24q5 -10 14 -31l19.5 -45.5t21 -47.5t17.5 -37l20 -41zM169 482l-49 20q6 16 16 43.5t20 57t18.5 53t11.5 31.5l54 -18q-4 -9 -13 -34t-20.5 -55t-21.5 -57t-16 -41z" />
    <glyph glyph-name="uni0693.fina" unicode="&#x693;" horiz-adv-x="379" 
d="M221 -217q-37 0 -62.5 26t-25.5 62q0 37 25.5 62.5t62.5 25.5q36 0 61.5 -25.5t25.5 -62.5q0 -36 -25.5 -62t-61.5 -26zM220 -159q14 0 23.5 8t9.5 22q0 15 -9.5 23.5t-23.5 8.5q-13 0 -22.5 -9t-9.5 -23t9.5 -22t22.5 -8zM30 -230l-69 124q47 23 83 48.5t60.5 54
t36.5 60t12 67.5q0 44 -18.5 93t-46.5 103l127 63q16 -30 28.5 -62t22.5 -60t15 -47q14 -51 40 -69t68 -18q32 0 48 -18.5t16 -45.5q0 -31 -19 -49.5t-55 -18.5q-35 0 -62.5 12.5t-45.5 35.5t-24 53l39 18q-1 -53 -18 -102.5t-49.5 -93.5t-79.5 -81t-109 -67z" />
    <glyph glyph-name="uni0694.fina" unicode="&#x694;" horiz-adv-x="379" 
d="M30 -230l-69 124q47 23 83 48.5t60.5 54t36.5 60t12 67.5q0 44 -18.5 93t-46.5 103l127 63q16 -30 28.5 -62t22.5 -60t15 -47q14 -51 40 -69t68 -18q32 0 48 -18.5t16 -45.5q0 -31 -19 -49.5t-55 -18.5q-35 0 -62.5 12.5t-45.5 35.5t-24 53l39 18q-1 -53 -18 -102.5
t-49.5 -93.5t-79.5 -81t-109 -67zM172 -427q-28 0 -47 19t-19 46t19 47.5t47 20.5q27 0 46.5 -20.5t19.5 -47.5t-19.5 -46t-46.5 -19z" />
    <glyph glyph-name="uni0695.fina" unicode="&#x695;" horiz-adv-x="379" 
d="M7 -29q-8 16 -20 40.5t-24.5 49.5t-21.5 42l43 23q5 -8 12 -23t16 -32.5t17 -34t14 -27.5l15 -33zM58 -24l-43 16q5 13 13 33.5t16.5 42t15.5 38.5t11 22l42 -17q-3 -8 -10 -25t-16 -38t-17 -40.5t-12 -31.5zM30 -230l-69 124q47 23 83 48.5t60.5 54t36.5 60t12 67.5
q0 44 -18.5 93t-46.5 103l127 63q16 -30 28.5 -62t22.5 -60t15 -47q14 -51 40 -69t68 -18q32 0 48 -18.5t16 -45.5q0 -31 -19 -49.5t-55 -18.5q-35 0 -62.5 12.5t-45.5 35.5t-24 53l39 18q-1 -53 -18 -102.5t-49.5 -93.5t-79.5 -81t-109 -67z" />
    <glyph glyph-name="uni0696.fina" unicode="&#x696;" horiz-adv-x="379" 
d="M30 -230l-69 124q47 23 83 48.5t60.5 54t36.5 60t12 67.5q0 44 -18.5 93t-46.5 103l127 63q16 -30 28.5 -62t22.5 -60t15 -47q14 -51 40 -69t68 -18q32 0 48 -18.5t16 -45.5q0 -31 -19 -49.5t-55 -18.5q-35 0 -62.5 12.5t-45.5 35.5t-24 53l39 18q-1 -53 -18 -102.5
t-49.5 -93.5t-79.5 -81t-109 -67zM51 13q-29 0 -48.5 19.5t-19.5 46.5q0 28 19.5 48.5t48.5 20.5q27 0 46.5 -20.5t19.5 -47.5q0 -28 -19.5 -47.5t-46.5 -19.5zM150 -427q-28 0 -47 19t-19 46t19 47.5t47 20.5q27 0 46.5 -20.5t19.5 -47.5t-19.5 -46t-46.5 -19z" />
    <glyph glyph-name="uni0697.fina" unicode="&#x697;" horiz-adv-x="379" 
d="M30 -230l-69 124q47 23 83 48.5t60.5 54t36.5 60t12 67.5q0 44 -18.5 93t-46.5 103l127 63q16 -30 28.5 -62t22.5 -60t15 -47q14 -51 40 -69t68 -18q32 0 48 -18.5t16 -45.5q0 -31 -19 -49.5t-55 -18.5q-35 0 -62.5 12.5t-45.5 35.5t-24 53l39 18q-1 -53 -18 -102.5
t-49.5 -93.5t-79.5 -81t-109 -67zM263 492q-28 0 -47 19t-19 46t19 47t47 20q27 0 46 -20t19 -47t-19 -46t-46 -19zM97 492q-28 0 -47 19t-19 46t19 47t47 20q27 0 46 -20t19 -47t-19 -46t-46 -19z" />
    <glyph glyph-name="uni0699.fina" unicode="&#x699;" horiz-adv-x="379" 
d="M30 -230l-69 124q47 23 83 48.5t60.5 54t36.5 60t12 67.5q0 44 -18.5 93t-46.5 103l127 63q16 -30 28.5 -62t22.5 -60t15 -47q14 -51 40 -69t68 -18q32 0 48 -18.5t16 -45.5q0 -31 -19 -49.5t-55 -18.5q-35 0 -62.5 12.5t-45.5 35.5t-24 53l39 18q-1 -53 -18 -102.5
t-49.5 -93.5t-79.5 -81t-109 -67zM71 629q-25 0 -41 16t-16 39t16 39.5t41 16.5q22 0 38 -17t16 -39q0 -23 -15.5 -39t-38.5 -16zM71 490q-25 0 -41 16.5t-16 38.5q0 24 16 40.5t41 16.5q22 0 38 -17t16 -39q0 -23 -15.5 -39.5t-38.5 -16.5zM209 630q-25 0 -41 16t-16 39
t16 40t41 17q22 0 38 -17t16 -40t-15.5 -39t-38.5 -16zM209 490q-25 0 -41 16.5t-16 38.5q0 24 16 40.5t41 16.5q22 0 38 -17t16 -39q0 -23 -15.5 -39.5t-38.5 -16.5z" />
    <glyph glyph-name="uni069A.init" unicode="&#x69a;" horiz-adv-x="855" 
d="M0 -5l10 132q27 0 44 6t28.5 26t22 62t23.5 112l125 -23q-3 -18 -7 -38.5t-7 -41.5t-3 -40q0 -30 15 -46.5t53 -16.5q23 0 38.5 6t26.5 26.5t20.5 64t20.5 116.5l127 -20q-4 -21 -8 -47.5t-7 -50t-3 -38.5q0 -16 7 -29.5t23.5 -20.5t44.5 -7q25 0 42.5 7.5t26.5 24.5
t9 44q0 42 -16 102t-39 127l130 41q16 -44 29 -93t21 -94.5t8 -82.5q0 -50 -16 -88.5t-44 -65.5t-65 -40.5t-80 -13.5q-45 0 -76 12t-50 40t-26 76h32q-19 -57 -44.5 -84.5t-57 -35.5t-72.5 -8q-29 0 -60.5 8t-56.5 36t-38 85l54 2q-21 -57 -52.5 -85t-70.5 -37t-82 -9z
M417 -229q-28 0 -47 19t-19 46t19 47.5t47 20.5q27 0 46.5 -20.5t19.5 -47.5t-19.5 -46t-46.5 -19zM461 490q-29 0 -48.5 19.5t-19.5 46.5q0 28 19.5 48.5t48.5 20.5q27 0 46.5 -20.5t19.5 -47.5q0 -28 -19.5 -47.5t-46.5 -19.5z" />
    <glyph glyph-name="uni069A.medi" unicode="&#x69a;" horiz-adv-x="900" 
d="M0 -5l10 132q25 0 42 6t28.5 26t22 62t23.5 112l125 -23q-4 -22 -10.5 -55.5t-6.5 -59.5q0 -22 6 -37t21.5 -23t43.5 -8q22 0 37 6t26.5 27t21.5 64t20 116l127 -20q-4 -24 -8 -50t-7 -48.5t-3 -37.5q0 -18 6.5 -30.5t23.5 -19.5t47 -7q38 0 56 20t18 67q0 23 -1 50
t-3.5 61t-8.5 76l126 10q7 -89 15.5 -145t21.5 -86.5t34.5 -41.5t55.5 -11q33 0 48.5 -18.5t15.5 -45.5q0 -31 -18.5 -49.5t-55.5 -18.5q-20 0 -44.5 5t-49 19.5t-44.5 40t-32 66.5l21 -5q-13 -47 -35.5 -74t-54 -39.5t-73.5 -12.5q-37 0 -68.5 12.5t-51 40.5t-19.5 75h30
q-18 -55 -41.5 -82.5t-55.5 -36.5t-79 -9q-29 0 -60.5 9t-57 36.5t-36.5 83.5l55 2q-24 -59 -54 -87t-66.5 -36t-83.5 -8zM406 -229q-28 0 -47 19t-19 46t19 47.5t47 20.5q27 0 46.5 -20.5t19.5 -47.5t-19.5 -46t-46.5 -19zM456 490q-29 0 -48.5 19.5t-19.5 46.5
q0 28 19.5 48.5t48.5 20.5q27 0 46.5 -20.5t19.5 -47.5q0 -28 -19.5 -47.5t-46.5 -19.5z" />
    <glyph glyph-name="uni069A.fina" unicode="&#x69a;" horiz-adv-x="1256" 
d="M303 -232q-55 0 -104.5 15.5t-87.5 46.5t-59.5 77.5t-21.5 109.5q0 24 4 54.5t15.5 70.5t35.5 93l118 -45q-13 -34 -21.5 -60.5t-12 -49.5t-3.5 -48q0 -41 17.5 -71t50.5 -45.5t77 -15.5q43 0 73.5 11t48.5 32t26.5 51t8.5 66q0 35 -7 73.5t-19 82.5t-28 92l136 36
q14 -58 23 -90t13 -49q10 -32 21.5 -49.5t26 -23t34.5 -5.5q18 0 32 6t25 26.5t21 63.5t19 118l128 -21q-4 -24 -8.5 -50t-7.5 -49t-3 -38q0 -16 7 -28.5t24 -20t47 -7.5q37 0 55.5 21.5t18.5 65.5q0 23 -1 50t-4 61t-8 76l128 10q8 -96 17 -153t23 -85.5t34.5 -37
t50.5 -8.5q33 0 48.5 -18.5t15.5 -45.5q0 -31 -18.5 -49.5t-54.5 -18.5q-31 0 -65.5 11t-63.5 39t-44 80l26 -5q-13 -50 -39.5 -77t-58 -37.5t-60.5 -10.5q-43 0 -76.5 14.5t-52 43.5t-19.5 72h32q-17 -55 -40.5 -82.5t-52 -37.5t-59.5 -10q-19 0 -38.5 5t-37 16t-30 30.5
t-17.5 48.5l38 -48q-1 -66 -23.5 -118t-62 -87.5t-93 -54.5t-117.5 -19zM817 -223q-28 0 -47 19t-19 46t19 47.5t47 20.5q27 0 46.5 -20.5t19.5 -47.5t-19.5 -46t-46.5 -19zM766 490q-29 0 -48.5 19.5t-19.5 46.5q0 28 19.5 48.5t48.5 20.5q27 0 46.5 -20.5t19.5 -47.5
q0 -28 -19.5 -47.5t-46.5 -19.5z" />
    <glyph glyph-name="uni069B.init" unicode="&#x69b;" horiz-adv-x="855" 
d="M0 -5l10 132q27 0 44 6t28.5 26t22 62t23.5 112l125 -23q-3 -18 -7 -38.5t-7 -41.5t-3 -40q0 -30 15 -46.5t53 -16.5q23 0 38.5 6t26.5 26.5t20.5 64t20.5 116.5l127 -20q-4 -21 -8 -47.5t-7 -50t-3 -38.5q0 -16 7 -29.5t23.5 -20.5t44.5 -7q25 0 42.5 7.5t26.5 24.5
t9 44q0 42 -16 102t-39 127l130 41q16 -44 29 -93t21 -94.5t8 -82.5q0 -50 -16 -88.5t-44 -65.5t-65 -40.5t-80 -13.5q-45 0 -76 12t-50 40t-26 76h32q-19 -57 -44.5 -84.5t-57 -35.5t-72.5 -8q-29 0 -60.5 8t-56.5 36t-38 85l54 2q-21 -57 -52.5 -85t-70.5 -37t-82 -9z
M421 -360q-26 0 -44 17.5t-18 43.5q0 25 18 43.5t44 18.5q24 0 42 -19t18 -43q0 -26 -18 -43.5t-42 -17.5zM342 -221q-26 0 -44 17.5t-18 43.5q0 25 18 43.5t44 18.5q24 0 42 -18.5t18 -43.5q0 -26 -18 -43.5t-42 -17.5zM503 -221q-26 0 -44 17.5t-18 43.5q0 25 18 43.5
t44 18.5q24 0 42 -18.5t18 -43.5q0 -26 -18 -43.5t-42 -17.5z" />
    <glyph glyph-name="uni069B.medi" unicode="&#x69b;" horiz-adv-x="900" 
d="M0 -5l10 132q25 0 42 6t28.5 26t22 62t23.5 112l125 -23q-4 -22 -10.5 -55.5t-6.5 -59.5q0 -22 6 -37t21.5 -23t43.5 -8q22 0 37 6t26.5 27t21.5 64t20 116l127 -20q-4 -24 -8 -50t-7 -48.5t-3 -37.5q0 -18 6.5 -30.5t23.5 -19.5t47 -7q38 0 56 20t18 67q0 23 -1 50
t-3.5 61t-8.5 76l126 10q7 -89 15.5 -145t21.5 -86.5t34.5 -41.5t55.5 -11q33 0 48.5 -18.5t15.5 -45.5q0 -31 -18.5 -49.5t-55.5 -18.5q-20 0 -44.5 5t-49 19.5t-44.5 40t-32 66.5l21 -5q-13 -47 -35.5 -74t-54 -39.5t-73.5 -12.5q-37 0 -68.5 12.5t-51 40.5t-19.5 75h30
q-18 -55 -41.5 -82.5t-55.5 -36.5t-79 -9q-29 0 -60.5 9t-57 36.5t-36.5 83.5l55 2q-24 -59 -54 -87t-66.5 -36t-83.5 -8zM410 -360q-26 0 -44 17.5t-18 43.5q0 25 18 43.5t44 18.5q24 0 42 -19t18 -43q0 -26 -18 -43.5t-42 -17.5zM331 -221q-26 0 -44 17.5t-18 43.5
q0 25 18 43.5t44 18.5q24 0 42 -18.5t18 -43.5q0 -26 -18 -43.5t-42 -17.5zM492 -221q-26 0 -44 17.5t-18 43.5q0 25 18 43.5t44 18.5q24 0 42 -18.5t18 -43.5q0 -26 -18 -43.5t-42 -17.5z" />
    <glyph glyph-name="uni069B.fina" unicode="&#x69b;" horiz-adv-x="1256" 
d="M303 -232q-55 0 -104.5 15.5t-87.5 46.5t-59.5 77.5t-21.5 109.5q0 24 4 54.5t15.5 70.5t35.5 93l118 -45q-13 -34 -21.5 -60.5t-12 -49.5t-3.5 -48q0 -41 17.5 -71t50.5 -45.5t77 -15.5q43 0 73.5 11t48.5 32t26.5 51t8.5 66q0 35 -7 73.5t-19 82.5t-28 92l136 36
q14 -58 23 -90t13 -49q10 -32 21.5 -49.5t26 -23t34.5 -5.5q18 0 32 6t25 26.5t21 63.5t19 118l128 -21q-4 -24 -8.5 -50t-7.5 -49t-3 -38q0 -16 7 -28.5t24 -20t47 -7.5q37 0 55.5 21.5t18.5 65.5q0 23 -1 50t-4 61t-8 76l128 10q8 -96 17 -153t23 -85.5t34.5 -37
t50.5 -8.5q33 0 48.5 -18.5t15.5 -45.5q0 -31 -18.5 -49.5t-54.5 -18.5q-31 0 -65.5 11t-63.5 39t-44 80l26 -5q-13 -50 -39.5 -77t-58 -37.5t-60.5 -10.5q-43 0 -76.5 14.5t-52 43.5t-19.5 72h32q-17 -55 -40.5 -82.5t-52 -37.5t-59.5 -10q-19 0 -38.5 5t-37 16t-30 30.5
t-17.5 48.5l38 -48q-1 -66 -23.5 -118t-62 -87.5t-93 -54.5t-117.5 -19zM643 -416q-26 0 -44 17.5t-18 43.5q0 25 18 43.5t44 18.5q24 0 42 -19t18 -43q0 -26 -18 -43.5t-42 -17.5zM564 -277q-26 0 -44 17.5t-18 43.5q0 25 18 43.5t44 18.5q24 0 42 -18.5t18 -43.5
q0 -26 -18 -43.5t-42 -17.5zM725 -277q-26 0 -44 17.5t-18 43.5q0 25 18 43.5t44 18.5q24 0 42 -18.5t18 -43.5q0 -26 -18 -43.5t-42 -17.5z" />
    <glyph glyph-name="uni069D.init" unicode="&#x69d;" horiz-adv-x="885" 
d="M475 -17q-82 0 -138 8t-92.5 23t-58.5 36t-36 46l29 8q-23 -46 -53.5 -69.5t-62.5 -31.5t-63 -8l10 132q26 0 41 10t24.5 33t19.5 63l25 100l124 -32q-7 -26 -11.5 -46.5t-7 -35t-2.5 -24.5q0 -20 8.5 -35.5t32.5 -25t70.5 -14t121.5 -4.5q74 0 124 7.5t79.5 21.5t42 34
t12.5 45q0 20 -8.5 36t-24.5 26t-40 10q-31 0 -62.5 -16.5t-62 -45t-58.5 -63t-52 -70.5l-137 17q38 64 83 121t94.5 100.5t101.5 68.5t106 25q59 0 102.5 -25.5t68 -71t24.5 -104.5q0 -74 -40 -130t-122.5 -87.5t-211.5 -31.5zM558 -239q-28 0 -47.5 19t-19.5 46t19 47
t48 20q26 0 45 -20t19 -47t-19 -46t-45 -19zM392 -239q-28 0 -47.5 19t-19.5 46t19 47t48 20q27 0 45.5 -20t18.5 -47t-19 -46t-45 -19z" />
    <glyph glyph-name="uni069D.medi" unicode="&#x69d;" horiz-adv-x="914" 
d="M914 -5q-39 0 -77.5 10t-70.5 27t-53 35l84 89q28 -16 60.5 -22.5t65.5 -6.5t49 -18.5t16 -45.5q0 -31 -19 -49.5t-55 -18.5zM475 -17q-82 0 -138 8t-92.5 23t-58.5 36t-36 46l29 8q-23 -46 -53.5 -69.5t-62.5 -31.5t-63 -8l10 132q26 0 41 10t24.5 33t19.5 63l25 100
l124 -32q-7 -26 -11.5 -46.5t-7 -35t-2.5 -24.5q0 -20 8.5 -35.5t32.5 -25t70.5 -14t121.5 -4.5q74 0 124 7.5t79.5 21.5t42 34t12.5 45q0 20 -8.5 36t-24.5 26t-40 10q-31 0 -62.5 -16.5t-62 -45t-58.5 -63t-52 -70.5l-137 17q38 64 83 121t94.5 100.5t101.5 68.5t106 25
q59 0 102.5 -25.5t68 -71t24.5 -104.5q0 -74 -40 -130t-122.5 -87.5t-211.5 -31.5zM558 -239q-28 0 -47.5 19t-19.5 46t19 47t48 20q26 0 45 -20t19 -47t-19 -46t-45 -19zM392 -239q-28 0 -47.5 19t-19.5 46t19 47t48 20q27 0 45.5 -20t18.5 -47t-19 -46t-45 -19z" />
    <glyph glyph-name="uni069D.fina" unicode="&#x69d;" horiz-adv-x="1291" 
d="M1291 -5q-39 0 -77.5 10t-70.5 27t-53 35l84 89q29 -16 61 -22.5t65 -6.5q34 0 49.5 -18.5t15.5 -45.5q0 -31 -19 -49.5t-55 -18.5zM301 -232q-54 0 -103 15.5t-86.5 46.5t-59.5 78.5t-22 111.5q0 23 4 53t16 70t35 92l118 -44q-13 -35 -21.5 -61.5t-12 -49.5t-3.5 -48
q0 -41 18.5 -70.5t51 -45.5t74.5 -16t71.5 11t48.5 31.5t28.5 50.5t9.5 67q0 54 -16 116t-36 132l135 36q10 -38 16.5 -65.5t11.5 -45t8 -27.5q8 -21 22 -37t41 -27.5t74 -17t121 -5.5q54 0 95.5 5t70 14t47 22t27.5 30t9 37q0 19 -8.5 35.5t-25 27t-41.5 10.5
q-30 0 -61 -16.5t-62 -44.5t-59 -63t-53 -70l-135 18q27 44 59.5 89.5t70.5 85.5t79.5 71t85.5 49t88 18q59 0 103 -26.5t68.5 -71.5t24.5 -104q0 -55 -22.5 -101t-68 -79t-114.5 -50.5t-162 -17.5q-52 0 -103 6.5t-94 19t-71.5 31t-36.5 42.5l46 -37q-2 -62 -23.5 -113
t-60.5 -88.5t-93.5 -58.5t-123.5 -21zM937 -235q-28 0 -47.5 19t-19.5 46t19 47t48 20q26 0 45 -20t19 -47t-19 -46t-45 -19zM771 -235q-28 0 -47.5 19t-19.5 46t19 47t48 20q27 0 45.5 -20t18.5 -47t-19 -46t-45 -19z" />
    <glyph glyph-name="uni069E.init" unicode="&#x69e;" horiz-adv-x="885" 
d="M475 -17q-82 0 -138 8t-92.5 23t-58.5 36t-36 46l29 8q-23 -46 -53.5 -69.5t-62.5 -31.5t-63 -8l10 132q26 0 41 10t24.5 33t19.5 63l25 100l124 -32q-7 -26 -11.5 -46.5t-7 -35t-2.5 -24.5q0 -20 8.5 -35.5t32.5 -25t70.5 -14t121.5 -4.5q74 0 124 7.5t79.5 21.5t42 34
t12.5 45q0 20 -8.5 36t-24.5 26t-40 10q-31 0 -62.5 -16.5t-62 -45t-58.5 -63t-52 -70.5l-137 17q38 64 83 121t94.5 100.5t101.5 68.5t106 25q59 0 102.5 -25.5t68 -71t24.5 -104.5q0 -74 -40 -130t-122.5 -87.5t-211.5 -31.5zM626 672q-27 0 -45.5 18.5t-18.5 45.5
q0 26 18.5 45t45.5 19q26 0 44.5 -19t18.5 -45q0 -27 -18.5 -45.5t-44.5 -18.5zM548 531q-27 0 -45.5 19t-18.5 45t18.5 45t45.5 19q26 0 44.5 -19t18.5 -45t-18.5 -45t-44.5 -19zM710 531q-27 0 -45.5 19t-18.5 45q0 27 18.5 45.5t45.5 18.5t45 -18.5t18 -45.5
q0 -26 -18.5 -45t-44.5 -19z" />
    <glyph glyph-name="uni069E.medi" unicode="&#x69e;" horiz-adv-x="914" 
d="M914 -5q-39 0 -77.5 10t-70.5 27t-53 35l84 89q28 -16 60.5 -22.5t65.5 -6.5t49 -18.5t16 -45.5q0 -31 -19 -49.5t-55 -18.5zM475 -17q-82 0 -138 8t-92.5 23t-58.5 36t-36 46l29 8q-23 -46 -53.5 -69.5t-62.5 -31.5t-63 -8l10 132q26 0 41 10t24.5 33t19.5 63l25 100
l124 -32q-7 -26 -11.5 -46.5t-7 -35t-2.5 -24.5q0 -20 8.5 -35.5t32.5 -25t70.5 -14t121.5 -4.5q74 0 124 7.5t79.5 21.5t42 34t12.5 45q0 20 -8.5 36t-24.5 26t-40 10q-31 0 -62.5 -16.5t-62 -45t-58.5 -63t-52 -70.5l-137 17q38 64 83 121t94.5 100.5t101.5 68.5t106 25
q59 0 102.5 -25.5t68 -71t24.5 -104.5q0 -74 -40 -130t-122.5 -87.5t-211.5 -31.5zM626 672q-27 0 -45.5 18.5t-18.5 45.5q0 26 18.5 45t45.5 19q26 0 44.5 -19t18.5 -45q0 -27 -18.5 -45.5t-44.5 -18.5zM548 531q-27 0 -45.5 19t-18.5 45t18.5 45t45.5 19q26 0 44.5 -19
t18.5 -45t-18.5 -45t-44.5 -19zM710 531q-27 0 -45.5 19t-18.5 45q0 27 18.5 45.5t45.5 18.5t45 -18.5t18 -45.5q0 -26 -18.5 -45t-44.5 -19z" />
    <glyph glyph-name="uni069E.fina" unicode="&#x69e;" horiz-adv-x="1291" 
d="M1291 -5q-39 0 -77.5 10t-70.5 27t-53 35l84 89q29 -16 61 -22.5t65 -6.5q34 0 49.5 -18.5t15.5 -45.5q0 -31 -19 -49.5t-55 -18.5zM301 -232q-54 0 -103 15.5t-86.5 46.5t-59.5 78.5t-22 111.5q0 23 4 53t16 70t35 92l118 -44q-13 -35 -21.5 -61.5t-12 -49.5t-3.5 -48
q0 -41 18.5 -70.5t51 -45.5t74.5 -16t71.5 11t48.5 31.5t28.5 50.5t9.5 67q0 54 -16 116t-36 132l135 36q10 -38 16.5 -65.5t11.5 -45t8 -27.5q8 -21 22 -37t41 -27.5t74 -17t121 -5.5q54 0 95.5 5t70 14t47 22t27.5 30t9 37q0 19 -8.5 35.5t-25 27t-41.5 10.5
q-30 0 -61 -16.5t-62 -44.5t-59 -63t-53 -70l-135 18q27 44 59.5 89.5t70.5 85.5t79.5 71t85.5 49t88 18q59 0 103 -26.5t68.5 -71.5t24.5 -104q0 -55 -22.5 -101t-68 -79t-114.5 -50.5t-162 -17.5q-52 0 -103 6.5t-94 19t-71.5 31t-36.5 42.5l46 -37q-2 -62 -23.5 -113
t-60.5 -88.5t-93.5 -58.5t-123.5 -21zM1002 675q-27 0 -45.5 18.5t-18.5 45.5q0 26 18.5 45t45.5 19q26 0 44.5 -19t18.5 -45q0 -27 -18.5 -45.5t-44.5 -18.5zM924 534q-27 0 -45.5 19t-18.5 45t18.5 45t45.5 19q26 0 44.5 -19t18.5 -45t-18.5 -45t-44.5 -19zM1086 534
q-27 0 -45.5 19t-18.5 45q0 27 18.5 45.5t45.5 18.5t45 -18.5t18 -45.5q0 -26 -18.5 -45t-44.5 -19z" />
    <glyph glyph-name="uni069F.init" unicode="&#x69f;" horiz-adv-x="673" 
d="M0 -5l9 132h219q76 0 129 7t85 20.5t46.5 33.5t14.5 46q0 20 -8.5 36.5t-24.5 26.5t-40 10q-33 0 -64.5 -16.5t-61.5 -44t-59 -63.5t-56 -74l-141 12q42 68 87.5 126.5t95 102.5t102.5 68.5t108 24.5q60 0 104 -26.5t68 -71.5t24 -103q0 -70 -36.5 -122t-108.5 -84
q-30 -13 -69 -22t-87 -13.5t-107 -4.5zM104 98l-20 638h136l17 -481zM432 668q-27 0 -45.5 18.5t-18.5 45.5q0 26 18.5 45t45.5 19q26 0 44.5 -19t18.5 -45q0 -27 -18.5 -45.5t-44.5 -18.5zM354 527q-27 0 -45.5 19t-18.5 45t18.5 45t45.5 19q26 0 44.5 -19t18.5 -45
t-18.5 -45t-44.5 -19zM516 527q-27 0 -45.5 19t-18.5 45q0 27 18.5 45.5t45.5 18.5t45 -18.5t18 -45.5q0 -26 -18.5 -45t-44.5 -19z" />
    <glyph glyph-name="uni069F.medi" unicode="&#x69f;" horiz-adv-x="688" 
d="M688 -5q-39 0 -77.5 10t-70.5 27t-53 35l84 89q29 -16 61 -22.5t65 -6.5q34 0 49.5 -18.5t15.5 -45.5q0 -31 -19 -49.5t-55 -18.5zM0 -5l9 132h219q76 0 129 7t85 20.5t46.5 33.5t14.5 46q0 20 -8.5 36.5t-24.5 26.5t-40 10q-33 0 -64.5 -16.5t-61.5 -44t-59 -63.5
t-56 -74l-141 12q42 68 87.5 126.5t95 102.5t102.5 68.5t108 24.5q60 0 104 -26.5t68 -71.5t24 -103q0 -70 -36.5 -122t-108.5 -84q-30 -13 -69 -22t-87 -13.5t-107 -4.5zM104 98l-20 638h136l17 -481zM432 668q-27 0 -45.5 18.5t-18.5 45.5q0 26 18.5 45t45.5 19
q26 0 44.5 -19t18.5 -45q0 -27 -18.5 -45.5t-44.5 -18.5zM354 527q-27 0 -45.5 19t-18.5 45t18.5 45t45.5 19q26 0 44.5 -19t18.5 -45t-18.5 -45t-44.5 -19zM516 527q-27 0 -45.5 19t-18.5 45q0 27 18.5 45.5t45.5 18.5t45 -18.5t18 -45.5q0 -26 -18.5 -45t-44.5 -19z" />
    <glyph glyph-name="uni069F.fina" unicode="&#x69f;" horiz-adv-x="771" 
d="M772 -5q-39 0 -78 10t-70.5 27t-53.5 35l85 89q28 -16 60 -22.5t66 -6.5q33 0 49 -18.5t16 -45.5q0 -31 -19.5 -49.5t-54.5 -18.5zM351 -13q-43 0 -88.5 1t-90 3.5t-83.5 6t-71 8.5l16 132q46 -5 85 -8.5t74 -6t70.5 -3.5t72.5 -1q70 0 118 7.5t77 21t42.5 33.5t13.5 44
q0 20 -9.5 37t-26 27.5t-40.5 10.5q-29 0 -60.5 -17t-62.5 -46t-59.5 -63.5t-51.5 -69.5l-140 16q39 65 84.5 122.5t95.5 101t102.5 68t105.5 24.5q57 0 101 -25t69.5 -70t25.5 -106q0 -74 -40.5 -130t-122.5 -87t-207 -31zM188 98l-21 638h137l17 -481zM523 661
q-27 0 -45.5 18.5t-18.5 45.5q0 26 18.5 45t45.5 19q26 0 44.5 -19t18.5 -45q0 -27 -18.5 -45.5t-44.5 -18.5zM445 520q-27 0 -45.5 19t-18.5 45t18.5 45t45.5 19q26 0 44.5 -19t18.5 -45t-18.5 -45t-44.5 -19zM607 520q-27 0 -45.5 19t-18.5 45q0 27 18.5 45.5t45.5 18.5
t45 -18.5t18 -45.5q0 -26 -18.5 -45t-44.5 -19z" />
    <glyph glyph-name="uni06A0.init" unicode="&#x6a0;" horiz-adv-x="494" 
d="M0 -5l10 132q32 0 53.5 1t38.5 3t36 5q-13 11 -31 32t-31 54t-13 78q0 61 28.5 105t77 68t106.5 24q25 0 49 -3.5t50 -11.5l-20 -122q-19 5 -34.5 7t-31.5 2q-26 0 -46 -10t-31.5 -28.5t-11.5 -44.5q0 -20 7 -37.5t18 -31.5t24 -24.5t26 -17.5t23 -9q14 5 24 8t21.5 6.5
t28.5 10.5t44 19l42 -114q-78 -38 -152.5 -60t-149.5 -31.5t-155 -9.5zM242 735q-27 0 -45.5 18.5t-18.5 45.5q0 26 18.5 45t45.5 19q26 0 44.5 -19t18.5 -45q0 -27 -18.5 -45.5t-44.5 -18.5zM164 594q-27 0 -45.5 19t-18.5 45t18.5 45t45.5 19q26 0 44.5 -19t18.5 -45
t-18.5 -45t-44.5 -19zM326 594q-27 0 -45.5 19t-18.5 45q0 27 18.5 45.5t45.5 18.5t45 -18.5t18 -45.5q0 -26 -18.5 -45t-44.5 -19z" />
    <glyph glyph-name="uni06A0.medi" unicode="&#x6a0;" horiz-adv-x="511" 
d="M-1 -5l10 132q61 0 112.5 10.5t91 29.5t66 42.5t41 48.5t14.5 49q0 15 -8.5 25.5t-23.5 16.5t-35 6q-17 0 -35 -4t-36 -11t-32 -18q24 -22 44.5 -45t40 -46.5t37.5 -47.5q20 -13 46.5 -24t57.5 -18t64.5 -10.5t67.5 -3.5q31 0 47 -18.5t16 -46.5q0 -30 -19.5 -48.5
t-53.5 -18.5q-61 0 -113.5 8.5t-100 29.5t-94.5 56q-26 32 -49.5 59.5t-45.5 52t-44 46.5q-3 3 -8 18t-8.5 31t-3.5 22q0 24 19.5 50.5t53 50t75 38t84.5 14.5q56 0 97 -16t64 -47.5t23 -78.5q0 -52 -23 -101.5t-64 -91.5t-98.5 -73.5t-127.5 -49.5t-149 -18zM268 710
q-27 0 -45.5 18.5t-18.5 45.5q0 26 18.5 45t45.5 19q26 0 44.5 -19t18.5 -45q0 -27 -18.5 -45.5t-44.5 -18.5zM190 569q-27 0 -45.5 19t-18.5 45t18.5 45t45.5 19q26 0 44.5 -19t18.5 -45t-18.5 -45t-44.5 -19zM352 569q-27 0 -45.5 19t-18.5 45q0 27 18.5 45.5t45.5 18.5
t45 -18.5t18 -45.5q0 -26 -18.5 -45t-44.5 -19z" />
    <glyph glyph-name="uni06A0.fina" unicode="&#x6a0;" horiz-adv-x="520" 
d="M298 -390q-60 0 -112.5 14t-93 43t-63.5 73t-23 105t24.5 110t62.5 88.5t82 73t82.5 64t64 60.5t26.5 64q1 14 -7.5 25.5t-23.5 18t-38 6.5q-17 0 -35 -4.5t-35 -11.5t-31 -17q21 -20 44 -43.5t45.5 -49.5t42.5 -53q22 -14 48 -23.5t54.5 -15.5t58 -8t58.5 -2
q32 0 48 -18.5t16 -45.5q0 -31 -19.5 -49.5t-53.5 -18.5q-63 0 -118.5 10.5t-105 35t-96.5 66.5q-18 26 -40.5 51.5t-43.5 48.5t-36 39q-3 4 -8 18.5t-9 31t-4 22.5q0 23 19 49.5t52 50t74.5 38.5t88.5 15q87 0 134 -39.5t48 -105.5q1 -56 -22.5 -100.5t-61.5 -82.5
t-80.5 -71.5t-80.5 -66.5t-62 -69t-24 -79q0 -33 14 -55.5t36.5 -35.5t50 -18.5t55.5 -5.5q26 0 54.5 4t60 13t65.5 23l42 -112q-34 -19 -73 -32.5t-77.5 -20.5t-73.5 -7zM283 710q-27 0 -45.5 18.5t-18.5 45.5q0 26 18.5 45t45.5 19q26 0 44.5 -19t18.5 -45
q0 -27 -18.5 -45.5t-44.5 -18.5zM205 569q-27 0 -45.5 19t-18.5 45t18.5 45t45.5 19q26 0 44.5 -19t18.5 -45t-18.5 -45t-44.5 -19zM367 569q-27 0 -45.5 19t-18.5 45q0 27 18.5 45.5t45.5 18.5t45 -18.5t18 -45.5q0 -26 -18.5 -45t-44.5 -19z" />
    <glyph glyph-name="uni06A1.init" unicode="&#x6a1;" horiz-adv-x="456" 
d="M0 -5l9 131q43 0 78.5 1t64 3t49.5 6.5t36 12.5q19 10 31 27.5t18 45.5t6 68q0 50 -7.5 84.5t-22 53t-33.5 18.5q-14 0 -27 -12t-20.5 -32t-7.5 -46q0 -18 8 -30t22 -17.5t31 -5.5q18 0 38.5 5t40.5 15l4 -100q-15 -12 -34 -20.5t-39.5 -12.5t-43.5 -4q-46 0 -81 17
t-54 50.5t-19 82.5q0 43 13 84t38.5 74t60 52.5t77.5 19.5q59 0 100 -36.5t62.5 -101t21.5 -147.5q0 -79 -23.5 -137t-71.5 -90q-26 -19 -59 -31t-73 -18t-88 -8t-105 -2z" />
    <glyph glyph-name="uni06A1.medi" unicode="&#x6a1;" horiz-adv-x="463" 
d="M0 -5l9 131q26 0 53 1.5t53 5.5t49 9.5t40 12.5q29 11 49 27t30.5 37.5t10.5 48.5q0 20 -7.5 39t-19.5 30.5t-27 11.5q-13 0 -26 -11t-21.5 -29.5t-8.5 -43.5q0 -22 8.5 -42t25.5 -37.5t41 -34.5l-119 -49q-24 22 -43 47t-30.5 55.5t-11.5 69.5q0 40 15.5 75.5t42 63
t60 43t70.5 15.5q54 0 94.5 -28t63 -71.5t22.5 -90.5t-15 -84.5t-40.5 -66.5t-56.5 -50.5t-63 -37.5q-23 -12 -53 -21.5t-64 -15t-67.5 -8t-63.5 -2.5zM464 -5q-44 0 -92 6.5t-92 18.5t-76 29l67 100q29 -9 65.5 -14t73 -6.5t64.5 -1.5q32 0 48 -18.5t16 -45.5
q0 -29 -19 -48.5t-55 -19.5z" />
    <glyph glyph-name="uni06A1.fina" unicode="&#x6a1;" horiz-adv-x="1010" 
d="M377 -21l25 132q52 0 103 3t98 9t84 14t60 16q33 13 54 30.5t30.5 37.5t9.5 42q0 15 -4 30t-11 28t-17 20.5t-21 7.5q-15 0 -28.5 -12t-22 -32.5t-8.5 -45.5q0 -19 9 -38t26.5 -36.5t40.5 -32.5l-121 -50q-22 22 -41 46t-31 53t-12 65q0 42 15.5 79t42.5 65.5t61 44.5
t71 16q54 0 94.5 -28.5t63.5 -73.5t23 -96q0 -42 -15.5 -78t-41 -64t-57 -49.5t-62.5 -37.5q-30 -15 -77 -27.5t-104 -20.5t-118.5 -12.5t-118.5 -4.5zM1010 -5q-45 0 -93.5 6t-91.5 18.5t-74 29.5l67 100q28 -8 63.5 -13t72 -7t66.5 -2q33 0 48.5 -18.5t15.5 -45.5
q0 -29 -19 -48.5t-55 -19.5zM377 -21q-93 0 -158.5 16t-107 45.5t-60 71t-18.5 92.5q0 29 5.5 62.5t14.5 65.5t18 57l115 -29q-4 -19 -10 -40t-9 -42.5t-3 -41.5q0 -35 19.5 -64t71 -45t147.5 -16l20 -101z" />
    <glyph glyph-name="fehDotMovedbelowar.init" unicode="&#x6a2;" horiz-adv-x="456" 
d="M0 -5l9 131q43 0 78.5 1t64 3t49.5 6.5t36 12.5q19 10 31 27.5t18 45.5t6 68q0 50 -7.5 84.5t-22 53t-33.5 18.5q-14 0 -27 -12t-20.5 -32t-7.5 -46q0 -18 8 -30t22 -17.5t31 -5.5q18 0 38.5 5t40.5 15l4 -100q-15 -12 -34 -20.5t-39.5 -12.5t-43.5 -4q-46 0 -81 17
t-54 50.5t-19 82.5q0 43 13 84t38.5 74t60 52.5t77.5 19.5q59 0 100 -36.5t62.5 -101t21.5 -147.5q0 -79 -23.5 -137t-71.5 -90q-26 -19 -59 -31t-73 -18t-88 -8t-105 -2zM188 -242q-28 0 -47 19t-19 46t19 47.5t47 20.5q27 0 46.5 -20.5t19.5 -47.5t-19.5 -46t-46.5 -19z
" />
    <glyph glyph-name="fehDotMovedbelowar.medi" unicode="&#x6a2;" horiz-adv-x="463" 
d="M0 -5l9 131q26 0 53 1.5t53 5.5t49 9.5t40 12.5q29 11 49 27t30.5 37.5t10.5 48.5q0 20 -7.5 39t-19.5 30.5t-27 11.5q-13 0 -26 -11t-21.5 -29.5t-8.5 -43.5q0 -22 8.5 -42t25.5 -37.5t41 -34.5l-119 -49q-24 22 -43 47t-30.5 55.5t-11.5 69.5q0 40 15.5 75.5t42 63
t60 43t70.5 15.5q54 0 94.5 -28t63 -71.5t22.5 -90.5t-15 -84.5t-40.5 -66.5t-56.5 -50.5t-63 -37.5q-23 -12 -53 -21.5t-64 -15t-67.5 -8t-63.5 -2.5zM464 -5q-44 0 -92 6.5t-92 18.5t-76 29l67 100q29 -9 65.5 -14t73 -6.5t64.5 -1.5q32 0 48 -18.5t16 -45.5
q0 -29 -19 -48.5t-55 -19.5zM234 -243q-28 0 -47 19t-19 46t19 47.5t47 20.5q27 0 46.5 -20.5t19.5 -47.5t-19.5 -46t-46.5 -19z" />
    <glyph glyph-name="fehDotMovedbelowar.fina" unicode="&#x6a2;" horiz-adv-x="1010" 
d="M377 -21l25 132q52 0 103 3t98 9t84 14t60 16q33 13 54 30.5t30.5 37.5t9.5 42q0 15 -4 30t-11 28t-17 20.5t-21 7.5q-15 0 -28.5 -12t-22 -32.5t-8.5 -45.5q0 -19 9 -38t26.5 -36.5t40.5 -32.5l-121 -50q-22 22 -41 46t-31 53t-12 65q0 42 15.5 79t42.5 65.5t61 44.5
t71 16q54 0 94.5 -28.5t63.5 -73.5t23 -96q0 -42 -15.5 -78t-41 -64t-57 -49.5t-62.5 -37.5q-30 -15 -77 -27.5t-104 -20.5t-118.5 -12.5t-118.5 -4.5zM1010 -5q-45 0 -93.5 6t-91.5 18.5t-74 29.5l67 100q28 -8 63.5 -13t72 -7t66.5 -2q33 0 48.5 -18.5t15.5 -45.5
q0 -29 -19 -48.5t-55 -19.5zM377 -21q-93 0 -158.5 16t-107 45.5t-60 71t-18.5 92.5q0 29 5.5 62.5t14.5 65.5t18 57l115 -29q-4 -19 -10 -40t-9 -42.5t-3 -41.5q0 -35 19.5 -64t71 -45t147.5 -16l20 -101zM443 -247q-28 0 -47 19t-19 46t19 47.5t47 20.5q27 0 46.5 -20.5
t19.5 -47.5t-19.5 -46t-46.5 -19z" />
    <glyph glyph-name="uni06A3.init" unicode="&#x6a3;" horiz-adv-x="456" 
d="M0 -5l9 131q43 0 78.5 1t64 3t49.5 6.5t36 12.5q19 10 31 27.5t18 45.5t6 68q0 50 -7.5 84.5t-22 53t-33.5 18.5q-14 0 -27 -12t-20.5 -32t-7.5 -46q0 -18 8 -30t22 -17.5t31 -5.5q18 0 38.5 5t40.5 15l4 -100q-15 -12 -34 -20.5t-39.5 -12.5t-43.5 -4q-46 0 -81 17
t-54 50.5t-19 82.5q0 43 13 84t38.5 74t60 52.5t77.5 19.5q59 0 100 -36.5t62.5 -101t21.5 -147.5q0 -79 -23.5 -137t-71.5 -90q-26 -19 -59 -31t-73 -18t-88 -8t-105 -2zM233 664q-29 0 -48.5 19.5t-19.5 46.5q0 28 19.5 48.5t48.5 20.5q27 0 46.5 -20.5t19.5 -47.5
q0 -28 -19.5 -47.5t-46.5 -19.5zM188 -242q-28 0 -47 19t-19 46t19 47.5t47 20.5q27 0 46.5 -20.5t19.5 -47.5t-19.5 -46t-46.5 -19z" />
    <glyph glyph-name="uni06A3.medi" unicode="&#x6a3;" horiz-adv-x="463" 
d="M0 -5l9 131q26 0 53 1.5t53 5.5t49 9.5t40 12.5q29 11 49 27t30.5 37.5t10.5 48.5q0 20 -7.5 39t-19.5 30.5t-27 11.5q-13 0 -26 -11t-21.5 -29.5t-8.5 -43.5q0 -22 8.5 -42t25.5 -37.5t41 -34.5l-119 -49q-24 22 -43 47t-30.5 55.5t-11.5 69.5q0 40 15.5 75.5t42 63
t60 43t70.5 15.5q54 0 94.5 -28t63 -71.5t22.5 -90.5t-15 -84.5t-40.5 -66.5t-56.5 -50.5t-63 -37.5q-23 -12 -53 -21.5t-64 -15t-67.5 -8t-63.5 -2.5zM464 -5q-44 0 -92 6.5t-92 18.5t-76 29l67 100q29 -9 65.5 -14t73 -6.5t64.5 -1.5q32 0 48 -18.5t16 -45.5
q0 -29 -19 -48.5t-55 -19.5zM244 569q-29 0 -48.5 19.5t-19.5 46.5q0 28 19.5 48.5t48.5 20.5q27 0 46.5 -20.5t19.5 -47.5q0 -28 -19.5 -47.5t-46.5 -19.5zM234 -243q-28 0 -47 19t-19 46t19 47.5t47 20.5q27 0 46.5 -20.5t19.5 -47.5t-19.5 -46t-46.5 -19z" />
    <glyph glyph-name="uni06A3.fina" unicode="&#x6a3;" horiz-adv-x="1010" 
d="M377 -21l25 132q52 0 103 3t98 9t84 14t60 16q33 13 54 30.5t30.5 37.5t9.5 42q0 15 -4 30t-11 28t-17 20.5t-21 7.5q-15 0 -28.5 -12t-22 -32.5t-8.5 -45.5q0 -19 9 -38t26.5 -36.5t40.5 -32.5l-121 -50q-22 22 -41 46t-31 53t-12 65q0 42 15.5 79t42.5 65.5t61 44.5
t71 16q54 0 94.5 -28.5t63.5 -73.5t23 -96q0 -42 -15.5 -78t-41 -64t-57 -49.5t-62.5 -37.5q-30 -15 -77 -27.5t-104 -20.5t-118.5 -12.5t-118.5 -4.5zM1010 -5q-45 0 -93.5 6t-91.5 18.5t-74 29.5l67 100q28 -8 63.5 -13t72 -7t66.5 -2q33 0 48.5 -18.5t15.5 -45.5
q0 -29 -19 -48.5t-55 -19.5zM377 -21q-93 0 -158.5 16t-107 45.5t-60 71t-18.5 92.5q0 29 5.5 62.5t14.5 65.5t18 57l115 -29q-4 -19 -10 -40t-9 -42.5t-3 -41.5q0 -35 19.5 -64t71 -45t147.5 -16l20 -101zM790 569q-29 0 -48.5 19.5t-19.5 46.5q0 28 19.5 48.5t48.5 20.5
q27 0 46.5 -20.5t19.5 -47.5q0 -28 -19.5 -47.5t-46.5 -19.5zM443 -247q-28 0 -47 19t-19 46t19 47.5t47 20.5q27 0 46.5 -20.5t19.5 -47.5t-19.5 -46t-46.5 -19z" />
    <glyph glyph-name="uni06A5.init" unicode="&#x6a5;" horiz-adv-x="456" 
d="M0 -5l9 131q43 0 78.5 1t64 3t49.5 6.5t36 12.5q19 10 31 27.5t18 45.5t6 68q0 50 -7.5 84.5t-22 53t-33.5 18.5q-14 0 -27 -12t-20.5 -32t-7.5 -46q0 -18 8 -30t22 -17.5t31 -5.5q18 0 38.5 5t40.5 15l4 -100q-15 -12 -34 -20.5t-39.5 -12.5t-43.5 -4q-46 0 -81 17
t-54 50.5t-19 82.5q0 43 13 84t38.5 74t60 52.5t77.5 19.5q59 0 100 -36.5t62.5 -101t21.5 -147.5q0 -79 -23.5 -137t-71.5 -90q-26 -19 -59 -31t-73 -18t-88 -8t-105 -2zM192 -373q-26 0 -44 17.5t-18 43.5q0 25 18 43.5t44 18.5q24 0 42 -19t18 -43q0 -26 -18 -43.5
t-42 -17.5zM113 -234q-26 0 -44 17.5t-18 43.5q0 25 18 43.5t44 18.5q24 0 42 -18.5t18 -43.5q0 -26 -18 -43.5t-42 -17.5zM274 -234q-26 0 -44 17.5t-18 43.5q0 25 18 43.5t44 18.5q24 0 42 -18.5t18 -43.5q0 -26 -18 -43.5t-42 -17.5z" />
    <glyph glyph-name="uni06A5.medi" unicode="&#x6a5;" horiz-adv-x="463" 
d="M0 -5l9 131q26 0 53 1.5t53 5.5t49 9.5t40 12.5q29 11 49 27t30.5 37.5t10.5 48.5q0 20 -7.5 39t-19.5 30.5t-27 11.5q-13 0 -26 -11t-21.5 -29.5t-8.5 -43.5q0 -22 8.5 -42t25.5 -37.5t41 -34.5l-119 -49q-24 22 -43 47t-30.5 55.5t-11.5 69.5q0 40 15.5 75.5t42 63
t60 43t70.5 15.5q54 0 94.5 -28t63 -71.5t22.5 -90.5t-15 -84.5t-40.5 -66.5t-56.5 -50.5t-63 -37.5q-23 -12 -53 -21.5t-64 -15t-67.5 -8t-63.5 -2.5zM464 -5q-44 0 -92 6.5t-92 18.5t-76 29l67 100q29 -9 65.5 -14t73 -6.5t64.5 -1.5q32 0 48 -18.5t16 -45.5
q0 -29 -19 -48.5t-55 -19.5zM238 -373q-26 0 -44 17.5t-18 43.5q0 25 18 43.5t44 18.5q24 0 42 -19t18 -43q0 -26 -18 -43.5t-42 -17.5zM159 -234q-26 0 -44 17.5t-18 43.5q0 25 18 43.5t44 18.5q24 0 42 -18.5t18 -43.5q0 -26 -18 -43.5t-42 -17.5zM320 -234
q-26 0 -44 17.5t-18 43.5q0 25 18 43.5t44 18.5q24 0 42 -18.5t18 -43.5q0 -26 -18 -43.5t-42 -17.5z" />
    <glyph glyph-name="uni06A5.fina" unicode="&#x6a5;" horiz-adv-x="1010" 
d="M377 -21l25 132q52 0 103 3t98 9t84 14t60 16q33 13 54 30.5t30.5 37.5t9.5 42q0 15 -4 30t-11 28t-17 20.5t-21 7.5q-15 0 -28.5 -12t-22 -32.5t-8.5 -45.5q0 -19 9 -38t26.5 -36.5t40.5 -32.5l-121 -50q-22 22 -41 46t-31 53t-12 65q0 42 15.5 79t42.5 65.5t61 44.5
t71 16q54 0 94.5 -28.5t63.5 -73.5t23 -96q0 -42 -15.5 -78t-41 -64t-57 -49.5t-62.5 -37.5q-30 -15 -77 -27.5t-104 -20.5t-118.5 -12.5t-118.5 -4.5zM1010 -5q-45 0 -93.5 6t-91.5 18.5t-74 29.5l67 100q28 -8 63.5 -13t72 -7t66.5 -2q33 0 48.5 -18.5t15.5 -45.5
q0 -29 -19 -48.5t-55 -19.5zM377 -21q-93 0 -158.5 16t-107 45.5t-60 71t-18.5 92.5q0 29 5.5 62.5t14.5 65.5t18 57l115 -29q-4 -19 -10 -40t-9 -42.5t-3 -41.5q0 -35 19.5 -64t71 -45t147.5 -16l20 -101zM446 -377q-26 0 -44 17.5t-18 43.5q0 25 18 43.5t44 18.5
q24 0 42 -19t18 -43q0 -26 -18 -43.5t-42 -17.5zM367 -238q-26 0 -44 17.5t-18 43.5q0 25 18 43.5t44 18.5q24 0 42 -18.5t18 -43.5q0 -26 -18 -43.5t-42 -17.5zM528 -238q-26 0 -44 17.5t-18 43.5q0 25 18 43.5t44 18.5q24 0 42 -18.5t18 -43.5q0 -26 -18 -43.5t-42 -17.5z
" />
    <glyph glyph-name="uni06A7.fina" unicode="&#x6a7;" horiz-adv-x="781" 
d="M327 -272q-58 0 -112 14.5t-96.5 44.5t-67 78.5t-24.5 115.5q0 23 3.5 53t15.5 71t37 95l118 -46q-14 -37 -23 -61.5t-12.5 -45.5t-3.5 -45q0 -45 22 -77t63.5 -48.5t100.5 -16.5q35 0 66.5 5.5t58.5 16t48.5 25.5t37 33t24.5 39q11 26 15.5 60.5t4.5 77.5q0 44 -7.5 77
t-21 51.5t-31.5 18.5q-13 0 -23 -8t-17 -21t-11 -27t-4 -26q0 -19 6 -32t23.5 -20t51.5 -8t90 5h133q33 0 48.5 -18.5t15.5 -45.5q0 -30 -18.5 -49t-55.5 -19h-189q-54 0 -97.5 8.5t-73.5 27.5t-46 50t-16 75q0 43 14 84t39.5 73.5t60.5 51.5t76 19q55 0 96 -35t64 -97.5
t23 -147.5q0 -55 -14 -105.5t-35 -89.5q-25 -45 -61 -79t-82 -57t-100 -34t-114 -11zM549 482q-29 0 -48.5 19.5t-19.5 46.5q0 28 19.5 48.5t48.5 20.5q27 0 46.5 -20.5t19.5 -47.5q0 -28 -19.5 -47.5t-46.5 -19.5z" />
    <glyph glyph-name="uni06A8.init" unicode="&#x6a8;" horiz-adv-x="456" 
d="M0 -5l9 131q43 0 78.5 1t64 3t49.5 6.5t36 12.5q19 10 31 27.5t18 45.5t6 68q0 50 -7.5 84.5t-22 53t-33.5 18.5q-14 0 -27 -12t-20.5 -32t-7.5 -46q0 -18 8 -30t22 -17.5t31 -5.5q18 0 38.5 5t40.5 15l4 -100q-15 -12 -34 -20.5t-39.5 -12.5t-43.5 -4q-46 0 -81 17
t-54 50.5t-19 82.5q0 43 13 84t38.5 74t60 52.5t77.5 19.5q59 0 100 -36.5t62.5 -101t21.5 -147.5q0 -79 -23.5 -137t-71.5 -90q-26 -19 -59 -31t-73 -18t-88 -8t-105 -2zM234 805q-27 0 -45.5 18.5t-18.5 45.5q0 26 18.5 45t45.5 19q26 0 44.5 -19t18.5 -45
q0 -27 -18.5 -45.5t-44.5 -18.5zM156 664q-27 0 -45.5 19t-18.5 45t18.5 45t45.5 19q26 0 44.5 -19t18.5 -45t-18.5 -45t-44.5 -19zM318 664q-27 0 -45.5 19t-18.5 45q0 27 18.5 45.5t45.5 18.5t45 -18.5t18 -45.5q0 -26 -18.5 -45t-44.5 -19z" />
    <glyph glyph-name="uni06A8.medi" unicode="&#x6a8;" horiz-adv-x="463" 
d="M0 -5l9 131q26 0 53 1.5t53 5.5t49 9.5t40 12.5q29 11 49 27t30.5 37.5t10.5 48.5q0 20 -7.5 39t-19.5 30.5t-27 11.5q-13 0 -26 -11t-21.5 -29.5t-8.5 -43.5q0 -22 8.5 -42t25.5 -37.5t41 -34.5l-119 -49q-24 22 -43 47t-30.5 55.5t-11.5 69.5q0 40 15.5 75.5t42 63
t60 43t70.5 15.5q54 0 94.5 -28t63 -71.5t22.5 -90.5t-15 -84.5t-40.5 -66.5t-56.5 -50.5t-63 -37.5q-23 -12 -53 -21.5t-64 -15t-67.5 -8t-63.5 -2.5zM464 -5q-44 0 -92 6.5t-92 18.5t-76 29l67 100q29 -9 65.5 -14t73 -6.5t64.5 -1.5q32 0 48 -18.5t16 -45.5
q0 -29 -19 -48.5t-55 -19.5zM245 710q-27 0 -45.5 18.5t-18.5 45.5q0 26 18.5 45t45.5 19q26 0 44.5 -19t18.5 -45q0 -27 -18.5 -45.5t-44.5 -18.5zM167 569q-27 0 -45.5 19t-18.5 45t18.5 45t45.5 19q26 0 44.5 -19t18.5 -45t-18.5 -45t-44.5 -19zM329 569q-27 0 -45.5 19
t-18.5 45q0 27 18.5 45.5t45.5 18.5t45 -18.5t18 -45.5q0 -26 -18.5 -45t-44.5 -19z" />
    <glyph glyph-name="uni06A8.fina" unicode="&#x6a8;" horiz-adv-x="781" 
d="M327 -272q-58 0 -112 14.5t-96.5 44.5t-67 78.5t-24.5 115.5q0 23 3.5 53t15.5 71t37 95l118 -46q-14 -37 -23 -61.5t-12.5 -45.5t-3.5 -45q0 -45 22 -77t63.5 -48.5t100.5 -16.5q35 0 66.5 5.5t58.5 16t48.5 25.5t37 33t24.5 39q11 26 15.5 60.5t4.5 77.5q0 44 -7.5 77
t-21 51.5t-31.5 18.5q-13 0 -23 -8t-17 -21t-11 -27t-4 -26q0 -19 6 -32t23.5 -20t51.5 -8t90 5h133q33 0 48.5 -18.5t15.5 -45.5q0 -30 -18.5 -49t-55.5 -19h-189q-54 0 -97.5 8.5t-73.5 27.5t-46 50t-16 75q0 43 14 84t39.5 73.5t60.5 51.5t76 19q55 0 96 -35t64 -97.5
t23 -147.5q0 -55 -14 -105.5t-35 -89.5q-25 -45 -61 -79t-82 -57t-100 -34t-114 -11zM550 623q-27 0 -45.5 18.5t-18.5 45.5q0 26 18.5 45t45.5 19q26 0 44.5 -19t18.5 -45q0 -27 -18.5 -45.5t-44.5 -18.5zM472 482q-27 0 -45.5 19t-18.5 45t18.5 45t45.5 19q26 0 44.5 -19
t18.5 -45t-18.5 -45t-44.5 -19zM634 482q-27 0 -45.5 19t-18.5 45q0 27 18.5 45.5t45.5 18.5t45 -18.5t18 -45.5q0 -26 -18.5 -45t-44.5 -19z" />
    <glyph glyph-name="uni06AA.init" unicode="&#x6aa;" horiz-adv-x="775" 
d="M0 -5l10 132h294q82 0 140 1t93.5 5t52 12t16.5 23q0 11 -8.5 20t-29.5 16.5t-58.5 14t-93.5 12.5q-104 12 -165.5 29.5t-88 45.5t-26.5 71q0 49 27.5 89t75.5 71t111.5 54.5t134.5 39.5l28 -120q-76 -18 -130.5 -37t-83.5 -38t-29 -36q0 -12 14 -20t51.5 -14.5
t107.5 -15.5q82 -10 137.5 -25t88.5 -37t47.5 -53t14.5 -72q0 -49 -24.5 -81t-76.5 -51t-132.5 -27t-193.5 -8z" />
    <glyph glyph-name="uni06AA.medi" unicode="&#x6aa;" horiz-adv-x="815" 
d="M816 -5q-39 0 -78 10t-70.5 27t-53.5 35l85 89q28 -16 60 -22.5t66 -6.5q33 0 49 -18.5t16 -45.5q0 -31 -19.5 -49.5t-54.5 -18.5zM0 -5l10 132h294q82 0 140 1t93.5 5t52 12t16.5 23q0 11 -8.5 20t-29.5 16.5t-58.5 14t-93.5 12.5q-104 12 -165.5 29.5t-88 45.5
t-26.5 71q0 49 27.5 89t75.5 71t111.5 54.5t134.5 39.5l28 -120q-76 -18 -130.5 -37t-83.5 -38t-29 -36q0 -12 14 -20t51.5 -14.5t107.5 -15.5q82 -10 137.5 -25t88.5 -37t47.5 -53t14.5 -72q0 -49 -24.5 -81t-76.5 -51t-132.5 -27t-193.5 -8z" />
    <glyph glyph-name="uni06AA.fina" unicode="&#x6aa;" horiz-adv-x="1011" 
d="M1012 -5q-39 0 -78 10t-70.5 27t-53.5 35l85 89q28 -16 60 -22.5t66 -6.5q33 0 49 -18.5t16 -45.5q0 -31 -19.5 -49.5t-54.5 -18.5zM500 -15q-37 0 -94 1t-121.5 3t-126.5 6t-109 9l6 127q50 -3 106 -6t114.5 -5.5t115.5 -4t108 -1.5q83 0 140.5 2.5t93.5 8t52.5 15.5
t16.5 24q0 12 -8 21.5t-28.5 17.5t-58 15t-95.5 13q-105 12 -166.5 29.5t-88 45.5t-26.5 72q0 50 28.5 90t77 70.5t111.5 53.5t133 39l28 -120q-76 -18 -131 -37.5t-84.5 -38t-29.5 -35.5q0 -12 14.5 -19.5t52 -14.5t108.5 -16q82 -9 137 -24.5t88.5 -38t48 -53.5t14.5 -71
q0 -49 -24.5 -82.5t-76.5 -55t-132.5 -31t-193.5 -9.5z" />
    <glyph glyph-name="uni06AB.init" unicode="&#x6ab;" horiz-adv-x="408" 
d="M309 432q-38 0 -63.5 26t-25.5 62q0 37 25.5 62.5t63.5 25.5q36 0 61.5 -25.5t25.5 -62.5q0 -36 -25.5 -62t-61.5 -26zM308 490q14 0 23.5 8.5t9.5 21.5q0 15 -9.5 23.5t-23.5 8.5q-13 0 -22.5 -9t-9.5 -23q0 -13 9.5 -21.5t22.5 -8.5zM0 -5l10 132h100q23 0 38.5 5.5
t24.5 15t13 21t4 22.5q0 28 -20 61.5t-52 68.5q-16 18 -33 35.5t-31.5 33t-23.5 28t-9 20.5q0 14 2 33t6.5 36t11.5 24q15 16 42 36t65.5 44t90 53t115.5 61l62 -111q-56 -28 -101.5 -52.5t-82 -45.5t-65 -41t-50.5 -38l9 67q58 -56 98.5 -102t65 -84.5t35.5 -74t11 -69.5
q0 -29 -10.5 -60t-37.5 -58.5t-73.5 -44t-118.5 -16.5h-96z" />
    <glyph glyph-name="uni06AB.medi" unicode="&#x6ab;" horiz-adv-x="445" 
d="M307 432q-37 0 -62.5 26t-25.5 62t25.5 62t62.5 26t62.5 -26t25.5 -62t-25.5 -62t-62.5 -26zM307 489q14 0 23.5 8.5t9.5 22.5t-9.5 22.5t-23.5 8.5q-13 0 -22.5 -9t-9.5 -22q0 -14 9.5 -22.5t22.5 -8.5zM0 -5l9 132h100q31 0 48.5 8.5t25 22.5t7.5 30q0 17 -12.5 40
t-31.5 48.5t-40.5 50.5t-41 47t-31.5 38.5t-12 23.5q0 18 2.5 37.5t7 35t11.5 22.5q18 19 48 40.5t70.5 46.5t89 52t103.5 55l62 -111q-55 -28 -100 -52.5t-81 -46t-64.5 -40.5t-49.5 -36l-1 70q31 -32 59.5 -64.5t55 -67t50.5 -73.5t46 -85q21 -41 40.5 -61t40.5 -25.5
t44 -5.5q33 0 48.5 -18.5t15.5 -45.5q0 -29 -18.5 -48.5t-55.5 -19.5q-38 0 -72.5 11.5t-61 38t-42.5 71.5l45 -3q-11 -30 -29 -52.5t-44 -37.5t-61.5 -21.5t-80.5 -6.5h-99z" />
    <glyph glyph-name="uni06AB.fina" unicode="&#x6ab;" horiz-adv-x="874" 
d="M740 431q-37 0 -62.5 26t-25.5 62q0 37 25.5 62.5t62.5 25.5t62 -25.5t25 -62.5q0 -36 -25 -62t-62 -26zM739 488q14 0 23.5 8.5t9.5 22.5q0 15 -9.5 23t-23.5 8q-13 0 -22.5 -8.5t-9.5 -22.5t9.5 -22.5t22.5 -8.5zM377 -21l25 132q55 0 95 2.5t67 10.5t40.5 23t13.5 40
q0 18 -12 40.5t-31.5 48t-41 50.5t-40.5 47t-31.5 38.5t-12.5 23.5q0 19 2.5 38t7.5 34t11 22q25 25 70.5 56t107 66t134.5 73l62 -110q-74 -39 -130 -70t-97 -57.5t-70 -50.5l1 73q32 -34 61 -67t55.5 -68.5t50.5 -74t45 -81.5q15 -31 29 -49t28.5 -27.5t31 -12t35.5 -2.5
q32 0 48 -19t16 -46q0 -29 -19 -48t-54 -19q-36 0 -71.5 11.5t-62.5 38t-41 71.5l43 5q-14 -45 -43 -73t-74.5 -43t-107 -20.5t-141.5 -5.5zM377 -21q-93 0 -158.5 16t-107 45.5t-60 71t-18.5 92.5q0 29 5.5 62.5t14.5 65.5t18 57l115 -29q-4 -19 -10 -40t-9 -42.5t-3 -41.5
q0 -35 19.5 -64t71 -45t147.5 -16l20 -101z" />
    <glyph glyph-name="uni06AC.init" unicode="&#x6ac;" horiz-adv-x="408" 
d="M0 -5l10 132h100q23 0 38.5 5.5t24.5 15t13 21t4 22.5q0 28 -20 61.5t-52 68.5q-16 18 -33 35.5t-31.5 33t-23.5 28t-9 20.5q0 14 2 33t6.5 36t11.5 24q15 16 42 36t65.5 44t90 53t115.5 61l62 -111q-56 -28 -101.5 -52.5t-82 -45.5t-65 -41t-50.5 -38l9 67
q58 -56 98.5 -102t65 -84.5t35.5 -74t11 -69.5q0 -29 -10.5 -60t-37.5 -58.5t-73.5 -44t-118.5 -16.5h-96zM149 737q-29 0 -48.5 19.5t-19.5 46.5q0 28 19.5 48.5t48.5 20.5q27 0 46.5 -20.5t19.5 -47.5q0 -28 -19.5 -47.5t-46.5 -19.5z" />
    <glyph glyph-name="uni06AC.medi" unicode="&#x6ac;" horiz-adv-x="445" 
d="M0 -5l9 132h100q31 0 48.5 8.5t25 22.5t7.5 30q0 17 -12.5 40t-31.5 48.5t-40.5 50.5t-41 47t-31.5 38.5t-12 23.5q0 18 2.5 37.5t7 35t11.5 22.5q18 19 48 40.5t70.5 46.5t89 52t103.5 55l62 -111q-55 -28 -100 -52.5t-81 -46t-64.5 -40.5t-49.5 -36l-1 70
q31 -32 59.5 -64.5t55 -67t50.5 -73.5t46 -85q21 -41 40.5 -61t40.5 -25.5t44 -5.5q33 0 48.5 -18.5t15.5 -45.5q0 -29 -18.5 -48.5t-55.5 -19.5q-38 0 -72.5 11.5t-61 38t-42.5 71.5l45 -3q-11 -30 -29 -52.5t-44 -37.5t-61.5 -21.5t-80.5 -6.5h-99zM143 737
q-29 0 -48.5 19.5t-19.5 46.5q0 28 19.5 48.5t48.5 20.5q27 0 46.5 -20.5t19.5 -47.5q0 -28 -19.5 -47.5t-46.5 -19.5z" />
    <glyph glyph-name="uni06AC.fina" unicode="&#x6ac;" horiz-adv-x="910" 
d="M377 -21l25 132q90 -1 146.5 5.5t88 26t42 56t7.5 93.5l-23 444h134l22 -452q4 -62 15.5 -96t32.5 -47.5t53 -13.5t48 -18.5t16 -45.5q0 -29 -19.5 -48.5t-54.5 -19.5q-39 0 -72.5 12.5t-56.5 40.5t-31 73h47q-23 -47 -63 -76t-94.5 -44t-120.5 -19t-142 -3zM346 220
l-25 94q36 9 59 16t34 14.5t11 16.5q0 8 -9.5 18.5t-22 23.5t-22 29t-9.5 36q0 25 14 47.5t44 43.5t78 41l43 -84q-41 -17 -57.5 -30.5t-16.5 -26.5q0 -10 9.5 -22t22 -26t22.5 -30.5t10 -36.5q0 -16 -6 -32.5t-25 -32.5t-56 -31t-98 -28zM377 -21q-93 0 -158.5 16
t-107 45.5t-60 71t-18.5 92.5q0 29 5.5 62.5t14.5 65.5t18 57l115 -29q-4 -19 -10 -40t-9 -42.5t-3 -41.5q0 -35 19.5 -64t71 -45t147.5 -16l20 -101zM449 662q-29 0 -48.5 19.5t-19.5 46.5q0 28 19.5 48.5t48.5 20.5q27 0 46.5 -20.5t19.5 -47.5q0 -28 -19.5 -47.5
t-46.5 -19.5z" />
    <glyph glyph-name="uni06AE.init" unicode="&#x6ae;" horiz-adv-x="408" 
d="M0 -5l10 132h100q23 0 38.5 5.5t24.5 15t13 21t4 22.5q0 28 -20 61.5t-52 68.5q-16 18 -33 35.5t-31.5 33t-23.5 28t-9 20.5q0 14 2 33t6.5 36t11.5 24q15 16 42 36t65.5 44t90 53t115.5 61l62 -111q-56 -28 -101.5 -52.5t-82 -45.5t-65 -41t-50.5 -38l9 67
q58 -56 98.5 -102t65 -84.5t35.5 -74t11 -69.5q0 -29 -10.5 -60t-37.5 -58.5t-73.5 -44t-118.5 -16.5h-96zM182 -355q-26 0 -44 17.5t-18 43.5q0 25 18 43.5t44 18.5q24 0 42 -19t18 -43q0 -26 -18 -43.5t-42 -17.5zM103 -216q-26 0 -44 17.5t-18 43.5q0 25 18 43.5t44 18.5
q24 0 42 -18.5t18 -43.5q0 -26 -18 -43.5t-42 -17.5zM264 -216q-26 0 -44 17.5t-18 43.5q0 25 18 43.5t44 18.5q24 0 42 -18.5t18 -43.5q0 -26 -18 -43.5t-42 -17.5z" />
    <glyph glyph-name="uni06AE.medi" unicode="&#x6ae;" horiz-adv-x="445" 
d="M0 -5l9 132h100q31 0 48.5 8.5t25 22.5t7.5 30q0 17 -12.5 40t-31.5 48.5t-40.5 50.5t-41 47t-31.5 38.5t-12 23.5q0 18 2.5 37.5t7 35t11.5 22.5q18 19 48 40.5t70.5 46.5t89 52t103.5 55l62 -111q-55 -28 -100 -52.5t-81 -46t-64.5 -40.5t-49.5 -36l-1 70
q31 -32 59.5 -64.5t55 -67t50.5 -73.5t46 -85q21 -41 40.5 -61t40.5 -25.5t44 -5.5q33 0 48.5 -18.5t15.5 -45.5q0 -29 -18.5 -48.5t-55.5 -19.5q-38 0 -72.5 11.5t-61 38t-42.5 71.5l45 -3q-11 -30 -29 -52.5t-44 -37.5t-61.5 -21.5t-80.5 -6.5h-99zM178 -355
q-26 0 -44 17.5t-18 43.5q0 25 18 43.5t44 18.5q24 0 42 -19t18 -43q0 -26 -18 -43.5t-42 -17.5zM99 -216q-26 0 -44 17.5t-18 43.5q0 25 18 43.5t44 18.5q24 0 42 -18.5t18 -43.5q0 -26 -18 -43.5t-42 -17.5zM260 -216q-26 0 -44 17.5t-18 43.5q0 25 18 43.5t44 18.5
q24 0 42 -18.5t18 -43.5q0 -26 -18 -43.5t-42 -17.5z" />
    <glyph glyph-name="uni06AE.fina" unicode="&#x6ae;" horiz-adv-x="910" 
d="M377 -21l25 132q90 -1 146.5 5.5t88 26t42 56t7.5 93.5l-23 444h134l22 -452q4 -62 15.5 -96t32.5 -47.5t53 -13.5t48 -18.5t16 -45.5q0 -29 -19.5 -48.5t-54.5 -19.5q-39 0 -72.5 12.5t-56.5 40.5t-31 73h47q-23 -47 -63 -76t-94.5 -44t-120.5 -19t-142 -3zM346 220
l-25 94q36 9 59 16t34 14.5t11 16.5q0 8 -9.5 18.5t-22 23.5t-22 29t-9.5 36q0 25 14 47.5t44 43.5t78 41l43 -84q-41 -17 -57.5 -30.5t-16.5 -26.5q0 -10 9.5 -22t22 -26t22.5 -30.5t10 -36.5q0 -16 -6 -32.5t-25 -32.5t-56 -31t-98 -28zM377 -21q-93 0 -158.5 16
t-107 45.5t-60 71t-18.5 92.5q0 29 5.5 62.5t14.5 65.5t18 57l115 -29q-4 -19 -10 -40t-9 -42.5t-3 -41.5q0 -35 19.5 -64t71 -45t147.5 -16l20 -101zM407 -376q-26 0 -44 17.5t-18 43.5q0 25 18 43.5t44 18.5q24 0 42 -19t18 -43q0 -26 -18 -43.5t-42 -17.5zM328 -237
q-26 0 -44 17.5t-18 43.5q0 25 18 43.5t44 18.5q24 0 42 -18.5t18 -43.5q0 -26 -18 -43.5t-42 -17.5zM489 -237q-26 0 -44 17.5t-18 43.5q0 25 18 43.5t44 18.5q24 0 42 -18.5t18 -43.5q0 -26 -18 -43.5t-42 -17.5z" />
    <glyph glyph-name="uni06B0.init" unicode="&#x6b0;" horiz-adv-x="408" 
d="M309 432q-37 0 -62.5 26t-25.5 62q0 37 25.5 62.5t62.5 25.5t62.5 -25.5t25.5 -62.5q0 -36 -25.5 -62t-62.5 -26zM309 490q14 0 23.5 8.5t9.5 21.5q0 15 -9.5 23.5t-23.5 8.5t-23.5 -9t-9.5 -23q0 -13 9.5 -21.5t23.5 -8.5zM22 609l-53 86q40 26 85 53t98 58t118 68
l52 -90q-65 -35 -118.5 -66t-98 -58t-83.5 -51zM0 -5l10 132h100q23 0 38.5 5.5t24.5 15t13 21t4 22.5q0 28 -20 61.5t-52 68.5q-16 18 -33 35.5t-31.5 33t-23.5 28t-9 20.5q0 14 2 33t6.5 36t11.5 24q15 16 42 36t65.5 44t90 53t115.5 61l62 -111q-56 -28 -101.5 -52.5
t-82 -45.5t-65 -41t-50.5 -38l9 67q58 -56 98.5 -102t65 -84.5t35.5 -74t11 -69.5q0 -29 -10.5 -60t-37.5 -58.5t-73.5 -44t-118.5 -16.5h-96z" />
    <glyph glyph-name="uni06B0.medi" unicode="&#x6b0;" horiz-adv-x="445" 
d="M311 433q-37 0 -62.5 26t-25.5 62q0 37 25.5 62.5t62.5 25.5t62 -25.5t25 -62.5q0 -36 -25 -62t-62 -26zM311 491q14 0 23 8t9 22q0 15 -9 23.5t-23 8.5t-23.5 -9t-9.5 -23t9.5 -22t23.5 -8zM22 609l-53 86q40 26 85 53t98 58t118 68l52 -90q-65 -35 -118.5 -66t-98 -58
t-83.5 -51zM0 -5l9 132h100q31 0 48.5 8.5t25 22.5t7.5 30q0 17 -12.5 40t-31.5 48.5t-40.5 50.5t-41 47t-31.5 38.5t-12 23.5q0 18 2.5 37.5t7 35t11.5 22.5q18 19 48 40.5t70.5 46.5t89 52t103.5 55l62 -111q-55 -28 -100 -52.5t-81 -46t-64.5 -40.5t-49.5 -36l-1 70
q31 -32 59.5 -64.5t55 -67t50.5 -73.5t46 -85q21 -41 40.5 -61t40.5 -25.5t44 -5.5q33 0 48.5 -18.5t15.5 -45.5q0 -29 -18.5 -48.5t-55.5 -19.5q-38 0 -72.5 11.5t-61 38t-42.5 71.5l45 -3q-11 -30 -29 -52.5t-44 -37.5t-61.5 -21.5t-80.5 -6.5h-99z" />
    <glyph glyph-name="uni06B0.fina" unicode="&#x6b0;" horiz-adv-x="874" 
d="M742 432q-37 0 -62.5 26t-25.5 62q0 37 25.5 62.5t62.5 25.5t62 -25.5t25 -62.5q0 -36 -25 -62t-62 -26zM742 490q13 0 22.5 8.5t9.5 21.5q0 15 -9.5 23.5t-22.5 8.5q-14 0 -23.5 -9t-9.5 -23q0 -13 9.5 -21.5t23.5 -8.5zM455 609l-53 86q40 26 85 53t98 58t118 68
l52 -90q-65 -35 -118.5 -66t-98 -58t-83.5 -51zM377 -21l25 132q55 0 95 2.5t67 10.5t40.5 23t13.5 40q0 18 -12 40.5t-31.5 48t-41 50.5t-40.5 47t-31.5 38.5t-12.5 23.5q0 19 2.5 38t7.5 34t11 22q25 25 70.5 56t107 66t134.5 73l62 -110q-74 -39 -130 -70t-97 -57.5
t-70 -50.5l1 73q32 -34 61 -67t55.5 -68.5t50.5 -74t45 -81.5q15 -31 29 -49t28.5 -27.5t31 -12t35.5 -2.5q32 0 48 -19t16 -46q0 -29 -19 -48t-54 -19q-36 0 -71.5 11.5t-62.5 38t-41 71.5l43 5q-14 -45 -43 -73t-74.5 -43t-107 -20.5t-141.5 -5.5zM377 -21
q-93 0 -158.5 16t-107 45.5t-60 71t-18.5 92.5q0 29 5.5 62.5t14.5 65.5t18 57l115 -29q-4 -19 -10 -40t-9 -42.5t-3 -41.5q0 -35 19.5 -64t71 -45t147.5 -16l20 -101z" />
    <glyph glyph-name="uni06B2.init" unicode="&#x6b2;" horiz-adv-x="408" 
d="M22 609l-53 86q40 26 85 53t98 58t118 68l52 -90q-65 -35 -118.5 -66t-98 -58t-83.5 -51zM0 -5l10 132h100q23 0 38.5 5.5t24.5 15t13 21t4 22.5q0 28 -20 61.5t-52 68.5q-16 18 -33 35.5t-31.5 33t-23.5 28t-9 20.5q0 14 2 33t6.5 36t11.5 24q15 16 42 36t65.5 44t90 53
t115.5 61l62 -111q-56 -28 -101.5 -52.5t-82 -45.5t-65 -41t-50.5 -38l9 67q58 -56 98.5 -102t65 -84.5t35.5 -74t11 -69.5q0 -29 -10.5 -60t-37.5 -58.5t-73.5 -44t-118.5 -16.5h-96zM252 -222q-28 0 -47.5 19t-19.5 46t19 47t48 20q26 0 45 -20t19 -47t-19 -46t-45 -19z
M86 -222q-28 0 -47.5 19t-19.5 46t19 47t48 20q27 0 45.5 -20t18.5 -47t-19 -46t-45 -19z" />
    <glyph glyph-name="uni06B2.medi" unicode="&#x6b2;" horiz-adv-x="445" 
d="M22 609l-53 86q40 26 85 53t98 58t118 68l52 -90q-65 -35 -118.5 -66t-98 -58t-83.5 -51zM0 -5l9 132h100q31 0 48.5 8.5t25 22.5t7.5 30q0 17 -12.5 40t-31.5 48.5t-40.5 50.5t-41 47t-31.5 38.5t-12 23.5q0 18 2.5 37.5t7 35t11.5 22.5q18 19 48 40.5t70.5 46.5t89 52
t103.5 55l62 -111q-55 -28 -100 -52.5t-81 -46t-64.5 -40.5t-49.5 -36l-1 70q31 -32 59.5 -64.5t55 -67t50.5 -73.5t46 -85q21 -41 40.5 -61t40.5 -25.5t44 -5.5q33 0 48.5 -18.5t15.5 -45.5q0 -29 -18.5 -48.5t-55.5 -19.5q-38 0 -72.5 11.5t-61 38t-42.5 71.5l45 -3
q-11 -30 -29 -52.5t-44 -37.5t-61.5 -21.5t-80.5 -6.5h-99zM252 -222q-28 0 -47.5 19t-19.5 46t19 47t48 20q26 0 45 -20t19 -47t-19 -46t-45 -19zM86 -222q-28 0 -47.5 19t-19.5 46t19 47t48 20q27 0 45.5 -20t18.5 -47t-19 -46t-45 -19z" />
    <glyph glyph-name="uni06B2.fina" unicode="&#x6b2;" horiz-adv-x="874" 
d="M455 609l-53 86q40 26 85 53t98 58t118 68l52 -90q-65 -35 -118.5 -66t-98 -58t-83.5 -51zM377 -21l25 132q55 0 95 2.5t67 10.5t40.5 23t13.5 40q0 18 -12 40.5t-31.5 48t-41 50.5t-40.5 47t-31.5 38.5t-12.5 23.5q0 19 2.5 38t7.5 34t11 22q25 25 70.5 56t107 66
t134.5 73l62 -110q-74 -39 -130 -70t-97 -57.5t-70 -50.5l1 73q32 -34 61 -67t55.5 -68.5t50.5 -74t45 -81.5q15 -31 29 -49t28.5 -27.5t31 -12t35.5 -2.5q32 0 48 -19t16 -46q0 -29 -19 -48t-54 -19q-36 0 -71.5 11.5t-62.5 38t-41 71.5l43 5q-14 -45 -43 -73t-74.5 -43
t-107 -20.5t-141.5 -5.5zM377 -21q-93 0 -158.5 16t-107 45.5t-60 71t-18.5 92.5q0 29 5.5 62.5t14.5 65.5t18 57l115 -29q-4 -19 -10 -40t-9 -42.5t-3 -41.5q0 -35 19.5 -64t71 -45t147.5 -16l20 -101zM477 -243q-28 0 -47.5 19t-19.5 46t19 47t48 20q26 0 45 -20t19 -47
t-19 -46t-45 -19zM311 -243q-28 0 -47.5 19t-19.5 46t19 47t48 20q27 0 45.5 -20t18.5 -47t-19 -46t-45 -19z" />
    <glyph glyph-name="uni06B4.init" unicode="&#x6b4;" horiz-adv-x="408" 
d="M31 934q-22 0 -37 15t-15 36q0 22 15 37.5t37 15.5q21 0 36 -15.5t15 -37.5q0 -21 -15 -36t-36 -15zM21 807q-22 0 -37 14.5t-15 36.5q0 21 15 36.5t37 15.5q21 0 36 -15.5t15 -36.5q0 -22 -15 -36.5t-36 -14.5zM137 862q-22 0 -37 14.5t-15 36.5q0 21 15 37t37 16
q21 0 36 -16t15 -37q0 -22 -15 -36.5t-36 -14.5zM22 609l-53 86q40 26 85 53t98 58t118 68l52 -90q-65 -35 -118.5 -66t-98 -58t-83.5 -51zM0 -5l10 132h100q23 0 38.5 5.5t24.5 15t13 21t4 22.5q0 28 -20 61.5t-52 68.5q-16 18 -33 35.5t-31.5 33t-23.5 28t-9 20.5
q0 14 2 33t6.5 36t11.5 24q15 16 42 36t65.5 44t90 53t115.5 61l62 -111q-56 -28 -101.5 -52.5t-82 -45.5t-65 -41t-50.5 -38l9 67q58 -56 98.5 -102t65 -84.5t35.5 -74t11 -69.5q0 -29 -10.5 -60t-37.5 -58.5t-73.5 -44t-118.5 -16.5h-96z" />
    <glyph glyph-name="uni06B4.medi" unicode="&#x6b4;" horiz-adv-x="445" 
d="M23 934q-22 0 -37 15t-15 36q0 22 15 37.5t37 15.5q21 0 36 -15.5t15 -37.5q0 -21 -15 -36t-36 -15zM13 807q-22 0 -37 14.5t-15 36.5q0 21 15 36.5t37 15.5q21 0 36 -15.5t15 -36.5q0 -22 -15 -36.5t-36 -14.5zM129 862q-22 0 -37 14.5t-15 36.5q0 21 15 37t37 16
q21 0 36 -16t15 -37q0 -22 -15 -36.5t-36 -14.5zM22 609l-53 86q40 26 85 53t98 58t118 68l52 -90q-65 -35 -118.5 -66t-98 -58t-83.5 -51zM0 -5l9 132h100q31 0 48.5 8.5t25 22.5t7.5 30q0 17 -12.5 40t-31.5 48.5t-40.5 50.5t-41 47t-31.5 38.5t-12 23.5q0 18 2.5 37.5
t7 35t11.5 22.5q18 19 48 40.5t70.5 46.5t89 52t103.5 55l62 -111q-55 -28 -100 -52.5t-81 -46t-64.5 -40.5t-49.5 -36l-1 70q31 -32 59.5 -64.5t55 -67t50.5 -73.5t46 -85q21 -41 40.5 -61t40.5 -25.5t44 -5.5q33 0 48.5 -18.5t15.5 -45.5q0 -29 -18.5 -48.5t-55.5 -19.5
q-38 0 -72.5 11.5t-61 38t-42.5 71.5l45 -3q-11 -30 -29 -52.5t-44 -37.5t-61.5 -21.5t-80.5 -6.5h-99z" />
    <glyph glyph-name="uni06B4.fina" unicode="&#x6b4;" horiz-adv-x="874" 
d="M462 936q-23 0 -38 15t-15 36q0 22 15 37.5t38 15.5q21 0 35.5 -15.5t14.5 -37.5q0 -21 -14.5 -36t-35.5 -15zM452 809q-22 0 -37 15t-15 36q0 22 15 37.5t37 15.5q21 0 36 -15.5t15 -37.5q0 -21 -15 -36t-36 -15zM568 864q-22 0 -37 15t-15 36q0 22 15 37.5t37 15.5
q21 0 36 -15.5t15 -37.5q0 -21 -15 -36t-36 -15zM455 609l-53 86q40 26 85 53t98 58t118 68l52 -90q-65 -35 -118.5 -66t-98 -58t-83.5 -51zM377 -21l25 132q55 0 95 2.5t67 10.5t40.5 23t13.5 40q0 18 -12 40.5t-31.5 48t-41 50.5t-40.5 47t-31.5 38.5t-12.5 23.5
q0 19 2.5 38t7.5 34t11 22q25 25 70.5 56t107 66t134.5 73l62 -110q-74 -39 -130 -70t-97 -57.5t-70 -50.5l1 73q32 -34 61 -67t55.5 -68.5t50.5 -74t45 -81.5q15 -31 29 -49t28.5 -27.5t31 -12t35.5 -2.5q32 0 48 -19t16 -46q0 -29 -19 -48t-54 -19q-36 0 -71.5 11.5
t-62.5 38t-41 71.5l43 5q-14 -45 -43 -73t-74.5 -43t-107 -20.5t-141.5 -5.5zM377 -21q-93 0 -158.5 16t-107 45.5t-60 71t-18.5 92.5q0 29 5.5 62.5t14.5 65.5t18 57l115 -29q-4 -19 -10 -40t-9 -42.5t-3 -41.5q0 -35 19.5 -64t71 -45t147.5 -16l20 -101z" />
    <glyph glyph-name="uni06B5.init" unicode="&#x6b5;" horiz-adv-x="277" 
d="M0 -5l9 132q37 0 53.5 10t20.5 39t2 83l-19 477h137l20 -488q3 -58 -3.5 -104.5t-29.5 -79.5t-68.5 -51t-121.5 -18zM108 819q-7 15 -17.5 39t-21.5 52t-21.5 52.5t-18.5 40.5l54 24q5 -10 14 -31l19.5 -45.5t21 -47.5t17.5 -37l20 -41zM174 825l-49 20q6 16 16 43.5
t20 57t18.5 53t11.5 31.5l54 -18q-4 -9 -13 -34t-20.5 -55t-21.5 -57t-16 -41z" />
    <glyph glyph-name="uni06B5.medi" unicode="&#x6b5;" horiz-adv-x="303" 
d="M0 -5l10 132q34 0 50 10.5t20 39.5t2 83l-16 476h137l18 -474q2 -55 10.5 -84.5t28 -40t54.5 -10.5q33 0 48.5 -18.5t15.5 -45.5q0 -31 -19 -49.5t-54 -18.5q-36 0 -71 11t-60 38.5t-32 77.5h46q-17 -47 -43 -75t-61.5 -40t-83.5 -12zM117 841q-7 15 -17.5 39t-21.5 52
t-21.5 52.5t-18.5 40.5l54 24q5 -10 14 -31l19.5 -45.5t21 -47.5t17.5 -37l20 -41zM183 847l-49 20q6 16 16 43.5t20 57t18.5 53t11.5 31.5l54 -18q-4 -9 -13 -34t-20.5 -55t-21.5 -57t-16 -41z" />
    <glyph glyph-name="uni06B5.fina" unicode="&#x6b5;" horiz-adv-x="708" 
d="M30 20q0 24 4 54t15.5 70t34.5 92l118 -44q-13 -35 -21 -60.5t-11.5 -47.5t-3.5 -47q0 -43 18 -74t50.5 -47.5t75.5 -16.5q69 0 106 29t50.5 89.5t9.5 155.5l-20 563h137l15 -478q2 -53 14 -82t36 -39t60 -10q33 0 48.5 -18.5t15.5 -45.5q0 -31 -19 -49.5t-54 -18.5
q-20 0 -43.5 5.5t-45.5 18t-38.5 34.5t-22.5 56l50 8q-1 -80 -20.5 -144t-57 -109.5t-94 -69.5t-131.5 -24q-54 0 -103.5 15t-88 45.5t-61.5 77.5t-23 112zM205 562q-7 15 -17.5 39t-21.5 52t-21.5 52.5t-18.5 40.5l54 24q5 -10 14 -31l19.5 -45.5t21 -47.5t17.5 -37l20 -41
zM271 568l-49 20q6 16 16 43.5t20 57t18.5 53t11.5 31.5l54 -18q-4 -9 -13 -34t-20.5 -55t-21.5 -57t-16 -41z" />
    <glyph glyph-name="uni06B6.init" unicode="&#x6b6;" horiz-adv-x="277" 
d="M0 -5l9 132q37 0 53.5 10t20.5 39t2 83l-19 477h137l20 -488q3 -58 -3.5 -104.5t-29.5 -79.5t-68.5 -51t-121.5 -18zM141 812q-29 0 -48.5 19.5t-19.5 46.5q0 28 19.5 48.5t48.5 20.5q27 0 46.5 -20.5t19.5 -47.5q0 -28 -19.5 -47.5t-46.5 -19.5z" />
    <glyph glyph-name="uni06B6.medi" unicode="&#x6b6;" horiz-adv-x="303" 
d="M0 -5l10 132q34 0 50 10.5t20 39.5t2 83l-16 476h137l18 -474q2 -55 10.5 -84.5t28 -40t54.5 -10.5q33 0 48.5 -18.5t15.5 -45.5q0 -31 -19 -49.5t-54 -18.5q-36 0 -71 11t-60 38.5t-32 77.5h46q-17 -47 -43 -75t-61.5 -40t-83.5 -12zM147 813q-29 0 -48.5 19.5
t-19.5 46.5q0 28 19.5 48.5t48.5 20.5q27 0 46.5 -20.5t19.5 -47.5q0 -28 -19.5 -47.5t-46.5 -19.5z" />
    </font>
</defs>
</svg>
