<?xml version="1.0" standalone="no"?>
<!DOCTYPE svg PUBLIC "-//W3C//DTD SVG 1.1//EN" "http://www.w3.org/Graphics/SVG/1.1/DTD/svg11.dtd" >
<svg xmlns="http://www.w3.org/2000/svg" xmlns:xlink="http://www.w3.org/1999/xlink" version="1.1">
<metadata>
Created by FontForge 20170731 at Thu Nov 12 05:28:44 2020
 By Aleksey,,,
Copyright 2015-2020 Google LLC. All Rights Reserved.
</metadata>
<defs>
<font id="NotoSansArabicCondensed-Light" horiz-adv-x="0" >
  <font-face 
    font-family="Noto Sans Arabic Condensed Light"
    font-weight="300"
    font-stretch="condensed"
    units-per-em="1000"
    panose-1="0 0 0 0 0 0 0 0 0 0"
    ascent="800"
    descent="-200"
    bbox="-217 -573 2012 1070"
    underline-thickness="50"
    underline-position="-175"
    unicode-range="U+000D-FEFC"
  />
<missing-glyph horiz-adv-x="600" 
d="M101 0v714h398v-714h-398zM138 38h323v639h-323v-639z" />
    <glyph glyph-name="uniFC43" unicode="&#xfedf;&#xfef0;" horiz-adv-x="862" arabic-form="isolated" 
d="M657 -5l7 49q45 0 65 14t25 46t3 86l-19 517h49l20 -511q2 -52 -3 -89.5t-20.5 -62.5t-46 -37t-80.5 -12zM43 -15q0 23 4 52.5t16 65.5t33 78l44 -20q-15 -32 -26 -61t-16 -56.5t-5 -53.5q0 -45 16.5 -77.5t46.5 -53t69.5 -30.5t85.5 -10q62 0 108.5 15t79 38.5t48.5 50
t16 48.5q0 16 -10.5 29.5t-31 24.5t-48.5 21.5t-64 22.5l12 49q50 -19 87 -33t65 -22.5t50 -13t41 -5.5q14 0 20.5 -6t6.5 -17t-8 -18.5t-27 -7.5q-6 0 -16 1t-20 2.5t-19 4.5q7 -9 9 -19.5t2 -19.5q0 -30 -19.5 -63.5t-58.5 -63t-96 -48.5t-132 -19q-80 0 -139 25t-91.5 73
t-32.5 117z" />
    <glyph glyph-name="uniFC86" unicode="&#xfee0;&#xfef0;" horiz-adv-x="898" arabic-form="final" 
d="M657 -5l7 49q43 0 63 17.5t24.5 53t2.5 90.5l-17 502h50l17 -500q3 -64 14 -99.5t32.5 -49.5t54.5 -14q13 0 20 -6t7 -17t-8 -18.5t-26 -7.5q-32 0 -57 13.5t-40 37t-20 52.5l18 -1q-9 -32 -26.5 -54.5t-45.5 -35t-70 -12.5zM43 -15q0 23 4 52.5t16 65.5t33 78l44 -20
q-15 -32 -26 -61t-16 -56.5t-5 -53.5q0 -45 16.5 -77.5t46.5 -53t69.5 -30.5t85.5 -10q62 0 108.5 15t79 38.5t48.5 50t16 48.5q0 16 -10.5 29.5t-31 24.5t-48.5 21.5t-64 22.5l12 49q50 -19 87 -33t65 -22.5t50 -13t41 -5.5q14 0 20.5 -6t6.5 -17t-8 -18.5t-27 -7.5
q-6 0 -16 1t-20 2.5t-19 4.5q7 -9 9 -19.5t2 -19.5q0 -30 -19.5 -63.5t-58.5 -63t-96 -48.5t-132 -19q-80 0 -139 25t-91.5 73t-32.5 117z" />
    <glyph glyph-name="uniFD82" unicode="&#xfee0;&#xfea4;&#xfef0;" horiz-adv-x="1411" arabic-form="final" 
d="M1170 -5l7 49q43 0 63 17.5t24.5 53t2.5 90.5l-17 502h50l17 -500q3 -64 14 -99.5t32.5 -49.5t54.5 -14q13 0 20 -6t7 -17t-8 -18.5t-26 -7.5q-32 0 -57 13.5t-40 37t-20 52.5l18 -1q-9 -32 -26.5 -54.5t-45.5 -35t-70 -12.5zM1170 -5q-29 0 -55.5 4.5t-49.5 18.5
t-40.5 42.5t-27.5 77.5l37 18q14 -51 32.5 -74.5t46 -30.5t64.5 -7q16 0 22 -6.5t6 -16.5t-8 -18t-27 -8zM657 -5l7 49q47 0 87.5 8.5t79.5 25t81 41t92 57.5q-40 29 -73.5 52.5t-67 37.5t-73.5 14q-14 0 -26 -1t-24 -3t-26 -6l-10 45q21 7 43 10t43 3q45 0 80 -13t64 -31.5
t53.5 -37.5t47.5 -32t48 -13h17l5 -48q-33 0 -61.5 -12t-57 -29.5t-60 -38t-70 -38t-87.5 -29t-112 -11.5zM43 -15q0 23 4 52.5t16 65.5t33 78l44 -20q-15 -32 -26 -61t-16 -56.5t-5 -53.5q0 -45 16.5 -77.5t46.5 -53t69.5 -30.5t85.5 -10q62 0 108.5 15t79 38.5t48.5 50
t16 48.5q0 16 -10.5 29.5t-31 24.5t-48.5 21.5t-64 22.5l12 49q50 -19 87 -33t65 -22.5t50 -13t41 -5.5q14 0 20.5 -6t6.5 -17t-8 -18.5t-27 -7.5q-6 0 -16 1t-20 2.5t-19 4.5q7 -9 9 -19.5t2 -19.5q0 -30 -19.5 -63.5t-58.5 -63t-96 -48.5t-132 -19q-80 0 -139 25t-91.5 73
t-32.5 117z" />
    <glyph glyph-name="uniFDF2" unicode="&#x627;&#xfedf;&#xfee0;&#xfeea;" horiz-adv-x="1084" arabic-form="isolated" 
d="M419 -5q-33 0 -61 8.5t-47.5 31t-28.5 64.5q-47 -9 -91 -6.5t-80 17t-57 41t-21 65.5q0 49 29.5 94t81 79t118.5 50l-4 77h50l17 -348q3 -49 12 -76t30.5 -37.5t58.5 -10.5q44 0 63.5 17.5t24.5 53t3 90.5l-14 363h50l14 -361q2 -64 13.5 -99.5t33 -49.5t54.5 -14
q45 0 65 14t25 46t3 86l-19 517h49l20 -511q2 -52 -2.5 -89.5t-20.5 -62.5t-46.5 -37t-80.5 -12q-28 0 -49.5 10t-36.5 27t-24 39q-16 -36 -47 -56t-85 -20zM276 147l-12 238q-54 -10 -94.5 -36.5t-63 -59t-22.5 -64.5q0 -30 17.5 -47.5t46.5 -26t62.5 -9.5t65.5 5zM963 0
l-20 707h50l20 -707h-50zM453 611q-33 0 -46.5 23t-13.5 56q0 11 1.5 23.5t4.5 28.5l34 10q-3 -18 -4.5 -32.5t-1.5 -24.5q0 -21 7 -34t24 -13q15 0 26.5 16t12.5 60v45l33 12v-69q0 -13 8 -23t25 -10q19 0 26.5 13t7.5 35q0 19 -4 36.5t-11 34.5l31 10q8 -15 13.5 -39
t5.5 -45q0 -32 -15.5 -56.5t-50.5 -24.5q-26 0 -43 15t-17 37l17 -4q0 -33 -19 -56.5t-51 -23.5zM492 834l-6 158h37l6 -158h-37z" />
    <glyph glyph-name="uniFEF5" unicode="&#xfedf;&#xfe82;" horiz-adv-x="626" arabic-form="isolated" 
d="M348 532q0 27 -3 60.5t-7.5 64.5t-8.5 52l52 8q3 -20 7 -52.5t7 -67.5t3 -62q0 -43 -6 -83.5t-17 -79.5t-27 -76l-7 -17q-29 -63 -72.5 -120t-96.5 -106h139q41 0 62.5 11.5t29 29t7.5 36.5q0 35 -28 76.5t-78 90.5t-118 107.5t-147 126.5l30 41q82 -70 145.5 -125.5
t109.5 -100.5t76 -82.5t44.5 -71t14.5 -66.5q0 -20 -6.5 -42t-23.5 -41t-47 -31t-78 -12h-200v59q84 72 138 148t80 157.5t26 167.5zM171 627q-27 0 -49 10t-41 19.5t-35 9.5t-30 -8.5t-30 -24.5l-25 22q19 23 40 37t46 14q22 0 42 -10t40.5 -19.5t42.5 -9.5q17 0 33.5 7
t36.5 22l20 -28q-28 -24 -50.5 -32.5t-40.5 -8.5z" />
    <glyph glyph-name="uniFEF6" unicode="&#xfee0;&#xfe82;" horiz-adv-x="527" arabic-form="final" 
d="M529 -5q-41 0 -70 10t-47 31.5t-27.5 56.5t-11.5 86l-16 535h49l19 -507q3 -58 9 -94t28.5 -52.5t72.5 -16.5q14 0 20 -6t6 -16t-9 -18.5t-23 -8.5zM150 -8q-27 0 -54.5 4.5t-38.5 6.5l7 52q64 -13 119.5 -5.5t97.5 40.5t66 95.5t24 157.5l30 -72q-5 -70 -23.5 -119
t-46 -80.5t-59.5 -48.5t-64 -24t-58 -7zM341 143q-22 39 -50.5 85t-63 95t-75.5 99.5t-87 98.5l37 37q51 -55 92 -107t74.5 -100.5t60 -91t48.5 -80.5zM183 627q-27 0 -49 10t-41 19.5t-35 9.5t-30 -8.5t-30 -24.5l-25 22q19 23 40 37t46 14q22 0 42 -10t40.5 -19.5
t42.5 -9.5q17 0 33.5 7t36.5 22l20 -28q-28 -24 -50.5 -32.5t-40.5 -8.5z" />
    <glyph glyph-name="uniFEF7" unicode="&#xfedf;&#xfe84;" horiz-adv-x="540" arabic-form="isolated" 
d="M348 532q0 27 -3 60.5t-7.5 64.5t-8.5 52l52 8q3 -20 7 -52.5t7 -67.5t3 -62q0 -43 -6 -83.5t-17 -79.5t-27 -76l-7 -17q-29 -63 -72.5 -120t-96.5 -106h139q41 0 62.5 11.5t29 29t7.5 36.5q0 35 -28 76.5t-78 90.5t-118 107.5t-147 126.5l30 41q82 -70 145.5 -125.5
t109.5 -100.5t76 -82.5t44.5 -71t14.5 -66.5q0 -20 -6.5 -42t-23.5 -41t-47 -31t-78 -12h-200v59q84 72 138 148t80 157.5t26 167.5zM21 627l-8 34q23 6 40 10.5t33 8.5l12 -10q-33 6 -57 30.5t-24 56.5q0 26 12.5 44t32.5 27.5t41 9.5q11 0 22.5 -2t21.5 -6l-6 -31
q-9 2 -18.5 3.5t-19.5 1.5q-25 0 -38 -13.5t-13 -32.5t12 -34.5t30.5 -24t34.5 -10.5l-37 -6q25 6 46 13t39 14l11 -33q-23 -8 -52 -17.5t-59 -18t-56 -14.5z" />
    <glyph glyph-name="uniFEF8" unicode="&#xfee0;&#xfe84;" horiz-adv-x="524" arabic-form="final" 
d="M517 -5q-41 0 -70 10t-47 31.5t-27.5 56.5t-11.5 86l-16 535h49l19 -507q3 -58 9 -94t28.5 -52.5t72.5 -16.5q14 0 20 -6t6 -16t-9 -18.5t-23 -8.5zM138 -8q-27 0 -54.5 4.5t-38.5 6.5l7 52q64 -13 119.5 -5.5t97.5 40.5t66 95.5t24 157.5l30 -72q-5 -70 -23.5 -119
t-46 -80.5t-59.5 -48.5t-64 -24t-58 -7zM329 143q-22 39 -50.5 85t-63 95t-75.5 99.5t-87 98.5l37 37q51 -55 92 -107t74.5 -100.5t60 -91t48.5 -80.5zM49 627l-8 34q23 6 40 10.5t33 8.5l12 -10q-33 6 -57 30.5t-24 56.5q0 26 12.5 44t32.5 27.5t41 9.5q11 0 22.5 -2
t21.5 -6l-6 -31q-9 2 -18.5 3.5t-19.5 1.5q-25 0 -38 -13.5t-13 -32.5t12 -34.5t30.5 -24t34.5 -10.5l-37 -6q25 6 46 13t39 14l11 -33q-23 -8 -52 -17.5t-59 -18t-56 -14.5z" />
    <glyph glyph-name="uniFEF9" unicode="&#xfedf;&#xfe88;" horiz-adv-x="531" arabic-form="isolated" 
d="M348 532q0 27 -3 60.5t-7.5 64.5t-8.5 52l52 8q3 -20 7 -52.5t7 -67.5t3 -62q0 -43 -6 -83.5t-17 -79.5t-27 -76l-7 -17q-29 -63 -72.5 -120t-96.5 -106h139q41 0 62.5 11.5t29 29t7.5 36.5q0 35 -28 76.5t-78 90.5t-118 107.5t-147 126.5l30 41q82 -70 145.5 -125.5
t109.5 -100.5t76 -82.5t44.5 -71t14.5 -66.5q0 -20 -6.5 -42t-23.5 -41t-47 -31t-78 -12h-200v59q84 72 138 148t80 157.5t26 167.5zM89 -287l-8 34q23 6 40 10.5t33 8.5l12 -10q-33 6 -57 30.5t-24 56.5q0 26 12.5 44t32.5 27.5t41 9.5q11 0 22.5 -2t21.5 -6l-6 -31
q-9 2 -18.5 3.5t-19.5 1.5q-25 0 -38 -13.5t-13 -32.5t12 -34.5t30.5 -24t34.5 -10.5l-37 -6q25 6 46 13t39 14l11 -33q-23 -8 -52 -17.5t-59 -18t-56 -14.5z" />
    <glyph glyph-name="uniFEFA" unicode="&#xfee0;&#xfe88;" horiz-adv-x="515" arabic-form="final" 
d="M517 -5q-41 0 -70 10t-47 31.5t-27.5 56.5t-11.5 86l-16 535h49l19 -507q3 -58 9 -94t28.5 -52.5t72.5 -16.5q14 0 20 -6t6 -16t-9 -18.5t-23 -8.5zM138 -8q-27 0 -54.5 4.5t-38.5 6.5l7 52q64 -13 119.5 -5.5t97.5 40.5t66 95.5t24 157.5l30 -72q-5 -70 -23.5 -119
t-46 -80.5t-59.5 -48.5t-64 -24t-58 -7zM329 143q-22 39 -50.5 85t-63 95t-75.5 99.5t-87 98.5l37 37q51 -55 92 -107t74.5 -100.5t60 -91t48.5 -80.5zM93 -287l-8 34q23 6 40 10.5t33 8.5l12 -10q-33 6 -57 30.5t-24 56.5q0 26 12.5 44t32.5 27.5t41 9.5q11 0 22.5 -2
t21.5 -6l-6 -31q-9 2 -18.5 3.5t-19.5 1.5q-25 0 -38 -13.5t-13 -32.5t12 -34.5t30.5 -24t34.5 -10.5l-37 -6q25 6 46 13t39 14l11 -33q-23 -8 -52 -17.5t-59 -18t-56 -14.5z" />
    <glyph glyph-name="uniFEFB" unicode="&#xfedf;&#xfe8e;" horiz-adv-x="531" arabic-form="isolated" 
d="M348 532q0 27 -3 60.5t-7.5 64.5t-8.5 52l52 8q3 -20 7 -52.5t7 -67.5t3 -62q0 -43 -6 -83.5t-17 -79.5t-27 -76l-7 -17q-29 -63 -72.5 -120t-96.5 -106h139q41 0 62.5 11.5t29 29t7.5 36.5q0 35 -28 76.5t-78 90.5t-118 107.5t-147 126.5l30 41q82 -70 145.5 -125.5
t109.5 -100.5t76 -82.5t44.5 -71t14.5 -66.5q0 -20 -6.5 -42t-23.5 -41t-47 -31t-78 -12h-200v59q84 72 138 148t80 157.5t26 167.5z" />
    <glyph glyph-name="uniFEFC" unicode="&#xfee0;&#xfe8e;" horiz-adv-x="515" arabic-form="final" 
d="M517 -5q-41 0 -70 10t-47 31.5t-27.5 56.5t-11.5 86l-16 535h49l19 -507q3 -58 9 -94t28.5 -52.5t72.5 -16.5q14 0 20 -6t6 -16t-9 -18.5t-23 -8.5zM138 -8q-27 0 -54.5 4.5t-38.5 6.5l7 52q64 -13 119.5 -5.5t97.5 40.5t66 95.5t24 157.5l30 -72q-5 -70 -23.5 -119
t-46 -80.5t-59.5 -48.5t-64 -24t-58 -7zM329 143q-22 39 -50.5 85t-63 95t-75.5 99.5t-87 98.5l37 37q51 -55 92 -107t74.5 -100.5t60 -91t48.5 -80.5z" />
    <glyph glyph-name="lam_alefMaksura_meemar" unicode="&#xfedf;&#xfbe9;&#xfee2;" horiz-adv-x="926" 
d="M722 -5l7 49q45 0 65 14t25 46t3 86l-19 517h49l20 -511q2 -52 -3 -89.5t-20.5 -62.5t-46 -37t-80.5 -12zM493 -5l7 49q41 0 65 11t34.5 33.5t10.5 57.5q0 30 -6.5 64.5t-18.5 73t-28 80.5l49 19q14 -38 26 -78t19 -79t7 -75q0 -29 -6.5 -54t-19 -44t-32 -32t-46 -19.5
t-61.5 -6.5zM83 -393q-21 80 -36 153.5t-23 130.5t-8 88q0 73 18 132t46.5 104t62 75.5t66.5 46t58 15.5q22 0 37.5 -12.5t33 -48.5t42.5 -108q19 -53 36.5 -83.5t37.5 -43t45 -12.5q14 0 21 -6t7 -17t-8 -18.5t-26 -7.5q-37 0 -68.5 23t-47.5 58l22 4q-3 -29 -15.5 -49
t-33 -30t-45.5 -10q-24 0 -51 9t-55 29.5t-54 55t-47 83.5l9 -2q-22 -42 -32.5 -90.5t-10.5 -97.5q0 -29 5.5 -71t15 -91t21 -99.5t24.5 -97.5zM307 38q19 0 32 10t17 29t-6 47q-17 47 -29 80t-22 54t-19 31t-20 10q-12 0 -29 -6.5t-35 -20t-35.5 -32t-31.5 -41.5v11
q21 -53 50.5 -91.5t63 -59.5t64.5 -21z" />
    <glyph glyph-name="lam_alefWaslaar" unicode="&#xfedf;&#xfb51;" horiz-adv-x="458" 
d="M133 650q-21 0 -47.5 1.5t-49.5 4.5t-36 5l4 34q14 -2 36.5 -4.5t46.5 -4.5t45 -2q53 0 71.5 17t18.5 37t-11.5 29t-27.5 9q-20 0 -39.5 -13.5t-35.5 -35.5t-28 -47l-35 3q14 30 34 59.5t47 49t60 19.5q30 0 50.5 -18.5t20.5 -52.5q0 -22 -12 -43t-39 -34t-73 -13z
M348 532q0 27 -3 60.5t-7.5 64.5t-8.5 52l52 8q3 -20 7 -52.5t7 -67.5t3 -62q0 -43 -6 -83.5t-17 -79.5t-27 -76l-7 -17q-29 -63 -72.5 -120t-96.5 -106h139q41 0 62.5 11.5t29 29t7.5 36.5q0 35 -28 76.5t-78 90.5t-118 107.5t-147 126.5l30 41q82 -70 145.5 -125.5
t109.5 -100.5t76 -82.5t44.5 -71t14.5 -66.5q0 -20 -6.5 -42t-23.5 -41t-47 -31t-78 -12h-200v59q84 72 138 148t80 157.5t26 167.5z" />
    <glyph glyph-name="lam_alefWaslaar.fina" unicode="&#xfee0;&#xfb51;" horiz-adv-x="548" 
d="M133 664q-21 0 -47 1.5t-49.5 4.5t-36.5 5l4 34q15 -2 37 -4.5t46.5 -4.5t44.5 -2q53 0 71.5 16.5t18.5 37.5q0 20 -11.5 29t-27.5 9q-20 0 -39 -13.5t-35.5 -35.5t-28.5 -47l-35 3q14 30 34 59.5t47 49t60 19.5q30 0 50.5 -18.5t20.5 -52.5q0 -22 -12 -43t-39 -34
t-73 -13zM517 -5q-41 0 -70 10t-47 31.5t-27.5 56.5t-11.5 86l-16 535h49l19 -507q3 -58 9 -94t28.5 -52.5t72.5 -16.5q14 0 20 -6t6 -16t-9 -18.5t-23 -8.5zM138 -8q-27 0 -54.5 4.5t-38.5 6.5l7 52q64 -13 119.5 -5.5t97.5 40.5t66 95.5t24 157.5l30 -72
q-5 -70 -23.5 -119t-46 -80.5t-59.5 -48.5t-64 -24t-58 -7zM329 143q-22 39 -50.5 85t-63 95t-75.5 99.5t-87 98.5l37 37q51 -55 92 -107t74.5 -100.5t60 -91t48.5 -80.5z" />
    <glyph glyph-name="uni0620.init" unicode="&#x620;" horiz-adv-x="255" 
d="M0 -5l7 49q47 0 76.5 8.5t43.5 30.5t14 63q0 30 -7 64.5t-19 73t-27 80.5l49 19q14 -37 25.5 -77t18.5 -78.5t7 -70.5q0 -43 -10.5 -73.5t-33.5 -50.5t-59 -29t-85 -9zM127 -103q-32 0 -53.5 22t-21.5 54q0 31 21.5 53t53.5 22q31 0 53 -22t22 -53q0 -32 -22 -54t-53 -22
zM127 -71q17 0 30 13t13 30q0 18 -12.5 31t-31.5 13q-17 0 -29.5 -12.5t-12.5 -30.5t12.5 -31t30.5 -13z" />
    <glyph glyph-name="uni0620.medi" unicode="&#x620;" horiz-adv-x="305" 
d="M0 -5l7 49q35 0 58.5 8.5t39.5 31.5t29 69t26 121l49 -11l-11 -49.5t-8 -43t-3 -39.5q0 -18 4 -34t16.5 -28t37.5 -18.5t67 -6.5q15 0 21 -6.5t6 -16.5t-8 -18t-26 -8q-44 0 -73 7t-45.5 21t-24.5 35t-9 49l15 -1q-13 -36 -29.5 -58t-36 -33.5t-45 -15.5t-57.5 -4z
M94 -112q-32 0 -53.5 22t-21.5 53q0 32 21.5 54t53.5 22q31 0 53.5 -22t22.5 -54q0 -31 -22.5 -53t-53.5 -22zM94 -80q17 0 30.5 13t13.5 30q0 18 -13 31t-31 13t-30.5 -13t-12.5 -31q0 -17 12.5 -30t30.5 -13z" />
    <glyph glyph-name="uni0620.fina" unicode="&#x620;" horiz-adv-x="657" 
d="M294 -349q-31 0 -52.5 22t-21.5 53q0 32 21.5 54t52.5 22q32 0 54 -22t22 -54q0 -31 -22 -53t-54 -22zM294 -317q18 0 31 13t13 30q0 18 -13 31t-31 13q-17 0 -29.5 -13t-12.5 -31q0 -17 12.5 -30t29.5 -13zM43 -15q0 23 4 52.5t16 65.5t33 78l44 -20q-15 -32 -26 -61
t-16 -56.5t-5 -53.5q0 -45 16.5 -77.5t46.5 -53t69.5 -30.5t85.5 -10q62 0 108.5 15t79 38.5t48.5 50t16 48.5q0 16 -10.5 29.5t-31 24.5t-48.5 21.5t-64 22.5l12 49q50 -19 87 -33t65 -22.5t50 -13t41 -5.5q14 0 20.5 -6t6.5 -17t-8 -18.5t-27 -7.5q-6 0 -16 1t-20 2.5
t-19 4.5q7 -9 9 -19.5t2 -19.5q0 -30 -19.5 -63.5t-58.5 -63t-96 -48.5t-132 -19q-80 0 -139 25t-91.5 73t-32.5 117z" />
    <glyph glyph-name="uni063B.init" unicode="&#x63b;" horiz-adv-x="346" 
d="M215 722q-15 0 -25.5 10.5t-10.5 24.5q0 15 10.5 25.5t25.5 10.5q14 0 24 -10.5t10 -25.5q0 -14 -10 -24.5t-24 -10.5zM103 670q-15 0 -25.5 10.5t-10.5 24.5t10.5 24.5t25.5 10.5q14 0 24 -10.5t10 -24.5t-10 -24.5t-24 -10.5zM0 -5l7 49h78q48 0 78 9t45.5 23.5t21 33
t5.5 39.5q0 38 -22.5 82t-64.5 91q-35 42 -59.5 68t-39 41t-20.5 23t-6 12q0 11 2 21.5t6 20t9 14.5q20 17 45.5 36.5t59.5 42t78.5 48.5t102.5 58l23 -42q-55 -30 -99 -55.5t-79 -48.5t-64 -44t-54 -42l5 20q38 -43 77.5 -85.5t72.5 -85.5t53.5 -87t20.5 -92
q0 -30 -9.5 -56.5t-32.5 -48t-62.5 -33.5t-99.5 -12h-78z" />
    <glyph glyph-name="uni063B.medi" unicode="&#x63b;" horiz-adv-x="414" 
d="M209 722q-16 0 -26 10.5t-10 24.5t10 24.5t26 10.5q14 0 24 -10.5t10 -24.5t-10 -24.5t-24 -10.5zM97 669q-16 0 -26 10.5t-10 24.5q0 15 10 25.5t26 10.5q14 0 24 -10.5t10 -25.5q0 -14 -10 -24.5t-24 -10.5zM0 -5l7 49h73q56 0 90 10.5t49.5 33.5t15.5 59
q0 27 -15.5 59t-39.5 66t-51 65.5t-51 58.5t-39.5 45.5t-15.5 25.5q0 11 2.5 22t6.5 20t9 14q22 20 53.5 42.5t69 46.5t79 48t83.5 47l23 -43q-43 -23 -84.5 -47.5t-80 -48.5t-71 -47t-56.5 -44l2 14q30 -35 60.5 -69t60.5 -70.5t56.5 -78t46.5 -91.5q19 -47 39 -77
t44.5 -45.5t54.5 -15.5q14 0 20.5 -6t6.5 -17t-8 -18.5t-26 -7.5q-33 0 -63 15.5t-54.5 47.5t-41.5 82l23 -11q-4 -40 -21.5 -66t-44.5 -41t-61.5 -21t-73.5 -6h-77z" />
    <glyph glyph-name="uni063B.fina" unicode="&#x63b;" horiz-adv-x="850" 
d="M638 723q-15 0 -25.5 10t-10.5 25q0 14 10.5 24.5t25.5 10.5q14 0 24.5 -10.5t10.5 -24.5q0 -15 -10.5 -25t-24.5 -10zM526 670q-15 0 -25.5 10.5t-10.5 24.5q0 15 10.5 25t25.5 10q14 0 24.5 -10t10.5 -25q0 -14 -10.5 -24.5t-24.5 -10.5zM323 -21l19 50q77 0 138 6.5
t103 20.5t64 36t22 53q0 29 -15.5 61.5t-40 66.5t-51.5 65.5t-51.5 58t-40 45t-15.5 25.5q0 11 2 21t6 19.5t10 14.5q28 27 73.5 57.5t100 63.5t110.5 64l24 -43q-59 -32 -114.5 -66t-101.5 -65.5t-79 -57.5l4 16q28 -31 60.5 -66.5t65 -75.5t59.5 -83t44 -87q12 -28 25 -52
t29.5 -42.5t37 -29.5t45.5 -11q14 0 21 -6t7 -17t-8 -18.5t-26 -7.5q-34 0 -65 16t-55 48.5t-40 80.5l23 -11q-6 -43 -34 -72t-76.5 -46t-118 -24.5t-161.5 -7.5zM323 -21q-63 0 -115.5 10.5t-91 33.5t-59.5 58.5t-21 86.5q0 25 4.5 51.5t10.5 52.5t13 49l46 -12
q-5 -17 -10.5 -39.5t-9 -46t-3.5 -45.5q0 -50 26 -83t82.5 -49.5t146.5 -16.5l20 -29z" />
    <glyph glyph-name="uni063C.init" unicode="&#x63c;" horiz-adv-x="346" 
d="M0 -5l7 49h78q48 0 78 9t45.5 23.5t21 33t5.5 39.5q0 38 -22.5 82t-64.5 91q-35 42 -59.5 68t-39 41t-20.5 23t-6 12q0 11 2 21.5t6 20t9 14.5q20 17 45.5 36.5t59.5 42t78.5 48.5t102.5 58l23 -42q-55 -30 -99 -55.5t-79 -48.5t-64 -44t-54 -42l5 20q38 -43 77.5 -85.5
t72.5 -85.5t53.5 -87t20.5 -92q0 -30 -9.5 -56.5t-32.5 -48t-62.5 -33.5t-99.5 -12h-78zM142 -273q-16 0 -27 11t-11 26t11 26.5t27 11.5q15 0 25.5 -11.5t10.5 -26.5t-10.5 -26t-25.5 -11zM84 -176q-15 0 -26 10.5t-11 25.5q0 16 10.5 27t26.5 11q15 0 26 -11t11 -26
q0 -16 -11 -26.5t-26 -10.5zM198 -176q-15 0 -26 10.5t-11 25.5q0 16 11 27t27 11q15 0 25.5 -11t10.5 -26q0 -16 -11 -26.5t-26 -10.5z" />
    <glyph glyph-name="uni063C.medi" unicode="&#x63c;" horiz-adv-x="414" 
d="M0 -5l7 49h73q56 0 90 10.5t49.5 33.5t15.5 59q0 27 -15.5 59t-39.5 66t-51 65.5t-51 58.5t-39.5 45.5t-15.5 25.5q0 11 2.5 22t6.5 20t9 14q22 20 53.5 42.5t69 46.5t79 48t83.5 47l23 -43q-43 -23 -84.5 -47.5t-80 -48.5t-71 -47t-56.5 -44l2 14q30 -35 60.5 -69
t60.5 -70.5t56.5 -78t46.5 -91.5q19 -47 39 -77t44.5 -45.5t54.5 -15.5q14 0 20.5 -6t6.5 -17t-8 -18.5t-26 -7.5q-33 0 -63 15.5t-54.5 47.5t-41.5 82l23 -11q-4 -40 -21.5 -66t-44.5 -41t-61.5 -21t-73.5 -6h-77zM144 -273q-16 0 -27 11t-11 26t11 26.5t27 11.5
q15 0 25.5 -11.5t10.5 -26.5t-10.5 -26t-25.5 -11zM86 -176q-15 0 -26 10.5t-11 25.5q0 16 10.5 27t26.5 11q15 0 26 -11t11 -26q0 -16 -11 -26.5t-26 -10.5zM200 -176q-15 0 -26 10.5t-11 25.5q0 16 11 27t27 11q15 0 25.5 -11t10.5 -26q0 -16 -11 -26.5t-26 -10.5z" />
    <glyph glyph-name="uni063C.fina" unicode="&#x63c;" horiz-adv-x="850" 
d="M323 -21l19 50q77 0 138 6.5t103 20.5t64 36t22 53q0 29 -15.5 61.5t-40 66.5t-51.5 65.5t-51.5 58t-40 45t-15.5 25.5q0 11 2 21t6 19.5t10 14.5q28 27 73.5 57.5t100 63.5t110.5 64l24 -43q-59 -32 -114.5 -66t-101.5 -65.5t-79 -57.5l4 16q28 -31 60.5 -66.5t65 -75.5
t59.5 -83t44 -87q12 -28 25 -52t29.5 -42.5t37 -29.5t45.5 -11q14 0 21 -6t7 -17t-8 -18.5t-26 -7.5q-34 0 -65 16t-55 48.5t-40 80.5l23 -11q-6 -43 -34 -72t-76.5 -46t-118 -24.5t-161.5 -7.5zM323 -21q-63 0 -115.5 10.5t-91 33.5t-59.5 58.5t-21 86.5q0 25 4.5 51.5
t10.5 52.5t13 49l46 -12q-5 -17 -10.5 -39.5t-9 -46t-3.5 -45.5q0 -50 26 -83t82.5 -49.5t146.5 -16.5l20 -29zM359 -294q-16 0 -27 11t-11 26t11 26.5t27 11.5q15 0 25.5 -11.5t10.5 -26.5t-10.5 -26t-25.5 -11zM301 -197q-15 0 -26 10.5t-11 25.5q0 16 10.5 27t26.5 11
q15 0 26 -11t11 -26q0 -16 -11 -26.5t-26 -10.5zM415 -197q-15 0 -26 10.5t-11 25.5q0 16 11 27t27 11q15 0 25.5 -11t10.5 -26q0 -16 -11 -26.5t-26 -10.5z" />
    <glyph glyph-name="uni063D.init" unicode="&#x63d;" horiz-adv-x="229" 
d="M0 -5l7 49q41 0 65 11t34.5 33.5t10.5 57.5q0 30 -6.5 64.5t-18.5 73t-28 80.5l49 19q14 -38 26 -78t19 -79t7 -75q0 -29 -6.5 -54t-19 -44t-32 -32t-46 -19.5t-61.5 -6.5zM111 715q6 -14 15.5 -39t20.5 -53t21 -53t17 -41l-30 -14q-6 9 -15.5 31.5t-20 50t-20 52
t-15.5 38.5l-13 25zM71 712l31 -11q-6 -17 -16 -45t-21 -58.5t-19.5 -53.5t-11.5 -31l-32 12q4 10 13.5 34t20 53.5t20.5 56.5t15 43zM158 -180q-16 0 -27 10.5t-11 25.5q0 16 11 27t27 11q15 0 26 -11t11 -26q0 -16 -11 -26.5t-26 -10.5zM43 -180q-15 0 -26 10.5t-11 25.5
q0 16 11 27t26 11q16 0 26.5 -11t10.5 -26q0 -16 -11 -26.5t-26 -10.5z" />
    <glyph glyph-name="uni063D.medi" unicode="&#x63d;" horiz-adv-x="273" 
d="M0 -5l7 49q27 0 46.5 8t34 30.5t27 68.5t26.5 122l49 -9q-6 -27 -11 -50t-8 -43.5t-3 -39.5q0 -24 8 -44t32 -31.5t71 -11.5q16 0 22 -6.5t6 -16.5t-8 -18t-26 -8q-49 0 -79 12t-44 37t-17 63l16 -1q-12 -38 -28.5 -60.5t-35.5 -33t-40.5 -14t-44.5 -3.5zM162 596
q6 -14 15.5 -39t20.5 -53t21 -53t17 -41l-30 -14q-6 9 -15.5 31.5t-20 50t-20 52t-15.5 38.5l-13 25zM122 593l31 -11q-6 -17 -16 -45t-21 -58.5t-19.5 -53.5t-11.5 -31l-32 12q4 10 13.5 34t20 53.5t20.5 56.5t15 43zM189 -180q-16 0 -27 10.5t-11 25.5q0 16 11 27t27 11
q15 0 26 -11t11 -26q0 -16 -11 -26.5t-26 -10.5zM74 -180q-15 0 -26 10.5t-11 25.5q0 16 11 27t26 11q16 0 26.5 -11t10.5 -26q0 -16 -11 -26.5t-26 -10.5z" />
    <glyph glyph-name="uni063D.fina" unicode="&#x63d;" horiz-adv-x="657" 
d="M43 -15q0 23 4 52.5t16 65.5t33 78l44 -20q-15 -32 -26 -61t-16 -56.5t-5 -53.5q0 -45 16.5 -77.5t46.5 -53t69.5 -30.5t85.5 -10q62 0 108.5 15t79 38.5t48.5 50t16 48.5q0 16 -10.5 29.5t-31 24.5t-48.5 21.5t-64 22.5l12 49q50 -19 87 -33t65 -22.5t50 -13t41 -5.5
q14 0 20.5 -6t6.5 -17t-8 -18.5t-27 -7.5q-6 0 -16 1t-20 2.5t-19 4.5q7 -9 9 -19.5t2 -19.5q0 -30 -19.5 -63.5t-58.5 -63t-96 -48.5t-132 -19q-80 0 -139 25t-91.5 73t-32.5 117zM230 469q6 -14 15.5 -39t20.5 -53t21 -53t17 -41l-30 -14q-6 9 -15.5 31.5t-20 50t-20 52
t-15.5 38.5l-13 25zM190 466l31 -11q-6 -17 -16 -45t-21 -58.5t-19.5 -53.5t-11.5 -31l-32 12q4 10 13.5 34t20 53.5t20.5 56.5t15 43z" />
    <glyph glyph-name="uni063E.init" unicode="&#x63e;" horiz-adv-x="255" 
d="M0 -5l7 49q47 0 76.5 8.5t43.5 30.5t14 63q0 30 -7 64.5t-19 73t-27 80.5l49 19q14 -37 25.5 -77t18.5 -78.5t7 -70.5q0 -43 -10.5 -73.5t-33.5 -50.5t-59 -29t-85 -9zM178 505q-15 0 -26 11t-11 26t11 26.5t26 11.5q16 0 26.5 -11.5t10.5 -26.5t-11 -26t-26 -11zM64 505
q-16 0 -27 11t-11 26t11 26.5t27 11.5q15 0 25.5 -11.5t10.5 -26.5t-10.5 -26t-25.5 -11zM157 -180q-15 0 -26 10.5t-11 25.5q0 16 11 27t26 11q16 0 26.5 -11t10.5 -26q0 -16 -11 -26.5t-26 -10.5zM43 -180q-16 0 -27 10.5t-11 25.5q0 16 11 27t27 11q15 0 25.5 -11
t10.5 -26q0 -16 -10.5 -26.5t-25.5 -10.5z" />
    <glyph glyph-name="uni063E.medi" unicode="&#x63e;" horiz-adv-x="305" 
d="M0 -5l7 49q35 0 58.5 8.5t39.5 31.5t29 69t26 121l49 -11l-11 -49.5t-8 -43t-3 -39.5q0 -18 4 -34t16.5 -28t37.5 -18.5t67 -6.5q15 0 21 -6.5t6 -16.5t-8 -18t-26 -8q-44 0 -73 7t-45.5 21t-24.5 35t-9 49l15 -1q-13 -36 -29.5 -58t-36 -33.5t-45 -15.5t-57.5 -4z
M232 428q-16 0 -27 10.5t-11 25.5q0 16 11 27t27 11q15 0 25.5 -11t10.5 -27q0 -15 -10.5 -25.5t-25.5 -10.5zM117 428q-16 0 -27 10.5t-11 25.5q0 16 11 27t27 11q15 0 25.5 -11t10.5 -27q0 -15 -10.5 -25.5t-25.5 -10.5zM211 -180q-16 0 -27 10.5t-11 25.5q0 16 11 27
t27 11q15 0 25.5 -11t10.5 -27q0 -15 -10.5 -25.5t-25.5 -10.5zM96 -180q-16 0 -27 10.5t-11 25.5q0 16 11 27t27 11q15 0 25.5 -11t10.5 -27q0 -15 -10.5 -25.5t-25.5 -10.5z" />
    <glyph glyph-name="uni063E.fina" unicode="&#x63e;" horiz-adv-x="657" 
d="M43 -15q0 23 4 52.5t16 65.5t33 78l44 -20q-15 -32 -26 -61t-16 -56.5t-5 -53.5q0 -45 16.5 -77.5t46.5 -53t69.5 -30.5t85.5 -10q62 0 108.5 15t79 38.5t48.5 50t16 48.5q0 16 -10.5 29.5t-31 24.5t-48.5 21.5t-64 22.5l12 49q50 -19 87 -33t65 -22.5t50 -13t41 -5.5
q14 0 20.5 -6t6.5 -17t-8 -18.5t-27 -7.5q-6 0 -16 1t-20 2.5t-19 4.5q7 -9 9 -19.5t2 -19.5q0 -30 -19.5 -63.5t-58.5 -63t-96 -48.5t-132 -19q-80 0 -139 25t-91.5 73t-32.5 117zM278 275q-16 0 -27 11t-11 26t11 26t27 11q15 0 25.5 -11t10.5 -26t-10.5 -26t-25.5 -11z
M163 275q-15 0 -26.5 11t-11.5 26t11 26t27 11q15 0 26 -11t11 -26t-11 -26t-26 -11z" />
    <glyph glyph-name="uni063F.init" unicode="&#x63f;" horiz-adv-x="255" 
d="M0 -5l7 49q47 0 76.5 8.5t43.5 30.5t14 63q0 30 -7 64.5t-19 73t-27 80.5l49 19q14 -37 25.5 -77t18.5 -78.5t7 -70.5q0 -43 -10.5 -73.5t-33.5 -50.5t-59 -29t-85 -9zM121 602q-15 0 -26 11t-11 26t11 26t26 11t26 -11t11 -26t-11 -26t-26 -11zM64 505q-15 0 -26 11
t-11 26q0 16 11 27t26 11t26 -11t11 -27q0 -15 -11 -26t-26 -11zM178 505q-15 0 -26 11t-11 26q0 16 11 27t26 11q16 0 26.5 -11t10.5 -27q0 -15 -11 -26t-26 -11zM157 -180q-15 0 -26 10.5t-11 25.5q0 16 11 27t26 11q16 0 26.5 -11t10.5 -26q0 -16 -11 -26.5t-26 -10.5z
M43 -180q-16 0 -27 10.5t-11 25.5q0 16 11 27t27 11q15 0 25.5 -11t10.5 -26q0 -16 -10.5 -26.5t-25.5 -10.5z" />
    <glyph glyph-name="uni063F.medi" unicode="&#x63f;" horiz-adv-x="305" 
d="M0 -5l7 49q35 0 58.5 8.5t39.5 31.5t29 69t26 121l49 -11l-11 -49.5t-8 -43t-3 -39.5q0 -18 4 -34t16.5 -28t37.5 -18.5t67 -6.5q15 0 21 -6.5t6 -16.5t-8 -18t-26 -8q-44 0 -73 7t-45.5 21t-24.5 35t-9 49l15 -1q-13 -36 -29.5 -58t-36 -33.5t-45 -15.5t-57.5 -4z
M174 524q-15 0 -26 11t-11 26q0 16 11 26.5t26 10.5t26 -10.5t11 -26.5q0 -15 -11 -26t-26 -11zM117 428q-15 0 -26 10.5t-11 25.5q0 16 11 27t26 11q16 0 26.5 -11t10.5 -26q0 -16 -11 -26.5t-26 -10.5zM232 428q-16 0 -27 10.5t-11 25.5q0 16 11 27t27 11q15 0 26 -11
t11 -26q0 -16 -11 -26.5t-26 -10.5zM211 -180q-16 0 -27 10.5t-11 25.5q0 16 11 27t27 11q15 0 25.5 -11t10.5 -27q0 -15 -10.5 -25.5t-25.5 -10.5zM96 -180q-16 0 -27 10.5t-11 25.5q0 16 11 27t27 11q15 0 25.5 -11t10.5 -27q0 -15 -10.5 -25.5t-25.5 -10.5z" />
    <glyph glyph-name="uni063F.fina" unicode="&#x63f;" horiz-adv-x="657" 
d="M43 -15q0 23 4 52.5t16 65.5t33 78l44 -20q-15 -32 -26 -61t-16 -56.5t-5 -53.5q0 -45 16.5 -77.5t46.5 -53t69.5 -30.5t85.5 -10q62 0 108.5 15t79 38.5t48.5 50t16 48.5q0 16 -10.5 29.5t-31 24.5t-48.5 21.5t-64 22.5l12 49q50 -19 87 -33t65 -22.5t50 -13t41 -5.5
q14 0 20.5 -6t6.5 -17t-8 -18.5t-27 -7.5q-6 0 -16 1t-20 2.5t-19 4.5q7 -9 9 -19.5t2 -19.5q0 -30 -19.5 -63.5t-58.5 -63t-96 -48.5t-132 -19q-80 0 -139 25t-91.5 73t-32.5 117zM220 372q-15 0 -26 10.5t-11 25.5q0 16 11 27t26 11q16 0 26.5 -11t10.5 -26
q0 -16 -10.5 -26.5t-26.5 -10.5zM164 275q-15 0 -26.5 11t-11.5 26t11 26t27 11q15 0 26 -11t11 -26t-11 -26t-26 -11zM278 275q-15 0 -26 11t-11 26t11 26t26 11t26 -11t11 -26t-11 -26t-26 -11z" />
    <glyph glyph-name="uni066E.init" unicode="&#x66e;" horiz-adv-x="229" 
d="M0 -5l7 49q41 0 65 11t34.5 33.5t10.5 57.5q0 30 -6.5 64.5t-18.5 73t-28 80.5l49 19q14 -38 26 -78t19 -79t7 -75q0 -29 -6.5 -54t-19 -44t-32 -32t-46 -19.5t-61.5 -6.5z" />
    <glyph glyph-name="uni066E.medi" unicode="&#x66e;" horiz-adv-x="273" 
d="M0 -5l7 49q27 0 46.5 8t34 30.5t27 68.5t26.5 122l49 -9q-6 -27 -11 -50t-8 -43.5t-3 -39.5q0 -24 8 -44t32 -31.5t71 -11.5q16 0 22 -6.5t6 -16.5t-8 -18t-26 -8q-49 0 -79 12t-44 37t-17 63l16 -1q-12 -38 -28.5 -60.5t-35.5 -33t-40.5 -14t-44.5 -3.5z" />
    <glyph glyph-name="uni066E.fina" unicode="&#x66e;" horiz-adv-x="841" 
d="M322 -21l19 50q65 0 122.5 9t107 30t89 57t66.5 90l42 -21q-11 -27 -17.5 -48t-6.5 -39q0 -15 8 -29.5t31 -24t65 -9.5q15 0 21 -6.5t6 -16.5t-8 -18t-26 -8q-45 0 -79 13t-50.5 40.5t-8.5 71.5h17q-31 -42 -75 -69.5t-96.5 -43t-110 -22t-116.5 -6.5zM322 -21
q-63 0 -115.5 10.5t-90.5 33.5t-59 58.5t-21 86.5q0 25 4 51.5t10.5 52.5t12.5 49l46 -12q-5 -17 -10 -39.5t-9 -46t-4 -45.5q0 -50 26.5 -83t83 -49.5t145.5 -16.5l20 -29z" />
    <glyph glyph-name="uni066F.init" unicode="&#x66f;" horiz-adv-x="389" 
d="M0 -5l7 49q28 0 57.5 1t58 4t53.5 9.5t44 16.5q23 11 40 31.5t26 55.5t9 88q0 48 -10 91.5t-30.5 71t-51.5 27.5q-24 0 -44 -21.5t-32 -55t-12 -71.5q0 -34 13 -52.5t35 -26t48 -7.5q25 0 51.5 6t45.5 16l4 -43q-14 -10 -33.5 -16.5t-39 -9t-34.5 -2.5q-44 0 -75 15
t-48 43.5t-17 68.5q0 36 10 72.5t29 67t45.5 49t58.5 18.5q46 0 76 -34t45.5 -90t15.5 -122t-20 -118.5t-70 -85.5q-20 -13 -46 -22t-58.5 -14t-70 -7.5t-80.5 -2.5z" />
    <glyph glyph-name="uni066F.medi" unicode="&#x66f;" horiz-adv-x="404" 
d="M0 -5l7 49q22 0 45.5 2t46 6.5t44 11t40.5 16.5q32 15 57 37t39.5 50t14.5 61q0 28 -10 56t-29 48t-47 20q-23 0 -44.5 -17.5t-34.5 -46t-13 -62.5q0 -37 15.5 -66t40 -49t52.5 -33l-56 -20q-21 13 -45 35.5t-40.5 55.5t-16.5 78q0 35 11.5 66t31 55.5t46 38.5t54.5 14
q41 0 71 -23.5t47.5 -62t17.5 -81.5q0 -34 -10 -62.5t-27.5 -52t-42 -43t-52.5 -34.5q-23 -13 -48.5 -21.5t-53 -14.5t-55.5 -8.5t-56 -2.5zM404 -5q-34 0 -76 6.5t-80.5 18t-64.5 25.5l46 28q24 -7 54 -13.5t63.5 -11t64.5 -4.5q14 0 21 -6t7 -17t-8.5 -18.5t-26.5 -7.5z
" />
    <glyph glyph-name="uni066F.fina" unicode="&#x66f;" horiz-adv-x="732" 
d="M306 -272q-55 0 -103.5 13t-86 41t-59 72t-21.5 106q0 12 3.5 41t15.5 70t38 88l44 -21q-14 -28 -25.5 -55.5t-18 -56.5t-6.5 -61q0 -69 31.5 -110t83.5 -59t112 -18q34 0 69.5 4.5t68.5 15.5t61.5 29.5t50 47t33.5 67.5q10 25 14.5 57.5t4.5 66.5q0 59 -11 105t-31 73
t-48 27q-20 0 -36.5 -13.5t-28.5 -36t-18.5 -48.5t-6.5 -52q0 -25 9 -40.5t25 -23t39.5 -10.5t50.5 -3h179q14 0 20.5 -6t6.5 -17q0 -12 -8.5 -19t-25.5 -7h-183q-34 0 -63.5 6t-51.5 20t-35 36.5t-13 56.5q0 35 10 71.5t29 67.5t46 50t60 19q43 0 73.5 -33t46.5 -91
t16 -133q0 -42 -7.5 -81.5t-21.5 -71.5q-19 -55 -54.5 -91t-81 -56.5t-96 -28.5t-100.5 -8z" />
    <glyph glyph-name="uni0672.fina" unicode="&#x672;" horiz-adv-x="241" 
d="M241 -5q-53 0 -84.5 15.5t-46 51.5t-16.5 99l-18 483h49l18 -462q3 -55 11 -85t30 -41.5t64 -11.5q15 0 21 -6.5t6 -16.5t-8 -18t-26 -8zM-65 724l-27 17q12 23 28.5 34t33.5 11q23 0 39 -11t34 -11q11 0 24 2.5t21 6.5l2 -11q-34 7 -59 32.5t-25 59.5q0 39 27.5 60
t62.5 21q11 0 23 -2t22 -6l-6 -33q-10 3 -19 4.5t-19 1.5q-27 0 -41 -13t-14 -32q0 -21 12.5 -36.5t30.5 -25t37 -11.5l-28 -7q26 7 44 14.5t34 14.5l12 -31q-9 -5 -26.5 -13t-38.5 -15t-41.5 -12t-35.5 -5q-25 0 -41.5 11t-30.5 11q-12 0 -19.5 -7.5t-15.5 -18.5z" />
    <glyph glyph-name="uni0673.fina" unicode="&#x673;" horiz-adv-x="247" 
d="M247 -5q-55 0 -87.5 15.5t-47 51.5t-16.5 99l-20 546h49l20 -525q3 -57 11 -86.5t31 -40.5t67 -11q15 0 21 -6.5t6 -16.5t-8 -18t-26 -8zM-15 -290l-27 17q12 23 29 34t33 11q23 0 39 -11t34 -11q11 0 24 2.5t21 6.5l3 -11q-34 7 -59.5 32.5t-25.5 59.5q0 39 28 60t62 21
q12 0 23.5 -2t21.5 -6l-6 -33q-9 3 -18.5 4.5t-19.5 1.5q-27 0 -41 -13t-14 -32q0 -21 12.5 -36.5t31 -25t36.5 -11.5l-28 -7q26 7 44 14.5t34 14.5l12 -31q-9 -5 -26.5 -13t-38.5 -15t-41.5 -12t-35.5 -5q-24 0 -41 11t-31 11q-11 0 -19 -7.5t-16 -18.5z" />
    <glyph glyph-name="uni0675.fina" unicode="&#x675;" horiz-adv-x="395" 
d="M395 -5h-150q-54 0 -86 15.5t-46.5 52t-16.5 98.5l-20 546h49l20 -525q3 -56 11 -86t30 -41t66 -11h150q15 0 21 -6.5t6 -16.5t-8 -18t-26 -8zM203 589l-9 36q25 5 40.5 9.5t35.5 9.5l12 -13q-37 7 -61 33t-24 58q0 27 13.5 45.5t34 28t43.5 9.5q11 0 23 -2t23 -6l-7 -33
q-9 2 -18.5 4t-20.5 2q-26 0 -40.5 -13t-14.5 -33q0 -21 12.5 -36.5t31 -24.5t37.5 -12l-39 -4q26 6 49 13.5t41 14.5l11 -34q-23 -9 -53.5 -18.5t-61.5 -18t-58 -15.5z" />
    <glyph glyph-name="uni0676.fina" unicode="&#x676;" horiz-adv-x="409" 
d="M48 -230l-12 47q57 12 103.5 32.5t80.5 51.5t52.5 75t18.5 103q1 88 -25 139t-66 51q-25 0 -45.5 -21.5t-32.5 -54.5t-12 -68q0 -27 8.5 -43t25 -24t40.5 -11t55 -3h177q13 0 20 -5t7 -18t-9.5 -19.5t-23.5 -6.5h-180q-54 0 -92 11.5t-58 38.5t-20 73q0 36 11 72.5t30 66
t46 47.5t58 18q43 0 73.5 -30.5t46.5 -85.5t16 -129q-1 -83 -34.5 -145t-98 -102.5t-160.5 -59.5zM256 378l-8 34q23 6 40 10.5t33 8.5l12 -10q-33 6 -57 30.5t-24 56.5q0 26 12.5 44t32.5 27.5t41 9.5q11 0 22.5 -2t21.5 -6l-6 -31q-9 2 -18.5 3.5t-19.5 1.5
q-25 0 -38 -13.5t-13 -32.5t12 -34.5t30.5 -24t34.5 -10.5l-37 -6q25 6 46 13t39 14l11 -33q-23 -8 -52 -17.5t-59 -18t-56 -14.5z" />
    <glyph glyph-name="uni0677.fina" unicode="&#x677;" horiz-adv-x="461" 
d="M93 -230l-12 47q57 12 103.5 32.5t80.5 51.5t52.5 75t18.5 103q1 88 -25 139t-66 51q-25 0 -45.5 -21.5t-32.5 -54.5t-12 -68q0 -27 8.5 -43t25 -24t40.5 -11t55 -3h177q13 0 20 -5t7 -18t-9.5 -19.5t-23.5 -6.5h-180q-54 0 -92 11.5t-58 38.5t-20 73q0 36 11 72.5t30 66
t46 47.5t58 18q43 0 73.5 -30.5t46.5 -85.5t16 -129q-1 -83 -34.5 -145t-98 -102.5t-160.5 -59.5zM306 397l-8 34q23 6 40 10.5t33 8.5l12 -10q-33 6 -57 30.5t-24 56.5q0 26 12.5 44t32.5 27.5t41 9.5q11 0 22.5 -2t21.5 -6l-6 -31q-9 2 -18.5 3.5t-19.5 1.5
q-25 0 -38 -13.5t-13 -32.5t12 -34.5t30.5 -24t34.5 -10.5l-37 -6q25 6 46 13t39 14l11 -33q-23 -8 -52 -17.5t-59 -18t-56 -14.5zM42 392l-6 33q57 5 92.5 21t52 39t16.5 48q0 21 -8 36t-28 15q-17 0 -27.5 -12.5t-10.5 -29.5q0 -25 21 -41.5t46 -21.5l-20 -24
q-36 9 -59 31.5t-23 55.5q0 31 21 53.5t54 22.5q29 0 49 -22t20 -60q0 -40 -23.5 -71t-66 -49.5t-100.5 -23.5z" />
    <glyph glyph-name="uni0678.init" unicode="&#x678;" horiz-adv-x="298" 
d="M0 -5l7 49q41 0 65 11t34.5 33.5t10.5 57.5q0 30 -6.5 64.5t-18.5 73t-28 80.5l49 19q14 -38 26 -78t19 -79t7 -75q0 -29 -6.5 -54t-19 -44t-32 -32t-46 -19.5t-61.5 -6.5zM124 589l-8 36q25 5 40.5 9.5t34.5 9.5l12 -13q-37 7 -61 33t-24 58q0 27 13.5 45.5t34 28
t43.5 9.5q11 0 23.5 -2t22.5 -6l-6 -33q-10 2 -19.5 4t-19.5 2q-27 0 -41.5 -13t-14.5 -33q0 -21 12.5 -36.5t31 -24.5t37.5 -12l-39 -4q26 6 49 13.5t41 14.5l11 -34q-23 -9 -54 -18.5t-61.5 -18t-57.5 -15.5z" />
    <glyph glyph-name="uni0678.medi" unicode="&#x678;" horiz-adv-x="278" 
d="M0 -5l7 49q27 0 46.5 8t34 30.5t27 68.5t26.5 122l49 -9q-6 -27 -11 -50t-8 -43.5t-3 -39.5q0 -24 8 -44t32 -31.5t71 -11.5q16 0 22 -6.5t6 -16.5t-8 -18t-26 -8q-49 0 -79 12t-44 37t-17 63l16 -1q-12 -38 -28.5 -60.5t-35.5 -33t-40.5 -14t-44.5 -3.5zM130 420l-8 36
q25 5 40.5 9.5t34.5 9.5l12 -13q-37 7 -61 33t-24 58q0 27 13.5 45.5t34 28t43.5 9.5q11 0 23.5 -2t22.5 -6l-6 -33q-10 2 -19.5 4t-19.5 2q-27 0 -41.5 -13t-14.5 -33q0 -21 12.5 -36.5t31 -24.5t37.5 -12l-39 -4q26 6 49 13.5t41 14.5l11 -34q-23 -9 -54 -18.5t-61.5 -18
t-57.5 -15.5z" />
    <glyph glyph-name="uni0678.fina" unicode="&#x678;" horiz-adv-x="657" 
d="M43 -15q0 23 4 52.5t16 65.5t33 78l44 -20q-15 -32 -26 -61t-16 -56.5t-5 -53.5q0 -45 16.5 -77.5t46.5 -53t69.5 -30.5t85.5 -10q62 0 108.5 15t79 38.5t48.5 50t16 48.5q0 16 -10.5 29.5t-31 24.5t-48.5 21.5t-64 22.5l12 49q50 -19 87 -33t65 -22.5t50 -13t41 -5.5
q14 0 20.5 -6t6.5 -17t-8 -18.5t-27 -7.5q-6 0 -16 1t-20 2.5t-19 4.5q7 -9 9 -19.5t2 -19.5q0 -30 -19.5 -63.5t-58.5 -63t-96 -48.5t-132 -19q-80 0 -139 25t-91.5 73t-32.5 117zM449 205l-8 36q25 5 40.5 9.5t34.5 9.5l12 -13q-37 7 -61 33t-24 58q0 27 13.5 45.5t34 28
t43.5 9.5q11 0 23.5 -2t22.5 -6l-6 -33q-10 2 -19.5 4t-19.5 2q-27 0 -41.5 -13t-14.5 -33q0 -21 12.5 -36.5t31 -24.5t37.5 -12l-39 -4q26 6 49 13.5t41 14.5l11 -34q-23 -9 -54 -18.5t-61.5 -18t-57.5 -15.5z" />
    <glyph glyph-name="uni067C.init" unicode="&#x67c;" horiz-adv-x="255" 
d="M0 -5l7 49q47 0 76.5 8.5t43.5 30.5t14 63q0 30 -7 64.5t-19 73t-27 80.5l49 19q14 -37 25.5 -77t18.5 -78.5t7 -70.5q0 -43 -10.5 -73.5t-33.5 -50.5t-59 -29t-85 -9zM113 -106q-31 0 -53 22t-22 53q0 32 22 54t53 22t53.5 -22t22.5 -54q0 -31 -22 -53t-54 -22zM113 -74
q18 0 31 12.5t13 30.5q0 19 -13 31.5t-31 12.5t-30.5 -12.5t-12.5 -31.5q0 -17 12.5 -30t30.5 -13zM178 505q-15 0 -26 11t-11 26t11 26.5t26 11.5q16 0 26.5 -11.5t10.5 -26.5t-11 -26t-26 -11zM64 505q-16 0 -27 11t-11 26t11 26.5t27 11.5q15 0 25.5 -11.5t10.5 -26.5
t-10.5 -26t-25.5 -11z" />
    <glyph glyph-name="uni067C.medi" unicode="&#x67c;" horiz-adv-x="273" 
d="M88 -111q-32 0 -53.5 22t-21.5 54q0 31 21.5 53t53.5 22q31 0 53.5 -22t22.5 -53q0 -32 -22.5 -54t-53.5 -22zM88 -78q17 0 30.5 12.5t13.5 30.5t-13 30.5t-31 12.5t-30.5 -12.5t-12.5 -30.5t12.5 -30.5t30.5 -12.5zM0 -5l7 49q27 0 46.5 8t34 30.5t27 68.5t26.5 122
l49 -9q-6 -28 -11 -50.5t-8 -43t-3 -39.5q0 -24 8 -44t32.5 -31.5t70.5 -11.5q16 0 22 -6.5t6 -16.5t-8 -18t-26 -8q-49 0 -79 12t-44 37t-17 63l16 -1q-12 -38 -28.5 -60.5t-35.5 -33t-40.5 -14t-44.5 -3.5zM236 410q-16 0 -27 11t-11 26t11 26t27 11q15 0 25.5 -11
t10.5 -26t-10.5 -26t-25.5 -11zM121 410q-16 0 -27 11t-11 26t11 26t27 11q15 0 25.5 -11t10.5 -26t-10.5 -26t-25.5 -11z" />
    <glyph glyph-name="uni067C.fina" unicode="&#x67c;" horiz-adv-x="841" 
d="M401 -139q-32 0 -53.5 22t-21.5 54q0 31 21.5 53t53.5 22q31 0 53 -22t22 -53q0 -32 -22 -54t-53 -22zM401 -106q17 0 30 12.5t13 30.5t-12.5 30.5t-30.5 12.5t-30.5 -12.5t-12.5 -30.5t12.5 -30.5t30.5 -12.5zM322 -21l19 50q65 0 122.5 9t107 30t89 57t66.5 90l42 -21
q-11 -27 -17.5 -47.5t-6.5 -39.5q0 -15 8 -29.5t31 -24t65 -9.5q15 0 21 -6.5t6 -16.5t-7.5 -18t-26.5 -8q-45 0 -79 13t-50.5 40.5t-8.5 71.5h17q-31 -42 -75 -69.5t-96.5 -43t-110 -22t-116.5 -6.5zM322 -21q-63 0 -115.5 10.5t-90.5 33.5t-59 58.5t-21 86.5q0 25 4 51.5
t10.5 52.5t12.5 49l46 -12q-5 -17 -10 -39.5t-9 -46t-4 -45.5q0 -50 26.5 -83t83 -49.5t145.5 -16.5l20 -29zM445 418q-15 0 -26 11t-11 26t11 26.5t26 11.5q16 0 26.5 -11.5t10.5 -26.5t-11 -26t-26 -11zM331 418q-16 0 -27 11t-11 26t11 26.5t27 11.5q15 0 25.5 -11.5
t10.5 -26.5t-10.5 -26t-25.5 -11z" />
    <glyph glyph-name="uni067D.init" unicode="&#x67d;" horiz-adv-x="255" 
d="M0 -5l7 49q47 0 76.5 8.5t43.5 30.5t14 63q0 30 -7 64.5t-19 73t-27 80.5l49 19q14 -37 25.5 -77t18.5 -78.5t7 -70.5q0 -43 -10.5 -73.5t-33.5 -50.5t-59 -29t-85 -9zM122 505q-16 0 -27 11t-11 26t11 26.5t27 11.5q15 0 25.5 -11.5t10.5 -26.5t-11 -26t-25 -11zM64 602
q-15 0 -26.5 10.5t-11.5 25.5q0 16 11 27t27 11q15 0 26 -11t11 -26q0 -16 -11 -26.5t-26 -10.5zM178 602q-15 0 -26 10.5t-11 25.5q0 16 11 27t26 11q16 0 26.5 -11t10.5 -26q0 -16 -11 -26.5t-26 -10.5z" />
    <glyph glyph-name="uni067D.medi" unicode="&#x67d;" horiz-adv-x="305" 
d="M0 -5l7 49q35 0 58.5 8.5t39.5 31.5t29 69t26 121l49 -11l-11 -49.5t-8 -43t-3 -39.5q0 -18 4 -34t16.5 -28t37.5 -18.5t67 -6.5q15 0 21 -6.5t6 -16.5t-8 -18t-26 -8q-44 0 -73 7t-45.5 21t-24.5 35t-9 49l15 -1q-13 -36 -29.5 -58t-36 -33.5t-45 -15.5t-57.5 -4z
M178 428q-15 0 -26.5 10.5t-11.5 25.5q0 16 11 27t27 11q15 0 26 -11t11 -27q0 -15 -11 -25.5t-26 -10.5zM121 524q-16 0 -27 11t-11 26t11 26t27 11q15 0 25.5 -11t10.5 -26t-10.5 -26t-25.5 -11zM235 524q-16 0 -27 11t-11 26t11 26t27 11q15 0 26 -11t11 -26t-11 -26
t-26 -11z" />
    <glyph glyph-name="uni067D.fina" unicode="&#x67d;" horiz-adv-x="841" 
d="M322 -21l19 50q65 0 122.5 9t107 30t89 57t66.5 90l42 -21q-11 -27 -17.5 -48t-6.5 -39q0 -15 8 -29.5t31 -24t65 -9.5q15 0 21 -6.5t6 -16.5t-8 -18t-26 -8q-45 0 -79 13t-50.5 40.5t-8.5 71.5h17q-31 -42 -75 -69.5t-96.5 -43t-110 -22t-116.5 -6.5zM322 -21
q-63 0 -115.5 10.5t-90.5 33.5t-59 58.5t-21 86.5q0 25 4 51.5t10.5 52.5t12.5 49l46 -12q-5 -17 -10 -39.5t-9 -46t-4 -45.5q0 -50 26.5 -83t83 -49.5t145.5 -16.5l20 -29zM392 418q-16 0 -27 11t-11 26t11 26t27 11q15 0 25.5 -11t10.5 -26t-10.5 -26t-25.5 -11zM335 515
q-16 0 -27 10.5t-11 25.5t11 26.5t27 11.5q15 0 25.5 -11.5t10.5 -26.5t-10.5 -25.5t-25.5 -10.5zM449 515q-16 0 -27 10.5t-11 25.5t11 26.5t27 11.5q15 0 25.5 -11.5t10.5 -26.5t-10.5 -25.5t-25.5 -10.5z" />
    <glyph glyph-name="uni0681.init" unicode="&#x681;" horiz-adv-x="491" 
d="M0 -5l7 49q47 0 87.5 8.5t79.5 25t81 41t92 57.5q-40 29 -73.5 52.5t-67 37.5t-73.5 14q-14 0 -26 -1t-24 -3t-26 -6l-10 45q21 7 43 10t43 3q45 0 80 -13t64 -31.5t53.5 -37.5t47.5 -32t48 -13h17l5 -48q-33 0 -61.5 -12t-57 -29.5t-60 -38t-70 -38t-87.5 -29
t-112 -11.5zM60 407l-8 34q23 6 40 10.5t33 8.5l12 -10q-33 6 -57 30.5t-24 56.5q0 26 12.5 44t32.5 27.5t41 9.5q11 0 22.5 -2t21.5 -6l-6 -31q-9 2 -18.5 3.5t-19.5 1.5q-25 0 -38 -13.5t-13 -32.5t12 -34.5t30.5 -24t34.5 -10.5l-37 -6q25 6 46 13t39 14l11 -33
q-23 -8 -52 -17.5t-59 -18t-56 -14.5z" />
    <glyph glyph-name="uni0681.medi" unicode="&#x681;" horiz-adv-x="513" 
d="M513 -5q-29 0 -55.5 4.5t-49.5 18.5t-40.5 42.5t-27.5 77.5l37 18q14 -51 32.5 -74.5t46 -30.5t64.5 -7q16 0 22 -6.5t6 -16.5t-8 -18t-27 -8zM0 -5l7 49q47 0 87.5 8.5t79.5 25t81 41t92 57.5q-40 29 -73.5 52.5t-67 37.5t-73.5 14q-14 0 -26 -1t-24 -3t-26 -6l-10 45
q21 7 43 10t43 3q45 0 80 -13t64 -31.5t53.5 -37.5t47.5 -32t48 -13h17l5 -48q-33 0 -61.5 -12t-57 -29.5t-60 -38t-70 -38t-87.5 -29t-112 -11.5zM61 407l-8 34q23 6 40 10.5t33 8.5l12 -10q-33 6 -57 30.5t-24 56.5q0 26 12.5 44t32.5 27.5t41 9.5q11 0 22.5 -2t21.5 -6
l-6 -31q-9 2 -18.5 3.5t-19.5 1.5q-25 0 -38 -13.5t-13 -32.5t12 -34.5t30.5 -24t34.5 -10.5l-37 -6q25 6 46 13t39 14l11 -33q-23 -8 -52 -17.5t-59 -18t-56 -14.5z" />
    <glyph glyph-name="uni0681.fina" unicode="&#x681;" horiz-adv-x="562" 
d="M562 -5q-44 0 -82.5 10t-68.5 36t-48.5 73t-22.5 122l42 16q5 -63 19 -103.5t38 -63t57 -32t73 -9.5q15 0 21 -6.5t6 -16.5t-7.5 -18t-26.5 -8zM320 -394q-58 0 -111 16.5t-94.5 50t-65.5 84.5t-24 119q0 61 19.5 114t53.5 98.5t79.5 81.5t98 63t108.5 43l3 -12
q-28 7 -55.5 18.5t-57.5 24t-63 21t-72 8.5q-25 0 -45 -4t-38 -10l-9 46q21 8 47 13t52 5q38 0 71 -9t64 -22t61.5 -26.5t63 -22.5t71.5 -9h7l1 -50q-43 -1 -90 -13.5t-92.5 -35t-86.5 -55t-72.5 -73t-49.5 -89t-18 -103.5q0 -60 21 -102t57 -68.5t80.5 -38.5t91.5 -12
q42 0 82 7.5t81 22.5l17 -43q-47 -22 -96 -30t-90 -8zM192 491l-8 34q23 6 40 10.5t33 8.5l12 -10q-33 6 -57 30.5t-24 56.5q0 26 12.5 44t32.5 27.5t41 9.5q11 0 22.5 -2t21.5 -6l-6 -31q-9 2 -18.5 3.5t-19.5 1.5q-25 0 -38 -13.5t-13 -32.5t12 -34.5t30.5 -24t34.5 -10.5
l-37 -6q25 6 46 13t39 14l11 -33q-23 -8 -52 -17.5t-59 -18t-56 -14.5z" />
    <glyph glyph-name="uni0682.init" unicode="&#x682;" horiz-adv-x="491" 
d="M0 -5l7 49q47 0 87.5 8.5t79.5 25t81 41t92 57.5q-40 29 -73.5 52.5t-67 37.5t-73.5 14q-14 0 -26 -1t-24 -3t-26 -6l-10 45q21 7 43 10t43 3q45 0 80 -13t64 -31.5t53.5 -37.5t47.5 -32t48 -13h17l5 -48q-33 0 -61.5 -12t-57 -29.5t-60 -38t-70 -38t-87.5 -29
t-112 -11.5zM139 447q-16 0 -27 11t-11 26t11 26t27 11q15 0 25.5 -11t10.5 -26t-10.5 -26t-25.5 -11zM138 568q-16 0 -27 10.5t-11 25.5q0 16 11 27t27 11q15 0 25.5 -11t10.5 -27q0 -15 -10.5 -25.5t-25.5 -10.5z" />
    <glyph glyph-name="uni0682.medi" unicode="&#x682;" horiz-adv-x="513" 
d="M513 -5q-29 0 -55.5 4.5t-49.5 18.5t-40.5 42.5t-27.5 77.5l37 18q14 -51 32.5 -74.5t46 -30.5t64.5 -7q16 0 22 -6.5t6 -16.5t-8 -18t-27 -8zM0 -5l7 49q47 0 87.5 8.5t79.5 25t81 41t92 57.5q-40 29 -73.5 52.5t-67 37.5t-73.5 14q-14 0 -26 -1t-24 -3t-26 -6l-10 45
q21 7 43 10t43 3q45 0 80 -13t64 -31.5t53.5 -37.5t47.5 -32t48 -13h17l5 -48q-33 0 -61.5 -12t-57 -29.5t-60 -38t-70 -38t-87.5 -29t-112 -11.5zM138 447q-16 0 -27 11t-11 26t11 26t27 11q15 0 25.5 -11t10.5 -26t-10.5 -26t-25.5 -11zM137 568q-16 0 -27 10.5t-11 25.5
q0 16 11 27t27 11q15 0 25.5 -11t10.5 -27q0 -15 -10.5 -25.5t-25.5 -10.5z" />
    <glyph glyph-name="uni0682.fina" unicode="&#x682;" horiz-adv-x="562" 
d="M562 -5q-44 0 -82.5 10t-68.5 36t-48.5 73t-22.5 122l42 16q5 -63 19 -103.5t38 -63t57 -32t73 -9.5q15 0 21 -6.5t6 -16.5t-7.5 -18t-26.5 -8zM320 -394q-58 0 -111 16.5t-94.5 50t-65.5 84.5t-24 119q0 61 19.5 114t53.5 98.5t79.5 81.5t98 63t108.5 43l3 -12
q-28 7 -55.5 18.5t-57.5 24t-63 21t-72 8.5q-25 0 -45 -4t-38 -10l-9 46q21 8 47 13t52 5q38 0 71 -9t64 -22t61.5 -26.5t63 -22.5t71.5 -9h7l1 -50q-43 -1 -90 -13.5t-92.5 -35t-86.5 -55t-72.5 -73t-49.5 -89t-18 -103.5q0 -60 21 -102t57 -68.5t80.5 -38.5t91.5 -12
q42 0 82 7.5t81 22.5l17 -43q-47 -22 -96 -30t-90 -8zM285 512q-16 0 -27 11t-11 26t11 26t27 11q15 0 25.5 -11t10.5 -26t-10.5 -26t-25.5 -11zM284 633q-16 0 -27 10.5t-11 25.5q0 16 11 27t27 11q15 0 25.5 -11t10.5 -27q0 -15 -10.5 -25.5t-25.5 -10.5z" />
    <glyph glyph-name="uni0685.init" unicode="&#x685;" horiz-adv-x="491" 
d="M0 -5l7 49q47 0 87.5 8.5t79.5 25t81 41t92 57.5q-40 29 -73.5 52.5t-67 37.5t-73.5 14q-14 0 -26 -1t-24 -3t-26 -6l-10 45q21 7 43 10t43 3q45 0 80 -13t64 -31.5t53.5 -37.5t47.5 -32t48 -13h17l5 -48q-33 0 -61.5 -12t-57 -29.5t-60 -38t-70 -38t-87.5 -29
t-112 -11.5zM140 537q-15 0 -26 10.5t-11 25.5q0 16 11 27t26 11q16 0 26.5 -11t10.5 -26q0 -16 -10.5 -26.5t-26.5 -10.5zM84 440q-15 0 -26.5 11t-11.5 26t11 26t27 11q15 0 26 -11t11 -26t-11 -26t-26 -11zM198 440q-15 0 -26 11t-11 26t11 26t26 11t26 -11t11 -26
t-11 -26t-26 -11z" />
    <glyph glyph-name="uni0685.medi" unicode="&#x685;" horiz-adv-x="513" 
d="M513 -5q-29 0 -55.5 4.5t-49.5 18.5t-40.5 42.5t-27.5 77.5l37 18q14 -51 32.5 -74.5t46 -30.5t64.5 -7q16 0 22 -6.5t6 -16.5t-8 -18t-27 -8zM0 -5l7 49q47 0 87.5 8.5t79.5 25t81 41t92 57.5q-40 29 -73.5 52.5t-67 37.5t-73.5 14q-14 0 -26 -1t-24 -3t-26 -6l-10 45
q21 7 43 10t43 3q45 0 80 -13t64 -31.5t53.5 -37.5t47.5 -32t48 -13h17l5 -48q-33 0 -61.5 -12t-57 -29.5t-60 -38t-70 -38t-87.5 -29t-112 -11.5zM139 537q-15 0 -26 10.5t-11 25.5q0 16 11 27t26 11q16 0 26.5 -11t10.5 -26q0 -16 -10.5 -26.5t-26.5 -10.5zM83 440
q-15 0 -26.5 11t-11.5 26t11 26t27 11q15 0 26 -11t11 -26t-11 -26t-26 -11zM197 440q-15 0 -26 11t-11 26t11 26t26 11t26 -11t11 -26t-11 -26t-26 -11z" />
    <glyph glyph-name="uni0685.fina" unicode="&#x685;" horiz-adv-x="562" 
d="M562 -5q-44 0 -82.5 10t-68.5 36t-48.5 73t-22.5 122l42 16q5 -63 19 -103.5t38 -63t57 -32t73 -9.5q15 0 21 -6.5t6 -16.5t-7.5 -18t-26.5 -8zM320 -394q-58 0 -111 16.5t-94.5 50t-65.5 84.5t-24 119q0 61 19.5 114t53.5 98.5t79.5 81.5t98 63t108.5 43l3 -12
q-28 7 -55.5 18.5t-57.5 24t-63 21t-72 8.5q-25 0 -45 -4t-38 -10l-9 46q21 8 47 13t52 5q38 0 71 -9t64 -22t61.5 -26.5t63 -22.5t71.5 -9h7l1 -50q-43 -1 -90 -13.5t-92.5 -35t-86.5 -55t-72.5 -73t-49.5 -89t-18 -103.5q0 -60 21 -102t57 -68.5t80.5 -38.5t91.5 -12
q42 0 82 7.5t81 22.5l17 -43q-47 -22 -96 -30t-90 -8zM293 609q-15 0 -26 10.5t-11 25.5q0 16 11 27t26 11q16 0 26.5 -11t10.5 -26q0 -16 -10.5 -26.5t-26.5 -10.5zM237 512q-15 0 -26.5 11t-11.5 26t11 26t27 11q15 0 26 -11t11 -26t-11 -26t-26 -11zM351 512
q-15 0 -26 11t-11 26t11 26t26 11t26 -11t11 -26t-11 -26t-26 -11z" />
    <glyph glyph-name="uni0689.fina" unicode="&#x689;" horiz-adv-x="436" 
d="M185 -123q-32 0 -53.5 22t-21.5 54q0 31 21.5 53t53.5 22q31 0 53.5 -22t22.5 -53q0 -32 -22.5 -54t-53.5 -22zM185 -90q17 0 30.5 12.5t13.5 30.5t-13 30.5t-31 12.5t-30.5 -12.5t-12.5 -30.5t12.5 -30.5t30.5 -12.5zM169 45q41 0 65 11.5t35 33t11 49.5q0 18 -4.5 42.5
t-17.5 58.5t-38 79.5t-65 104.5l43 28q39 -58 65.5 -108.5t43 -95t24.5 -85.5q10 -41 24 -67.5t35.5 -39t51.5 -12.5q16 0 22 -6.5t6 -16.5t-8 -18t-26 -8q-36 0 -64 13.5t-46.5 41t-27.5 69.5l20 -7q-4 -30 -19 -56.5t-45.5 -43.5t-83.5 -17q-24 0 -49.5 3.5t-47.5 10.5
t-39 17l17 44q26 -11 56 -18t62 -7z" />
    <glyph glyph-name="uni068A.fina" unicode="&#x68a;" horiz-adv-x="436" 
d="M169 45q41 0 65 11.5t35 33t11 49.5q0 18 -4.5 42.5t-17.5 58.5t-38 79.5t-65 104.5l43 28q39 -58 65.5 -108.5t43 -95t24.5 -85.5q10 -41 24 -67.5t35.5 -39t51.5 -12.5q16 0 22 -6.5t6 -16.5t-8 -18t-26 -8q-36 0 -64 13.5t-46.5 41t-27.5 69.5l20 -7q-4 -30 -19 -56.5
t-45.5 -43.5t-83.5 -17q-24 0 -49.5 3.5t-47.5 10.5t-39 17l17 44q26 -11 56 -18t62 -7zM162 -180q-16 0 -27 10.5t-11 25.5t11 26.5t27 11.5q15 0 25.5 -11.5t10.5 -26.5t-10.5 -25.5t-25.5 -10.5z" />
    <glyph glyph-name="uni068B.fina" unicode="&#x68b;" horiz-adv-x="436" 
d="M169 45q41 0 65 11.5t35 33t11 49.5q0 18 -4.5 42.5t-17.5 58.5t-38 79.5t-65 104.5l43 28q39 -58 65.5 -108.5t43 -95t24.5 -85.5q10 -41 24 -67.5t35.5 -39t51.5 -12.5q16 0 22 -6.5t6 -16.5t-8 -18t-26 -8q-36 0 -64 13.5t-46.5 41t-27.5 69.5l20 -7q-4 -30 -19 -56.5
t-45.5 -43.5t-83.5 -17q-24 0 -49.5 3.5t-47.5 10.5t-39 17l17 44q26 -11 56 -18t62 -7zM147 605q-15 0 -35.5 1t-39.5 3t-30 3l2 34q25 -3 52 -5t49 -2q33 0 55 7.5t33 20t11 26.5q0 17 -9.5 26.5t-25.5 9.5q-22 0 -42.5 -15t-37 -36.5t-27.5 -39.5l-33 3q16 31 39 59
t49.5 46t54.5 18q31 0 49 -19t18 -49q0 -23 -13.5 -44t-42.5 -34t-76 -13zM93 665l-6 187h33l6 -165zM162 -180q-16 0 -27 10.5t-11 25.5t11 26.5t27 11.5q15 0 25.5 -11.5t10.5 -26.5t-10.5 -25.5t-25.5 -10.5z" />
    <glyph glyph-name="uni068F.fina" unicode="&#x68f;" horiz-adv-x="436" 
d="M169 45q41 0 65 11.5t35 33t11 49.5q0 18 -4.5 42.5t-17.5 58.5t-38 79.5t-65 104.5l43 28q39 -58 65.5 -108.5t43 -95t24.5 -85.5q10 -41 24 -67.5t35.5 -39t51.5 -12.5q16 0 22 -6.5t6 -16.5t-8 -18t-26 -8q-36 0 -64 13.5t-46.5 41t-27.5 69.5l20 -7q-4 -30 -19 -56.5
t-45.5 -43.5t-83.5 -17q-24 0 -49.5 3.5t-47.5 10.5t-39 17l17 44q26 -11 56 -18t62 -7zM164 585q-16 0 -27 11t-11 26t11 26t27 11q15 0 25.5 -11t10.5 -26t-10.5 -26t-25.5 -11zM107 682q-16 0 -27 10.5t-11 25.5t11 26.5t27 11.5q15 0 25.5 -11.5t10.5 -26.5t-10.5 -25.5
t-25.5 -10.5zM221 682q-16 0 -27 10.5t-11 25.5t11 26.5t27 11.5q15 0 25.5 -11.5t10.5 -26.5t-10.5 -25.5t-25.5 -10.5z" />
    <glyph glyph-name="uni0690.fina" unicode="&#x690;" horiz-adv-x="436" 
d="M169 45q41 0 65 11.5t35 33t11 49.5q0 18 -4.5 42.5t-17.5 58.5t-38 79.5t-65 104.5l43 28q39 -58 65.5 -108.5t43 -95t24.5 -85.5q10 -41 24 -67.5t35.5 -39t51.5 -12.5q16 0 22 -6.5t6 -16.5t-8 -18t-26 -8q-36 0 -64 13.5t-46.5 41t-27.5 69.5l20 -7q-4 -30 -19 -56.5
t-45.5 -43.5t-83.5 -17q-24 0 -49.5 3.5t-47.5 10.5t-39 17l17 44q26 -11 56 -18t62 -7zM108 702q-16 0 -27 10.5t-11 25.5t11 26.5t27 11.5q15 0 25.5 -11.5t10.5 -26.5t-10.5 -25.5t-25.5 -10.5zM107 585q-16 0 -27 11t-11 26t11 26t27 11q15 0 25.5 -11t10.5 -26
t-10.5 -26t-25.5 -11zM222 702q-16 0 -27 10.5t-11 25.5t11 26.5t27 11.5q15 0 25.5 -11.5t10.5 -26.5t-10.5 -25.5t-25.5 -10.5zM221 585q-16 0 -27 11t-11 26t11 26t27 11q15 0 25.5 -11t10.5 -26t-10.5 -26t-25.5 -11z" />
    <glyph glyph-name="uni0692.fina" unicode="&#x692;" horiz-adv-x="317" 
d="M8 -230l-26 44q49 27 86.5 60t62.5 71t37 76.5t12 74.5q0 48 -19.5 100t-54.5 112l48 25q20 -34 33.5 -66t23 -60.5t16.5 -55.5q14 -57 36 -82t61 -25q15 0 21 -6.5t6 -16.5t-8 -18t-26 -8q-32 0 -54.5 12.5t-37.5 35.5t-22 54h26q0 -54 -19 -104.5t-50.5 -93t-71 -76
t-80.5 -53.5zM109 481q-6 15 -15.5 39.5t-20.5 52.5t-21 53t-18 41l31 15q5 -10 14.5 -32.5t20.5 -49.5t20.5 -51.5t14.5 -38.5l13 -25zM148 485l-30 10q6 17 15.5 45.5t20.5 58.5t20 53.5t12 31.5l31 -13q-4 -9 -13 -33t-20 -54t-20.5 -56.5t-15.5 -42.5z" />
    <glyph glyph-name="uni0693.fina" unicode="&#x693;" horiz-adv-x="317" 
d="M185 -219q-32 0 -53.5 22.5t-21.5 53.5t21.5 53t53.5 22q31 0 53 -22t22 -53t-22 -53.5t-53 -22.5zM185 -186q17 0 30 12.5t13 30.5t-12.5 30.5t-30.5 12.5t-30.5 -12.5t-12.5 -30.5t12.5 -30.5t30.5 -12.5zM8 -230l-26 44q49 27 86.5 60t62.5 71t37 76.5t12 74.5
q0 48 -19.5 100t-54.5 112l48 25q20 -34 33.5 -66t23 -60.5t16.5 -55.5q14 -57 36 -82t61 -25q15 0 21 -6.5t6 -16.5t-8 -18t-26 -8q-32 0 -54.5 12.5t-37.5 35.5t-22 54h26q0 -54 -19 -104.5t-50.5 -93t-71 -76t-80.5 -53.5z" />
    <glyph glyph-name="uni0694.fina" unicode="&#x694;" horiz-adv-x="317" 
d="M8 -230l-26 44q49 27 86.5 60t62.5 71t37 76.5t12 74.5q0 48 -19.5 100t-54.5 112l48 25q20 -34 33.5 -66t23 -60.5t16.5 -55.5q14 -57 36 -82t61 -25q15 0 21 -6.5t6 -16.5t-8 -18t-26 -8q-32 0 -54.5 12.5t-37.5 35.5t-22 54h26q0 -54 -19 -104.5t-50.5 -93t-71 -76
t-80.5 -53.5zM98 -392q-16 0 -27 10.5t-11 25.5t11 26.5t27 11.5q15 0 25.5 -11.5t10.5 -26.5t-10.5 -25.5t-25.5 -10.5z" />
    <glyph glyph-name="uni0695.fina" unicode="&#x695;" horiz-adv-x="317" 
d="M29 -74q-7 16 -18.5 42.5t-23.5 53.5t-20 43l25 13q5 -9 12.5 -25.5t16 -36.5t16 -38t12.5 -29l10 -20zM59 -71l-24 8q4 14 12 35t16.5 44t15.5 40.5t10 23.5l25 -10q-4 -8 -11 -26t-15.5 -40t-16 -42.5t-12.5 -32.5zM8 -230l-26 44q49 27 86.5 60t62.5 71t37 76.5
t12 74.5q0 48 -19.5 100t-54.5 112l48 25q20 -34 33.5 -66t23 -60.5t16.5 -55.5q14 -57 36 -82t61 -25q15 0 21 -6.5t6 -16.5t-8 -18t-26 -8q-32 0 -54.5 12.5t-37.5 35.5t-22 54h26q0 -54 -19 -104.5t-50.5 -93t-71 -76t-80.5 -53.5z" />
    <glyph glyph-name="uni0696.fina" unicode="&#x696;" horiz-adv-x="317" 
d="M8 -230l-26 44q49 27 86.5 60t62.5 71t37 76.5t12 74.5q0 48 -19.5 100t-54.5 112l48 25q20 -34 33.5 -66t23 -60.5t16.5 -55.5q14 -57 36 -82t61 -25q15 0 21 -6.5t6 -16.5t-8 -18t-26 -8q-32 0 -54.5 12.5t-37.5 35.5t-22 54h26q0 -54 -19 -104.5t-50.5 -93t-71 -76
t-80.5 -53.5zM28 9q-16 0 -27 11t-11 26t11 26t27 11q15 0 25.5 -11t10.5 -26t-10.5 -26t-25.5 -11zM70 -392q-16 0 -27 10.5t-11 25.5t11 26.5t27 11.5q15 0 25.5 -11.5t10.5 -26.5t-10.5 -25.5t-25.5 -10.5z" />
    <glyph glyph-name="uni0697.fina" unicode="&#x697;" horiz-adv-x="317" 
d="M8 -230l-26 44q49 27 86.5 60t62.5 71t37 76.5t12 74.5q0 48 -19.5 100t-54.5 112l48 25q20 -34 33.5 -66t23 -60.5t16.5 -55.5q14 -57 36 -82t61 -25q15 0 21 -6.5t6 -16.5t-8 -18t-26 -8q-32 0 -54.5 12.5t-37.5 35.5t-22 54h26q0 -54 -19 -104.5t-50.5 -93t-71 -76
t-80.5 -53.5zM186 470q-16 0 -27 11t-11 26t11 26t27 11q15 0 25.5 -11t10.5 -26t-10.5 -26t-25.5 -11zM71 470q-15 0 -26.5 11t-11.5 26t11 26t27 11q15 0 26 -11t11 -26t-11 -26t-26 -11z" />
    <glyph glyph-name="uni0699.fina" unicode="&#x699;" horiz-adv-x="317" 
d="M8 -230l-26 44q49 27 86.5 60t62.5 71t37 76.5t12 74.5q0 48 -19.5 100t-54.5 112l48 25q20 -34 33.5 -66t23 -60.5t16.5 -55.5q14 -57 36 -82t61 -25q15 0 21 -6.5t6 -16.5t-8 -18t-26 -8q-32 0 -54.5 12.5t-37.5 35.5t-22 54h26q0 -54 -19 -104.5t-50.5 -93t-71 -76
t-80.5 -53.5zM73 587q-16 0 -27 10.5t-11 25.5t11 26.5t27 11.5q15 0 25.5 -11.5t10.5 -26.5t-10.5 -25.5t-25.5 -10.5zM72 470q-16 0 -27 11t-11 26t11 26t27 11q15 0 25.5 -11t10.5 -26t-10.5 -26t-25.5 -11zM187 587q-16 0 -27 10.5t-11 25.5t11 26.5t27 11.5
q15 0 25.5 -11.5t10.5 -26.5t-10.5 -25.5t-25.5 -10.5zM186 470q-16 0 -27 11t-11 26t11 26t27 11q15 0 25.5 -11t10.5 -26t-10.5 -26t-25.5 -11z" />
    <glyph glyph-name="uni069A.init" unicode="&#x69a;" horiz-adv-x="675" 
d="M0 -5l7 49q29 0 48 6.5t32 27.5t25.5 64.5t27.5 118.5l45 -12q-5 -23 -10 -45t-8.5 -43t-3.5 -42q0 -41 18 -57.5t60 -16.5q27 0 45 7.5t29.5 30t21 68t20.5 119.5l46 -9q-3 -22 -7.5 -49t-7.5 -51.5t-3 -42.5q0 -25 8.5 -41.5t27 -24t48.5 -7.5q25 0 46 8t34 31t13 66
q0 48 -16 102.5t-36 110.5l50 19q12 -34 23.5 -73t19.5 -78.5t8 -75.5q0 -45 -12 -76t-32.5 -49t-46.5 -26.5t-54 -8.5q-41 0 -65 12.5t-35.5 35.5t-15.5 53h19q-12 -39 -28.5 -61t-41 -31t-63.5 -9q-28 0 -53 8t-40.5 32t-16.5 71l20 3q-13 -49 -32.5 -73.5t-47 -32.5
t-66.5 -8zM322 -180q-16 0 -27 10.5t-11 25.5t11 26.5t27 11.5q15 0 25.5 -11.5t10.5 -26.5t-10.5 -25.5t-25.5 -10.5zM366 451q-16 0 -27 11t-11 26t11 26t27 11q15 0 25.5 -11t10.5 -26t-10.5 -26t-25.5 -11z" />
    <glyph glyph-name="uni069A.medi" unicode="&#x69a;" horiz-adv-x="697" 
d="M0 -5l7 49q26 0 44 5.5t32 25.5t27 64t29 122l45 -12q-6 -25 -14 -62t-8 -67q0 -26 5 -42.5t20.5 -24.5t46.5 -8q26 0 43.5 6.5t30.5 28.5t23.5 67.5t21.5 122.5l47 -8l-7.5 -45t-8.5 -53.5t-4 -43.5q0 -26 6 -42.5t23.5 -24.5t49.5 -8q47 0 68.5 21.5t21.5 77.5
q0 23 -1 54.5t-3.5 66t-6.5 65.5l48 4q5 -92 11.5 -149t19 -87.5t33.5 -41.5t54 -12q15 0 21 -6.5t6 -16.5t-8 -18t-26 -8q-32 0 -53.5 8t-36.5 23t-24.5 36t-14.5 46l15 -3q-6 -45 -24.5 -68.5t-44.5 -32.5t-56 -9q-38 0 -61 11t-35 33.5t-16 56.5h18q-13 -36 -29 -58.5
t-40.5 -32.5t-64.5 -10q-26 0 -50 8t-39 32t-15 71l19 3q-15 -51 -35 -75t-47 -31.5t-63 -7.5zM322 -180q-16 0 -27 10.5t-11 25.5t11 26.5t27 11.5q15 0 25.5 -11.5t10.5 -26.5t-10.5 -25.5t-25.5 -10.5zM371 451q-16 0 -27 11t-11 26t11 26t27 11q15 0 25.5 -11t10.5 -26
t-10.5 -26t-25.5 -11z" />
    <glyph glyph-name="uni069A.fina" unicode="&#x69a;" horiz-adv-x="1027" 
d="M266 -232q-46 0 -86.5 13.5t-71 39t-48 64.5t-17.5 91q0 22 4 50t15.5 64.5t34.5 80.5l43 -21q-15 -31 -25.5 -59.5t-15.5 -55t-5 -52.5q0 -56 23 -92.5t62 -54.5t88 -18q60 0 96.5 19t56.5 49t27 66t7 69q0 42 -6 80t-15.5 76.5t-21.5 81.5l50 14q15 -57 22 -86t13 -53
q11 -35 21.5 -54t26 -27t38.5 -8q20 0 35.5 5.5t28 27.5t23 68t19.5 126l48 -8q-5 -29 -9.5 -56t-7.5 -49t-3 -40q0 -23 5.5 -40t23 -25.5t51.5 -8.5q40 0 63.5 25.5t23.5 73.5q0 23 -1.5 55t-4 67t-5.5 66l48 4q5 -87 11 -143.5t16.5 -88.5t31 -45.5t54.5 -14.5
q16 0 22 -6.5t6 -16.5t-8 -18t-26 -8q-34 0 -59.5 11.5t-42.5 35t-25 58.5l16 -3q-8 -36 -26 -58.5t-43 -33t-53 -10.5q-38 0 -61.5 11t-35.5 34t-15 59h19q-13 -39 -29 -61.5t-37.5 -32.5t-52.5 -10q-27 0 -45.5 8.5t-30 22t-18 30t-9.5 32.5l24 -37q1 -57 -9.5 -108
t-37 -90.5t-73 -62t-117.5 -22.5zM690 -176q-16 0 -27 10.5t-11 25.5t11 26.5t27 11.5q15 0 25.5 -11.5t10.5 -26.5t-10.5 -25.5t-25.5 -10.5zM680 451q-16 0 -27 11t-11 26t11 26t27 11q15 0 25.5 -11t10.5 -26t-10.5 -26t-25.5 -11z" />
    <glyph glyph-name="uni069B.init" unicode="&#x69b;" horiz-adv-x="675" 
d="M0 -5l7 49q29 0 48 6.5t32 27.5t25.5 64.5t27.5 118.5l45 -12q-5 -23 -10 -45t-8.5 -43t-3.5 -42q0 -41 18 -57.5t60 -16.5q27 0 45 7.5t29.5 30t21 68t20.5 119.5l46 -9q-3 -22 -7.5 -49t-7.5 -51.5t-3 -42.5q0 -25 8.5 -41.5t27 -24t48.5 -7.5q25 0 46 8t34 31t13 66
q0 48 -16 102.5t-36 110.5l50 19q12 -34 23.5 -73t19.5 -78.5t8 -75.5q0 -45 -12 -76t-32.5 -49t-46.5 -26.5t-54 -8.5q-41 0 -65 12.5t-35.5 35.5t-15.5 53h19q-12 -39 -28.5 -61t-41 -31t-63.5 -9q-28 0 -53 8t-40.5 32t-16.5 71l20 3q-13 -49 -32.5 -73.5t-47 -32.5
t-66.5 -8zM322 -278q-16 0 -27 11t-11 26t11 26.5t27 11.5q15 0 25.5 -11.5t10.5 -26.5t-10.5 -26t-25.5 -11zM264 -181q-15 0 -26 10.5t-11 25.5q0 16 10.5 27t26.5 11q15 0 26 -11t11 -26q0 -16 -11 -26.5t-26 -10.5zM378 -181q-15 0 -26 10.5t-11 25.5q0 16 11 27t27 11
q15 0 25.5 -11t10.5 -26q0 -16 -11 -26.5t-26 -10.5z" />
    <glyph glyph-name="uni069B.medi" unicode="&#x69b;" horiz-adv-x="697" 
d="M0 -5l7 49q26 0 44 5.5t32 25.5t27 64t29 122l45 -12q-6 -25 -14 -62t-8 -67q0 -26 5 -42.5t20.5 -24.5t46.5 -8q26 0 43.5 6.5t30.5 28.5t23.5 67.5t21.5 122.5l47 -8l-7.5 -45t-8.5 -53.5t-4 -43.5q0 -26 6 -42.5t23.5 -24.5t49.5 -8q47 0 68.5 21.5t21.5 77.5
q0 23 -1 54.5t-3.5 66t-6.5 65.5l48 4q5 -92 11.5 -149t19 -87.5t33.5 -41.5t54 -12q15 0 21 -6.5t6 -16.5t-8 -18t-26 -8q-32 0 -53.5 8t-36.5 23t-24.5 36t-14.5 46l15 -3q-6 -45 -24.5 -68.5t-44.5 -32.5t-56 -9q-38 0 -61 11t-35 33.5t-16 56.5h18q-13 -36 -29 -58.5
t-40.5 -32.5t-64.5 -10q-26 0 -50 8t-39 32t-15 71l19 3q-15 -51 -35 -75t-47 -31.5t-63 -7.5zM321 -278q-16 0 -27 11t-11 26t11 26.5t27 11.5q15 0 25.5 -11.5t10.5 -26.5t-10.5 -26t-25.5 -11zM263 -181q-15 0 -26 10.5t-11 25.5q0 16 10.5 27t26.5 11q15 0 26 -11
t11 -26q0 -16 -11 -26.5t-26 -10.5zM377 -181q-15 0 -26 10.5t-11 25.5q0 16 11 27t27 11q15 0 25.5 -11t10.5 -26q0 -16 -11 -26.5t-26 -10.5z" />
    <glyph glyph-name="uni069B.fina" unicode="&#x69b;" horiz-adv-x="1027" 
d="M266 -232q-46 0 -86.5 13.5t-71 39t-48 64.5t-17.5 91q0 22 4 50t15.5 64.5t34.5 80.5l43 -21q-15 -31 -25.5 -59.5t-15.5 -55t-5 -52.5q0 -56 23 -92.5t62 -54.5t88 -18q60 0 96.5 19t56.5 49t27 66t7 69q0 42 -6 80t-15.5 76.5t-21.5 81.5l50 14q15 -57 22 -86t13 -53
q11 -35 21.5 -54t26 -27t38.5 -8q20 0 35.5 5.5t28 27.5t23 68t19.5 126l48 -8q-5 -29 -9.5 -56t-7.5 -49t-3 -40q0 -23 5.5 -40t23 -25.5t51.5 -8.5q40 0 63.5 25.5t23.5 73.5q0 23 -1.5 55t-4 67t-5.5 66l48 4q5 -87 11 -143.5t16.5 -88.5t31 -45.5t54.5 -14.5
q16 0 22 -6.5t6 -16.5t-8 -18t-26 -8q-34 0 -59.5 11.5t-42.5 35t-25 58.5l16 -3q-8 -36 -26 -58.5t-43 -33t-53 -10.5q-38 0 -61.5 11t-35.5 34t-15 59h19q-13 -39 -29 -61.5t-37.5 -32.5t-52.5 -10q-27 0 -45.5 8.5t-30 22t-18 30t-9.5 32.5l24 -37q1 -57 -9.5 -108
t-37 -90.5t-73 -62t-117.5 -22.5zM690 -274q-16 0 -27 11t-11 26t11 26.5t27 11.5q15 0 25.5 -11.5t10.5 -26.5t-10.5 -26t-25.5 -11zM632 -177q-15 0 -26 10.5t-11 25.5q0 16 10.5 27t26.5 11q15 0 26 -11t11 -26q0 -16 -11 -26.5t-26 -10.5zM746 -177q-15 0 -26 10.5
t-11 25.5q0 16 11 27t27 11q15 0 25.5 -11t10.5 -26q0 -16 -11 -26.5t-26 -10.5z" />
    <glyph glyph-name="uni069D.init" unicode="&#x69d;" horiz-adv-x="775" 
d="M403 -16q-58 0 -106.5 5.5t-84 19t-56.5 35.5t-26 56l16 4q-18 -47 -40 -70t-48 -31t-58 -8l7 49q28 0 46 8t31.5 31t26.5 67.5t30 118.5l48 -12q-5 -20 -10.5 -43t-9.5 -44t-4 -36q0 -26 12 -45t40.5 -31t75.5 -18t116 -6q65 0 115.5 10t85.5 29t53.5 47t18.5 65
q0 31 -13 55t-37 38t-58 14q-43 0 -85.5 -24.5t-81.5 -63.5t-71.5 -83.5t-54.5 -86.5l-50 5q33 63 73 117.5t84.5 96.5t92.5 66t96 24q45 0 79.5 -19t54.5 -53.5t20 -81.5q0 -61 -35.5 -107t-108 -72t-184.5 -26zM462 -191q-16 0 -27 10.5t-11 25.5q0 16 11 27t27 11
q15 0 26 -11t11 -26q0 -16 -11 -26.5t-26 -10.5zM347 -191q-15 0 -26 10.5t-11 25.5q0 16 11 27t26 11q16 0 26.5 -11t10.5 -26q0 -16 -11 -26.5t-26 -10.5z" />
    <glyph glyph-name="uni069D.medi" unicode="&#x69d;" horiz-adv-x="808" 
d="M808 -5q-29 0 -60 6t-59.5 19.5t-50.5 34.5l44 24q28 -17 61 -26t72 -9q15 0 21 -6.5t6 -16.5t-8 -18t-26 -8zM403 -16q-58 0 -106.5 5.5t-84 19t-56.5 35.5t-26 56l16 4q-18 -47 -40 -70t-48 -31t-58 -8l7 49q28 0 46 8t31.5 31t26.5 67.5t30 118.5l48 -12
q-5 -20 -10.5 -43t-9.5 -44t-4 -36q0 -26 12 -45t40.5 -31t75.5 -18t116 -6q65 0 115.5 10t85.5 29t53.5 47t18.5 65q0 31 -13 55t-37 38t-58 14q-43 0 -85.5 -24.5t-81.5 -63.5t-71.5 -83.5t-54.5 -86.5l-50 5q33 63 73 117.5t84.5 96.5t92.5 66t96 24q45 0 79.5 -19
t54.5 -53.5t20 -81.5q0 -61 -35.5 -107t-108 -72t-184.5 -26zM462 -191q-16 0 -27 10.5t-11 25.5q0 16 11 27t27 11q15 0 26 -11t11 -26q0 -16 -11 -26.5t-26 -10.5zM347 -191q-15 0 -26 10.5t-11 25.5q0 16 11 27t26 11q16 0 26.5 -11t10.5 -26q0 -16 -11 -26.5t-26 -10.5z
" />
    <glyph glyph-name="uni069D.fina" unicode="&#x69d;" horiz-adv-x="1150" 
d="M1150 -5q-30 0 -61 6t-59 19.5t-51 34.5l45 24q28 -17 61 -26t72 -9q15 0 21 -6.5t6 -16.5t-8 -18t-26 -8zM264 -232q-47 0 -87.5 13.5t-70.5 40t-46.5 66t-16.5 91.5q0 22 4 49.5t15.5 62.5t34.5 80l43 -21q-15 -31 -25.5 -59.5t-15.5 -54.5t-5 -51q0 -56 22 -93.5
t61 -55.5t88 -18q58 0 95 17.5t57.5 46.5t28.5 67t8 79q0 58 -13.5 115t-29.5 117l50 14q10 -38 15.5 -63t9.5 -41.5t9 -28.5q9 -24 25.5 -43t45.5 -32.5t73 -20.5t106 -7q43 0 83 4.5t75 15t61 28t41 43t15 60.5q0 29 -12 53t-35.5 38.5t-59.5 14.5q-39 0 -78.5 -20
t-78 -55.5t-73 -82.5t-64.5 -100l-49 7q23 44 52.5 88t63.5 82.5t71.5 68t77.5 46.5t80 17q49 0 83 -20.5t52.5 -55t18.5 -79.5q0 -52 -24.5 -90.5t-69 -63.5t-104.5 -37.5t-131 -12.5q-67 0 -113.5 9t-76.5 24t-47 33t-26 37l26 -29q2 -60 -8 -113t-37 -93.5t-74.5 -63.5
t-119.5 -23zM817 -188q-16 0 -27 10.5t-11 25.5q0 16 11 27t27 11q15 0 26 -11t11 -26q0 -16 -11 -26.5t-26 -10.5zM702 -188q-15 0 -26 10.5t-11 25.5q0 16 11 27t26 11q16 0 26.5 -11t10.5 -26q0 -16 -11 -26.5t-26 -10.5z" />
    <glyph glyph-name="uni069E.init" unicode="&#x69e;" horiz-adv-x="775" 
d="M403 -16q-58 0 -106.5 5.5t-84 19t-56.5 35.5t-26 56l16 4q-18 -47 -40 -70t-48 -31t-58 -8l7 49q28 0 46 8t31.5 31t26.5 67.5t30 118.5l48 -12q-5 -20 -10.5 -43t-9.5 -44t-4 -36q0 -26 12 -45t40.5 -31t75.5 -18t116 -6q65 0 115.5 10t85.5 29t53.5 47t18.5 65
q0 31 -13 55t-37 38t-58 14q-43 0 -85.5 -24.5t-81.5 -63.5t-71.5 -83.5t-54.5 -86.5l-50 5q33 63 73 117.5t84.5 96.5t92.5 66t96 24q45 0 79.5 -19t54.5 -53.5t20 -81.5q0 -61 -35.5 -107t-108 -72t-184.5 -26zM549 559q-15 0 -26 10.5t-11 25.5q0 16 11 27t26 11
q16 0 26.5 -11t10.5 -26q0 -16 -10.5 -26.5t-26.5 -10.5zM493 462q-15 0 -26.5 11t-11.5 26t11 26t27 11q15 0 26 -11t11 -26t-11 -26t-26 -11zM607 462q-15 0 -26 11t-11 26t11 26t26 11t26 -11t11 -26t-11 -26t-26 -11z" />
    <glyph glyph-name="uni069E.medi" unicode="&#x69e;" horiz-adv-x="808" 
d="M808 -5q-29 0 -60 6t-59.5 19.5t-50.5 34.5l44 24q28 -17 61 -26t72 -9q15 0 21 -6.5t6 -16.5t-8 -18t-26 -8zM403 -16q-58 0 -106.5 5.5t-84 19t-56.5 35.5t-26 56l16 4q-18 -47 -40 -70t-48 -31t-58 -8l7 49q28 0 46 8t31.5 31t26.5 67.5t30 118.5l48 -12
q-5 -20 -10.5 -43t-9.5 -44t-4 -36q0 -26 12 -45t40.5 -31t75.5 -18t116 -6q65 0 115.5 10t85.5 29t53.5 47t18.5 65q0 31 -13 55t-37 38t-58 14q-43 0 -85.5 -24.5t-81.5 -63.5t-71.5 -83.5t-54.5 -86.5l-50 5q33 63 73 117.5t84.5 96.5t92.5 66t96 24q45 0 79.5 -19
t54.5 -53.5t20 -81.5q0 -61 -35.5 -107t-108 -72t-184.5 -26zM549 559q-15 0 -26 10.5t-11 25.5q0 16 11 27t26 11q16 0 26.5 -11t10.5 -26q0 -16 -10.5 -26.5t-26.5 -10.5zM493 462q-15 0 -26.5 11t-11.5 26t11 26t27 11q15 0 26 -11t11 -26t-11 -26t-26 -11zM607 462
q-15 0 -26 11t-11 26t11 26t26 11t26 -11t11 -26t-11 -26t-26 -11z" />
    <glyph glyph-name="uni069E.fina" unicode="&#x69e;" horiz-adv-x="1150" 
d="M1150 -5q-30 0 -61 6t-59 19.5t-51 34.5l45 24q28 -17 61 -26t72 -9q15 0 21 -6.5t6 -16.5t-8 -18t-26 -8zM264 -232q-47 0 -87.5 13.5t-70.5 40t-46.5 66t-16.5 91.5q0 22 4 49.5t15.5 62.5t34.5 80l43 -21q-15 -31 -25.5 -59.5t-15.5 -54.5t-5 -51q0 -56 22 -93.5
t61 -55.5t88 -18q58 0 95 17.5t57.5 46.5t28.5 67t8 79q0 58 -13.5 115t-29.5 117l50 14q10 -38 15.5 -63t9.5 -41.5t9 -28.5q9 -24 25.5 -43t45.5 -32.5t73 -20.5t106 -7q43 0 83 4.5t75 15t61 28t41 43t15 60.5q0 29 -12 53t-35.5 38.5t-59.5 14.5q-39 0 -78.5 -20
t-78 -55.5t-73 -82.5t-64.5 -100l-49 7q23 44 52.5 88t63.5 82.5t71.5 68t77.5 46.5t80 17q49 0 83 -20.5t52.5 -55t18.5 -79.5q0 -52 -24.5 -90.5t-69 -63.5t-104.5 -37.5t-131 -12.5q-67 0 -113.5 9t-76.5 24t-47 33t-26 37l26 -29q2 -60 -8 -113t-37 -93.5t-74.5 -63.5
t-119.5 -23zM885 562q-15 0 -26 10.5t-11 25.5q0 16 11 27t26 11q16 0 26.5 -11t10.5 -26q0 -16 -10.5 -26.5t-26.5 -10.5zM829 465q-15 0 -26.5 11t-11.5 26t11 26t27 11q15 0 26 -11t11 -26t-11 -26t-26 -11zM943 465q-15 0 -26 11t-11 26t11 26t26 11t26 -11t11 -26
t-11 -26t-26 -11z" />
    <glyph glyph-name="uni069F.init" unicode="&#x69f;" horiz-adv-x="597" 
d="M0 -5l7 49h216q64 0 115.5 9t88.5 26.5t57 45t20 65.5q0 26 -11 50t-34.5 39t-62.5 15q-43 0 -85.5 -24.5t-81 -63.5t-70.5 -84t-56 -86l-55 -4q32 60 72 116t85 100.5t94 70.5t100 26q48 0 82.5 -20t53 -55t18.5 -78q0 -56 -33.5 -100t-105.5 -68q-34 -12 -78.5 -18
t-95.5 -8.5t-106 -2.5h-134zM96 86l-18 621h50l19 -568zM361 561q-15 0 -26 10.5t-11 25.5q0 16 11 27t26 11q16 0 26.5 -11t10.5 -26q0 -16 -10.5 -26.5t-26.5 -10.5zM305 464q-15 0 -26.5 11t-11.5 26t11 26t27 11q15 0 26 -11t11 -26t-11 -26t-26 -11zM419 464
q-15 0 -26 11t-11 26t11 26t26 11t26 -11t11 -26t-11 -26t-26 -11z" />
    <glyph glyph-name="uni069F.medi" unicode="&#x69f;" horiz-adv-x="614" 
d="M614 -5q-29 0 -60 6t-59.5 19.5t-50.5 34.5l44 24q28 -17 61 -26t72 -9q16 0 22 -6.5t6 -16.5t-8 -18t-27 -8zM0 -5l7 49h216q64 0 115.5 9t88.5 26.5t57 45t20 65.5q0 26 -11 50t-34.5 39t-62.5 15q-43 0 -85.5 -24.5t-81 -63.5t-70.5 -84t-56 -86l-55 -4q32 60 72 116
t85 100.5t94 70.5t100 26q48 0 82.5 -20t53 -55t18.5 -78q0 -56 -33.5 -100t-105.5 -68q-34 -12 -78.5 -18t-95.5 -8.5t-106 -2.5h-134zM96 86l-18 621h50l19 -568zM361 561q-15 0 -26 10.5t-11 25.5q0 16 11 27t26 11q16 0 26.5 -11t10.5 -26q0 -16 -10.5 -26.5
t-26.5 -10.5zM305 464q-15 0 -26.5 11t-11.5 26t11 26t27 11q15 0 26 -11t11 -26t-11 -26t-26 -11zM419 464q-15 0 -26 11t-11 26t11 26t26 11t26 -11t11 -26t-11 -26t-26 -11z" />
    <glyph glyph-name="uni069F.fina" unicode="&#x69f;" horiz-adv-x="714" 
d="M714 -5q-29 0 -60 6t-59.5 19.5t-50.5 34.5l44 24q28 -17 61 -26t72 -9q15 0 21 -6.5t6 -16.5t-7.5 -18t-26.5 -8zM311 -13q-36 0 -77 2t-80.5 4.5t-73 6t-55.5 6.5l6 49q27 -4 61 -7t71.5 -5.5t77 -3.5t79.5 -1q59 0 108.5 8t86 26.5t57 47.5t20.5 69q0 29 -12 53
t-35.5 38.5t-60.5 14.5q-42 0 -84.5 -23.5t-81.5 -62.5t-71.5 -84t-55.5 -88l-55 -4q33 64 73.5 121t86 100t94 67.5t96.5 24.5t82.5 -19.5t53.5 -54.5t19 -81q0 -65 -39 -111t-113 -69.5t-178 -23.5zM186 86l-20 621h51l20 -569zM449 562q-15 0 -26 10.5t-11 25.5
q0 16 11 27t26 11q16 0 26.5 -11t10.5 -26q0 -16 -10.5 -26.5t-26.5 -10.5zM393 465q-15 0 -26.5 11t-11.5 26t11 26t27 11q15 0 26 -11t11 -26t-11 -26t-26 -11zM507 465q-15 0 -26 11t-11 26t11 26t26 11t26 -11t11 -26t-11 -26t-26 -11z" />
    <glyph glyph-name="uni06A0.init" unicode="&#x6a0;" horiz-adv-x="409" 
d="M0 -5l7 49q42 0 74.5 2t60 6t53.5 9q-33 14 -64 40t-50.5 63t-19.5 82q0 51 22.5 90t63 61t94.5 22q19 0 39 -3.5t40 -10.5l-9 -46q-18 5 -35.5 7.5t-34.5 2.5q-38 0 -67.5 -15.5t-46.5 -43t-17 -64.5q0 -29 11 -54t30 -44t41 -33t43.5 -22.5t37.5 -11.5q14 3 22.5 5.5
l17 5t21.5 8t35 14.5l17 -45q-58 -24 -116.5 -41t-124 -25t-145.5 -8zM223 635q-15 0 -26 10.5t-11 25.5q0 16 11 27t26 11q16 0 26.5 -11t10.5 -26q0 -16 -10.5 -26.5t-26.5 -10.5zM167 538q-15 0 -26.5 11t-11.5 26t11 26t27 11q15 0 26 -11t11 -26t-11 -26t-26 -11z
M281 538q-15 0 -26 11t-11 26t11 26t26 11t26 -11t11 -26t-11 -26t-26 -11z" />
    <glyph glyph-name="uni06A0.medi" unicode="&#x6a0;" horiz-adv-x="427" 
d="M0 -5l7 49q47 0 92.5 15t84.5 39.5t68.5 55.5t46.5 64t17 63q0 18 -10 33t-30 24t-50 9q-27 0 -53 -8.5t-47 -22t-33 -28.5q22 -24 45.5 -51.5t46.5 -58t44 -64.5q19 -19 40.5 -32t46 -21.5t53.5 -12.5t64 -4q14 0 21 -5.5t7 -17.5t-9 -19t-25 -7q-52 0 -94.5 9t-77 29
t-64.5 52q-21 37 -45 68.5t-46 57t-38 40.5q-2 3 -4.5 9.5t-4.5 14.5t-2 13q0 15 15 34.5t40.5 36.5t57.5 28t66 11q40 0 70.5 -12t47.5 -35.5t17 -59.5q0 -40 -19 -82.5t-54 -80.5t-80.5 -68t-99.5 -47.5t-112 -17.5zM225 614q-15 0 -26 10.5t-11 25.5q0 16 11 27t26 11
q16 0 26.5 -11t10.5 -26q0 -16 -10.5 -26.5t-26.5 -10.5zM169 517q-15 0 -26.5 11t-11.5 26t11 26t27 11q15 0 26 -11t11 -26t-11 -26t-26 -11zM283 517q-15 0 -26 11t-11 26t11 26t26 11t26 -11t11 -26t-11 -26t-26 -11z" />
    <glyph glyph-name="uni06A0.fina" unicode="&#x6a0;" horiz-adv-x="438" 
d="M263 -387q-38 0 -81.5 9t-83 31.5t-64.5 64t-25 105.5q0 57 23 103.5t59 84t76.5 71t76.5 65t59 64.5t23 70q0 16 -8.5 31.5t-28 25t-52.5 9.5q-26 0 -51.5 -8.5t-46.5 -22t-33 -28.5q23 -24 45 -50.5t44.5 -56.5t43.5 -63q21 -21 43 -35.5t46.5 -22.5t53.5 -12t63 -4
q12 0 19.5 -5t7.5 -18q0 -12 -8.5 -19t-25.5 -7q-52 0 -94.5 9t-77.5 29.5t-66 55.5q-17 29 -39 59.5t-45 57.5t-41 45q-3 3 -5.5 10t-4 14.5t-1.5 11.5q0 17 14.5 36t40.5 36t58 28t66 11q66 0 99.5 -30t33.5 -77q0 -46 -23 -85t-59 -73.5t-76.5 -68t-76.5 -69t-59 -76
t-23 -89.5q0 -46 17.5 -78t46.5 -51.5t66 -28.5t76 -9q30 0 58 3t57.5 10.5t62.5 21.5l17 -40q-31 -15 -64.5 -25t-67 -15t-65.5 -5zM242 614q-15 0 -26 10.5t-11 25.5q0 16 11 27t26 11q16 0 26.5 -11t10.5 -26q0 -16 -10.5 -26.5t-26.5 -10.5zM186 517q-15 0 -26.5 11
t-11.5 26t11 26t27 11q15 0 26 -11t11 -26t-11 -26t-26 -11zM300 517q-15 0 -26 11t-11 26t11 26t26 11t26 -11t11 -26t-11 -26t-26 -11z" />
    <glyph glyph-name="uni06A1.init" unicode="&#x6a1;" horiz-adv-x="389" 
d="M0 -5l7 49q28 0 57.5 1t58 4t53.5 9.5t44 16.5q23 11 40 31.5t26 55.5t9 88q0 48 -10 91.5t-30.5 71t-51.5 27.5q-24 0 -44 -21.5t-32 -55t-12 -71.5q0 -34 13 -52.5t35 -26t48 -7.5q25 0 51.5 6t45.5 16l4 -43q-14 -10 -33.5 -16.5t-39 -9t-34.5 -2.5q-44 0 -75 15
t-48 43.5t-17 68.5q0 36 10 72.5t29 67t45.5 49t58.5 18.5q46 0 76 -34t45.5 -90t15.5 -122t-20 -118.5t-70 -85.5q-20 -13 -46 -22t-58.5 -14t-70 -7.5t-80.5 -2.5z" />
    <glyph glyph-name="uni06A1.medi" unicode="&#x6a1;" horiz-adv-x="404" 
d="M0 -5l7 49q22 0 45.5 2t46 6.5t44 11t40.5 16.5q32 15 57 37t39.5 50t14.5 61q0 28 -10 56t-29 48t-47 20q-23 0 -44.5 -17.5t-34.5 -46t-13 -62.5q0 -37 15.5 -66t40 -49t52.5 -33l-56 -20q-21 13 -45 35.5t-40.5 55.5t-16.5 78q0 35 11.5 66t31 55.5t46 38.5t54.5 14
q41 0 71 -23.5t47.5 -62t17.5 -81.5q0 -34 -10 -62.5t-27.5 -52t-42 -43t-52.5 -34.5q-23 -13 -48.5 -21.5t-53 -14.5t-55.5 -8.5t-56 -2.5zM404 -5q-34 0 -76 6.5t-80.5 18t-64.5 25.5l46 28q24 -7 54 -13.5t63.5 -11t64.5 -4.5q14 0 21 -6t7 -17t-8.5 -18.5t-26.5 -7.5z
" />
    <glyph glyph-name="uni06A1.fina" unicode="&#x6a1;" horiz-adv-x="919" 
d="M323 -21l19 50q50 0 99.5 3t96.5 9.5t87 16t69 23.5q37 17 63 38t39.5 47t13.5 59q0 21 -5.5 43t-16.5 41t-27 31t-37 12q-25 0 -46.5 -19t-34 -49t-12.5 -65t15.5 -62t40 -46t51.5 -32l-56 -21q-20 13 -43.5 34t-40.5 52.5t-17 75.5q0 35 11 67.5t30.5 58.5t46 40.5
t56.5 14.5q41 0 71.5 -24.5t47.5 -64t17 -85.5q0 -30 -9.5 -56.5t-27 -49t-42 -41.5t-54.5 -35q-33 -18 -79.5 -30.5t-100.5 -20.5t-111.5 -11.5t-113.5 -3.5zM919 -5q-39 0 -78.5 6t-76 17.5t-66.5 26.5l47 28q22 -7 50.5 -13.5t62 -11t68.5 -4.5q14 0 20.5 -6t6.5 -17
t-8 -18.5t-26 -7.5zM323 -21q-63 0 -115.5 10.5t-91 33.5t-59.5 58.5t-21 86.5q0 25 4.5 51.5t10.5 52.5t13 49l46 -12q-5 -17 -10.5 -39.5t-9 -46t-3.5 -45.5q0 -50 26 -83t82.5 -49.5t146.5 -16.5l20 -29z" />
    <glyph glyph-name="fehDotMovedbelowar.init" unicode="&#x6a2;" horiz-adv-x="389" 
d="M0 -5l7 49q28 0 57.5 1t58 4t53.5 9.5t44 16.5q23 11 40 31.5t26 55.5t9 88q0 48 -10 91.5t-30.5 71t-51.5 27.5q-24 0 -44 -21.5t-32 -55t-12 -71.5q0 -34 13 -52.5t35 -26t48 -7.5q25 0 51.5 6t45.5 16l4 -43q-14 -10 -33.5 -16.5t-39 -9t-34.5 -2.5q-44 0 -75 15
t-48 43.5t-17 68.5q0 36 10 72.5t29 67t45.5 49t58.5 18.5q46 0 76 -34t45.5 -90t15.5 -122t-20 -118.5t-70 -85.5q-20 -13 -46 -22t-58.5 -14t-70 -7.5t-80.5 -2.5zM179 -193q-16 0 -27 10.5t-11 25.5t11 26.5t27 11.5q15 0 25.5 -11.5t10.5 -26.5t-10.5 -25.5t-25.5 -10.5
z" />
    <glyph glyph-name="fehDotMovedbelowar.medi" unicode="&#x6a2;" horiz-adv-x="404" 
d="M0 -5l7 49q22 0 45.5 2t46 6.5t44 11t40.5 16.5q32 15 57 37t39.5 50t14.5 61q0 28 -10 56t-29 48t-47 20q-23 0 -44.5 -17.5t-34.5 -46t-13 -62.5q0 -37 15.5 -66t40 -49t52.5 -33l-56 -20q-21 13 -45 35.5t-40.5 55.5t-16.5 78q0 35 11.5 66t31 55.5t46 38.5t54.5 14
q41 0 71 -23.5t47.5 -62t17.5 -81.5q0 -34 -10 -62.5t-27.5 -52t-42 -43t-52.5 -34.5q-23 -13 -48.5 -21.5t-53 -14.5t-55.5 -8.5t-56 -2.5zM404 -5q-34 0 -76 6.5t-80.5 18t-64.5 25.5l46 28q24 -7 54 -13.5t63.5 -11t64.5 -4.5q14 0 21 -6t7 -17t-8.5 -18.5t-26.5 -7.5z
M199 -193q-16 0 -27 10.5t-11 25.5t11 26.5t27 11.5q15 0 25.5 -11.5t10.5 -26.5t-10.5 -25.5t-25.5 -10.5z" />
    <glyph glyph-name="fehDotMovedbelowar.fina" unicode="&#x6a2;" horiz-adv-x="919" 
d="M323 -21l19 50q50 0 99.5 3t96.5 9.5t87 16t69 23.5q37 17 63 38t39.5 47t13.5 59q0 21 -5.5 43t-16.5 41t-27 31t-37 12q-25 0 -46.5 -19t-34 -49t-12.5 -65t15.5 -62t40 -46t51.5 -32l-56 -21q-20 13 -43.5 34t-40.5 52.5t-17 75.5q0 35 11 67.5t30.5 58.5t46 40.5
t56.5 14.5q41 0 71.5 -24.5t47.5 -64t17 -85.5q0 -30 -9.5 -56.5t-27 -49t-42 -41.5t-54.5 -35q-33 -18 -79.5 -30.5t-100.5 -20.5t-111.5 -11.5t-113.5 -3.5zM919 -5q-39 0 -78.5 6t-76 17.5t-66.5 26.5l47 28q22 -7 50.5 -13.5t62 -11t68.5 -4.5q14 0 20.5 -6t6.5 -17
t-8 -18.5t-26 -7.5zM323 -21q-63 0 -115.5 10.5t-91 33.5t-59.5 58.5t-21 86.5q0 25 4.5 51.5t10.5 52.5t13 49l46 -12q-5 -17 -10.5 -39.5t-9 -46t-3.5 -45.5q0 -50 26 -83t82.5 -49.5t146.5 -16.5l20 -29zM381 -199q-16 0 -27 10.5t-11 25.5t11 26.5t27 11.5
q15 0 25.5 -11.5t10.5 -26.5t-10.5 -25.5t-25.5 -10.5z" />
    <glyph glyph-name="uni06A3.init" unicode="&#x6a3;" horiz-adv-x="389" 
d="M0 -5l7 49q28 0 57.5 1t58 4t53.5 9.5t44 16.5q23 11 40 31.5t26 55.5t9 88q0 48 -10 91.5t-30.5 71t-51.5 27.5q-24 0 -44 -21.5t-32 -55t-12 -71.5q0 -34 13 -52.5t35 -26t48 -7.5q25 0 51.5 6t45.5 16l4 -43q-14 -10 -33.5 -16.5t-39 -9t-34.5 -2.5q-44 0 -75 15
t-48 43.5t-17 68.5q0 36 10 72.5t29 67t45.5 49t58.5 18.5q46 0 76 -34t45.5 -90t15.5 -122t-20 -118.5t-70 -85.5q-20 -13 -46 -22t-58.5 -14t-70 -7.5t-80.5 -2.5zM195 610q-16 0 -27 11t-11 26t11 26t27 11q15 0 25.5 -11t10.5 -26t-10.5 -26t-25.5 -11zM179 -193
q-16 0 -27 10.5t-11 25.5t11 26.5t27 11.5q15 0 25.5 -11.5t10.5 -26.5t-10.5 -25.5t-25.5 -10.5z" />
    <glyph glyph-name="uni06A3.medi" unicode="&#x6a3;" horiz-adv-x="404" 
d="M0 -5l7 49q22 0 45.5 2t46 6.5t44 11t40.5 16.5q32 15 57 37t39.5 50t14.5 61q0 28 -10 56t-29 48t-47 20q-23 0 -44.5 -17.5t-34.5 -46t-13 -62.5q0 -37 15.5 -66t40 -49t52.5 -33l-56 -20q-21 13 -45 35.5t-40.5 55.5t-16.5 78q0 35 11.5 66t31 55.5t46 38.5t54.5 14
q41 0 71 -23.5t47.5 -62t17.5 -81.5q0 -34 -10 -62.5t-27.5 -52t-42 -43t-52.5 -34.5q-23 -13 -48.5 -21.5t-53 -14.5t-55.5 -8.5t-56 -2.5zM404 -5q-34 0 -76 6.5t-80.5 18t-64.5 25.5l46 28q24 -7 54 -13.5t63.5 -11t64.5 -4.5q14 0 21 -6t7 -17t-8.5 -18.5t-26.5 -7.5z
M205 520q-16 0 -27 11t-11 26t11 26t27 11q15 0 25.5 -11t10.5 -26t-10.5 -26t-25.5 -11zM199 -193q-16 0 -27 10.5t-11 25.5t11 26.5t27 11.5q15 0 25.5 -11.5t10.5 -26.5t-10.5 -25.5t-25.5 -10.5z" />
    <glyph glyph-name="uni06A3.fina" unicode="&#x6a3;" horiz-adv-x="919" 
d="M323 -21l19 50q50 0 99.5 3t96.5 9.5t87 16t69 23.5q37 17 63 38t39.5 47t13.5 59q0 21 -5.5 43t-16.5 41t-27 31t-37 12q-25 0 -46.5 -19t-34 -49t-12.5 -65t15.5 -62t40 -46t51.5 -32l-56 -21q-20 13 -43.5 34t-40.5 52.5t-17 75.5q0 35 11 67.5t30.5 58.5t46 40.5
t56.5 14.5q41 0 71.5 -24.5t47.5 -64t17 -85.5q0 -30 -9.5 -56.5t-27 -49t-42 -41.5t-54.5 -35q-33 -18 -79.5 -30.5t-100.5 -20.5t-111.5 -11.5t-113.5 -3.5zM919 -5q-39 0 -78.5 6t-76 17.5t-66.5 26.5l47 28q22 -7 50.5 -13.5t62 -11t68.5 -4.5q14 0 20.5 -6t6.5 -17
t-8 -18.5t-26 -7.5zM323 -21q-63 0 -115.5 10.5t-91 33.5t-59.5 58.5t-21 86.5q0 25 4.5 51.5t10.5 52.5t13 49l46 -12q-5 -17 -10.5 -39.5t-9 -46t-3.5 -45.5q0 -50 26 -83t82.5 -49.5t146.5 -16.5l20 -29zM724 520q-16 0 -27 11t-11 26t11 26t27 11q15 0 25.5 -11
t10.5 -26t-10.5 -26t-25.5 -11zM381 -199q-16 0 -27 10.5t-11 25.5t11 26.5t27 11.5q15 0 25.5 -11.5t10.5 -26.5t-10.5 -25.5t-25.5 -10.5z" />
    <glyph glyph-name="uni06A5.init" unicode="&#x6a5;" horiz-adv-x="389" 
d="M0 -5l7 49q28 0 57.5 1t58 4t53.5 9.5t44 16.5q23 11 40 31.5t26 55.5t9 88q0 48 -10 91.5t-30.5 71t-51.5 27.5q-24 0 -44 -21.5t-32 -55t-12 -71.5q0 -34 13 -52.5t35 -26t48 -7.5q25 0 51.5 6t45.5 16l4 -43q-14 -10 -33.5 -16.5t-39 -9t-34.5 -2.5q-44 0 -75 15
t-48 43.5t-17 68.5q0 36 10 72.5t29 67t45.5 49t58.5 18.5q46 0 76 -34t45.5 -90t15.5 -122t-20 -118.5t-70 -85.5q-20 -13 -46 -22t-58.5 -14t-70 -7.5t-80.5 -2.5zM178 -290q-16 0 -27 11t-11 26t11 26.5t27 11.5q15 0 25.5 -11.5t10.5 -26.5t-10.5 -26t-25.5 -11z
M120 -193q-15 0 -26 10.5t-11 25.5q0 16 10.5 27t26.5 11q15 0 26 -11t11 -26q0 -16 -11 -26.5t-26 -10.5zM234 -193q-15 0 -26 10.5t-11 25.5q0 16 11 27t27 11q15 0 25.5 -11t10.5 -26q0 -16 -11 -26.5t-26 -10.5z" />
    <glyph glyph-name="uni06A5.medi" unicode="&#x6a5;" horiz-adv-x="404" 
d="M0 -5l7 49q22 0 45.5 2t46 6.5t44 11t40.5 16.5q32 15 57 37t39.5 50t14.5 61q0 28 -10 56t-29 48t-47 20q-23 0 -44.5 -17.5t-34.5 -46t-13 -62.5q0 -37 15.5 -66t40 -49t52.5 -33l-56 -20q-21 13 -45 35.5t-40.5 55.5t-16.5 78q0 35 11.5 66t31 55.5t46 38.5t54.5 14
q41 0 71 -23.5t47.5 -62t17.5 -81.5q0 -34 -10 -62.5t-27.5 -52t-42 -43t-52.5 -34.5q-23 -13 -48.5 -21.5t-53 -14.5t-55.5 -8.5t-56 -2.5zM404 -5q-34 0 -76 6.5t-80.5 18t-64.5 25.5l46 28q24 -7 54 -13.5t63.5 -11t64.5 -4.5q14 0 21 -6t7 -17t-8.5 -18.5t-26.5 -7.5z
M198 -291q-16 0 -27 11t-11 26t11 26.5t27 11.5q15 0 25.5 -11.5t10.5 -26.5t-10.5 -26t-25.5 -11zM140 -194q-15 0 -26 10.5t-11 25.5q0 16 10.5 27t26.5 11q15 0 26 -11t11 -26q0 -16 -11 -26.5t-26 -10.5zM254 -194q-15 0 -26 10.5t-11 25.5q0 16 11 27t27 11
q15 0 25.5 -11t10.5 -26q0 -16 -11 -26.5t-26 -10.5z" />
    <glyph glyph-name="uni06A5.fina" unicode="&#x6a5;" horiz-adv-x="919" 
d="M323 -21l19 50q50 0 99.5 3t96.5 9.5t87 16t69 23.5q37 17 63 38t39.5 47t13.5 59q0 21 -5.5 43t-16.5 41t-27 31t-37 12q-25 0 -46.5 -19t-34 -49t-12.5 -65t15.5 -62t40 -46t51.5 -32l-56 -21q-20 13 -43.5 34t-40.5 52.5t-17 75.5q0 35 11 67.5t30.5 58.5t46 40.5
t56.5 14.5q41 0 71.5 -24.5t47.5 -64t17 -85.5q0 -30 -9.5 -56.5t-27 -49t-42 -41.5t-54.5 -35q-33 -18 -79.5 -30.5t-100.5 -20.5t-111.5 -11.5t-113.5 -3.5zM919 -5q-39 0 -78.5 6t-76 17.5t-66.5 26.5l47 28q22 -7 50.5 -13.5t62 -11t68.5 -4.5q14 0 20.5 -6t6.5 -17
t-8 -18.5t-26 -7.5zM323 -21q-63 0 -115.5 10.5t-91 33.5t-59.5 58.5t-21 86.5q0 25 4.5 51.5t10.5 52.5t13 49l46 -12q-5 -17 -10.5 -39.5t-9 -46t-3.5 -45.5q0 -50 26 -83t82.5 -49.5t146.5 -16.5l20 -29zM381 -296q-16 0 -27 11t-11 26t11 26.5t27 11.5q15 0 25.5 -11.5
t10.5 -26.5t-10.5 -26t-25.5 -11zM323 -199q-15 0 -26 10.5t-11 25.5q0 16 10.5 27t26.5 11q15 0 26 -11t11 -26q0 -16 -11 -26.5t-26 -10.5zM437 -199q-15 0 -26 10.5t-11 25.5q0 16 11 27t27 11q15 0 25.5 -11t10.5 -26q0 -16 -11 -26.5t-26 -10.5z" />
    <glyph glyph-name="uni06A7.fina" unicode="&#x6a7;" horiz-adv-x="732" 
d="M306 -272q-55 0 -103.5 13t-86 41t-59 72t-21.5 106q0 12 3.5 41t15.5 70t38 88l44 -21q-14 -28 -25.5 -55.5t-18 -56.5t-6.5 -61q0 -69 31.5 -110t83.5 -59t112 -18q34 0 69.5 4.5t68.5 15.5t61.5 29.5t50 47t33.5 67.5q10 25 14.5 57.5t4.5 66.5q0 59 -11 105t-31 73
t-48 27q-20 0 -36.5 -13.5t-28.5 -36t-18.5 -48.5t-6.5 -52q0 -25 9 -40.5t25 -23t39.5 -10.5t50.5 -3h179q14 0 20.5 -6t6.5 -17q0 -12 -8.5 -19t-25.5 -7h-183q-34 0 -63.5 6t-51.5 20t-35 36.5t-13 56.5q0 35 10 71.5t29 67.5t46 50t60 19q43 0 73.5 -33t46.5 -91
t16 -133q0 -42 -7.5 -81.5t-21.5 -71.5q-19 -55 -54.5 -91t-81 -56.5t-96 -28.5t-100.5 -8zM529 441q-16 0 -27 11t-11 26t11 26t27 11q15 0 25.5 -11t10.5 -26t-10.5 -26t-25.5 -11z" />
    <glyph glyph-name="uni06A8.init" unicode="&#x6a8;" horiz-adv-x="389" 
d="M0 -5l7 49q28 0 57.5 1t58 4t53.5 9.5t44 16.5q23 11 40 31.5t26 55.5t9 88q0 48 -10 91.5t-30.5 71t-51.5 27.5q-24 0 -44 -21.5t-32 -55t-12 -71.5q0 -34 13 -52.5t35 -26t48 -7.5q25 0 51.5 6t45.5 16l4 -43q-14 -10 -33.5 -16.5t-39 -9t-34.5 -2.5q-44 0 -75 15
t-48 43.5t-17 68.5q0 36 10 72.5t29 67t45.5 49t58.5 18.5q46 0 76 -34t45.5 -90t15.5 -122t-20 -118.5t-70 -85.5q-20 -13 -46 -22t-58.5 -14t-70 -7.5t-80.5 -2.5zM195 707q-15 0 -26 10.5t-11 25.5q0 16 11 27t26 11q16 0 26.5 -11t10.5 -26q0 -16 -10.5 -26.5
t-26.5 -10.5zM139 610q-15 0 -26.5 11t-11.5 26t11 26t27 11q15 0 26 -11t11 -26t-11 -26t-26 -11zM253 610q-15 0 -26 11t-11 26t11 26t26 11t26 -11t11 -26t-11 -26t-26 -11z" />
    <glyph glyph-name="uni06A8.medi" unicode="&#x6a8;" horiz-adv-x="404" 
d="M0 -5l7 49q22 0 45.5 2t46 6.5t44 11t40.5 16.5q32 15 57 37t39.5 50t14.5 61q0 28 -10 56t-29 48t-47 20q-23 0 -44.5 -17.5t-34.5 -46t-13 -62.5q0 -37 15.5 -66t40 -49t52.5 -33l-56 -20q-21 13 -45 35.5t-40.5 55.5t-16.5 78q0 35 11.5 66t31 55.5t46 38.5t54.5 14
q41 0 71 -23.5t47.5 -62t17.5 -81.5q0 -34 -10 -62.5t-27.5 -52t-42 -43t-52.5 -34.5q-23 -13 -48.5 -21.5t-53 -14.5t-55.5 -8.5t-56 -2.5zM404 -5q-34 0 -76 6.5t-80.5 18t-64.5 25.5l46 28q24 -7 54 -13.5t63.5 -11t64.5 -4.5q14 0 21 -6t7 -17t-8.5 -18.5t-26.5 -7.5z
M206 617q-15 0 -26 10.5t-11 25.5q0 16 11 27t26 11q16 0 26.5 -11t10.5 -26q0 -16 -10.5 -26.5t-26.5 -10.5zM150 520q-15 0 -26.5 11t-11.5 26t11 26t27 11q15 0 26 -11t11 -26t-11 -26t-26 -11zM264 520q-15 0 -26 11t-11 26t11 26t26 11t26 -11t11 -26t-11 -26t-26 -11z
" />
    <glyph glyph-name="uni06A8.fina" unicode="&#x6a8;" horiz-adv-x="732" 
d="M306 -272q-55 0 -103.5 13t-86 41t-59 72t-21.5 106q0 12 3.5 41t15.5 70t38 88l44 -21q-14 -28 -25.5 -55.5t-18 -56.5t-6.5 -61q0 -69 31.5 -110t83.5 -59t112 -18q34 0 69.5 4.5t68.5 15.5t61.5 29.5t50 47t33.5 67.5q10 25 14.5 57.5t4.5 66.5q0 59 -11 105t-31 73
t-48 27q-20 0 -36.5 -13.5t-28.5 -36t-18.5 -48.5t-6.5 -52q0 -25 9 -40.5t25 -23t39.5 -10.5t50.5 -3h179q14 0 20.5 -6t6.5 -17q0 -12 -8.5 -19t-25.5 -7h-183q-34 0 -63.5 6t-51.5 20t-35 36.5t-13 56.5q0 35 10 71.5t29 67.5t46 50t60 19q43 0 73.5 -33t46.5 -91
t16 -133q0 -42 -7.5 -81.5t-21.5 -71.5q-19 -55 -54.5 -91t-81 -56.5t-96 -28.5t-100.5 -8zM530 538q-15 0 -26 10.5t-11 25.5q0 16 11 27t26 11q16 0 26.5 -11t10.5 -26q0 -16 -10.5 -26.5t-26.5 -10.5zM474 441q-15 0 -26.5 11t-11.5 26t11 26t27 11q15 0 26 -11t11 -26
t-11 -26t-26 -11zM588 441q-15 0 -26 11t-11 26t11 26t26 11t26 -11t11 -26t-11 -26t-26 -11z" />
    <glyph glyph-name="uni06AA.init" unicode="&#x6aa;" horiz-adv-x="717" 
d="M0 -5l7 49h266q82 0 145 4.5t107 14t66.5 26.5t22.5 43q0 16 -9.5 31.5t-33.5 29.5t-67 25t-109 19q-94 11 -150 21.5t-81 29.5t-26 53q0 38 26 72t71.5 63.5t103.5 53.5t121 41l11 -46q-98 -28 -160.5 -59.5t-92.5 -62t-30 -55.5q0 -18 19.5 -28.5t65 -17.5t123.5 -17
q65 -8 114.5 -20t83 -29t50 -41.5t16.5 -57.5q0 -44 -28 -72t-80 -43t-122.5 -21t-154.5 -6h-275z" />
    <glyph glyph-name="uni06AA.medi" unicode="&#x6aa;" horiz-adv-x="760" 
d="M760 -5q-30 0 -61 6t-59 19.5t-51 34.5l44 24q29 -17 62 -26t72 -9q15 0 21 -6.5t6 -16.5t-8 -18t-26 -8zM0 -5l7 49h266q82 0 145 4.5t107 14t66.5 26.5t22.5 43q0 16 -9.5 31.5t-33.5 29.5t-67 25t-109 19q-94 11 -150 21.5t-81 29.5t-26 53q0 38 26 72t71.5 63.5
t103.5 53.5t121 41l11 -46q-98 -28 -160.5 -59.5t-92.5 -62t-30 -55.5q0 -18 19.5 -28.5t65 -17.5t123.5 -17q65 -8 114.5 -20t83 -29t50 -41.5t16.5 -57.5q0 -44 -28 -72t-80 -43t-122.5 -21t-154.5 -6h-275z" />
    <glyph glyph-name="uni06AA.fina" unicode="&#x6aa;" horiz-adv-x="984" 
d="M984 -5q-30 0 -61 6t-59 19.5t-51 34.5l44 24q29 -17 62 -26t72 -9q15 0 21 -6.5t6 -16.5t-8 -18t-26 -8zM500 -15q-35 0 -89 1t-117 3t-124 6t-109 9l4 48q50 -4 109 -7.5t119 -6t113.5 -3.5t91.5 -1q81 0 144.5 6t107 18t66 30.5t22.5 43.5q0 16 -9 31.5t-33 29.5
t-67 25t-110 19q-93 11 -149.5 21.5t-81.5 29.5t-25 53q0 38 26 72t71 63.5t103 53.5t121 41l12 -46q-98 -28 -160.5 -59.5t-92.5 -62t-30 -55.5q0 -18 19 -28.5t64.5 -17.5t124.5 -17q65 -8 114 -20t82.5 -29t50.5 -41.5t17 -57.5q0 -44 -28.5 -73.5t-80 -46.5t-122 -24.5
t-154.5 -7.5z" />
    <glyph glyph-name="uni06AB.init" unicode="&#x6ab;" horiz-adv-x="346" 
d="M268 492q-32 0 -53.5 22t-21.5 53q0 32 21.5 54t53.5 22q31 0 53.5 -22t22.5 -54q0 -31 -22.5 -53t-53.5 -22zM268 524q17 0 30.5 13t13.5 30q0 18 -13 31t-31 13t-30.5 -13t-12.5 -31q0 -17 12.5 -30t30.5 -13zM0 -5l7 49h78q48 0 78 9t45.5 23.5t21 33t5.5 39.5
q0 38 -22.5 82t-64.5 91q-35 42 -59.5 68t-39 41t-20.5 23t-6 12q0 11 2 21.5t6 20t9 14.5q20 17 45.5 36.5t59.5 42t78.5 48.5t102.5 58l23 -42q-55 -30 -99 -55.5t-79 -48.5t-64 -44t-54 -42l5 20q38 -43 77.5 -85.5t72.5 -85.5t53.5 -87t20.5 -92q0 -30 -9.5 -56.5
t-32.5 -48t-62.5 -33.5t-99.5 -12h-78z" />
    <glyph glyph-name="uni06AB.medi" unicode="&#x6ab;" horiz-adv-x="414" 
d="M269 491q-32 0 -53.5 22t-21.5 53q0 32 21.5 54t53.5 22q31 0 53.5 -22t22.5 -54q0 -31 -22.5 -53t-53.5 -22zM269 523q18 0 31 13t13 30q0 18 -13 31t-31 13t-30.5 -13t-12.5 -31q0 -17 12.5 -30t30.5 -13zM0 -5l7 49h73q56 0 90 10.5t49.5 33.5t15.5 59q0 27 -15.5 59
t-39.5 66t-51 65.5t-51 58.5t-39.5 45.5t-15.5 25.5q0 11 2.5 22t6.5 20t9 14q22 20 53.5 42.5t69 46.5t79 48t83.5 47l23 -43q-43 -23 -84.5 -47.5t-80 -48.5t-71 -47t-56.5 -44l2 14q30 -35 60.5 -69t60.5 -70.5t56.5 -78t46.5 -91.5q19 -47 39 -77t44.5 -45.5t54.5 -15.5
q14 0 20.5 -6t6.5 -17t-8 -18.5t-26 -7.5q-33 0 -63 15.5t-54.5 47.5t-41.5 82l23 -11q-4 -40 -21.5 -66t-44.5 -41t-61.5 -21t-73.5 -6h-77z" />
    <glyph glyph-name="uni06AB.fina" unicode="&#x6ab;" horiz-adv-x="850" 
d="M697 489q-31 0 -53 22.5t-22 53.5t22 53t53 22t53.5 -22t22.5 -53t-22.5 -53.5t-53.5 -22.5zM697 522q18 0 31 12.5t13 30.5t-13 30.5t-31 12.5t-30.5 -12.5t-12.5 -30.5t12.5 -30.5t30.5 -12.5zM323 -21l19 50q77 0 138 6.5t103 20.5t64 36t22 53q0 29 -15.5 61.5
t-40 66.5t-51.5 65.5t-51.5 58t-40 45t-15.5 25.5q0 11 2 21t6 19.5t10 14.5q28 27 73.5 57.5t100 63.5t110.5 64l24 -43q-59 -32 -114.5 -66t-101.5 -65.5t-79 -57.5l4 16q28 -31 60.5 -66.5t65 -75.5t59.5 -83t44 -87q12 -28 25 -52t29.5 -42.5t37 -29.5t45.5 -11
q14 0 21 -6t7 -17t-8 -18.5t-26 -7.5q-34 0 -65 16t-55 48.5t-40 80.5l23 -11q-6 -43 -34 -72t-76.5 -46t-118 -24.5t-161.5 -7.5zM323 -21q-63 0 -115.5 10.5t-91 33.5t-59.5 58.5t-21 86.5q0 25 4.5 51.5t10.5 52.5t13 49l46 -12q-5 -17 -10.5 -39.5t-9 -46t-3.5 -45.5
q0 -50 26 -83t82.5 -49.5t146.5 -16.5l20 -29z" />
    <glyph glyph-name="uni06AC.init" unicode="&#x6ac;" horiz-adv-x="346" 
d="M0 -5l7 49h78q48 0 78 9t45.5 23.5t21 33t5.5 39.5q0 38 -22.5 82t-64.5 91q-35 42 -59.5 68t-39 41t-20.5 23t-6 12q0 11 2 21.5t6 20t9 14.5q20 17 45.5 36.5t59.5 42t78.5 48.5t102.5 58l23 -42q-55 -30 -99 -55.5t-79 -48.5t-64 -44t-54 -42l5 20q38 -43 77.5 -85.5
t72.5 -85.5t53.5 -87t20.5 -92q0 -30 -9.5 -56.5t-32.5 -48t-62.5 -33.5t-99.5 -12h-78zM155 733q-16 0 -27 11t-11 26t11 26t27 11q15 0 25.5 -11t10.5 -26t-10.5 -26t-25.5 -11z" />
    <glyph glyph-name="uni06AC.medi" unicode="&#x6ac;" horiz-adv-x="414" 
d="M0 -5l7 49h73q56 0 90 10.5t49.5 33.5t15.5 59q0 27 -15.5 59t-39.5 66t-51 65.5t-51 58.5t-39.5 45.5t-15.5 25.5q0 11 2.5 22t6.5 20t9 14q22 20 53.5 42.5t69 46.5t79 48t83.5 47l23 -43q-43 -23 -84.5 -47.5t-80 -48.5t-71 -47t-56.5 -44l2 14q30 -35 60.5 -69
t60.5 -70.5t56.5 -78t46.5 -91.5q19 -47 39 -77t44.5 -45.5t54.5 -15.5q14 0 20.5 -6t6.5 -17t-8 -18.5t-26 -7.5q-33 0 -63 15.5t-54.5 47.5t-41.5 82l23 -11q-4 -40 -21.5 -66t-44.5 -41t-61.5 -21t-73.5 -6h-77zM148 732q-16 0 -27 11t-11 26t11 26t27 11q15 0 25.5 -11
t10.5 -26t-10.5 -26t-25.5 -11z" />
    <glyph glyph-name="uni06AC.fina" unicode="&#x6ac;" horiz-adv-x="785" 
d="M323 -21l19 50q88 0 145.5 8t91 26t47.5 47t12 70l-19 527h50l19 -519q3 -52 13 -83.5t32 -46t59 -14.5q14 0 20.5 -6t6.5 -17t-8 -18.5t-26 -7.5q-36 0 -62 11.5t-41.5 34.5t-18.5 61l19 -1q-15 -36 -43.5 -59.5t-72 -37t-104 -19.5t-139.5 -6zM310 209l-12 41
q46 12 71.5 23t36 20.5t10.5 16.5q0 14 -12.5 24.5t-29 22t-29.5 25.5t-13 35q0 15 9.5 33.5t34 39.5t69.5 45l20 -37q-42 -20 -66.5 -41t-24.5 -39q0 -13 13 -24t29 -23t29 -27t13 -36q0 -12 -6.5 -24.5t-23 -25t-45.5 -24.5t-73 -25zM323 -21q-63 0 -115.5 10.5t-91 33.5
t-59.5 58.5t-21 86.5q0 25 4.5 51.5t10.5 52.5t13 49l46 -12q-5 -17 -10.5 -39.5t-9 -46t-3.5 -45.5q0 -50 26 -83t82.5 -49.5t146.5 -16.5l20 -29zM388 648q-16 0 -27 11t-11 26t11 26t27 11q15 0 25.5 -11t10.5 -26t-10.5 -26t-25.5 -11z" />
    <glyph glyph-name="uni06AE.init" unicode="&#x6ae;" horiz-adv-x="346" 
d="M0 -5l7 49h78q48 0 78 9t45.5 23.5t21 33t5.5 39.5q0 38 -22.5 82t-64.5 91q-35 42 -59.5 68t-39 41t-20.5 23t-6 12q0 11 2 21.5t6 20t9 14.5q20 17 45.5 36.5t59.5 42t78.5 48.5t102.5 58l23 -42q-55 -30 -99 -55.5t-79 -48.5t-64 -44t-54 -42l5 20q38 -43 77.5 -85.5
t72.5 -85.5t53.5 -87t20.5 -92q0 -30 -9.5 -56.5t-32.5 -48t-62.5 -33.5t-99.5 -12h-78zM146 -273q-16 0 -27 11t-11 26t11 26.5t27 11.5q15 0 25.5 -11.5t10.5 -26.5t-10.5 -26t-25.5 -11zM88 -176q-15 0 -26 10.5t-11 25.5q0 16 10.5 27t26.5 11q15 0 26 -11t11 -26
q0 -16 -11 -26.5t-26 -10.5zM202 -176q-15 0 -26 10.5t-11 25.5q0 16 11 27t27 11q15 0 25.5 -11t10.5 -26q0 -16 -11 -26.5t-26 -10.5z" />
    <glyph glyph-name="uni06AE.medi" unicode="&#x6ae;" horiz-adv-x="414" 
d="M0 -5l7 49h73q56 0 90 10.5t49.5 33.5t15.5 59q0 27 -15.5 59t-39.5 66t-51 65.5t-51 58.5t-39.5 45.5t-15.5 25.5q0 11 2.5 22t6.5 20t9 14q22 20 53.5 42.5t69 46.5t79 48t83.5 47l23 -43q-43 -23 -84.5 -47.5t-80 -48.5t-71 -47t-56.5 -44l2 14q30 -35 60.5 -69
t60.5 -70.5t56.5 -78t46.5 -91.5q19 -47 39 -77t44.5 -45.5t54.5 -15.5q14 0 20.5 -6t6.5 -17t-8 -18.5t-26 -7.5q-33 0 -63 15.5t-54.5 47.5t-41.5 82l23 -11q-4 -40 -21.5 -66t-44.5 -41t-61.5 -21t-73.5 -6h-77zM137 -273q-16 0 -27 11t-11 26t11 26.5t27 11.5
q15 0 25.5 -11.5t10.5 -26.5t-10.5 -26t-25.5 -11zM79 -176q-15 0 -26 10.5t-11 25.5q0 16 10.5 27t26.5 11q15 0 26 -11t11 -26q0 -16 -11 -26.5t-26 -10.5zM193 -176q-15 0 -26 10.5t-11 25.5q0 16 11 27t27 11q15 0 25.5 -11t10.5 -26q0 -16 -11 -26.5t-26 -10.5z" />
    <glyph glyph-name="uni06AE.fina" unicode="&#x6ae;" horiz-adv-x="785" 
d="M323 -21l19 50q88 0 145.5 8t91 26t47.5 47t12 70l-19 527h50l19 -519q3 -52 13 -83.5t32 -46t59 -14.5q14 0 20.5 -6t6.5 -17t-8 -18.5t-26 -7.5q-36 0 -62 11.5t-41.5 34.5t-18.5 61l19 -1q-15 -36 -43.5 -59.5t-72 -37t-104 -19.5t-139.5 -6zM310 209l-12 41
q46 12 71.5 23t36 20.5t10.5 16.5q0 14 -12.5 24.5t-29 22t-29.5 25.5t-13 35q0 15 9.5 33.5t34 39.5t69.5 45l20 -37q-42 -20 -66.5 -41t-24.5 -39q0 -13 13 -24t29 -23t29 -27t13 -36q0 -12 -6.5 -24.5t-23 -25t-45.5 -24.5t-73 -25zM323 -21q-63 0 -115.5 10.5t-91 33.5
t-59.5 58.5t-21 86.5q0 25 4.5 51.5t10.5 52.5t13 49l46 -12q-5 -17 -10.5 -39.5t-9 -46t-3.5 -45.5q0 -50 26 -83t82.5 -49.5t146.5 -16.5l20 -29zM342 -294q-16 0 -27 11t-11 26t11 26.5t27 11.5q15 0 25.5 -11.5t10.5 -26.5t-10.5 -26t-25.5 -11zM284 -197
q-15 0 -26 10.5t-11 25.5q0 16 10.5 27t26.5 11q15 0 26 -11t11 -26q0 -16 -11 -26.5t-26 -10.5zM398 -197q-15 0 -26 10.5t-11 25.5q0 16 11 27t27 11q15 0 25.5 -11t10.5 -26q0 -16 -11 -26.5t-26 -10.5z" />
    <glyph glyph-name="uni06B0.init" unicode="&#x6b0;" horiz-adv-x="344" 
d="M270 493q-31 0 -53 22.5t-22 53.5t22 53t53 22t53.5 -22t22.5 -53t-22.5 -53.5t-53.5 -22.5zM270 526q18 0 31 12.5t13 30.5t-13 30.5t-31 12.5t-30.5 -12.5t-12.5 -30.5t12.5 -30.5t30.5 -12.5zM14 587l-24 38q39 27 80 53.5t90 56t109 64.5l22 -40q-59 -34 -108 -63.5
t-89.5 -56t-79.5 -52.5zM0 -5l7 49h78q48 0 78 9t45.5 23.5t21 33t5.5 39.5q0 38 -22.5 82t-64.5 91q-35 42 -59.5 68t-39 41t-20.5 23t-6 12q0 11 2 21.5t6 20t9 14.5q20 17 45.5 36.5t59.5 42t78.5 48.5t102.5 58l23 -42q-55 -30 -99 -55.5t-79 -48.5t-64 -44t-54 -42
l5 20q38 -43 77.5 -85.5t72.5 -85.5t53.5 -87t20.5 -92q0 -30 -9.5 -56.5t-32.5 -48t-62.5 -33.5t-99.5 -12h-78z" />
    <glyph glyph-name="uni06B0.medi" unicode="&#x6b0;" horiz-adv-x="414" 
d="M272 493q-31 0 -53 22.5t-22 53.5t22 53t53 22q32 0 54 -22t22 -53t-22 -53.5t-54 -22.5zM272 526q18 0 31 12.5t13 30.5t-13 30.5t-31 12.5q-17 0 -30 -12.5t-13 -30.5t13 -30.5t30 -12.5zM13 587l-24 38q39 27 80 53.5t90 56t109 64.5l22 -40q-59 -34 -108 -63.5
t-89.5 -56t-79.5 -52.5zM0 -5l7 49h73q56 0 90 10.5t49.5 33.5t15.5 59q0 27 -15.5 59t-39.5 66t-51 65.5t-51 58.5t-39.5 45.5t-15.5 25.5q0 11 2.5 22t6.5 20t9 14q22 20 53.5 42.5t69 46.5t79 48t83.5 47l23 -43q-43 -23 -84.5 -47.5t-80 -48.5t-71 -47t-56.5 -44l2 14
q30 -35 60.5 -69t60.5 -70.5t56.5 -78t46.5 -91.5q19 -47 39 -77t44.5 -45.5t54.5 -15.5q14 0 20.5 -6t6.5 -17t-8 -18.5t-26 -7.5q-33 0 -63 15.5t-54.5 47.5t-41.5 82l23 -11q-4 -40 -21.5 -66t-44.5 -41t-61.5 -21t-73.5 -6h-77z" />
    <glyph glyph-name="uni06B0.fina" unicode="&#x6b0;" horiz-adv-x="842" 
d="M698 490q-31 0 -53 22t-22 53q0 32 22 54t53 22t53.5 -22t22.5 -54q0 -31 -22.5 -53t-53.5 -22zM698 522q18 0 31 13t13 30q0 18 -13 31t-31 13t-30.5 -13t-12.5 -31q0 -17 12.5 -30t30.5 -13zM445 588l-24 38q38 27 79.5 53.5t90.5 56.5t109 64l22 -39
q-60 -35 -108 -64.5t-89.5 -56t-79.5 -52.5zM323 -21l19 50q77 0 138 6.5t103 20.5t64 36t22 53q0 29 -15.5 61.5t-40 66.5t-51.5 65.5t-51.5 58t-40 45t-15.5 25.5q0 11 2 21t6 19.5t10 14.5q28 27 73.5 57.5t100 63.5t110.5 64l24 -43q-59 -32 -114.5 -66t-101.5 -65.5
t-79 -57.5l4 16q28 -31 60.5 -66.5t65 -75.5t59.5 -83t44 -87q12 -28 25 -52t29.5 -42.5t37 -29.5t45.5 -11q14 0 21 -6t7 -17t-8 -18.5t-26 -7.5q-34 0 -65 16t-55 48.5t-40 80.5l23 -11q-6 -43 -34 -72t-76.5 -46t-118 -24.5t-161.5 -7.5zM323 -21q-63 0 -115.5 10.5
t-91 33.5t-59.5 58.5t-21 86.5q0 25 4.5 51.5t10.5 52.5t13 49l46 -12q-5 -17 -10.5 -39.5t-9 -46t-3.5 -45.5q0 -50 26 -83t82.5 -49.5t146.5 -16.5l20 -29z" />
    <glyph glyph-name="uni06B2.init" unicode="&#x6b2;" horiz-adv-x="344" 
d="M14 587l-24 38q39 27 80 53.5t90 56t109 64.5l22 -40q-59 -34 -108 -63.5t-89.5 -56t-79.5 -52.5zM0 -5l7 49h78q48 0 78 9t45.5 23.5t21 33t5.5 39.5q0 38 -22.5 82t-64.5 91q-35 42 -59.5 68t-39 41t-20.5 23t-6 12q0 11 2 21.5t6 20t9 14.5q20 17 45.5 36.5t59.5 42
t78.5 48.5t102.5 58l23 -42q-55 -30 -99 -55.5t-79 -48.5t-64 -44t-54 -42l5 20q38 -43 77.5 -85.5t72.5 -85.5t53.5 -87t20.5 -92q0 -30 -9.5 -56.5t-32.5 -48t-62.5 -33.5t-99.5 -12h-78zM206 -175q-16 0 -27 10.5t-11 25.5q0 16 11 27t27 11q15 0 26 -11t11 -26
q0 -16 -11 -26.5t-26 -10.5zM91 -175q-15 0 -26 10.5t-11 25.5q0 16 11 27t26 11q16 0 26.5 -11t10.5 -26q0 -16 -11 -26.5t-26 -10.5z" />
    <glyph glyph-name="uni06B2.medi" unicode="&#x6b2;" horiz-adv-x="414" 
d="M13 587l-24 38q39 27 80 53.5t90 56t109 64.5l22 -40q-59 -34 -108 -63.5t-89.5 -56t-79.5 -52.5zM0 -5l7 49h73q56 0 90 10.5t49.5 33.5t15.5 59q0 27 -15.5 59t-39.5 66t-51 65.5t-51 58.5t-39.5 45.5t-15.5 25.5q0 11 2.5 22t6.5 20t9 14q22 20 53.5 42.5t69 46.5
t79 48t83.5 47l23 -43q-43 -23 -84.5 -47.5t-80 -48.5t-71 -47t-56.5 -44l2 14q30 -35 60.5 -69t60.5 -70.5t56.5 -78t46.5 -91.5q19 -47 39 -77t44.5 -45.5t54.5 -15.5q14 0 20.5 -6t6.5 -17t-8 -18.5t-26 -7.5q-33 0 -63 15.5t-54.5 47.5t-41.5 82l23 -11
q-4 -40 -21.5 -66t-44.5 -41t-61.5 -21t-73.5 -6h-77zM211 -175q-16 0 -27 10.5t-11 25.5q0 16 11 27t27 11q15 0 26 -11t11 -26q0 -16 -11 -26.5t-26 -10.5zM96 -175q-15 0 -26 10.5t-11 25.5q0 16 11 27t26 11q16 0 26.5 -11t10.5 -26q0 -16 -11 -26.5t-26 -10.5z" />
    <glyph glyph-name="uni06B2.fina" unicode="&#x6b2;" horiz-adv-x="842" 
d="M445 588l-24 38q38 27 79.5 53.5t90.5 56.5t109 64l22 -39q-60 -35 -108 -64.5t-89.5 -56t-79.5 -52.5zM323 -21l19 50q77 0 138 6.5t103 20.5t64 36t22 53q0 29 -15.5 61.5t-40 66.5t-51.5 65.5t-51.5 58t-40 45t-15.5 25.5q0 11 2 21t6 19.5t10 14.5q28 27 73.5 57.5
t100 63.5t110.5 64l24 -43q-59 -32 -114.5 -66t-101.5 -65.5t-79 -57.5l4 16q28 -31 60.5 -66.5t65 -75.5t59.5 -83t44 -87q12 -28 25 -52t29.5 -42.5t37 -29.5t45.5 -11q14 0 21 -6t7 -17t-8 -18.5t-26 -7.5q-34 0 -65 16t-55 48.5t-40 80.5l23 -11q-6 -43 -34 -72
t-76.5 -46t-118 -24.5t-161.5 -7.5zM323 -21q-63 0 -115.5 10.5t-91 33.5t-59.5 58.5t-21 86.5q0 25 4.5 51.5t10.5 52.5t13 49l46 -12q-5 -17 -10.5 -39.5t-9 -46t-3.5 -45.5q0 -50 26 -83t82.5 -49.5t146.5 -16.5l20 -29zM419 -196q-16 0 -27 10.5t-11 25.5q0 16 11 27
t27 11q15 0 26 -11t11 -26q0 -16 -11 -26.5t-26 -10.5zM304 -196q-15 0 -26 10.5t-11 25.5q0 16 11 27t26 11q16 0 26.5 -11t10.5 -26q0 -16 -11 -26.5t-26 -10.5z" />
    <glyph glyph-name="uni06B4.init" unicode="&#x6b4;" horiz-adv-x="344" 
d="M61 871q-15 0 -25.5 10.5t-10.5 24.5q0 15 10.5 25.5t25.5 10.5q14 0 24 -10.5t10 -25.5q0 -14 -10 -24.5t-24 -10.5zM51 746q-15 0 -25.5 10.5t-10.5 24.5t10.5 24.5t25.5 10.5q14 0 24 -10.5t10 -24.5t-10 -24.5t-24 -10.5zM163 797q-15 0 -25.5 10.5t-10.5 24.5
q0 15 10.5 25.5t25.5 10.5q14 0 24 -10.5t10 -25.5q0 -14 -10 -24.5t-24 -10.5zM14 587l-24 38q39 27 80 53.5t90 56t109 64.5l22 -40q-59 -34 -108 -63.5t-89.5 -56t-79.5 -52.5zM0 -5l7 49h78q48 0 78 9t45.5 23.5t21 33t5.5 39.5q0 38 -22.5 82t-64.5 91q-35 42 -59.5 68
t-39 41t-20.5 23t-6 12q0 11 2 21.5t6 20t9 14.5q20 17 45.5 36.5t59.5 42t78.5 48.5t102.5 58l23 -42q-55 -30 -99 -55.5t-79 -48.5t-64 -44t-54 -42l5 20q38 -43 77.5 -85.5t72.5 -85.5t53.5 -87t20.5 -92q0 -30 -9.5 -56.5t-32.5 -48t-62.5 -33.5t-99.5 -12h-78z" />
    <glyph glyph-name="uni06B4.medi" unicode="&#x6b4;" horiz-adv-x="414" 
d="M60 871q-15 0 -25.5 10.5t-10.5 24.5q0 15 10.5 25t25.5 10q14 0 24.5 -10t10.5 -25q0 -14 -10.5 -24.5t-24.5 -10.5zM50 746q-15 0 -25.5 10t-10.5 25q0 14 10.5 24.5t25.5 10.5q14 0 24.5 -10.5t10.5 -24.5q0 -15 -10.5 -25t-24.5 -10zM162 797q-15 0 -25.5 10.5
t-10.5 24.5q0 15 10.5 25t25.5 10q14 0 24.5 -10t10.5 -25q0 -14 -10.5 -24.5t-24.5 -10.5zM13 587l-24 38q39 27 80 53.5t90 56t109 64.5l22 -40q-59 -34 -108 -63.5t-89.5 -56t-79.5 -52.5zM0 -5l7 49h73q56 0 90 10.5t49.5 33.5t15.5 59q0 27 -15.5 59t-39.5 66t-51 65.5
t-51 58.5t-39.5 45.5t-15.5 25.5q0 11 2.5 22t6.5 20t9 14q22 20 53.5 42.5t69 46.5t79 48t83.5 47l23 -43q-43 -23 -84.5 -47.5t-80 -48.5t-71 -47t-56.5 -44l2 14q30 -35 60.5 -69t60.5 -70.5t56.5 -78t46.5 -91.5q19 -47 39 -77t44.5 -45.5t54.5 -15.5q14 0 20.5 -6
t6.5 -17t-8 -18.5t-26 -7.5q-33 0 -63 15.5t-54.5 47.5t-41.5 82l23 -11q-4 -40 -21.5 -66t-44.5 -41t-61.5 -21t-73.5 -6h-77z" />
    <glyph glyph-name="uni06B4.fina" unicode="&#x6b4;" horiz-adv-x="842" 
d="M483 872q-16 0 -26 10.5t-10 24.5t10 24.5t26 10.5q14 0 24 -10.5t10 -24.5t-10 -24.5t-24 -10.5zM473 746q-16 0 -26 10.5t-10 24.5q0 15 10 25.5t26 10.5q14 0 24 -10.5t10 -25.5q0 -14 -10 -24.5t-24 -10.5zM585 798q-16 0 -26 10.5t-10 24.5t10 24.5t26 10.5
q14 0 24 -10.5t10 -24.5t-10 -24.5t-24 -10.5zM445 588l-24 38q38 27 79.5 53.5t90.5 56.5t109 64l22 -39q-60 -35 -108 -64.5t-89.5 -56t-79.5 -52.5zM323 -21l19 50q77 0 138 6.5t103 20.5t64 36t22 53q0 29 -15.5 61.5t-40 66.5t-51.5 65.5t-51.5 58t-40 45t-15.5 25.5
q0 11 2 21t6 19.5t10 14.5q28 27 73.5 57.5t100 63.5t110.5 64l24 -43q-59 -32 -114.5 -66t-101.5 -65.5t-79 -57.5l4 16q28 -31 60.5 -66.5t65 -75.5t59.5 -83t44 -87q12 -28 25 -52t29.5 -42.5t37 -29.5t45.5 -11q14 0 21 -6t7 -17t-8 -18.5t-26 -7.5q-34 0 -65 16
t-55 48.5t-40 80.5l23 -11q-6 -43 -34 -72t-76.5 -46t-118 -24.5t-161.5 -7.5zM323 -21q-63 0 -115.5 10.5t-91 33.5t-59.5 58.5t-21 86.5q0 25 4.5 51.5t10.5 52.5t13 49l46 -12q-5 -17 -10.5 -39.5t-9 -46t-3.5 -45.5q0 -50 26 -83t82.5 -49.5t146.5 -16.5l20 -29z" />
    <glyph glyph-name="uni06B5.init" unicode="&#x6b5;" horiz-adv-x="205" 
d="M0 -5l7 49q45 0 65 14t25 46t3 86l-19 517h49l20 -511q2 -52 -3 -89.5t-20.5 -62.5t-46 -37t-80.5 -12zM86 837q-6 15 -15.5 39.5t-20.5 52.5t-21 53t-18 41l31 15q5 -10 14.5 -32.5t20.5 -49.5t20.5 -51.5t14.5 -38.5l13 -25zM125 841l-30 10q6 17 15.5 45.5t20.5 58.5
t20 53.5t12 31.5l31 -13q-4 -9 -13 -33t-20 -54t-20.5 -56.5t-15.5 -42.5z" />
    <glyph glyph-name="uni06B5.medi" unicode="&#x6b5;" horiz-adv-x="241" 
d="M0 -5l7 49q43 0 63 17.5t24.5 53t2.5 90.5l-17 502h50l17 -500q3 -64 14 -99.5t32.5 -49.5t54.5 -14q13 0 20 -6t7 -17t-8 -18.5t-26 -7.5q-32 0 -57 13.5t-40 37t-20 52.5l18 -1q-9 -32 -26.5 -54.5t-45.5 -35t-70 -12.5zM86 837q-6 15 -15.5 39.5t-20.5 52.5t-21 53
t-18 41l31 15q5 -10 14.5 -32.5t20.5 -49.5t20.5 -51.5t14.5 -38.5l13 -25zM125 841l-30 10q6 17 15.5 45.5t20.5 58.5t20 53.5t12 31.5l31 -13q-4 -9 -13 -33t-20 -54t-20.5 -56.5t-15.5 -42.5z" />
    <glyph glyph-name="uni06B5.fina" unicode="&#x6b5;" horiz-adv-x="632" 
d="M43 -20q0 20 4 47.5t14.5 63.5t31.5 80l44 -21q-14 -31 -24 -60t-15 -55t-5 -51q0 -53 22.5 -90t61.5 -56t89 -19q79 0 124.5 37t64.5 111t14 185l-18 555h51l17 -519q2 -46 19 -78.5t44 -49t57 -16.5q14 0 20.5 -6t6.5 -17t-8 -18.5t-26 -7.5q-24 0 -45.5 8t-37.5 23
t-26.5 33.5t-13.5 40.5l10 -19q-3 -63 -16.5 -119t-42.5 -99.5t-77 -68t-120 -24.5q-47 0 -87.5 13.5t-70 40.5t-46 66.5t-16.5 89.5zM242 587q-6 15 -15.5 39.5t-20.5 52.5t-21 53t-18 41l31 15q5 -10 14.5 -32.5t20.5 -49.5t20.5 -51.5t14.5 -38.5l13 -25zM281 591l-30 10
q6 17 15.5 45.5t20.5 58.5t20 53.5t12 31.5l31 -13q-4 -9 -13 -33t-20 -54t-20.5 -56.5t-15.5 -42.5z" />
    <glyph glyph-name="uni06B6.init" unicode="&#x6b6;" horiz-adv-x="205" 
d="M0 -5l7 49q45 0 65 14t25 46t3 86l-19 517h49l20 -511q2 -52 -3 -89.5t-20.5 -62.5t-46 -37t-80.5 -12zM105 826q-16 0 -27 11t-11 26t11 26t27 11q15 0 25.5 -11t10.5 -26t-10.5 -26t-25.5 -11z" />
    <glyph glyph-name="uni06B6.medi" unicode="&#x6b6;" horiz-adv-x="241" 
d="M0 -5l7 49q43 0 63 17.5t24.5 53t2.5 90.5l-17 502h50l17 -500q3 -64 14 -99.5t32.5 -49.5t54.5 -14q13 0 20 -6t7 -17t-8 -18.5t-26 -7.5q-32 0 -57 13.5t-40 37t-20 52.5l18 -1q-9 -32 -26.5 -54.5t-45.5 -35t-70 -12.5zM104 826q-16 0 -27 11t-11 26t11 26t27 11
q15 0 25.5 -11t10.5 -26t-10.5 -26t-25.5 -11z" />
    <glyph glyph-name="uni06B6.fina" unicode="&#x6b6;" horiz-adv-x="632" 
d="M43 -20q0 20 4 47.5t14.5 63.5t31.5 80l44 -21q-14 -31 -24 -60t-15 -55t-5 -51q0 -53 22.5 -90t61.5 -56t89 -19q79 0 124.5 37t64.5 111t14 185l-18 555h51l17 -519q2 -46 19 -78.5t44 -49t57 -16.5q14 0 20.5 -6t6.5 -17t-8 -18.5t-26 -7.5q-24 0 -45.5 8t-37.5 23
t-26.5 33.5t-13.5 40.5l10 -19q-3 -63 -16.5 -119t-42.5 -99.5t-77 -68t-120 -24.5q-47 0 -87.5 13.5t-70 40.5t-46 66.5t-16.5 89.5zM261 576q-16 0 -27 11t-11 26t11 26t27 11q15 0 25.5 -11t10.5 -26t-10.5 -26t-25.5 -11z" />
    <glyph glyph-name="uni06B7.init" unicode="&#x6b7;" horiz-adv-x="205" 
d="M0 -5l7 49q45 0 65 14t25 46t3 86l-19 517h49l20 -511q2 -52 -3 -89.5t-20.5 -62.5t-46 -37t-80.5 -12zM105 923q-15 0 -26 10.5t-11 25.5q0 16 11 27t26 11q16 0 26.5 -11t10.5 -26q0 -16 -10.5 -26.5t-26.5 -10.5zM49 826q-15 0 -26.5 11t-11.5 26t11 26t27 11
q15 0 26 -11t11 -26t-11 -26t-26 -11zM163 826q-15 0 -26 11t-11 26t11 26t26 11t26 -11t11 -26t-11 -26t-26 -11z" />
    <glyph glyph-name="uni06B7.medi" unicode="&#x6b7;" horiz-adv-x="241" 
d="M0 -5l7 49q43 0 63 17.5t24.5 53t2.5 90.5l-17 502h50l17 -500q3 -64 14 -99.5t32.5 -49.5t54.5 -14q13 0 20 -6t7 -17t-8 -18.5t-26 -7.5q-32 0 -57 13.5t-40 37t-20 52.5l18 -1q-9 -32 -26.5 -54.5t-45.5 -35t-70 -12.5zM105 923q-15 0 -26 10.5t-11 25.5q0 16 11 27
t26 11q16 0 26.5 -11t10.5 -26q0 -16 -10.5 -26.5t-26.5 -10.5zM49 826q-15 0 -26.5 11t-11.5 26t11 26t27 11q15 0 26 -11t11 -26t-11 -26t-26 -11zM163 826q-15 0 -26 11t-11 26t11 26t26 11t26 -11t11 -26t-11 -26t-26 -11z" />
    <glyph glyph-name="uni06B7.fina" unicode="&#x6b7;" horiz-adv-x="632" 
d="M43 -20q0 20 4 47.5t14.5 63.5t31.5 80l44 -21q-14 -31 -24 -60t-15 -55t-5 -51q0 -53 22.5 -90t61.5 -56t89 -19q79 0 124.5 37t64.5 111t14 185l-18 555h51l17 -519q2 -46 19 -78.5t44 -49t57 -16.5q14 0 20.5 -6t6.5 -17t-8 -18.5t-26 -7.5q-24 0 -45.5 8t-37.5 23
t-26.5 33.5t-13.5 40.5l10 -19q-3 -63 -16.5 -119t-42.5 -99.5t-77 -68t-120 -24.5q-47 0 -87.5 13.5t-70 40.5t-46 66.5t-16.5 89.5zM261 673q-15 0 -26 10.5t-11 25.5q0 16 11 27t26 11q16 0 26.5 -11t10.5 -26q0 -16 -10.5 -26.5t-26.5 -10.5zM205 576q-15 0 -26.5 11
t-11.5 26t11 26t27 11q15 0 26 -11t11 -26t-11 -26t-26 -11zM319 576q-15 0 -26 11t-11 26t11 26t26 11t26 -11t11 -26t-11 -26t-26 -11z" />
    <glyph glyph-name="uni06B8.init" unicode="&#x6b8;" horiz-adv-x="205" 
d="M0 -5l7 49q45 0 65 14t25 46t3 86l-19 517h49l20 -511q2 -52 -3 -89.5t-20.5 -62.5t-46 -37t-80.5 -12zM98 -273q-16 0 -27 11t-11 26t11 26.5t27 11.5q15 0 25.5 -11.5t10.5 -26.5t-10.5 -26t-25.5 -11zM40 -176q-15 0 -26 10.5t-11 25.5q0 16 10.5 27t26.5 11
q15 0 26 -11t11 -26q0 -16 -11 -26.5t-26 -10.5zM154 -176q-15 0 -26 10.5t-11 25.5q0 16 11 27t27 11q15 0 25.5 -11t10.5 -26q0 -16 -11 -26.5t-26 -10.5z" />
    </font>
</defs>
</svg>
