<?xml version="1.0" standalone="no"?>
<!DOCTYPE svg PUBLIC "-//W3C//DTD SVG 1.1//EN" "http://www.w3.org/Graphics/SVG/1.1/DTD/svg11.dtd" >
<svg xmlns="http://www.w3.org/2000/svg" xmlns:xlink="http://www.w3.org/1999/xlink" version="1.1">
<metadata>
Created by FontForge 20170731 at Thu Nov 12 05:28:44 2020
 By Aleksey,,,
Copyright 2015-2020 Google LLC. All Rights Reserved.
</metadata>
<defs>
<font id="NotoSansArabicCondensed-Regular" horiz-adv-x="0" >
  <font-face 
    font-family="Noto Sans Arabic Condensed"
    font-weight="400"
    font-stretch="condensed"
    units-per-em="1000"
    panose-1="0 0 0 0 0 0 0 0 0 0"
    ascent="800"
    descent="-200"
    bbox="-220 -573 2030 1080"
    underline-thickness="50"
    underline-position="-175"
    unicode-range="U+000D-FEFC"
  />
<missing-glyph horiz-adv-x="600" 
d="M94 0v714h411v-714h-411zM145 51h309v612h-309v-612z" />
    <glyph glyph-name="uniFC43" unicode="&#xfedf;&#xfef0;" horiz-adv-x="888" arabic-form="isolated" 
d="M658 -5l9 76q42 0 60 12.5t21.5 42t1.5 79.5l-19 495h76l20 -486q2 -53 -3 -94t-23 -69t-52.5 -42t-90.5 -14zM43 -15q0 29 5 60.5t17 66.5t29 70l65 -30q-12 -30 -22 -56t-14.5 -50t-4.5 -48q0 -48 19.5 -78t50.5 -46.5t66.5 -22.5t68.5 -6q56 0 99 12.5t72.5 33
t44.5 43.5t15 43q0 12 -8.5 23t-27 22.5t-47 22.5t-69.5 23l19 73q59 -22 100 -36t68.5 -21t46 -9.5t32.5 -3.5q21 0 30.5 -9.5t9.5 -26.5q0 -16 -11 -28t-38 -12h-10.5h-12.5h-11q2 -5 3 -12.5t1 -16.5q0 -32 -20.5 -66.5t-61 -64t-100 -48t-137.5 -18.5q-88 0 -147 28
t-89.5 76.5t-30.5 111.5z" />
    <glyph glyph-name="uniFC86" unicode="&#xfee0;&#xfef0;" horiz-adv-x="908" arabic-form="final" 
d="M658 -5l10 76q37 0 53.5 12.5t20 42t1.5 79.5l-17 495h76l18 -493q2 -51 13 -81t32.5 -42.5t52.5 -12.5q21 0 30.5 -9.5t9.5 -26.5q0 -16 -11.5 -28t-38.5 -12q-32 0 -58 11.5t-42.5 33t-20.5 49.5l25 -2q-10 -30 -30.5 -50.5t-51 -31t-72.5 -10.5zM43 -15q0 29 5 60.5
t17 66.5t29 70l65 -30q-12 -30 -22 -56t-14.5 -50t-4.5 -48q0 -48 19.5 -78t50.5 -46.5t66.5 -22.5t68.5 -6q56 0 99 12.5t72.5 33t44.5 43.5t15 43q0 12 -8.5 23t-27 22.5t-47 22.5t-69.5 23l19 73q59 -22 100 -36t68.5 -21t46 -9.5t32.5 -3.5q21 0 30.5 -9.5t9.5 -26.5
q0 -16 -11 -28t-38 -12h-10.5h-12.5h-11q2 -5 3 -12.5t1 -16.5q0 -32 -20.5 -66.5t-61 -64t-100 -48t-137.5 -18.5q-88 0 -147 28t-89.5 76.5t-30.5 111.5z" />
    <glyph glyph-name="uniFD82" unicode="&#xfee0;&#xfea4;&#xfef0;" horiz-adv-x="1419" arabic-form="final" 
d="M1169 -5l10 76q37 0 53.5 12.5t20 42t1.5 79.5l-17 495h76l18 -493q2 -51 13 -81t32.5 -42.5t52.5 -12.5q21 0 30.5 -9.5t9.5 -26.5q0 -16 -11.5 -28t-38.5 -12q-32 0 -58 11.5t-42.5 33t-20.5 49.5l25 -2q-10 -30 -30.5 -50.5t-51 -31t-72.5 -10.5zM1169 -5
q-34 0 -61.5 6t-49.5 22t-37.5 44t-25.5 73l54 29q13 -40 27 -61t38 -29t65 -8q21 0 30.5 -9.5t9.5 -26.5q0 -16 -11.5 -28t-38.5 -12zM658 -5l9 76q49 0 89 9t76 25.5t73 39t79 49.5q-32 23 -60 42t-58.5 30.5t-69.5 11.5q-16 0 -28.5 -1t-23.5 -3t-24 -5l-16 66
q22 8 46 12.5t46 4.5q46 0 80.5 -12.5t62.5 -30.5t52 -36t48.5 -30.5t53.5 -12.5h16l7 -72q-38 -1 -69 -13t-60.5 -30.5t-61 -39t-69 -39t-86 -30t-112.5 -11.5zM43 -15q0 29 5 60.5t17 66.5t29 70l65 -30q-12 -30 -22 -56t-14.5 -50t-4.5 -48q0 -48 19.5 -78t50.5 -46.5
t66.5 -22.5t68.5 -6q56 0 99 12.5t72.5 33t44.5 43.5t15 43q0 12 -8.5 23t-27 22.5t-47 22.5t-69.5 23l19 73q59 -22 100 -36t68.5 -21t46 -9.5t32.5 -3.5q21 0 30.5 -9.5t9.5 -26.5q0 -16 -11 -28t-38 -12h-10.5h-12.5h-11q2 -5 3 -12.5t1 -16.5q0 -32 -20.5 -66.5t-61 -64
t-100 -48t-137.5 -18.5q-88 0 -147 28t-89.5 76.5t-30.5 111.5z" />
    <glyph glyph-name="uniFDF2" unicode="&#x627;&#xfedf;&#xfee0;&#xfeea;" horiz-adv-x="1135" arabic-form="isolated" 
d="M427 -5q-39 0 -71 10t-54 33t-33 64q-43 -9 -86.5 -6.5t-79.5 17t-58 42t-22 68.5q0 50 29.5 93.5t80 75t114.5 46.5l-4 78h76l16 -330q3 -47 12.5 -72t31 -34t58.5 -9q38 0 54 12.5t20 42t2 79.5l-13 363h76l13 -361q2 -51 13 -81t32.5 -42.5t52.5 -12.5q40 0 58.5 12.5
t22 42t1.5 79.5l-19 495h76l20 -486q2 -53 -3.5 -94t-23 -69t-51.5 -42t-91 -14q-25 0 -47 7.5t-38 21.5t-26 32q-19 -30 -53.5 -45.5t-85.5 -15.5zM259 173l-9 184q-48 -9 -82 -29.5t-51.5 -45t-17.5 -46.5q0 -23 16 -37.5t40.5 -20.5t52 -7t51.5 2zM994 0l-20 700h75
l20 -700h-75zM454 624q-38 0 -50 25t-12 53q0 11 1 22t4 27l47 13q-3 -16 -4.5 -29.5t-1.5 -23.5q0 -18 5.5 -26.5t18.5 -8.5q14 0 23.5 14.5t10.5 58.5v28l44 17v-57q0 -13 5.5 -23t22.5 -10t22.5 10t5.5 26q0 17 -4 33t-10 32l42 14q9 -19 15 -41.5t6 -41.5q0 -31 -17 -56
t-54 -25q-29 0 -47.5 15.5t-18.5 37.5l22 -9q0 -32 -22 -53.5t-54 -21.5zM490 839l-5 162h51l6 -162h-52z" />
    <glyph glyph-name="uniFEF5" unicode="&#xfedf;&#xfe82;" horiz-adv-x="656" arabic-form="isolated" 
d="M354 536q0 22 -3 53t-7 62t-8 53l80 10q3 -20 6.5 -52.5t5.5 -64.5t2 -53q0 -47 -6 -91t-18.5 -86.5t-30.5 -82.5l-12 -24q-25 -48 -59.5 -93t-79.5 -85h97q34 0 52 8.5t24.5 22.5t6.5 30q0 28 -30 68.5t-82 91t-118 106t-138 112.5l47 62q82 -68 146 -123t111 -100.5
t77.5 -84t45.5 -73t15 -67.5q0 -22 -7.5 -45.5t-26 -44t-52 -33t-86.5 -12.5h-195v81q86 74 139.5 144t78.5 146t25 165zM185 643q-28 0 -51 9.5t-41 19t-34 9.5q-17 0 -31 -9t-29 -23l-35 30q21 27 44.5 42t50.5 15q23 0 42.5 -9t39.5 -18.5t44 -9.5q15 0 28 5.5t32 16.5
l27 -38q-30 -27 -51 -33.5t-36 -6.5z" />
    <glyph glyph-name="uniFEF6" unicode="&#xfee0;&#xfe82;" horiz-adv-x="575" arabic-form="final" 
d="M575 -5q-50 0 -85 10t-57 31t-32.5 53.5t-12.5 77.5l-13 547h75l20 -515q2 -51 8.5 -78.5t30 -38.5t75.5 -11q21 0 31 -9.5t10 -23.5q0 -16 -14 -29.5t-36 -13.5zM165 -5q-27 0 -54.5 4.5t-38.5 6.5l11 79q63 -9 118.5 -3t97.5 34.5t66 86.5t24 151l41 -120
q-9 -60 -29.5 -102t-49 -69t-61 -42t-65 -20.5t-60.5 -5.5zM345 132q-16 31 -42 72.5t-62 90.5t-81.5 102t-99.5 107l57 57q59 -63 104 -117.5t79 -102t59.5 -86.5t44.5 -71zM208 643q-28 0 -51 9.5t-41 19t-34 9.5q-17 0 -31 -9t-29 -23l-35 30q21 27 44.5 42t50.5 15
q23 0 42.5 -9t39.5 -18.5t44 -9.5q15 0 28 5.5t32 16.5l27 -38q-30 -27 -51 -33.5t-36 -6.5z" />
    <glyph glyph-name="uniFEF7" unicode="&#xfedf;&#xfe84;" horiz-adv-x="563" arabic-form="isolated" 
d="M354 536q0 22 -3 53t-7 62t-8 53l80 10q3 -20 6.5 -52.5t5.5 -64.5t2 -53q0 -47 -6 -91t-18.5 -86.5t-30.5 -82.5l-12 -24q-25 -48 -59.5 -93t-79.5 -85h97q34 0 52 8.5t24.5 22.5t6.5 30q0 28 -30 68.5t-82 91t-118 106t-138 112.5l47 62q82 -68 146 -123t111 -100.5
t77.5 -84t45.5 -73t15 -67.5q0 -22 -7.5 -45.5t-26 -44t-52 -33t-86.5 -12.5h-195v81q86 74 139.5 144t78.5 146t25 165zM29 644l-11 47q22 6 36.5 9.5t32.5 7.5l-5 -14q-23 8 -43.5 29t-20.5 51q0 26 12.5 44.5t33.5 28t44 9.5q9 0 20 -1.5t22 -6.5l-8 -42q-8 2 -16.5 3.5
t-17.5 1.5q-20 0 -31 -10t-11 -25q0 -18 12 -31t27.5 -20t24.5 -7l-37 -7q25 6 45 12.5t37 12.5l14 -45q-21 -7 -49.5 -16t-57.5 -16.5t-53 -14.5z" />
    <glyph glyph-name="uniFEF8" unicode="&#xfee0;&#xfe84;" horiz-adv-x="568" arabic-form="final" 
d="M551 -5q-50 0 -85 10t-57 31t-32.5 53.5t-12.5 77.5l-13 547h75l20 -515q2 -51 8.5 -78.5t30 -38.5t75.5 -11q21 0 31 -9.5t10 -23.5q0 -16 -14 -29.5t-36 -13.5zM141 -5q-27 0 -54.5 4.5t-38.5 6.5l11 79q63 -9 118.5 -3t97.5 34.5t66 86.5t24 151l41 -120
q-9 -60 -29.5 -102t-49 -69t-61 -42t-65 -20.5t-60.5 -5.5zM321 132q-16 31 -42 72.5t-62 90.5t-81.5 102t-99.5 107l57 57q59 -63 104 -117.5t79 -102t59.5 -86.5t44.5 -71zM47 644l-11 47q22 6 36.5 9.5t32.5 7.5l-5 -14q-23 8 -43.5 29t-20.5 51q0 26 12.5 44.5t33.5 28
t44 9.5q9 0 20 -1.5t22 -6.5l-8 -42q-8 2 -16.5 3.5t-17.5 1.5q-20 0 -31 -10t-11 -25q0 -18 12 -31t27.5 -20t24.5 -7l-37 -7q25 6 45 12.5t37 12.5l14 -45q-21 -7 -49.5 -16t-57.5 -16.5t-53 -14.5z" />
    <glyph glyph-name="uniFEF9" unicode="&#xfedf;&#xfe88;" horiz-adv-x="544" arabic-form="isolated" 
d="M354 536q0 22 -3 53t-7 62t-8 53l80 10q3 -20 6.5 -52.5t5.5 -64.5t2 -53q0 -47 -6 -91t-18.5 -86.5t-30.5 -82.5l-12 -24q-25 -48 -59.5 -93t-79.5 -85h97q34 0 52 8.5t24.5 22.5t6.5 30q0 28 -30 68.5t-82 91t-118 106t-138 112.5l47 62q82 -68 146 -123t111 -100.5
t77.5 -84t45.5 -73t15 -67.5q0 -22 -7.5 -45.5t-26 -44t-52 -33t-86.5 -12.5h-195v81q86 74 139.5 144t78.5 146t25 165zM96 -295l-11 47q22 6 36.5 9.5t32.5 7.5l-5 -14q-23 8 -43.5 29t-20.5 51q0 26 12.5 44.5t33.5 28t44 9.5q9 0 20 -1.5t22 -6.5l-8 -42q-8 2 -16.5 3.5
t-17.5 1.5q-20 0 -31 -10t-11 -25q0 -18 12 -31t27.5 -20t24.5 -7l-37 -7q25 6 45 12.5t37 12.5l14 -45q-21 -7 -49.5 -16t-57.5 -16.5t-53 -14.5z" />
    <glyph glyph-name="uniFEFA" unicode="&#xfee0;&#xfe88;" horiz-adv-x="551" arabic-form="final" 
d="M551 -5q-50 0 -85 10t-57 31t-32.5 53.5t-12.5 77.5l-13 547h75l20 -515q2 -51 8.5 -78.5t30 -38.5t75.5 -11q21 0 31 -9.5t10 -23.5q0 -16 -14 -29.5t-36 -13.5zM141 -5q-27 0 -54.5 4.5t-38.5 6.5l11 79q63 -9 118.5 -3t97.5 34.5t66 86.5t24 151l41 -120
q-9 -60 -29.5 -102t-49 -69t-61 -42t-65 -20.5t-60.5 -5.5zM321 132q-16 31 -42 72.5t-62 90.5t-81.5 102t-99.5 107l57 57q59 -63 104 -117.5t79 -102t59.5 -86.5t44.5 -71zM96 -295l-11 47q22 6 36.5 9.5t32.5 7.5l-5 -14q-23 8 -43.5 29t-20.5 51q0 26 12.5 44.5t33.5 28
t44 9.5q9 0 20 -1.5t22 -6.5l-8 -42q-8 2 -16.5 3.5t-17.5 1.5q-20 0 -31 -10t-11 -25q0 -18 12 -31t27.5 -20t24.5 -7l-37 -7q25 6 45 12.5t37 12.5l14 -45q-21 -7 -49.5 -16t-57.5 -16.5t-53 -14.5z" />
    <glyph glyph-name="uniFEFB" unicode="&#xfedf;&#xfe8e;" horiz-adv-x="544" arabic-form="isolated" 
d="M354 536q0 22 -3 53t-7 62t-8 53l80 10q3 -20 6.5 -52.5t5.5 -64.5t2 -53q0 -47 -6 -91t-18.5 -86.5t-30.5 -82.5l-12 -24q-25 -48 -59.5 -93t-79.5 -85h97q34 0 52 8.5t24.5 22.5t6.5 30q0 28 -30 68.5t-82 91t-118 106t-138 112.5l47 62q82 -68 146 -123t111 -100.5
t77.5 -84t45.5 -73t15 -67.5q0 -22 -7.5 -45.5t-26 -44t-52 -33t-86.5 -12.5h-195v81q86 74 139.5 144t78.5 146t25 165z" />
    <glyph glyph-name="uniFEFC" unicode="&#xfee0;&#xfe8e;" horiz-adv-x="551" arabic-form="final" 
d="M551 -5q-50 0 -85 10t-57 31t-32.5 53.5t-12.5 77.5l-13 547h75l20 -515q2 -51 8.5 -78.5t30 -38.5t75.5 -11q21 0 31 -9.5t10 -23.5q0 -16 -14 -29.5t-36 -13.5zM141 -5q-27 0 -54.5 4.5t-38.5 6.5l11 79q63 -9 118.5 -3t97.5 34.5t66 86.5t24 151l41 -120
q-9 -60 -29.5 -102t-49 -69t-61 -42t-65 -20.5t-60.5 -5.5zM321 132q-16 31 -42 72.5t-62 90.5t-81.5 102t-99.5 107l57 57q59 -63 104 -117.5t79 -102t59.5 -86.5t44.5 -71z" />
    <glyph glyph-name="lam_alefMaksura_meemar" unicode="&#xfedf;&#xfbe9;&#xfee2;" horiz-adv-x="961" 
d="M732 -5l9 76q42 0 60 12.5t21.5 42t1.5 79.5l-19 495h76l20 -486q2 -53 -3 -94t-23 -69t-52.5 -42t-90.5 -14zM494 -5l10 76q31 0 54.5 8t36.5 27.5t13 56.5q0 25 -8 60t-21 74t-28 77l75 29q12 -33 24 -74t20 -82.5t8 -76.5t-8 -63t-24 -49.5t-38.5 -35t-51 -20.5
t-62.5 -7zM76 -394q-21 79 -36 152.5t-22.5 130.5t-7.5 86q0 73 19 133t49.5 107.5t67 80t72 49.5t62.5 17q23 0 40.5 -10.5t35.5 -42.5t41 -95q20 -56 36.5 -87t33 -43.5t37.5 -12.5t30.5 -9.5t9.5 -26.5q0 -16 -11 -28t-38 -12q-34 0 -63 20.5t-45 47.5l31 9
q-8 -29 -24 -47.5t-37.5 -27t-46.5 -8.5q-22 0 -48 7.5t-53 24.5t-53 47t-49 74l11 -1q-20 -41 -27.5 -83.5t-7.5 -82.5q0 -28 6 -71t15.5 -92.5t21 -98t22.5 -88.5zM313 62q15 0 26.5 6t16 20t-4.5 38q-16 42 -27 71.5t-20 48t-17.5 27t-17.5 8.5q-10 0 -24.5 -6.5
t-31 -18.5t-32.5 -28.5t-29 -37.5v13q23 -49 52.5 -80.5t58.5 -46t50 -14.5z" />
    <glyph glyph-name="lam_alefWaslaar" unicode="&#xfedf;&#xfb51;" horiz-adv-x="480" 
d="M132 667q-19 0 -46 1.5t-50.5 4.5t-35.5 5l6 46q13 -2 35.5 -4.5t46.5 -4t44 -1.5q50 0 65.5 11t15.5 27q0 17 -10.5 24t-23.5 7q-14 0 -28 -9t-27 -25.5t-26 -40.5l-48 1q13 28 30.5 56t43 47.5t58.5 19.5q29 0 54 -17.5t25 -59.5q0 -21 -11 -41.5t-38.5 -33.5
t-79.5 -13zM354 536q0 22 -3 53t-7 62t-8 53l80 10q3 -20 6.5 -52.5t5.5 -64.5t2 -53q0 -47 -6 -91t-18.5 -86.5t-30.5 -82.5l-12 -24q-25 -48 -59.5 -93t-79.5 -85h97q34 0 52 8.5t24.5 22.5t6.5 30q0 27 -30 68t-82 91.5t-118 106t-138 112.5l47 62q82 -68 146 -123
t111 -100.5t77.5 -84t45.5 -73t15 -67.5q0 -22 -7.5 -45.5t-26 -44t-52 -33t-86.5 -12.5h-195v81q86 74 139.5 144t78.5 146t25 165z" />
    <glyph glyph-name="lam_alefWaslaar.fina" unicode="&#xfee0;&#xfb51;" horiz-adv-x="602" 
d="M132 667q-19 0 -45.5 1.5t-50.5 4.5t-36 5l6 46q13 -2 35.5 -4.5t47 -4t43.5 -1.5q50 0 65.5 10.5t15.5 27.5t-10.5 24t-23.5 7q-14 0 -28 -9t-27 -25.5t-26 -40.5l-48 1q13 28 30.5 56t43 47.5t58.5 19.5q29 0 54 -17.5t25 -59.5q0 -21 -11 -41.5t-38.5 -33.5t-79.5 -13
zM551 -5q-50 0 -85 10t-57 31t-32.5 53.5t-12.5 77.5l-13 547h75l20 -515q2 -51 8.5 -78.5t30 -38.5t75.5 -11q21 0 31 -9.5t10 -23.5q0 -16 -14 -29.5t-36 -13.5zM141 -5q-27 0 -54.5 4.5t-38.5 6.5l11 79q63 -9 118.5 -3t97.5 34.5t66 86.5t24 151l41 -120
q-9 -60 -29.5 -102t-49 -69t-61 -42t-65 -20.5t-60.5 -5.5zM321 132q-16 31 -42 72.5t-62 90.5t-81.5 102t-99.5 107l57 57q59 -63 104 -117.5t79 -102t59.5 -86.5t44.5 -71z" />
    <glyph glyph-name="uni0620.init" unicode="&#x620;" horiz-adv-x="264" 
d="M0 -5l10 76q45 0 74 6t43 26t14 60q0 25 -8 60t-21 74t-28 77l75 29q13 -32 24.5 -73t19.5 -81t8 -70q0 -50 -13 -85t-39.5 -57t-66.5 -32t-92 -10zM128 -99q-33 0 -55.5 23t-22.5 55q0 33 22.5 56t55.5 23q32 0 55 -23t23 -56t-23 -55.5t-55 -22.5zM128 -55
q15 0 25.5 10t10.5 24q0 15 -10.5 25t-25.5 10t-25.5 -10t-10.5 -25q0 -14 10.5 -24t25.5 -10z" />
    <glyph glyph-name="uni0620.medi" unicode="&#x620;" horiz-adv-x="338" 
d="M0 -5l10 76q43 0 67 8.5t37 31.5t22 64.5t22 107.5l72 -15q-4 -18 -9 -40t-8.5 -43.5t-3.5 -37.5q0 -15 4 -28.5t18 -24t41.5 -17t75.5 -6.5q21 0 30.5 -9.5t9.5 -25.5q0 -17 -11.5 -29t-38.5 -12q-51 0 -83.5 7t-51.5 20t-28 32.5t-13 44.5l28 -2q-16 -32 -34 -52
t-40 -31t-50.5 -15t-65.5 -4zM99 -108q-32 0 -54.5 22.5t-22.5 55.5t22.5 55.5t54.5 22.5q33 0 56 -22.5t23 -55.5t-23 -55.5t-56 -22.5zM100 -64q14 0 25 10t11 24q0 15 -11 25t-25 10q-15 0 -25.5 -10t-10.5 -25q0 -14 10.5 -24t25.5 -10z" />
    <glyph glyph-name="uni0620.fina" unicode="&#x620;" horiz-adv-x="658" 
d="M298 -344q-33 0 -55.5 23t-22.5 55q0 33 22.5 56t55.5 23t56 -23t23 -56q0 -32 -23 -55t-56 -23zM298 -299q15 0 25.5 9.5t10.5 23.5q0 15 -10.5 25t-25.5 10t-25 -10t-10 -25q0 -14 10 -23.5t25 -9.5zM43 -15q0 29 5 60.5t17 66.5t29 70l65 -30q-12 -30 -22 -56
t-14.5 -50t-4.5 -48q0 -48 19.5 -78t50.5 -46.5t66.5 -22.5t68.5 -6q56 0 99 12.5t72.5 33t44.5 43.5t15 43q0 12 -8.5 23t-27 22.5t-47 22.5t-69.5 23l19 73q59 -22 100 -36t68.5 -21t46 -9.5t32.5 -3.5q21 0 30.5 -9.5t9.5 -26.5q0 -16 -11 -28t-38 -12h-10.5h-12.5h-11
q2 -5 3 -12.5t1 -16.5q0 -32 -20.5 -66.5t-61 -64t-100 -48t-137.5 -18.5q-88 0 -147 28t-89.5 76.5t-30.5 111.5z" />
    <glyph glyph-name="uni063B.init" unicode="&#x63b;" horiz-adv-x="349" 
d="M215 701q-20 0 -34.5 13.5t-14.5 32.5q0 20 14.5 34.5t34.5 14.5q19 0 33 -14.5t14 -34.5q0 -19 -14 -32.5t-33 -13.5zM100 648q-20 0 -34.5 13.5t-14.5 32.5q0 20 14.5 34.5t34.5 14.5q19 0 33 -14.5t14 -34.5q0 -19 -14 -32.5t-33 -13.5zM0 -5l10 76h81q43 0 69 6.5
t39 17.5t17.5 25.5t4.5 31.5q0 32 -20 70t-57 78q-33 36 -56.5 60t-39 39t-23.5 24t-8 15q0 12 2.5 28t7 30.5t10.5 20.5q12 13 32.5 29.5t53 37.5t81.5 49t117 64l34 -64q-62 -33 -107 -57.5t-77 -44t-58 -37.5t-51 -38l9 29q37 -39 76 -79t72 -81.5t53.5 -85.5t20.5 -94
q0 -25 -9 -51.5t-32.5 -49t-66 -36t-107.5 -13.5h-78z" />
    <glyph glyph-name="uni063B.medi" unicode="&#x63b;" horiz-adv-x="420" 
d="M208 700q-20 0 -34 13.5t-14 33.5t14 34t34 14t33.5 -14t13.5 -34t-13.5 -33.5t-33.5 -13.5zM93 647q-20 0 -34 13.5t-14 33.5t14 34t34 14t33.5 -14t13.5 -34t-13.5 -33.5t-33.5 -13.5zM0 -5l9 76h67q54 0 85.5 7t45.5 24.5t14 46.5q0 22 -15 49.5t-38 57.5t-49 59.5
t-49 54.5t-38 43.5t-15 25.5q0 15 2.5 31t7 30t11.5 20q18 18 49.5 40.5t71 46.5t81.5 47t81 43l34 -65q-39 -22 -79.5 -43.5t-78 -43t-70.5 -42.5t-58 -43l1 18q33 -36 61.5 -66t55.5 -62t53.5 -71t54.5 -91q25 -46 45.5 -71t42 -35.5t47.5 -10.5q21 0 30.5 -9.5t9.5 -26.5
q0 -16 -11.5 -28t-38.5 -12q-33 0 -63 12t-56 40.5t-47 76.5l31 -8q-8 -36 -27.5 -59.5t-47.5 -37t-62.5 -19t-75.5 -5.5h-72z" />
    <glyph glyph-name="uni063B.fina" unicode="&#x63b;" horiz-adv-x="866" 
d="M655 701q-21 0 -35 13.5t-14 32.5q0 20 14 34.5t35 14.5q19 0 32.5 -14.5t13.5 -34.5q0 -19 -13.5 -32.5t-32.5 -13.5zM540 648q-21 0 -35 13.5t-14 32.5q0 20 14 34.5t35 14.5q19 0 32.5 -14.5t13.5 -34.5q0 -19 -13.5 -32.5t-32.5 -13.5zM320 -21l26 76q86 0 146.5 6.5
t99 18.5t56.5 28.5t18 37.5q0 23 -14.5 52t-37.5 59t-49 59t-49 54t-37.5 43.5t-14.5 26.5q0 13 2 28t6.5 29t11.5 22q25 27 72 57.5t103.5 62t107.5 58.5l35 -65q-60 -32 -112.5 -62t-97 -58t-82.5 -57l6 23q28 -28 59 -61.5t62.5 -72t59 -79.5t47.5 -83q17 -34 33 -55.5
t32.5 -33.5t33 -17t33.5 -5q21 0 30.5 -9.5t9.5 -26.5q0 -16 -11 -28t-38 -12q-35 0 -66.5 14t-57 42.5t-42.5 72.5l31 -8q-13 -41 -41.5 -67t-77 -41.5t-120.5 -22t-173 -6.5zM320 -21q-60 0 -112.5 9.5t-92.5 31.5t-62.5 58.5t-22.5 90.5q0 27 4.5 55t11.5 55.5t14 52.5
l69 -20q-4 -13 -9 -35.5t-9.5 -46t-4.5 -43.5q0 -42 21.5 -71.5t74 -45t144.5 -15.5l20 -44z" />
    <glyph glyph-name="uni063C.init" unicode="&#x63c;" horiz-adv-x="349" 
d="M0 -5l10 76h81q43 0 69 6.5t39 17.5t17.5 25.5t4.5 31.5q0 32 -20 70t-57 78q-33 36 -56.5 60t-39 39t-23.5 24t-8 15q0 12 2.5 28t7 30.5t10.5 20.5q12 13 32.5 29.5t53 37.5t81.5 49t117 64l34 -64q-62 -33 -107 -57.5t-77 -44t-58 -37.5t-51 -38l9 29q37 -39 76 -79
t72 -81.5t53.5 -85.5t20.5 -94q0 -25 -9 -51.5t-32.5 -49t-66 -36t-107.5 -13.5h-78zM147 -295q-20 0 -34 13.5t-14 32.5q0 20 14 34.5t34 14.5t33.5 -14.5t13.5 -33.5q0 -20 -14 -33.5t-33 -13.5zM82 -185q-20 0 -34 13.5t-14 32.5q0 20 14 34.5t34 14.5q19 0 33 -14.5
t14 -33.5q0 -20 -14 -33.5t-33 -13.5zM212 -185q-20 0 -34 13.5t-14 32.5q0 20 14 34.5t34 14.5t33.5 -14.5t13.5 -33.5q0 -20 -13.5 -33.5t-33.5 -13.5z" />
    <glyph glyph-name="uni063C.medi" unicode="&#x63c;" horiz-adv-x="420" 
d="M0 -5l9 76h67q54 0 85.5 7t45.5 24.5t14 46.5q0 22 -15 49.5t-38 57.5t-49 59.5t-49 54.5t-38 43.5t-15 25.5q0 15 2.5 31t7 30t11.5 20q18 18 49.5 40.5t71 46.5t81.5 47t81 43l34 -65q-39 -22 -79.5 -43.5t-78 -43t-70.5 -42.5t-58 -43l1 18q33 -36 61.5 -66t55.5 -62
t53.5 -71t54.5 -91q25 -46 45.5 -71t42 -35.5t47.5 -10.5q21 0 30.5 -9.5t9.5 -26.5q0 -16 -11.5 -28t-38.5 -12q-33 0 -63 12t-56 40.5t-47 76.5l31 -8q-8 -36 -27.5 -59.5t-47.5 -37t-62.5 -19t-75.5 -5.5h-72zM151 -295q-20 0 -34 13.5t-14 32.5q0 20 14 34.5t34 14.5
t33.5 -14.5t13.5 -33.5q0 -20 -14 -33.5t-33 -13.5zM86 -185q-20 0 -34 13.5t-14 32.5q0 20 14 34.5t34 14.5q19 0 33 -14.5t14 -33.5q0 -20 -14 -33.5t-33 -13.5zM216 -185q-20 0 -34 13.5t-14 32.5q0 20 14 34.5t34 14.5t33.5 -14.5t13.5 -33.5q0 -20 -13.5 -33.5
t-33.5 -13.5z" />
    <glyph glyph-name="uni063C.fina" unicode="&#x63c;" horiz-adv-x="866" 
d="M320 -21l26 76q86 0 146.5 6.5t99 18.5t56.5 28.5t18 37.5q0 23 -14.5 52t-37.5 59t-49 59t-49 54t-37.5 43.5t-14.5 26.5q0 13 2 28t6.5 29t11.5 22q25 27 72 57.5t103.5 62t107.5 58.5l35 -65q-60 -32 -112.5 -62t-97 -58t-82.5 -57l6 23q28 -28 59 -61.5t62.5 -72
t59 -79.5t47.5 -83q17 -34 33 -55.5t32.5 -33.5t33 -17t33.5 -5q21 0 30.5 -9.5t9.5 -26.5q0 -16 -11 -28t-38 -12q-35 0 -66.5 14t-57 42.5t-42.5 72.5l31 -8q-13 -41 -41.5 -67t-77 -41.5t-120.5 -22t-173 -6.5zM320 -21q-60 0 -112.5 9.5t-92.5 31.5t-62.5 58.5
t-22.5 90.5q0 27 4.5 55t11.5 55.5t14 52.5l69 -20q-4 -13 -9 -35.5t-9.5 -46t-4.5 -43.5q0 -42 21.5 -71.5t74 -45t144.5 -15.5l20 -44zM358 -316q-20 0 -34 13.5t-14 32.5q0 20 14 34.5t34 14.5t33.5 -14.5t13.5 -33.5q0 -20 -14 -33.5t-33 -13.5zM293 -206
q-20 0 -34 13.5t-14 32.5q0 20 14 34.5t34 14.5q19 0 33 -14.5t14 -33.5q0 -20 -14 -33.5t-33 -13.5zM423 -206q-20 0 -34 13.5t-14 32.5q0 20 14 34.5t34 14.5t33.5 -14.5t13.5 -33.5q0 -20 -13.5 -33.5t-33.5 -13.5z" />
    <glyph glyph-name="uni063D.init" unicode="&#x63d;" horiz-adv-x="237" 
d="M0 -5l10 76q31 0 54.5 8t36.5 27.5t13 56.5q0 25 -8 60t-21 74t-28 77l75 29q12 -33 24 -74t20 -82.5t8 -76.5t-8 -63t-24 -49.5t-38.5 -35t-51 -20.5t-62.5 -7zM127 737q6 -14 16 -38.5t21.5 -52t22.5 -52.5t18 -40l-42 -21q-6 9 -15.5 30.5t-20.5 46.5t-20.5 48
t-16.5 36l-18 37zM72 731l41 -15q-6 -16 -17 -43.5t-23 -56.5t-21.5 -52t-13.5 -30l-42 18q4 9 14.5 32t22.5 51.5t22.5 54.5t16.5 41zM176 -190q-20 0 -34 13.5t-14 32.5q0 20 14 34.5t34 14.5q19 0 33 -14.5t14 -33.5q0 -20 -14 -33.5t-33 -13.5zM45 -190
q-20 0 -34.5 13.5t-14.5 32.5q0 20 14 34.5t35 14.5q19 0 33 -14.5t14 -33.5q0 -20 -14 -33.5t-33 -13.5z" />
    <glyph glyph-name="uni063D.medi" unicode="&#x63d;" horiz-adv-x="287" 
d="M0 -5l10 76q31 0 50 8t31 30t21 63.5t22 109.5l72 -14q-4 -18 -9 -40t-8.5 -43.5t-3.5 -37.5q0 -20 8.5 -37.5t32.5 -28t71 -10.5q21 0 30.5 -9.5t9.5 -26.5q0 -16 -11.5 -28t-38.5 -12q-49 0 -80.5 11.5t-48 35t-22.5 57.5l30 -2q-14 -36 -33.5 -57t-41 -30.5t-45 -12
t-46.5 -2.5zM169 599q6 -14 16 -38.5t21.5 -52t22.5 -52.5t18 -40l-42 -21q-6 9 -15.5 30.5t-20.5 46.5t-20.5 48t-16.5 36l-18 37zM114 593l41 -15q-6 -16 -17 -43.5t-23 -56.5t-21.5 -52t-13.5 -30l-42 18q4 9 14.5 32t22.5 51.5t22.5 54.5t16.5 41zM205 -190
q-20 0 -34 13.5t-14 32.5q0 20 14 34.5t34 14.5q19 0 33 -14.5t14 -33.5q0 -20 -14 -33.5t-33 -13.5zM74 -190q-20 0 -34.5 13.5t-14.5 32.5q0 20 14 34.5t35 14.5q19 0 33 -14.5t14 -33.5q0 -20 -14 -33.5t-33 -13.5z" />
    <glyph glyph-name="uni063D.fina" unicode="&#x63d;" horiz-adv-x="658" 
d="M43 -15q0 29 5 60.5t17 66.5t29 70l65 -30q-12 -30 -22 -56t-14.5 -50t-4.5 -48q0 -48 19.5 -78t50.5 -46.5t66.5 -22.5t68.5 -6q56 0 99 12.5t72.5 33t44.5 43.5t15 43q0 12 -8.5 23t-27 22.5t-47 22.5t-69.5 23l19 73q59 -22 100 -36t68.5 -21t46 -9.5t32.5 -3.5
q21 0 30.5 -9.5t9.5 -26.5q0 -16 -11 -28t-38 -12h-10.5h-12.5h-11q2 -5 3 -12.5t1 -16.5q0 -32 -20.5 -66.5t-61 -64t-100 -48t-137.5 -18.5q-88 0 -147 28t-89.5 76.5t-30.5 111.5zM243 484q6 -14 16 -38.5t21.5 -52t22.5 -52.5t18 -40l-42 -21q-6 9 -15.5 30.5
t-20.5 46.5t-20.5 48t-16.5 36l-18 37zM188 478l41 -15q-6 -16 -17 -43.5t-23 -56.5t-21.5 -52t-13.5 -30l-42 18q4 9 14.5 32t22.5 51.5t22.5 54.5t16.5 41z" />
    <glyph glyph-name="uni063E.init" unicode="&#x63e;" horiz-adv-x="264" 
d="M0 -5l10 76q45 0 74 6t43 26t14 60q0 25 -8 60t-21 74t-28 77l75 29q13 -32 24.5 -73t19.5 -81t8 -70q0 -50 -13 -85t-39.5 -57t-66.5 -32t-92 -10zM195 506q-20 0 -34.5 14t-14.5 33q0 20 14 34.5t35 14.5q19 0 33 -14.5t14 -33.5q0 -20 -14 -34t-33 -14zM63 506
q-20 0 -34 14t-14 33q0 20 14 34.5t34 14.5t33.5 -14.5t13.5 -33.5q0 -20 -13.5 -34t-33.5 -14zM162 -190q-20 0 -34 13.5t-14 32.5q0 20 14 34.5t34 14.5t33.5 -14.5t13.5 -33.5q0 -20 -13.5 -33.5t-33.5 -13.5zM31 -190q-20 0 -34 13.5t-14 32.5q0 20 14 34.5t34 14.5
q19 0 33 -14.5t14 -33.5q0 -20 -14 -33.5t-33 -13.5z" />
    <glyph glyph-name="uni063E.medi" unicode="&#x63e;" horiz-adv-x="338" 
d="M0 -5l10 76q43 0 67 8.5t37 31.5t22 64.5t22 107.5l72 -15q-4 -18 -9 -40t-8.5 -43.5t-3.5 -37.5q0 -15 4 -28.5t18 -24t41.5 -17t75.5 -6.5q21 0 30.5 -9.5t9.5 -25.5q0 -17 -11.5 -29t-38.5 -12q-51 0 -83.5 7t-51.5 20t-28 32.5t-13 44.5l28 -2q-16 -32 -34 -52
t-40 -31t-50.5 -15t-65.5 -4zM245 437q-20 0 -34 14t-14 33q0 20 14 34.5t34 14.5t33.5 -14.5t13.5 -34.5q0 -19 -14 -33t-33 -14zM114 437q-20 0 -34.5 14t-14.5 33q0 20 14 34.5t35 14.5q19 0 33 -14.5t14 -34.5q0 -19 -14 -33t-33 -14zM229 -190q-20 0 -34 13.5t-14 32.5
q0 20 14 34.5t34 14.5t33.5 -14.5t13.5 -33.5q0 -20 -13.5 -33.5t-33.5 -13.5zM98 -190q-20 0 -34 13.5t-14 32.5q0 20 14 34.5t34 14.5q19 0 33 -14.5t14 -33.5q0 -20 -14 -33.5t-33 -13.5z" />
    <glyph glyph-name="uni063E.fina" unicode="&#x63e;" horiz-adv-x="658" 
d="M43 -15q0 29 5 60.5t17 66.5t29 70l65 -30q-12 -30 -22 -56t-14.5 -50t-4.5 -48q0 -48 19.5 -78t50.5 -46.5t66.5 -22.5t68.5 -6q56 0 99 12.5t72.5 33t44.5 43.5t15 43q0 12 -8.5 23t-27 22.5t-47 22.5t-69.5 23l19 73q59 -22 100 -36t68.5 -21t46 -9.5t32.5 -3.5
q21 0 30.5 -9.5t9.5 -26.5q0 -16 -11 -28t-38 -12h-10.5h-12.5h-11q2 -5 3 -12.5t1 -16.5q0 -32 -20.5 -66.5t-61 -64t-100 -48t-137.5 -18.5q-88 0 -147 28t-89.5 76.5t-30.5 111.5zM294 285q-20 0 -34 14t-14 33q0 20 14 34t34 14q19 0 33 -14t14 -34q0 -19 -14 -33
t-33 -14zM163 285q-20 0 -34.5 14t-14.5 33q0 20 14 34t35 14q19 0 33 -14t14 -34q0 -19 -14 -33t-33 -14z" />
    <glyph glyph-name="uni063F.init" unicode="&#x63f;" horiz-adv-x="264" 
d="M0 -5l10 76q45 0 74 6t43 26t14 60q0 25 -8 60t-21 74t-28 77l75 29q13 -32 24.5 -73t19.5 -81t8 -70q0 -50 -13 -85t-39.5 -57t-66.5 -32t-92 -10zM130 616q-21 0 -35 14t-14 33q0 20 14 34.5t35 14.5q19 0 33 -14.5t14 -33.5q0 -20 -14 -34t-33 -14zM64 506
q-20 0 -34 14t-14 33q0 20 14 34.5t34 14.5t33.5 -14.5t13.5 -33.5q0 -20 -13.5 -34t-33.5 -14zM195 506q-20 0 -34.5 14t-14.5 33q0 20 14 34.5t35 14.5q19 0 33 -14.5t14 -33.5q0 -20 -14 -34t-33 -14zM162 -190q-20 0 -34 13.5t-14 32.5q0 20 14 34.5t34 14.5t33.5 -14.5
t13.5 -33.5q0 -20 -13.5 -33.5t-33.5 -13.5zM31 -190q-20 0 -34 13.5t-14 32.5q0 20 14 34.5t34 14.5q19 0 33 -14.5t14 -33.5q0 -20 -14 -33.5t-33 -13.5z" />
    <glyph glyph-name="uni063F.medi" unicode="&#x63f;" horiz-adv-x="338" 
d="M0 -5l10 76q43 0 67 8.5t37 31.5t22 64.5t22 107.5l72 -15q-4 -18 -9 -40t-8.5 -43.5t-3.5 -37.5q0 -15 4 -28.5t18 -24t41.5 -17t75.5 -6.5q21 0 30.5 -9.5t9.5 -25.5q0 -17 -11.5 -29t-38.5 -12q-51 0 -83.5 7t-51.5 20t-28 32.5t-13 44.5l28 -2q-16 -32 -34 -52
t-40 -31t-50.5 -15t-65.5 -4zM180 547q-20 0 -34.5 14t-14.5 33q0 20 14.5 34.5t34.5 14.5q19 0 33 -14.5t14 -34.5q0 -19 -14 -33t-33 -14zM115 437q-20 0 -34.5 14t-14.5 33q0 20 14 34.5t35 14.5q19 0 33 -14.5t14 -34.5q0 -19 -14 -33t-33 -14zM245 437q-20 0 -34 14
t-14 33q0 20 14 34.5t34 14.5t33.5 -14.5t13.5 -34.5q0 -19 -14 -33t-33 -14zM229 -190q-20 0 -34 13.5t-14 32.5q0 20 14 34.5t34 14.5t33.5 -14.5t13.5 -33.5q0 -20 -13.5 -33.5t-33.5 -13.5zM98 -190q-20 0 -34 13.5t-14 32.5q0 20 14 34.5t34 14.5q19 0 33 -14.5
t14 -33.5q0 -20 -14 -33.5t-33 -13.5z" />
    <glyph glyph-name="uni063F.fina" unicode="&#x63f;" horiz-adv-x="658" 
d="M43 -15q0 29 5 60.5t17 66.5t29 70l65 -30q-12 -30 -22 -56t-14.5 -50t-4.5 -48q0 -48 19.5 -78t50.5 -46.5t66.5 -22.5t68.5 -6q56 0 99 12.5t72.5 33t44.5 43.5t15 43q0 12 -8.5 23t-27 22.5t-47 22.5t-69.5 23l19 73q59 -22 100 -36t68.5 -21t46 -9.5t32.5 -3.5
q21 0 30.5 -9.5t9.5 -26.5q0 -16 -11 -28t-38 -12h-10.5h-12.5h-11q2 -5 3 -12.5t1 -16.5q0 -32 -20.5 -66.5t-61 -64t-100 -48t-137.5 -18.5q-88 0 -147 28t-89.5 76.5t-30.5 111.5zM229 395q-20 0 -34.5 14t-14.5 33q0 20 14.5 34t34.5 14q19 0 33 -14t14 -34
q0 -19 -14 -33t-33 -14zM164 285q-20 0 -34.5 14t-14.5 33q0 20 14 34t35 14q19 0 33 -14t14 -34q0 -19 -14 -33t-33 -14zM294 285q-20 0 -34 14t-14 33q0 20 14 34t34 14q19 0 33 -14t14 -34q0 -19 -14 -33t-33 -14z" />
    <glyph glyph-name="uni066E.init" unicode="&#x66e;" horiz-adv-x="237" 
d="M0 -5l10 76q31 0 54.5 8t36.5 27.5t13 56.5q0 25 -8 60t-21 74t-28 77l75 29q12 -33 24 -74t20 -82.5t8 -76.5t-8 -63t-24 -49.5t-38.5 -35t-51 -20.5t-62.5 -7z" />
    <glyph glyph-name="uni066E.medi" unicode="&#x66e;" horiz-adv-x="287" 
d="M0 -5l10 76q31 0 50 8t31 30t21 63.5t22 109.5l72 -14q-4 -18 -9 -40t-8.5 -43.5t-3.5 -37.5q0 -20 8.5 -37.5t32.5 -28t71 -10.5q21 0 30.5 -9.5t9.5 -26.5q0 -16 -11.5 -28t-38.5 -12q-49 0 -80.5 11.5t-48 35t-22.5 57.5l30 -2q-14 -36 -33.5 -57t-41 -30.5t-45 -12
t-46.5 -2.5z" />
    <glyph glyph-name="uni066E.fina" unicode="&#x66e;" horiz-adv-x="882" 
d="M319 -21l26 76q54 0 109 7.5t107.5 25.5t98 51t78.5 85l61 -33q-11 -26 -14.5 -40t-3.5 -25q0 -12 8.5 -25t32.5 -21.5t70 -8.5q21 0 30.5 -9.5t9.5 -26.5q0 -16 -12 -28t-38 -12q-48 0 -88 11.5t-61.5 38t-15.5 69.5l25 2q-33 -41 -81 -67t-105 -41.5t-118 -22
t-119 -6.5zM319 -21q-60 0 -113 9.5t-92.5 31.5t-62 58.5t-22.5 90.5q0 27 4 55t11.5 55.5t14.5 52.5l69 -20q-4 -13 -9.5 -35.5t-9.5 -46t-4 -43.5q0 -42 21 -71.5t73.5 -45t145.5 -15.5l20 -44z" />
    <glyph glyph-name="uni066F.init" unicode="&#x66f;" horiz-adv-x="392" 
d="M0 -5l9 76q22 0 47 0.5t50.5 1.5t49 4.5t41.5 11.5q30 12 47.5 33.5t25 55.5t7.5 82q0 43 -8.5 81t-25 61t-42.5 23q-18 0 -34 -16.5t-26 -44.5t-10 -63q0 -25 10 -40t28.5 -22t43.5 -7q22 0 45 5t39 14l4 -65q-12 -10 -28.5 -16.5t-34.5 -9t-34 -2.5q-54 0 -86.5 18.5
t-47 48t-14.5 62.5q0 39 10.5 77t30.5 69t48 49.5t63 18.5q49 0 81 -33t47.5 -89t15.5 -124q0 -71 -23.5 -129t-77.5 -91q-23 -13 -50.5 -20.5t-59.5 -12t-67.5 -6t-73.5 -1.5z" />
    <glyph glyph-name="uni066F.medi" unicode="&#x66f;" horiz-adv-x="425" 
d="M0 -5l9 76q23 0 46.5 1.5t46.5 5t44 9t39 13.5q30 13 53.5 32.5t37.5 45.5t14 55q0 25 -9 49.5t-25.5 40.5t-36.5 16q-19 0 -36 -15.5t-28 -40.5t-11 -52q0 -34 16 -60.5t40.5 -45t49.5 -30.5l-83 -31q-20 14 -43.5 36t-40.5 55t-17 78q0 35 12 67.5t33 58.5t49.5 41
t61.5 15q43 0 76 -24.5t52.5 -64.5t19.5 -85q0 -36 -11 -66.5t-30.5 -55.5t-45.5 -44.5t-56 -34.5q-25 -12 -52 -21t-56.5 -14t-59.5 -7.5t-59 -2.5zM425 -5q-42 0 -84.5 6t-81 16.5t-68.5 24.5l68 45q27 -5 60 -8.5t63.5 -5.5t52.5 -2q21 0 30.5 -9.5t9.5 -26.5
q0 -16 -11.5 -28t-38.5 -12z" />
    <glyph glyph-name="uni066F.fina" unicode="&#x66f;" horiz-adv-x="730" 
d="M306 -273q-51 0 -100.5 13.5t-89 40.5t-63 71t-23.5 105q0 15 4 44.5t16 70t36 86.5l67 -31q-15 -33 -25.5 -60t-15 -52t-4.5 -51q0 -56 29 -91t77 -52t104 -17q37 0 69.5 4.5t60 14t50 23t39.5 31.5t29 40q16 31 23.5 72t7.5 85q0 53 -8.5 93.5t-25.5 63.5t-40 23
q-16 0 -29 -11t-22.5 -28.5t-14.5 -39t-5 -43.5q0 -20 7 -31.5t20.5 -18t33.5 -9t45 -2.5h182q21 0 30.5 -9.5t9.5 -26.5t-12.5 -28.5t-37.5 -11.5h-191q-39 0 -69.5 8t-51 24t-31.5 39.5t-11 53.5q0 37 11 74.5t31 68.5t49 49.5t64 18.5q45 0 77 -31.5t49 -89.5t17 -137
q0 -55 -11.5 -106.5t-34.5 -92.5q-22 -39 -55 -67t-74.5 -45.5t-89.5 -26t-103 -8.5z" />
    <glyph glyph-name="uni0672.fina" unicode="&#x672;" horiz-adv-x="262" 
d="M262 -5q-64 0 -102 18t-55.5 56t-20.5 98l-17 477h76l18 -445q2 -49 11 -77t32 -39.5t68 -11.5q21 0 30.5 -9.5t9.5 -25.5q0 -17 -11.5 -29t-38.5 -12zM-53 728l-38 23q12 26 31.5 37.5t35.5 11.5q24 0 40.5 -10t33.5 -10q10 0 20.5 1t19.5 5l-10 -16q-24 10 -46 33
t-22 55q0 42 29 63.5t67 21.5q11 0 22.5 -2t22.5 -6l-8 -47q-9 2 -17.5 4t-18.5 2q-22 0 -34 -9t-12 -25q0 -19 12.5 -33.5t29 -22t26.5 -7.5l-34 -8q26 6 46 13.5t36 14.5l16 -45q-8 -4 -24.5 -11t-38.5 -14.5t-44 -12.5t-40 -5q-24 0 -41 10.5t-31 10.5q-10 0 -15.5 -5.5
t-13.5 -16.5z" />
    <glyph glyph-name="uni0673.fina" unicode="&#x673;" horiz-adv-x="264" 
d="M264 -5q-64 0 -102 18t-56 56t-20 98l-19 533h76l20 -501q2 -49 11 -77t32 -39.5t68 -11.5q21 0 30.5 -9.5t9.5 -26.5q0 -16 -11.5 -28t-38.5 -12zM-20 -289l-38 23q11 26 30.5 37.5t36.5 11.5q24 0 40.5 -10t32.5 -10q11 0 21.5 1t18.5 5l-9 -16q-25 10 -46.5 33
t-21.5 55q0 42 29 63.5t67 21.5q10 0 22 -2t22 -6l-7 -47q-9 2 -17.5 4t-19.5 2q-22 0 -34 -9t-12 -25q0 -19 12.5 -33.5t29 -22t27.5 -7.5l-34 -8q25 6 45 13.5t37 14.5l15 -45q-7 -4 -24 -11t-38.5 -14.5t-43.5 -12.5t-40 -5q-24 0 -41.5 10.5t-30.5 10.5q-10 0 -16 -5.5
t-13 -16.5z" />
    <glyph glyph-name="uni0675.fina" unicode="&#x675;" horiz-adv-x="412" 
d="M412 -5h-150q-63 0 -101 18t-55 56.5t-20 97.5l-19 533h76l20 -501q2 -48 11 -76t31.5 -40t66.5 -12h150q21 0 30.5 -9.5t9.5 -25.5q0 -17 -11.5 -29t-38.5 -12zM211 586l-11 50q24 6 38.5 10t34.5 8l-5 -20q-25 8 -46.5 32.5t-21.5 55.5q0 27 13.5 46.5t35.5 28.5t47 9
q10 0 22 -1.5t22 -5.5l-7 -47q-10 2 -18.5 4t-18.5 2q-22 0 -34 -9t-12 -25q0 -20 12.5 -34t29 -22t26.5 -8l-38 -3q26 6 48 13t39 14l15 -48q-22 -8 -52.5 -17.5t-61.5 -18t-57 -14.5z" />
    <glyph glyph-name="uni0676.fina" unicode="&#x676;" horiz-adv-x="409" 
d="M44 -230l-17 71q68 12 114.5 34t75 54t41.5 70.5t13 82.5q2 74 -18.5 121.5t-56.5 47.5q-21 0 -37 -17t-25 -44.5t-9 -57.5q0 -19 7 -31t20.5 -18.5t33.5 -9t45 -2.5h188q18 0 29 -8.5t11 -27.5q0 -20 -14.5 -30t-34.5 -10h-198q-52 0 -88.5 14.5t-55.5 42.5t-19 68
q0 39 11.5 76.5t31.5 68.5t48.5 49.5t63.5 18.5q45 0 77.5 -31.5t49.5 -87.5t15 -132q-1 -84 -35.5 -148.5t-101 -105.5t-165.5 -58zM249 395l-11 47q22 6 36.5 9.5t32.5 7.5l-5 -14q-23 8 -43.5 29t-20.5 51q0 26 12.5 44.5t33.5 28t44 9.5q9 0 20 -1.5t22 -6.5l-8 -42
q-8 2 -16.5 3.5t-17.5 1.5q-20 0 -31 -10t-11 -25q0 -18 12 -31t27.5 -20t24.5 -7l-37 -7q25 6 45 12.5t37 12.5l14 -45q-21 -7 -49.5 -16t-57.5 -16.5t-53 -14.5z" />
    <glyph glyph-name="uni0677.fina" unicode="&#x677;" horiz-adv-x="451" 
d="M86 -230l-17 71q68 12 114.5 34t75 54t41.5 70.5t13 82.5q2 74 -18.5 121.5t-56.5 47.5q-21 0 -37 -17t-25 -44.5t-9 -57.5q0 -19 7 -31t20.5 -18.5t33.5 -9t45 -2.5h188q18 0 29 -8.5t11 -27.5q0 -20 -14.5 -30t-34.5 -10h-198q-52 0 -88.5 14.5t-55.5 42.5t-19 68
q0 39 11.5 76.5t31.5 68.5t48.5 49.5t63.5 18.5q45 0 77.5 -31.5t49.5 -87.5t15 -132q-1 -84 -35.5 -148.5t-101 -105.5t-165.5 -58zM302 396l-11 47q22 6 36.5 9.5t32.5 7.5l-5 -14q-23 8 -43.5 29t-20.5 51q0 26 12.5 44.5t33.5 28t44 9.5q9 0 20 -1.5t22 -6.5l-8 -42
q-8 2 -16.5 3.5t-17.5 1.5q-20 0 -31 -10t-11 -25q0 -18 12 -31t27.5 -20t24.5 -7l-37 -7q25 6 45 12.5t37 12.5l14 -45q-21 -7 -49.5 -16t-57.5 -16.5t-53 -14.5zM35 392l-8 45q64 4 104 19t58 36t18 43q0 17 -7.5 28t-22.5 11q-14 0 -23.5 -9.5t-9.5 -23.5q0 -18 15 -33.5
t38 -23.5l-30 -29q-30 11 -51 32.5t-21 53.5q0 33 23 57t61 24q37 0 56.5 -25.5t19.5 -58.5q0 -41 -27.5 -73t-77 -50.5t-115.5 -22.5z" />
    <glyph glyph-name="uni0678.init" unicode="&#x678;" horiz-adv-x="300" 
d="M0 -5l10 76q31 0 54.5 8t36.5 27.5t13 56.5q0 25 -8 60t-21 74t-28 77l75 29q12 -33 24 -74t20 -82.5t8 -76.5t-8 -63t-24 -49.5t-38.5 -35t-51 -20.5t-62.5 -7zM128 586l-11 50q24 6 39 10t34 8l-5 -20q-25 8 -46.5 32.5t-21.5 55.5q0 27 13.5 46.5t35.5 28.5t47 9
q10 0 22 -1.5t22 -5.5l-7 -47q-10 2 -18.5 4t-18.5 2q-22 0 -34 -9t-12 -25q0 -20 12.5 -34t29 -22t26.5 -8l-38 -3q26 6 48 13t39 14l15 -48q-22 -8 -52.5 -17.5t-61.5 -18t-57 -14.5z" />
    <glyph glyph-name="uni0678.medi" unicode="&#x678;" horiz-adv-x="287" 
d="M0 -5l10 76q31 0 50 8t31 30t21 63.5t22 109.5l72 -14q-4 -18 -9 -40t-8.5 -43.5t-3.5 -37.5q0 -20 8.5 -37.5t32.5 -28t71 -10.5q21 0 30.5 -9.5t9.5 -26.5q0 -16 -11.5 -28t-38.5 -12q-49 0 -80.5 11.5t-48 35t-22.5 57.5l30 -2q-14 -36 -33.5 -57t-41 -30.5t-45 -12
t-46.5 -2.5zM131 417l-11 50q24 6 39 10t34 8l-5 -20q-25 8 -46.5 32.5t-21.5 55.5q0 27 13.5 46.5t35.5 28.5t47 9q10 0 22 -1.5t22 -5.5l-7 -47q-10 2 -18.5 4t-18.5 2q-22 0 -34 -9t-12 -25q0 -20 12.5 -34t29 -22t26.5 -8l-38 -3q26 6 48 13t39 14l15 -48
q-22 -8 -52.5 -17.5t-61.5 -18t-57 -14.5z" />
    <glyph glyph-name="uni0678.fina" unicode="&#x678;" horiz-adv-x="658" 
d="M43 -15q0 29 5 60.5t17 66.5t29 70l65 -30q-12 -30 -22 -56t-14.5 -50t-4.5 -48q0 -48 19.5 -78t50.5 -46.5t66.5 -22.5t68.5 -6q56 0 99 12.5t72.5 33t44.5 43.5t15 43q0 12 -8.5 23t-27 22.5t-47 22.5t-69.5 23l19 73q59 -22 100 -36t68.5 -21t46 -9.5t32.5 -3.5
q21 0 30.5 -9.5t9.5 -26.5q0 -16 -11 -28t-38 -12h-10.5h-12.5h-11q2 -5 3 -12.5t1 -16.5q0 -32 -20.5 -66.5t-61 -64t-100 -48t-137.5 -18.5q-88 0 -147 28t-89.5 76.5t-30.5 111.5zM452 192l-11 50q24 6 39 10t34 8l-5 -20q-25 8 -46.5 32.5t-21.5 55.5q0 27 13.5 46.5
t35.5 28.5t47 9q10 0 22 -1.5t22 -5.5l-7 -47q-10 2 -18.5 4t-18.5 2q-22 0 -34 -9t-12 -25q0 -20 12.5 -34t29 -22t26.5 -8l-38 -3q26 6 48 13t39 14l15 -48q-22 -8 -52.5 -17.5t-61.5 -18t-57 -14.5z" />
    <glyph glyph-name="uni067C.init" unicode="&#x67c;" horiz-adv-x="264" 
d="M0 -5l10 76q45 0 74 6t43 26t14 60q0 25 -8 60t-21 74t-28 77l75 29q13 -32 24.5 -73t19.5 -81t8 -70q0 -50 -13 -85t-39.5 -57t-66.5 -32t-92 -10zM122 -102q-33 0 -55.5 23t-22.5 56q0 32 22.5 55t55.5 23t56 -23t23 -56q0 -32 -23 -55t-56 -23zM122 -57q15 0 25.5 9.5
t10.5 23.5q0 15 -10.5 25.5t-25.5 10.5t-25 -10.5t-10 -24.5t10.5 -24t24.5 -10zM195 506q-20 0 -34.5 14t-14.5 33q0 20 14 34.5t35 14.5q19 0 33 -14.5t14 -33.5q0 -20 -14 -34t-33 -14zM63 506q-20 0 -34 14t-14 33q0 20 14 34.5t34 14.5t33.5 -14.5t13.5 -33.5
q0 -20 -13.5 -34t-33.5 -14z" />
    <glyph glyph-name="uni067C.medi" unicode="&#x67c;" horiz-adv-x="287" 
d="M92 -108q-33 0 -55.5 23t-22.5 56t22.5 55.5t55.5 22.5t55.5 -23t22.5 -55q0 -33 -22.5 -56t-55.5 -23zM92 -63q15 0 25.5 10t10.5 24q0 15 -10.5 25t-25.5 10t-25 -10t-10 -25q0 -14 10 -24t25 -10zM0 -5l10 76q31 0 50 8t31 30t21 63.5t22 109.5l72 -14q-4 -18 -9 -40
t-8.5 -43.5t-3.5 -37.5q0 -20 8.5 -37.5t32.5 -28t71 -10.5q21 0 30.5 -9.5t9.5 -25.5q0 -17 -11.5 -29t-38.5 -12q-49 0 -80.5 11.5t-48 35t-22.5 57.5l30 -2q-14 -36 -33.5 -57t-41 -30.5t-45 -12t-46.5 -2.5zM239 402q-21 0 -35 14t-14 33q0 20 14 34.5t35 14.5
q19 0 33 -14.5t14 -34.5q0 -19 -14 -33t-33 -14zM107 402q-20 0 -34 14t-14 33q0 20 14 34.5t34 14.5t33.5 -14.5t13.5 -34.5q0 -19 -14 -33t-33 -14z" />
    <glyph glyph-name="uni067C.fina" unicode="&#x67c;" horiz-adv-x="882" 
d="M414 -133q-33 0 -55.5 23t-22.5 55q0 33 22.5 56t55.5 23t56 -23t23 -56t-23 -55.5t-56 -22.5zM414 -89q15 0 25.5 10t10.5 24q0 15 -10.5 25t-25.5 10t-25 -10t-10 -25q0 -14 10.5 -24t24.5 -10zM319 -21l26 76q54 0 109 7.5t107.5 25.5t98 51t78.5 85l61 -33
q-11 -26 -14.5 -40t-3.5 -25q0 -12 8.5 -25t32.5 -21.5t70 -8.5q21 0 30.5 -9.5t9.5 -25.5q0 -17 -12 -29t-38 -12q-48 0 -88 11.5t-61.5 38t-15.5 69.5l25 2q-33 -41 -81 -67t-105 -41.5t-118 -22t-119 -6.5zM319 -21q-60 0 -113 9.5t-92.5 31.5t-62 58.5t-22.5 90.5
q0 27 4 55t11.5 55.5t14.5 52.5l69 -20q-4 -13 -9.5 -35.5t-9.5 -46t-4 -43.5q0 -42 21 -71.5t73.5 -45t145.5 -15.5l20 -44zM466 404q-20 0 -34 14t-14 33q0 20 14 34t34 14t33.5 -14t13.5 -34t-14 -33.5t-33 -13.5zM335 404q-20 0 -34.5 14t-14.5 33q0 20 14 34t35 14
q19 0 33 -14t14 -34t-14 -33.5t-33 -13.5z" />
    <glyph glyph-name="uni067D.init" unicode="&#x67d;" horiz-adv-x="264" 
d="M0 -5l10 76q45 0 74 6t43 26t14 60q0 25 -8 60t-21 74t-28 77l75 29q13 -32 24.5 -73t19.5 -81t8 -70q0 -50 -13 -85t-39.5 -57t-66.5 -32t-92 -10zM130 506q-21 0 -35 14t-14 33q0 20 14 34.5t35 14.5q19 0 33 -14.5t14 -33.5q0 -20 -14 -34t-33 -14zM64 616
q-20 0 -34 14t-14 33q0 20 14 34.5t34 14.5t33.5 -14.5t13.5 -33.5q0 -20 -13.5 -34t-33.5 -14zM195 616q-20 0 -34.5 14t-14.5 33q0 20 14 34.5t35 14.5q19 0 33 -14.5t14 -33.5q0 -20 -14 -34t-33 -14z" />
    <glyph glyph-name="uni067D.medi" unicode="&#x67d;" horiz-adv-x="338" 
d="M0 -5l10 76q43 0 67 8.5t37 31.5t22 64.5t22 107.5l72 -15q-4 -18 -9 -40t-8.5 -43.5t-3.5 -37.5q0 -15 4 -28.5t18 -24t41.5 -17t75.5 -6.5q21 0 30.5 -9.5t9.5 -25.5q0 -17 -11.5 -29t-38.5 -12q-51 0 -83.5 7t-51.5 20t-28 32.5t-13 44.5l28 -2q-16 -32 -34 -52
t-40 -31t-50.5 -15t-65.5 -4zM187 437q-20 0 -34.5 14t-14.5 33q0 20 14.5 34.5t34.5 14.5q19 0 33 -14.5t14 -34.5q0 -19 -14 -33t-33 -14zM122 547q-20 0 -34.5 14t-14.5 33q0 20 14 34.5t35 14.5q19 0 33 -14.5t14 -34.5q0 -19 -14 -33t-33 -14zM252 547q-20 0 -34 14
t-14 33q0 20 14 34.5t34 14.5t33.5 -14.5t13.5 -34.5q0 -19 -14 -33t-33 -14z" />
    <glyph glyph-name="uni067D.fina" unicode="&#x67d;" horiz-adv-x="882" 
d="M319 -21l26 76q54 0 109 7.5t107.5 25.5t98 51t78.5 85l61 -33q-11 -26 -14.5 -40t-3.5 -25q0 -12 8.5 -25t32.5 -21.5t70 -8.5q21 0 30.5 -9.5t9.5 -26.5q0 -16 -12 -28t-38 -12q-48 0 -88 11.5t-61.5 38t-15.5 69.5l25 2q-33 -41 -81 -67t-105 -41.5t-118 -22
t-119 -6.5zM319 -21q-60 0 -113 9.5t-92.5 31.5t-62 58.5t-22.5 90.5q0 27 4 55t11.5 55.5t14.5 52.5l69 -20q-4 -13 -9.5 -35.5t-9.5 -46t-4 -43.5q0 -42 21 -71.5t73.5 -45t145.5 -15.5l20 -44zM401 404q-20 0 -34.5 14t-14.5 33q0 20 14.5 34t34.5 14q19 0 33 -14t14 -34
q0 -19 -14 -33t-33 -14zM336 514q-20 0 -34.5 14t-14.5 33q0 20 14 34t35 14q19 0 33 -14t14 -34q0 -19 -14 -33t-33 -14zM466 514q-20 0 -34 14t-14 33q0 20 14 34t34 14q19 0 33 -14t14 -34q0 -19 -14 -33t-33 -14z" />
    <glyph glyph-name="uni0681.init" unicode="&#x681;" horiz-adv-x="490" 
d="M0 -5l9 76q49 0 89 9t76 25.5t73 39t79 49.5q-32 23 -60 42t-58.5 30.5t-69.5 11.5q-16 0 -28.5 -1t-23.5 -3t-24 -5l-16 66q22 8 46 12.5t46 4.5q46 0 80.5 -12.5t62.5 -30.5t52 -36t48.5 -30.5t53.5 -12.5h16l7 -72q-38 -1 -69 -13t-60.5 -30.5t-61 -39t-69 -39
t-86 -30t-112.5 -11.5zM70 428l-11 47q22 6 36.5 9.5t32.5 7.5l-5 -14q-23 8 -43.5 29t-20.5 51q0 26 12.5 44.5t33.5 28t44 9.5q9 0 20 -1.5t22 -6.5l-8 -42q-8 2 -16.5 3.5t-17.5 1.5q-20 0 -31 -10t-11 -25q0 -18 12 -31t27.5 -20t24.5 -7l-37 -7q25 6 45 12.5t37 12.5
l14 -45q-21 -7 -49.5 -16t-57.5 -16.5t-53 -14.5z" />
    <glyph glyph-name="uni0681.medi" unicode="&#x681;" horiz-adv-x="511" 
d="M511 -5q-34 0 -61.5 6t-49.5 22t-37.5 44t-25.5 73l54 29q13 -40 27 -61t38 -29t65 -8q21 0 30.5 -9.5t9.5 -26.5q0 -16 -11.5 -28t-38.5 -12zM0 -5l9 76q49 0 89 9t76 25.5t73 39t79 49.5q-32 23 -60 42t-58.5 30.5t-69.5 11.5q-16 0 -28.5 -1t-23.5 -3t-24 -5l-16 66
q22 8 46 12.5t46 4.5q46 0 80.5 -12.5t62.5 -30.5t52 -36t48.5 -30.5t53.5 -12.5h16l7 -72q-38 -1 -69 -13t-60.5 -30.5t-61 -39t-69 -39t-86 -30t-112.5 -11.5zM71 428l-11 47q22 6 36.5 9.5t32.5 7.5l-5 -14q-23 8 -43.5 29t-20.5 51q0 26 12.5 44.5t33.5 28t44 9.5
q9 0 20 -1.5t22 -6.5l-8 -42q-8 2 -16.5 3.5t-17.5 1.5q-20 0 -31 -10t-11 -25q0 -18 12 -31t27.5 -20t24.5 -7l-37 -7q25 6 45 12.5t37 12.5l14 -45q-21 -7 -49.5 -16t-57.5 -16.5t-53 -14.5z" />
    <glyph glyph-name="uni0681.fina" unicode="&#x681;" horiz-adv-x="573" 
d="M573 -5q-42 0 -82 8t-72.5 33t-53.5 74.5t-24 132.5l62 26q6 -64 21 -103.5t38.5 -59.5t54 -27.5t66.5 -7.5q21 0 30.5 -9.5t9.5 -26.5q0 -16 -11.5 -28t-38.5 -12zM326 -394q-61 0 -117.5 16.5t-101.5 50.5t-71 86t-26 123q0 49 14.5 96.5t42.5 92t69.5 84.5t95.5 73.5
t119 58.5l4 -15q-26 8 -53 19.5t-55 23t-57.5 19t-61.5 7.5q-24 0 -45 -4t-38 -9l-13 68q20 8 49 14t58 6q38 0 70.5 -10t63 -24t62.5 -28.5t70 -24t87 -10.5h9l2 -73q-46 -2 -95 -15.5t-95.5 -36t-87.5 -54t-72 -71t-49 -85.5t-18 -98q0 -56 22 -95t57.5 -62.5t80 -34.5
t89.5 -11q36 0 77 7.5t90 26.5l27 -64q-58 -28 -110.5 -37.5t-92.5 -9.5zM194 492l-11 47q22 6 36.5 9.5t32.5 7.5l-5 -14q-23 8 -43.5 29t-20.5 51q0 26 12.5 44.5t33.5 28t44 9.5q9 0 20 -1.5t22 -6.5l-8 -42q-8 2 -16.5 3.5t-17.5 1.5q-20 0 -31 -10t-11 -25
q0 -18 12 -31t27.5 -20t24.5 -7l-37 -7q25 6 45 12.5t37 12.5l14 -45q-21 -7 -49.5 -16t-57.5 -16.5t-53 -14.5z" />
    <glyph glyph-name="uni0682.init" unicode="&#x682;" horiz-adv-x="490" 
d="M0 -5l9 76q49 0 89 9t76 25.5t73 39t79 49.5q-32 23 -60 42t-58.5 30.5t-69.5 11.5q-16 0 -28.5 -1t-23.5 -3t-24 -5l-16 66q22 8 46 12.5t46 4.5q46 0 80.5 -12.5t62.5 -30.5t52 -36t48.5 -30.5t53.5 -12.5h16l7 -72q-38 -1 -69 -13t-60.5 -30.5t-61 -39t-69 -39
t-86 -30t-112.5 -11.5zM147 455q-20 0 -34.5 14t-14.5 33q0 20 14.5 34t34.5 14q19 0 33 -14t14 -34q0 -19 -14 -33t-33 -14zM146 588q-20 0 -34.5 14t-14.5 33q0 20 14.5 34.5t34.5 14.5q19 0 33 -14.5t14 -34.5q0 -19 -14 -33t-33 -14z" />
    <glyph glyph-name="uni0682.medi" unicode="&#x682;" horiz-adv-x="511" 
d="M511 -5q-34 0 -61.5 6t-49.5 22t-37.5 44t-25.5 73l54 29q13 -40 27 -61t38 -29t65 -8q21 0 30.5 -9.5t9.5 -26.5q0 -16 -11.5 -28t-38.5 -12zM0 -5l9 76q49 0 89 9t76 25.5t73 39t79 49.5q-32 23 -60 42t-58.5 30.5t-69.5 11.5q-16 0 -28.5 -1t-23.5 -3t-24 -5l-16 66
q22 8 46 12.5t46 4.5q46 0 80.5 -12.5t62.5 -30.5t52 -36t48.5 -30.5t53.5 -12.5h16l7 -72q-38 -1 -69 -13t-60.5 -30.5t-61 -39t-69 -39t-86 -30t-112.5 -11.5zM144 455q-20 0 -34.5 14t-14.5 33q0 20 14.5 34t34.5 14q19 0 33 -14t14 -34q0 -19 -14 -33t-33 -14zM143 588
q-20 0 -34.5 14t-14.5 33q0 20 14.5 34.5t34.5 14.5q19 0 33 -14.5t14 -34.5q0 -19 -14 -33t-33 -14z" />
    <glyph glyph-name="uni0682.fina" unicode="&#x682;" horiz-adv-x="573" 
d="M573 -5q-42 0 -82 8t-72.5 33t-53.5 74.5t-24 132.5l62 26q6 -64 21 -103.5t38.5 -59.5t54 -27.5t66.5 -7.5q21 0 30.5 -9.5t9.5 -26.5q0 -16 -11.5 -28t-38.5 -12zM326 -394q-61 0 -117.5 16.5t-101.5 50.5t-71 86t-26 123q0 49 14.5 96.5t42.5 92t69.5 84.5t95.5 73.5
t119 58.5l4 -15q-26 8 -53 19.5t-55 23t-57.5 19t-61.5 7.5q-24 0 -45 -4t-38 -9l-13 68q20 8 49 14t58 6q38 0 70.5 -10t63 -24t62.5 -28.5t70 -24t87 -10.5h9l2 -73q-46 -2 -95 -15.5t-95.5 -36t-87.5 -54t-72 -71t-49 -85.5t-18 -98q0 -56 22 -95t57.5 -62.5t80 -34.5
t89.5 -11q36 0 77 7.5t90 26.5l27 -64q-58 -28 -110.5 -37.5t-92.5 -9.5zM293 519q-20 0 -34.5 14t-14.5 33q0 20 14.5 34t34.5 14q19 0 33 -14t14 -34q0 -19 -14 -33t-33 -14zM292 652q-20 0 -34.5 14t-14.5 33q0 20 14.5 34.5t34.5 14.5q19 0 33 -14.5t14 -34.5
q0 -19 -14 -33t-33 -14z" />
    <glyph glyph-name="uni0685.init" unicode="&#x685;" horiz-adv-x="490" 
d="M0 -5l9 76q49 0 89 9t76 25.5t73 39t79 49.5q-32 23 -60 42t-58.5 30.5t-69.5 11.5q-16 0 -28.5 -1t-23.5 -3t-24 -5l-16 66q22 8 46 12.5t46 4.5q46 0 80.5 -12.5t62.5 -30.5t52 -36t48.5 -30.5t53.5 -12.5h16l7 -72q-38 -1 -69 -13t-60.5 -30.5t-61 -39t-69 -39
t-86 -30t-112.5 -11.5zM149 565q-20 0 -34.5 14t-14.5 33q0 20 14.5 34t34.5 14q19 0 33 -14t14 -34q0 -19 -14 -33t-33 -14zM84 455q-20 0 -34.5 14t-14.5 33q0 20 14 34t35 14q19 0 33 -14t14 -34q0 -19 -14 -33t-33 -14zM214 455q-20 0 -34 14t-14 33q0 20 14 34t34 14
q19 0 33 -14t14 -34q0 -19 -14 -33t-33 -14z" />
    <glyph glyph-name="uni0685.medi" unicode="&#x685;" horiz-adv-x="511" 
d="M511 -5q-34 0 -61.5 6t-49.5 22t-37.5 44t-25.5 73l54 29q13 -40 27 -61t38 -29t65 -8q21 0 30.5 -9.5t9.5 -26.5q0 -16 -11.5 -28t-38.5 -12zM0 -5l9 76q49 0 89 9t76 25.5t73 39t79 49.5q-32 23 -60 42t-58.5 30.5t-69.5 11.5q-16 0 -28.5 -1t-23.5 -3t-24 -5l-16 66
q22 8 46 12.5t46 4.5q46 0 80.5 -12.5t62.5 -30.5t52 -36t48.5 -30.5t53.5 -12.5h16l7 -72q-38 -1 -69 -13t-60.5 -30.5t-61 -39t-69 -39t-86 -30t-112.5 -11.5zM146 565q-20 0 -34.5 14t-14.5 33q0 20 14.5 34t34.5 14q19 0 33 -14t14 -34q0 -19 -14 -33t-33 -14zM81 455
q-20 0 -34.5 14t-14.5 33q0 20 14 34t35 14q19 0 33 -14t14 -34q0 -19 -14 -33t-33 -14zM211 455q-20 0 -34 14t-14 33q0 20 14 34t34 14q19 0 33 -14t14 -34q0 -19 -14 -33t-33 -14z" />
    <glyph glyph-name="uni0685.fina" unicode="&#x685;" horiz-adv-x="573" 
d="M573 -5q-42 0 -82 8t-72.5 33t-53.5 74.5t-24 132.5l62 26q6 -64 21 -103.5t38.5 -59.5t54 -27.5t66.5 -7.5q21 0 30.5 -9.5t9.5 -26.5q0 -16 -11.5 -28t-38.5 -12zM326 -394q-61 0 -117.5 16.5t-101.5 50.5t-71 86t-26 123q0 49 14.5 96.5t42.5 92t69.5 84.5t95.5 73.5
t119 58.5l4 -15q-26 8 -53 19.5t-55 23t-57.5 19t-61.5 7.5q-24 0 -45 -4t-38 -9l-13 68q20 8 49 14t58 6q38 0 70.5 -10t63 -24t62.5 -28.5t70 -24t87 -10.5h9l2 -73q-46 -2 -95 -15.5t-95.5 -36t-87.5 -54t-72 -71t-49 -85.5t-18 -98q0 -56 22 -95t57.5 -62.5t80 -34.5
t89.5 -11q36 0 77 7.5t90 26.5l27 -64q-58 -28 -110.5 -37.5t-92.5 -9.5zM295 629q-20 0 -34.5 14t-14.5 33q0 20 14.5 34t34.5 14q19 0 33 -14t14 -34q0 -19 -14 -33t-33 -14zM230 519q-20 0 -34.5 14t-14.5 33q0 20 14 34t35 14q19 0 33 -14t14 -34q0 -19 -14 -33t-33 -14
zM360 519q-20 0 -34 14t-14 33q0 20 14 34t34 14q19 0 33 -14t14 -34q0 -19 -14 -33t-33 -14z" />
    <glyph glyph-name="uni0689.fina" unicode="&#x689;" horiz-adv-x="457" 
d="M184 -118q-33 0 -55.5 23t-22.5 55q0 33 22.5 56t55.5 23t55.5 -23t22.5 -56q0 -32 -22.5 -55t-55.5 -23zM184 -73q15 0 25.5 9.5t10.5 23.5q0 15 -10.5 25t-25.5 10t-25.5 -10t-10.5 -25q0 -14 10.5 -23.5t25.5 -9.5zM186 72q38 0 61.5 9t36 28.5t12.5 49.5
q0 15 -5.5 37.5t-19 55.5t-37.5 76t-62 98l67 43q36 -56 64 -108t47.5 -103.5t30.5 -107.5q8 -32 22 -49t31 -23.5t33 -6.5q21 0 30.5 -9.5t9.5 -26.5q0 -16 -11.5 -28t-38.5 -12q-30 0 -57 10.5t-47 34.5t-29 63h27q-8 -31 -27 -55t-51.5 -38.5t-84.5 -14.5q-27 0 -55 4.5
t-53.5 13t-44.5 19.5l26 68q28 -12 60.5 -20t64.5 -8z" />
    <glyph glyph-name="uni068A.fina" unicode="&#x68a;" horiz-adv-x="457" 
d="M186 72q38 0 61.5 9t36 28.5t12.5 49.5q0 15 -5.5 37.5t-19 55.5t-37.5 76t-62 98l67 43q36 -56 64 -108t47.5 -103.5t30.5 -107.5q8 -32 22 -49t31 -23.5t33 -6.5q21 0 30.5 -9.5t9.5 -26.5q0 -16 -11.5 -28t-38.5 -12q-30 0 -57 10.5t-47 34.5t-29 63h27
q-8 -31 -27 -55t-51.5 -38.5t-84.5 -14.5q-27 0 -55 4.5t-53.5 13t-44.5 19.5l26 68q28 -12 60.5 -20t64.5 -8zM181 -191q-20 0 -34 14t-14 33q0 20 14 34t34 14t33.5 -14t13.5 -34q0 -19 -13.5 -33t-33.5 -14z" />
    <glyph glyph-name="uni068B.fina" unicode="&#x68b;" horiz-adv-x="457" 
d="M186 72q38 0 61.5 9t36 28.5t12.5 49.5q0 15 -5.5 37.5t-19 55.5t-37.5 76t-62 98l67 43q36 -56 64 -108t47.5 -103.5t30.5 -107.5q8 -32 22 -49t31 -23.5t33 -6.5q21 0 30.5 -9.5t9.5 -26.5q0 -16 -11.5 -28t-38.5 -12q-30 0 -57 10.5t-47 34.5t-29 63h27
q-8 -31 -27 -55t-51.5 -38.5t-84.5 -14.5q-27 0 -55 4.5t-53.5 13t-44.5 19.5l26 68q28 -12 60.5 -20t64.5 -8zM177 608q-16 0 -39 1.5t-44 3t-31 2.5l2 50q18 -3 48.5 -5t56.5 -2q31 0 50.5 5t28.5 13.5t9 19.5q0 13 -8 19t-22 6q-20 0 -38 -12.5t-31.5 -28.5t-20.5 -25
l-49 3q16 30 39.5 56t51 42.5t55.5 16.5q35 0 55 -20.5t20 -51.5q0 -18 -11 -40t-39.5 -37.5t-82.5 -15.5zM113 668l-6 181h48l7 -156zM181 -191q-20 0 -34 14t-14 33q0 20 14 34t34 14t33.5 -14t13.5 -34q0 -19 -13.5 -33t-33.5 -14z" />
    <glyph glyph-name="uni068F.fina" unicode="&#x68f;" horiz-adv-x="457" 
d="M186 72q38 0 61.5 9t36 28.5t12.5 49.5q0 15 -5.5 37.5t-19 55.5t-37.5 76t-62 98l67 43q36 -56 64 -108t47.5 -103.5t30.5 -107.5q8 -32 22 -49t31 -23.5t33 -6.5q21 0 30.5 -9.5t9.5 -26.5q0 -16 -11.5 -28t-38.5 -12q-30 0 -57 10.5t-47 34.5t-29 63h27
q-8 -31 -27 -55t-51.5 -38.5t-84.5 -14.5q-27 0 -55 4.5t-53.5 13t-44.5 19.5l26 68q28 -12 60.5 -20t64.5 -8zM185 570q-20 0 -34.5 14t-14.5 33q0 20 14.5 34t34.5 14q19 0 33 -14t14 -34q0 -19 -14 -33t-33 -14zM120 680q-20 0 -34.5 14t-14.5 33q0 20 14 34t35 14
q19 0 33 -14t14 -34q0 -19 -14 -33t-33 -14zM250 680q-20 0 -34 14t-14 33q0 20 14 34t34 14q19 0 33 -14t14 -34q0 -19 -14 -33t-33 -14z" />
    <glyph glyph-name="uni0690.fina" unicode="&#x690;" horiz-adv-x="457" 
d="M186 72q38 0 61.5 9t36 28.5t12.5 49.5q0 15 -5.5 37.5t-19 55.5t-37.5 76t-62 98l67 43q36 -56 64 -108t47.5 -103.5t30.5 -107.5q8 -32 22 -49t31 -23.5t33 -6.5q21 0 30.5 -9.5t9.5 -26.5q0 -16 -11.5 -28t-38.5 -12q-30 0 -57 10.5t-47 34.5t-29 63h27
q-8 -31 -27 -55t-51.5 -38.5t-84.5 -14.5q-27 0 -55 4.5t-53.5 13t-44.5 19.5l26 68q28 -12 60.5 -20t64.5 -8zM120 695q-20 0 -34.5 14t-14.5 33q0 20 14 34t35 14q19 0 33 -14t14 -34q0 -19 -14 -33t-33 -14zM120 570q-20 0 -34.5 14t-14.5 33q0 20 14 34t35 14
q19 0 33 -14t14 -34q0 -19 -14 -33t-33 -14zM250 695q-20 0 -34 14t-14 33q0 20 14 34t34 14q19 0 33 -14t14 -34q0 -19 -14 -33t-33 -14zM250 570q-20 0 -34 14t-14 33q0 20 14 34t34 14q19 0 33 -14t14 -34q0 -19 -14 -33t-33 -14z" />
    <glyph glyph-name="uni0692.fina" unicode="&#x692;" horiz-adv-x="322" 
d="M13 -231l-39 69q61 31 100 65.5t61 69.5t30.5 67.5t8.5 58.5q0 45 -19 95t-51 108l73 37q19 -34 31.5 -66t22.5 -61t17 -55q14 -51 34 -68.5t50 -17.5q21 0 30.5 -9.5t9.5 -26.5q0 -16 -11.5 -28t-38.5 -12q-32 0 -54.5 12.5t-37 37t-22.5 57.5l39 -2q0 -54 -18.5 -104.5
t-50.5 -93t-74.5 -76.5t-90.5 -57zM111 483q-6 14 -16 38t-21.5 52t-22.5 52.5t-18 40.5l42 20q6 -9 15.5 -30t20.5 -46t20.5 -48t16.5 -37l18 -37zM166 488l-41 15q6 17 17 44t23 56.5t22 52t13 30.5l42 -18q-4 -9 -14.5 -32.5t-22 -52t-22.5 -54.5t-17 -41z" />
    <glyph glyph-name="uni0693.fina" unicode="&#x693;" horiz-adv-x="322" 
d="M193 -220q-32 0 -54.5 22.5t-22.5 55.5t22.5 56t54.5 23q33 0 56 -23t23 -56t-23 -55.5t-56 -22.5zM193 -176q15 0 25.5 10t10.5 24q0 15 -10.5 25t-25.5 10t-25 -10t-10 -25q0 -14 10 -24t25 -10zM13 -231l-39 69q61 31 100 65.5t61 69.5t30.5 67.5t8.5 58.5
q0 45 -19 95t-51 108l73 37q19 -34 31.5 -66t22.5 -61t17 -55q14 -51 34 -68.5t50 -17.5q21 0 30.5 -9.5t9.5 -26.5q0 -16 -11.5 -28t-38.5 -12q-32 0 -54.5 12.5t-37 37t-22.5 57.5l39 -2q0 -54 -18.5 -104.5t-50.5 -93t-74.5 -76.5t-90.5 -57z" />
    <glyph glyph-name="uni0694.fina" unicode="&#x694;" horiz-adv-x="322" 
d="M13 -231l-39 69q61 31 100 65.5t61 69.5t30.5 67.5t8.5 58.5q0 45 -19 95t-51 108l73 37q19 -34 31.5 -66t22.5 -61t17 -55q14 -51 34 -68.5t50 -17.5q21 0 30.5 -9.5t9.5 -26.5q0 -16 -11.5 -28t-38.5 -12q-32 0 -54.5 12.5t-37 37t-22.5 57.5l39 -2q0 -54 -18.5 -104.5
t-50.5 -93t-74.5 -76.5t-90.5 -57zM98 -402q-20 0 -34 14t-14 33q0 20 14 34t34 14t33.5 -14t13.5 -34q0 -19 -13.5 -33t-33.5 -14z" />
    <glyph glyph-name="uni0695.fina" unicode="&#x695;" horiz-adv-x="322" 
d="M20 -56q-7 16 -19.5 41.5t-25.5 52t-22 42.5l34 18q5 -8 12.5 -23.5t17 -33.5t17 -35t13.5 -28l15 -29zM62 -51l-33 12q4 13 13 33.5t18.5 43t17 39.5t11.5 23l34 -14q-4 -8 -12 -25.5t-18 -39t-18.5 -41t-12.5 -31.5zM13 -231l-39 69q61 31 100 65.5t61 69.5t30.5 67.5
t8.5 58.5q0 45 -19 95t-51 108l73 37q19 -34 31.5 -66t22.5 -61t17 -55q14 -51 34 -68.5t50 -17.5q21 0 30.5 -9.5t9.5 -26.5q0 -16 -11.5 -28t-38.5 -12q-32 0 -54.5 12.5t-37 37t-22.5 57.5l39 -2q0 -54 -18.5 -104.5t-50.5 -93t-74.5 -76.5t-90.5 -57z" />
    <glyph glyph-name="uni0696.fina" unicode="&#x696;" horiz-adv-x="322" 
d="M13 -231l-39 69q61 31 100 65.5t61 69.5t30.5 67.5t8.5 58.5q0 45 -19 95t-51 108l73 37q19 -34 31.5 -66t22.5 -61t17 -55q14 -51 34 -68.5t50 -17.5q21 0 30.5 -9.5t9.5 -26.5q0 -16 -11.5 -28t-38.5 -12q-32 0 -54.5 12.5t-37 37t-22.5 57.5l39 -2q0 -54 -18.5 -104.5
t-50.5 -93t-74.5 -76.5t-90.5 -57zM30 -7q-20 0 -34 14t-14 33q0 20 14 34t34 14t33.5 -14t13.5 -34q0 -19 -13.5 -33t-33.5 -14zM77 -402q-20 0 -34 14t-14 33q0 20 14 34t34 14t33.5 -14t13.5 -34q0 -19 -13.5 -33t-33.5 -14z" />
    <glyph glyph-name="uni0697.fina" unicode="&#x697;" horiz-adv-x="322" 
d="M13 -231l-39 69q61 31 100 65.5t61 69.5t30.5 67.5t8.5 58.5q0 45 -19 95t-51 108l73 37q19 -34 31.5 -66t22.5 -61t17 -55q14 -51 34 -68.5t50 -17.5q21 0 30.5 -9.5t9.5 -26.5q0 -16 -11.5 -28t-38.5 -12q-32 0 -54.5 12.5t-37 37t-22.5 57.5l39 -2q0 -54 -18.5 -104.5
t-50.5 -93t-74.5 -76.5t-90.5 -57zM205 454q-20 0 -34 14t-14 33q0 20 14 34t34 14q19 0 33 -14t14 -34q0 -19 -14 -33t-33 -14zM74 454q-20 0 -34.5 14t-14.5 33q0 20 14 34t35 14q19 0 33 -14t14 -34q0 -19 -14 -33t-33 -14z" />
    <glyph glyph-name="uni0699.fina" unicode="&#x699;" horiz-adv-x="322" 
d="M13 -231l-39 69q61 31 100 65.5t61 69.5t30.5 67.5t8.5 58.5q0 45 -19 95t-51 108l73 37q19 -34 31.5 -66t22.5 -61t17 -55q14 -51 34 -68.5t50 -17.5q21 0 30.5 -9.5t9.5 -26.5q0 -16 -11.5 -28t-38.5 -12q-32 0 -54.5 12.5t-37 37t-22.5 57.5l39 -2q0 -54 -18.5 -104.5
t-50.5 -93t-74.5 -76.5t-90.5 -57zM75 579q-20 0 -34.5 14t-14.5 33q0 20 14 34t35 14q19 0 33 -14t14 -34q0 -19 -14 -33t-33 -14zM75 454q-20 0 -34.5 14t-14.5 33q0 20 14 34t35 14q19 0 33 -14t14 -34q0 -19 -14 -33t-33 -14zM205 579q-20 0 -34 14t-14 33q0 20 14 34
t34 14q19 0 33 -14t14 -34q0 -19 -14 -33t-33 -14zM205 454q-20 0 -34 14t-14 33q0 20 14 34t34 14q19 0 33 -14t14 -34q0 -19 -14 -33t-33 -14z" />
    <glyph glyph-name="uni069A.init" unicode="&#x69a;" horiz-adv-x="712" 
d="M0 -5l10 76q32 0 52 5.5t33.5 25t25.5 60.5t28 113l68 -19q-7 -29 -12 -50t-7.5 -39t-3.5 -37q0 -28 12 -43.5t59 -15.5q23 0 38.5 6t27 26.5t21 63t20.5 115.5l70 -13q-3 -18 -7 -44t-7.5 -51.5t-3.5 -42.5q0 -16 5.5 -30t21.5 -22t48 -8q29 0 48 9.5t28.5 29.5t9.5 49
q0 43 -17.5 99.5t-39.5 114.5l76 29q12 -32 24.5 -73t21 -83t8.5 -78q0 -43 -11.5 -75.5t-33 -54t-51 -32.5t-65.5 -11t-61.5 10.5t-40 31.5t-19.5 56h27q-15 -40 -34 -61t-45.5 -29t-67.5 -8q-28 0 -54 8t-42.5 31t-17.5 67l30 6q-17 -51 -39.5 -75t-54.5 -30.5t-78 -6.5z
M345 -191q-20 0 -34 14t-14 33q0 20 14 34t34 14t33.5 -14t13.5 -34q0 -19 -13.5 -33t-33.5 -14zM388 435q-20 0 -34 14t-14 33q0 20 14 34t34 14t33.5 -14t13.5 -34q0 -19 -13.5 -33t-33.5 -14z" />
    <glyph glyph-name="uni069A.medi" unicode="&#x69a;" horiz-adv-x="730" 
d="M0 -5l10 76q29 0 47.5 5.5t32 25t25 60.5t27.5 113l68 -19q-6 -25 -14.5 -61.5t-8.5 -65.5q0 -16 4 -29.5t19 -21t48 -7.5q23 0 38.5 6t27 26.5t21 63t20.5 115.5l70 -13q-3 -18 -7 -44t-7.5 -52t-3.5 -43q0 -20 4.5 -33t20.5 -19.5t50 -6.5q37 0 58.5 18.5t21.5 72.5
q0 23 -1 48.5t-3.5 57t-7.5 72.5l71 5q5 -81 11.5 -134t18 -83.5t30.5 -43.5t49 -13q21 0 30.5 -9.5t9.5 -26.5q0 -16 -11.5 -28t-38.5 -12q-34 0 -57 9.5t-38.5 26t-25 38t-14.5 45.5l25 -6q-7 -45 -28 -69.5t-48.5 -34t-54.5 -9.5q-39 0 -64 10.5t-38.5 32t-17.5 55.5h27
q-14 -39 -32.5 -60.5t-46 -29.5t-68.5 -8q-25 0 -51.5 7.5t-44 30t-18.5 68.5l30 6q-17 -51 -39 -75t-53 -30.5t-73 -6.5zM349 -191q-20 0 -34 14t-14 33q0 20 14 34t34 14t33.5 -14t13.5 -34q0 -19 -13.5 -33t-33.5 -14zM383 435q-20 0 -34 14t-14 33q0 20 14 34t34 14
t33.5 -14t13.5 -34q0 -19 -13.5 -33t-33.5 -14z" />
    <glyph glyph-name="uni069A.fina" unicode="&#x69a;" horiz-adv-x="1072" 
d="M286 -232q-53 0 -98 15t-77 43.5t-50 68.5t-18 91q0 17 3.5 45.5t15 66.5t33.5 81l64 -30q-13 -31 -22.5 -56.5t-13.5 -48t-4 -46.5q0 -49 20 -83.5t58 -52.5t89 -18q58 0 93 18t53 44.5t24 56.5t6 54q0 49 -6 87t-16.5 75t-24.5 83l76 21q16 -57 22.5 -82t10.5 -41
q11 -37 22.5 -56t27 -26t35.5 -7q18 0 32 6t25.5 26.5t21 63t18.5 115.5l71 -13q-3 -18 -7 -44t-7.5 -52t-3.5 -43q0 -14 5.5 -28t22 -22.5t47.5 -8.5q35 0 57.5 24t22.5 67q0 23 -1 48.5t-3.5 57t-7.5 72.5l71 5q5 -81 11.5 -134t18 -83.5t30.5 -43.5t49 -13
q21 0 30.5 -9.5t9.5 -26.5q0 -16 -11.5 -28t-38.5 -12q-34 0 -62.5 12t-48 38t-27.5 69l28 -6q-11 -45 -32.5 -69.5t-47.5 -34t-51 -9.5q-34 0 -59.5 10.5t-41 33t-20.5 58.5h29q-16 -36 -33.5 -58.5t-40.5 -33t-56 -10.5q-26 0 -45 8t-31.5 21.5t-19 29t-9.5 30.5l31 -43
q3 -49 -8.5 -97.5t-40.5 -88.5t-78 -63.5t-122 -23.5zM721 -186q-20 0 -34 14t-14 33q0 20 14 34t34 14t33.5 -14t13.5 -34q0 -19 -13.5 -33t-33.5 -14zM698 435q-20 0 -34 14t-14 33q0 20 14 34t34 14t33.5 -14t13.5 -34q0 -19 -13.5 -33t-33.5 -14z" />
    <glyph glyph-name="uni069B.init" unicode="&#x69b;" horiz-adv-x="712" 
d="M0 -5l10 76q32 0 52 5.5t33.5 25t25.5 60.5t28 113l68 -19q-7 -29 -12 -50t-7.5 -39t-3.5 -37q0 -28 12 -43.5t59 -15.5q23 0 38.5 6t27 26.5t21 63t20.5 115.5l70 -13q-3 -18 -7 -44t-7.5 -51.5t-3.5 -42.5q0 -16 5.5 -30t21.5 -22t48 -8q29 0 48 9.5t28.5 29.5t9.5 49
q0 43 -17.5 99.5t-39.5 114.5l76 29q12 -32 24.5 -73t21 -83t8.5 -78q0 -43 -11.5 -75.5t-33 -54t-51 -32.5t-65.5 -11t-61.5 10.5t-40 31.5t-19.5 56h27q-15 -40 -34 -61t-45.5 -29t-67.5 -8q-28 0 -54 8t-42.5 31t-17.5 67l30 6q-17 -51 -39.5 -75t-54.5 -30.5t-78 -6.5z
M345 -300q-20 0 -34 13.5t-14 32.5q0 20 14 34.5t34 14.5t33.5 -14.5t13.5 -33.5q0 -20 -14 -33.5t-33 -13.5zM280 -190q-20 0 -34 13.5t-14 32.5q0 20 14 34.5t34 14.5q19 0 33 -14.5t14 -33.5q0 -20 -14 -33.5t-33 -13.5zM410 -190q-20 0 -34 13.5t-14 32.5q0 20 14 34.5
t34 14.5t33.5 -14.5t13.5 -33.5q0 -20 -13.5 -33.5t-33.5 -13.5z" />
    <glyph glyph-name="uni069B.medi" unicode="&#x69b;" horiz-adv-x="730" 
d="M0 -5l10 76q29 0 47.5 5.5t32 25t25 60.5t27.5 113l68 -19q-6 -25 -14.5 -61.5t-8.5 -65.5q0 -16 4 -29.5t19 -21t48 -7.5q23 0 38.5 6t27 26.5t21 63t20.5 115.5l70 -13q-3 -18 -7 -44t-7.5 -52t-3.5 -43q0 -20 4.5 -33t20.5 -19.5t50 -6.5q37 0 58.5 18.5t21.5 72.5
q0 23 -1 48.5t-3.5 57t-7.5 72.5l71 5q5 -81 11.5 -134t18 -83.5t30.5 -43.5t49 -13q21 0 30.5 -9.5t9.5 -26.5q0 -16 -11.5 -28t-38.5 -12q-34 0 -57 9.5t-38.5 26t-25 38t-14.5 45.5l25 -6q-7 -45 -28 -69.5t-48.5 -34t-54.5 -9.5q-39 0 -64 10.5t-38.5 32t-17.5 55.5h27
q-14 -39 -32.5 -60.5t-46 -29.5t-68.5 -8q-25 0 -51.5 7.5t-44 30t-18.5 68.5l30 6q-17 -51 -39 -75t-53 -30.5t-73 -6.5zM349 -300q-20 0 -34 13.5t-14 32.5q0 20 14 34.5t34 14.5t33.5 -14.5t13.5 -33.5q0 -20 -14 -33.5t-33 -13.5zM284 -190q-20 0 -34 13.5t-14 32.5
q0 20 14 34.5t34 14.5q19 0 33 -14.5t14 -33.5q0 -20 -14 -33.5t-33 -13.5zM414 -190q-20 0 -34 13.5t-14 32.5q0 20 14 34.5t34 14.5t33.5 -14.5t13.5 -33.5q0 -20 -13.5 -33.5t-33.5 -13.5z" />
    <glyph glyph-name="uni069B.fina" unicode="&#x69b;" horiz-adv-x="1072" 
d="M286 -232q-53 0 -98 15t-77 43.5t-50 68.5t-18 91q0 17 3.5 45.5t15 66.5t33.5 81l64 -30q-13 -31 -22.5 -56.5t-13.5 -48t-4 -46.5q0 -49 20 -83.5t58 -52.5t89 -18q58 0 93 18t53 44.5t24 56.5t6 54q0 49 -6 87t-16.5 75t-24.5 83l76 21q16 -57 22.5 -82t10.5 -41
q11 -37 22.5 -56t27 -26t35.5 -7q18 0 32 6t25.5 26.5t21 63t18.5 115.5l71 -13q-3 -18 -7 -44t-7.5 -52t-3.5 -43q0 -14 5.5 -28t22 -22.5t47.5 -8.5q35 0 57.5 24t22.5 67q0 23 -1 48.5t-3.5 57t-7.5 72.5l71 5q5 -81 11.5 -134t18 -83.5t30.5 -43.5t49 -13
q21 0 30.5 -9.5t9.5 -26.5q0 -16 -11.5 -28t-38.5 -12q-34 0 -62.5 12t-48 38t-27.5 69l28 -6q-11 -45 -32.5 -69.5t-47.5 -34t-51 -9.5q-34 0 -59.5 10.5t-41 33t-20.5 58.5h29q-16 -36 -33.5 -58.5t-40.5 -33t-56 -10.5q-26 0 -45 8t-31.5 21.5t-19 29t-9.5 30.5l31 -43
q3 -49 -8.5 -97.5t-40.5 -88.5t-78 -63.5t-122 -23.5zM720 -295q-20 0 -34 13.5t-14 32.5q0 20 14 34.5t34 14.5t33.5 -14.5t13.5 -33.5q0 -20 -14 -33.5t-33 -13.5zM655 -185q-20 0 -34 13.5t-14 32.5q0 20 14 34.5t34 14.5q19 0 33 -14.5t14 -33.5q0 -20 -14 -33.5
t-33 -13.5zM785 -185q-20 0 -34 13.5t-14 32.5q0 20 14 34.5t34 14.5t33.5 -14.5t13.5 -33.5q0 -20 -13.5 -33.5t-33.5 -13.5z" />
    <glyph glyph-name="uni069D.init" unicode="&#x69d;" horiz-adv-x="790" 
d="M410 -14q-74 0 -124 6t-81 18t-47 32t-23 48l24 7q-21 -42 -45.5 -64.5t-53 -30t-60.5 -7.5l10 76q29 0 46 9t29 30.5t22 60.5t25 98l73 -19q-6 -23 -11 -44t-7.5 -36.5t-2.5 -24.5q0 -24 9 -39.5t34.5 -25t73 -13.5t125.5 -4q61 0 108 9t78.5 25.5t47.5 41.5t16 57
q0 24 -10.5 44.5t-30.5 34t-51 13.5q-40 0 -80.5 -24.5t-76.5 -61t-65 -75.5t-47 -68l-80 -1q28 53 67.5 107.5t86 100t97 72.5t101.5 27q48 0 85 -21t57 -58.5t20 -85.5q0 -58 -34 -106.5t-108.5 -78t-196.5 -29.5zM471 -199q-20 0 -34 13.5t-14 32.5q0 20 14 34.5t34 14.5
q19 0 33 -14.5t14 -33.5q0 -20 -14 -33.5t-33 -13.5zM340 -199q-20 0 -34.5 13.5t-14.5 32.5q0 20 14 34.5t35 14.5q19 0 33 -14.5t14 -33.5q0 -20 -14 -33.5t-33 -13.5z" />
    <glyph glyph-name="uni069D.medi" unicode="&#x69d;" horiz-adv-x="811" 
d="M811 -5q-29 0 -60.5 7t-60.5 21.5t-48 35.5l71 35q21 -11 48 -17t60 -6q21 0 30.5 -9.5t9.5 -26.5q0 -16 -11.5 -28t-38.5 -12zM410 -14q-74 0 -124 6t-81 18t-47 32t-23 48l24 7q-21 -42 -45.5 -64.5t-53 -30t-60.5 -7.5l10 76q29 0 46 9t29 30.5t22 60.5t25 98l73 -19
q-6 -23 -11 -44t-7.5 -36.5t-2.5 -24.5q0 -24 9 -39.5t34.5 -25t73 -13.5t125.5 -4q61 0 108 9t78.5 25.5t47.5 41.5t16 57q0 24 -10.5 44.5t-30.5 34t-51 13.5q-40 0 -80.5 -24.5t-76.5 -61t-65 -75.5t-47 -68l-80 -1q28 53 67.5 107.5t86 100t97 72.5t101.5 27
q48 0 85 -21t57 -58.5t20 -85.5q0 -58 -34 -106.5t-108.5 -78t-196.5 -29.5zM471 -199q-20 0 -34 13.5t-14 32.5q0 20 14 34.5t34 14.5q19 0 33 -14.5t14 -33.5q0 -20 -14 -33.5t-33 -13.5zM340 -199q-20 0 -34.5 13.5t-14.5 32.5q0 20 14 34.5t35 14.5q19 0 33 -14.5
t14 -33.5q0 -20 -14 -33.5t-33 -13.5z" />
    <glyph glyph-name="uni069D.fina" unicode="&#x69d;" horiz-adv-x="1153" 
d="M1153 -5q-29 0 -60.5 7t-60 21.5t-48.5 35.5l71 35q21 -11 48 -17t60 -6q21 0 30.5 -9.5t9.5 -26.5q0 -16 -11.5 -28t-38.5 -12zM284 -232q-52 0 -95.5 14.5t-76.5 43t-51 69.5t-18 94q0 19 3.5 46.5t15 63.5t33.5 80l64 -30q-13 -30 -22.5 -55.5t-13.5 -48t-4 -45.5
q0 -51 20.5 -86t58 -52.5t86.5 -17.5q54 0 88.5 14.5t54.5 40.5t27.5 59.5t7.5 71.5q0 64 -14 118t-32 115l75 21q11 -39 16.5 -62t9 -37t7.5 -25q9 -22 26 -39.5t45.5 -30.5t71 -19t101.5 -6q48 0 87.5 5t69.5 15.5t51 27t31.5 37.5t10.5 48q0 24 -10.5 44.5t-31 33.5
t-50.5 13q-36 0 -72.5 -19.5t-72 -53t-66.5 -74t-58 -82.5l-78 3q17 32 44 72t61 81t74 75t83 55t88 21q48 0 84 -21t57.5 -57.5t21.5 -87.5q0 -44 -19.5 -82.5t-60 -68t-105 -46t-154.5 -16.5q-67 0 -114 10.5t-76.5 27.5t-44.5 35.5t-19 35.5l36 -48q2 -52 -9 -102.5
t-40 -90.5t-78.5 -64t-123.5 -24zM837 -197q-20 0 -34 13.5t-14 32.5q0 20 14 34.5t34 14.5q19 0 33 -14.5t14 -33.5q0 -20 -14 -33.5t-33 -13.5zM706 -197q-20 0 -34.5 13.5t-14.5 32.5q0 20 14 34.5t35 14.5q19 0 33 -14.5t14 -33.5q0 -20 -14 -33.5t-33 -13.5z" />
    <glyph glyph-name="uni069E.init" unicode="&#x69e;" horiz-adv-x="790" 
d="M410 -14q-74 0 -124 6t-81 18t-47 32t-23 48l24 7q-21 -42 -45.5 -64.5t-53 -30t-60.5 -7.5l10 76q29 0 46 9t29 30.5t22 60.5t25 98l73 -19q-6 -23 -11 -44t-7.5 -36.5t-2.5 -24.5q0 -24 9 -39.5t34.5 -25t73 -13.5t125.5 -4q61 0 108 9t78.5 25.5t47.5 41.5t16 57
q0 24 -10.5 44.5t-30.5 34t-51 13.5q-40 0 -80.5 -24.5t-76.5 -61t-65 -75.5t-47 -68l-80 -1q28 53 67.5 107.5t86 100t97 72.5t101.5 27q48 0 85 -21t57 -58.5t20 -85.5q0 -58 -34 -106.5t-108.5 -78t-196.5 -29.5zM560 578q-20 0 -34.5 14t-14.5 33q0 20 14.5 34t34.5 14
q19 0 33 -14t14 -34q0 -19 -14 -33t-33 -14zM495 468q-20 0 -34.5 14t-14.5 33q0 20 14 34t35 14q19 0 33 -14t14 -34q0 -19 -14 -33t-33 -14zM625 468q-20 0 -34 14t-14 33q0 20 14 34t34 14q19 0 33 -14t14 -34q0 -19 -14 -33t-33 -14z" />
    <glyph glyph-name="uni069E.medi" unicode="&#x69e;" horiz-adv-x="811" 
d="M811 -5q-29 0 -60.5 7t-60.5 21.5t-48 35.5l71 35q21 -11 48 -17t60 -6q21 0 30.5 -9.5t9.5 -26.5q0 -16 -11.5 -28t-38.5 -12zM410 -14q-74 0 -124 6t-81 18t-47 32t-23 48l24 7q-21 -42 -45.5 -64.5t-53 -30t-60.5 -7.5l10 76q29 0 46 9t29 30.5t22 60.5t25 98l73 -19
q-6 -23 -11 -44t-7.5 -36.5t-2.5 -24.5q0 -24 9 -39.5t34.5 -25t73 -13.5t125.5 -4q61 0 108 9t78.5 25.5t47.5 41.5t16 57q0 24 -10.5 44.5t-30.5 34t-51 13.5q-40 0 -80.5 -24.5t-76.5 -61t-65 -75.5t-47 -68l-80 -1q28 53 67.5 107.5t86 100t97 72.5t101.5 27
q48 0 85 -21t57 -58.5t20 -85.5q0 -58 -34 -106.5t-108.5 -78t-196.5 -29.5zM560 578q-20 0 -34.5 14t-14.5 33q0 20 14.5 34t34.5 14q19 0 33 -14t14 -34q0 -19 -14 -33t-33 -14zM495 468q-20 0 -34.5 14t-14.5 33q0 20 14 34t35 14q19 0 33 -14t14 -34q0 -19 -14 -33
t-33 -14zM625 468q-20 0 -34 14t-14 33q0 20 14 34t34 14q19 0 33 -14t14 -34q0 -19 -14 -33t-33 -14z" />
    <glyph glyph-name="uni069E.fina" unicode="&#x69e;" horiz-adv-x="1153" 
d="M1153 -5q-29 0 -60.5 7t-60 21.5t-48.5 35.5l71 35q21 -11 48 -17t60 -6q21 0 30.5 -9.5t9.5 -26.5q0 -16 -11.5 -28t-38.5 -12zM284 -232q-52 0 -95.5 14.5t-76.5 43t-51 69.5t-18 94q0 19 3.5 46.5t15 63.5t33.5 80l64 -30q-13 -30 -22.5 -55.5t-13.5 -48t-4 -45.5
q0 -51 20.5 -86t58 -52.5t86.5 -17.5q54 0 88.5 14.5t54.5 40.5t27.5 59.5t7.5 71.5q0 64 -14 118t-32 115l75 21q11 -39 16.5 -62t9 -37t7.5 -25q9 -22 26 -39.5t45.5 -30.5t71 -19t101.5 -6q48 0 87.5 5t69.5 15.5t51 27t31.5 37.5t10.5 48q0 24 -10.5 44.5t-31 33.5
t-50.5 13q-36 0 -72.5 -19.5t-72 -53t-66.5 -74t-58 -82.5l-78 3q17 32 44 72t61 81t74 75t83 55t88 21q48 0 84 -21t57.5 -57.5t21.5 -87.5q0 -44 -19.5 -82.5t-60 -68t-105 -46t-154.5 -16.5q-67 0 -114 10.5t-76.5 27.5t-44.5 35.5t-19 35.5l36 -48q2 -52 -9 -102.5
t-40 -90.5t-78.5 -64t-123.5 -24zM899 580q-20 0 -34.5 14t-14.5 33q0 20 14.5 34t34.5 14q19 0 33 -14t14 -34q0 -19 -14 -33t-33 -14zM834 470q-20 0 -34.5 14t-14.5 33q0 20 14 34t35 14q19 0 33 -14t14 -34q0 -19 -14 -33t-33 -14zM964 470q-20 0 -34 14t-14 33
q0 20 14 34t34 14q19 0 33 -14t14 -34q0 -19 -14 -33t-33 -14z" />
    <glyph glyph-name="uni069F.init" unicode="&#x69f;" horiz-adv-x="600" 
d="M0 -5l9 76h188q63 0 116 7t92 22t60 39.5t21 60.5q0 19 -9 39.5t-29 34.5t-54 14q-40 0 -79.5 -24t-75.5 -60t-65 -75t-47 -70l-80 3q29 54 68.5 107.5t85.5 98t96 71t101 26.5q46 0 83 -20.5t58 -57t21 -84.5q0 -52 -30 -95t-92 -70q-33 -15 -75.5 -24t-92.5 -14
t-110 -5h-160zM94 98l-19 602h77l19 -532zM365 578q-20 0 -34.5 14t-14.5 33q0 20 14.5 34t34.5 14q19 0 33 -14t14 -34q0 -19 -14 -33t-33 -14zM300 468q-20 0 -34.5 14t-14.5 33q0 20 14 34t35 14q19 0 33 -14t14 -34q0 -19 -14 -33t-33 -14zM430 468q-20 0 -34 14t-14 33
q0 20 14 34t34 14q19 0 33 -14t14 -34q0 -19 -14 -33t-33 -14z" />
    <glyph glyph-name="uni069F.medi" unicode="&#x69f;" horiz-adv-x="613" 
d="M613 -5q-29 0 -61 7t-60.5 21.5t-48.5 35.5l71 35q21 -11 48 -17t61 -6q21 0 30.5 -9.5t9.5 -26.5q0 -16 -11.5 -28t-38.5 -12zM0 -5l9 76h188q63 0 116 7t92 22t60 39.5t21 60.5q0 19 -9 39.5t-29 34.5t-54 14q-40 0 -79.5 -24t-75.5 -60t-65 -75t-47 -70l-80 3
q29 54 68.5 107.5t85.5 98t96 71t101 26.5q46 0 83 -20.5t58 -57t21 -84.5q0 -52 -30 -95t-92 -70q-33 -15 -75.5 -24t-92.5 -14t-110 -5h-160zM94 98l-19 602h77l19 -532zM365 578q-20 0 -34.5 14t-14.5 33q0 20 14.5 34t34.5 14q19 0 33 -14t14 -34q0 -19 -14 -33t-33 -14
zM300 468q-20 0 -34.5 14t-14.5 33q0 20 14 34t35 14q19 0 33 -14t14 -34q0 -19 -14 -33t-33 -14zM430 468q-20 0 -34 14t-14 33q0 20 14 34t34 14q19 0 33 -14t14 -34q0 -19 -14 -33t-33 -14z" />
    <glyph glyph-name="uni069F.fina" unicode="&#x69f;" horiz-adv-x="698" 
d="M698 -5q-29 0 -60.5 7t-60.5 21.5t-48 35.5l71 35q21 -11 48 -17t60 -6q21 0 30.5 -9.5t9.5 -26.5q0 -16 -11.5 -28t-38.5 -12zM298 -13q-41 0 -82.5 1.5t-80 4.5t-71 6.5t-55.5 6.5l9 74q32 -4 62.5 -7t64.5 -4.5t75 -2.5t93 -1q58 0 104 7.5t79 24t50.5 41.5t17.5 60
q0 22 -9.5 42.5t-29 34.5t-53.5 14q-40 0 -79.5 -24t-76 -60t-65.5 -75t-48 -70l-79 3q29 53 68.5 107t85.5 98.5t96 71.5t101 27q47 0 83.5 -21t57.5 -57.5t21 -87.5q0 -61 -36 -109.5t-111 -76.5t-192 -28zM174 99l-20 601h77l20 -531zM442 580q-20 0 -34.5 14t-14.5 33
q0 20 14.5 34t34.5 14q19 0 33 -14t14 -34q0 -19 -14 -33t-33 -14zM377 470q-20 0 -34.5 14t-14.5 33q0 20 14 34t35 14q19 0 33 -14t14 -34q0 -19 -14 -33t-33 -14zM507 470q-20 0 -34 14t-14 33q0 20 14 34t34 14q19 0 33 -14t14 -34q0 -19 -14 -33t-33 -14z" />
    <glyph glyph-name="uni06A0.init" unicode="&#x6a0;" horiz-adv-x="438" 
d="M0 -5l10 76q43 0 71.5 1t49.5 3t40 4q-24 12 -49.5 37t-43.5 60t-18 79q0 57 26 97.5t69.5 62.5t96.5 22q22 0 41 -3.5t41 -10.5l-15 -70q-17 4 -33 6.5t-31 2.5q-32 0 -59.5 -13t-44 -36.5t-16.5 -57.5q0 -27 11 -50t29 -41t39.5 -31t41.5 -20t34 -7q15 4 24.5 6.5
t19 5.5t21 8.5t30.5 13.5l26 -68q-51 -22 -111 -39.5t-133.5 -27.5t-166.5 -10zM230 650q-20 0 -34.5 14t-14.5 33q0 20 14.5 34t34.5 14q19 0 33 -14t14 -34q0 -19 -14 -33t-33 -14zM165 540q-20 0 -34.5 14t-14.5 33q0 20 14 34t35 14q19 0 33 -14t14 -34q0 -19 -14 -33
t-33 -14zM295 540q-20 0 -34 14t-14 33q0 20 14 34t34 14q19 0 33 -14t14 -34q0 -19 -14 -33t-33 -14z" />
    <glyph glyph-name="uni06A0.medi" unicode="&#x6a0;" horiz-adv-x="446" 
d="M0 -5l10 76q50 0 96 12.5t85 33.5t67.5 47.5t44.5 55.5t16 58q0 18 -10.5 31t-28.5 19t-41 6q-19 0 -42.5 -6t-45 -17.5t-36.5 -27.5q19 -17 41.5 -40.5t46 -51.5t45.5 -61q18 -13 38.5 -24t45.5 -18.5t56 -12t68 -4.5q20 0 30 -9t10 -27q0 -19 -13 -29.5t-37 -10.5
q-56 0 -103 10.5t-85 30.5t-69 50q-18 30 -39.5 56.5t-43 48t-39.5 36.5q-4 4 -8 14.5t-6.5 22.5t-2.5 20q0 19 16 41.5t43.5 41.5t63.5 31.5t74 12.5q42 0 75 -12t52.5 -38t19.5 -69q0 -44 -20 -87t-56.5 -81t-86 -67t-108 -45.5t-123.5 -16.5zM240 624q-20 0 -34.5 14
t-14.5 33q0 20 14.5 34t34.5 14q19 0 33 -14t14 -34q0 -19 -14 -33t-33 -14zM175 514q-20 0 -34.5 14t-14.5 33q0 20 14 34t35 14q19 0 33 -14t14 -34q0 -19 -14 -33t-33 -14zM305 514q-20 0 -34 14t-14 33q0 20 14 34t34 14q19 0 33 -14t14 -34q0 -19 -14 -33t-33 -14z" />
    <glyph glyph-name="uni06A0.fina" unicode="&#x6a0;" horiz-adv-x="450" 
d="M259 -380q-41 0 -87 8.5t-86 31.5t-65 63.5t-25 104.5q0 60 23.5 106.5t60 83.5t78 68.5t78 61t60 61t23.5 68.5q0 15 -8 28t-25 21t-44 8q-19 0 -41.5 -6t-44.5 -17.5t-38 -27.5l49 -49t42.5 -46.5t42.5 -56.5q21 -15 41.5 -26t44.5 -18.5t54 -11.5t68 -4q18 0 29 -8.5
t11 -27.5q0 -17 -12 -28.5t-38 -11.5q-63 0 -109 10.5t-81.5 31t-66.5 48.5q-16 28 -37 53.5t-42.5 48t-41.5 40.5q-5 4 -9 15t-7 23t-3 17q0 22 16.5 45t45 42t64 30.5t72.5 11.5q73 0 108 -34.5t35 -83.5t-23.5 -89.5t-60 -75.5t-78 -67t-78 -65.5t-59.5 -72t-23 -85.5
q0 -44 18 -72t46.5 -43t61.5 -21t62 -6q26 0 52 2.5t57.5 10.5t71.5 24l26 -58q-29 -18 -65 -30.5t-72.5 -18.5t-70.5 -6zM245 624q-20 0 -34.5 14t-14.5 33q0 20 14.5 34t34.5 14q19 0 33 -14t14 -34q0 -19 -14 -33t-33 -14zM180 514q-20 0 -34.5 14t-14.5 33q0 20 14 34
t35 14q19 0 33 -14t14 -34q0 -19 -14 -33t-33 -14zM310 514q-20 0 -34 14t-14 33q0 20 14 34t34 14q19 0 33 -14t14 -34q0 -19 -14 -33t-33 -14z" />
    <glyph glyph-name="uni06A1.init" unicode="&#x6a1;" horiz-adv-x="392" 
d="M0 -5l9 76q22 0 47 0.5t50.5 1.5t49 4.5t41.5 11.5q30 12 47.5 33.5t25 55.5t7.5 82q0 43 -8.5 81t-25 61t-42.5 23q-18 0 -34 -16.5t-26 -44.5t-10 -63q0 -25 10 -40t28.5 -22t43.5 -7q22 0 45 5t39 14l4 -65q-12 -10 -28.5 -16.5t-34.5 -9t-34 -2.5q-54 0 -86.5 18.5
t-47 48t-14.5 62.5q0 39 10.5 77t30.5 69t48 49.5t63 18.5q49 0 81 -33t47.5 -89t15.5 -124q0 -71 -23.5 -129t-77.5 -91q-23 -13 -50.5 -20.5t-59.5 -12t-67.5 -6t-73.5 -1.5z" />
    <glyph glyph-name="uni06A1.medi" unicode="&#x6a1;" horiz-adv-x="425" 
d="M0 -5l9 76q23 0 46.5 1.5t46.5 5t44 9t39 13.5q30 13 53.5 32.5t37.5 45.5t14 55q0 25 -9 49.5t-25.5 40.5t-36.5 16q-19 0 -36 -15.5t-28 -40.5t-11 -52q0 -34 16 -60.5t40.5 -45t49.5 -30.5l-83 -31q-20 14 -43.5 36t-40.5 55t-17 78q0 35 12 67.5t33 58.5t49.5 41
t61.5 15q43 0 76 -24.5t52.5 -64.5t19.5 -85q0 -36 -11 -66.5t-30.5 -55.5t-45.5 -44.5t-56 -34.5q-25 -12 -52 -21t-56.5 -14t-59.5 -7.5t-59 -2.5zM425 -5q-42 0 -84.5 6t-81 16.5t-68.5 24.5l68 45q27 -5 60 -8.5t63.5 -5.5t52.5 -2q21 0 30.5 -9.5t9.5 -26.5
q0 -16 -11.5 -28t-38.5 -12z" />
    <glyph glyph-name="uni06A1.fina" unicode="&#x6a1;" horiz-adv-x="948" 
d="M320 -21l26 76q52 0 104 3t99.5 8t87.5 13.5t68 20.5q34 14 58.5 32.5t38 43t13.5 54.5q0 19 -5 38t-14 35t-22.5 26t-30.5 10q-21 0 -38.5 -17t-27 -43t-9.5 -53q0 -34 15.5 -59t39 -41.5t48.5 -28.5l-80 -33q-20 14 -43.5 34.5t-40.5 52t-17 76.5q0 35 11.5 68t32 60.5
t49.5 43.5t63 16q45 0 78 -26t51 -67t18 -87q0 -33 -10.5 -61.5t-29.5 -52.5t-45.5 -43.5t-57.5 -33.5q-35 -19 -84.5 -31t-107.5 -20t-119.5 -11t-118.5 -3zM948 -5q-41 0 -83 5.5t-80.5 16t-69.5 25.5l67 44q24 -4 57 -7.5t65.5 -5.5t53.5 -2t30.5 -9.5t9.5 -26.5
q0 -16 -11.5 -28t-38.5 -12zM320 -21q-60 0 -112.5 9.5t-92.5 31.5t-62.5 58.5t-22.5 90.5q0 27 4.5 55t11.5 55.5t14 52.5l69 -20q-4 -13 -9 -35.5t-9.5 -46t-4.5 -43.5q0 -42 21.5 -71.5t74 -45t144.5 -15.5l20 -44z" />
    <glyph glyph-name="fehDotMovedbelowar.init" unicode="&#x6a2;" horiz-adv-x="392" 
d="M0 -5l9 76q22 0 47 0.5t50.5 1.5t49 4.5t41.5 11.5q30 12 47.5 33.5t25 55.5t7.5 82q0 43 -8.5 81t-25 61t-42.5 23q-18 0 -34 -16.5t-26 -44.5t-10 -63q0 -25 10 -40t28.5 -22t43.5 -7q22 0 45 5t39 14l4 -65q-12 -10 -28.5 -16.5t-34.5 -9t-34 -2.5q-54 0 -86.5 18.5
t-47 48t-14.5 62.5q0 39 10.5 77t30.5 69t48 49.5t63 18.5q49 0 81 -33t47.5 -89t15.5 -124q0 -71 -23.5 -129t-77.5 -91q-23 -13 -50.5 -20.5t-59.5 -12t-67.5 -6t-73.5 -1.5zM169 -202q-20 0 -34 14t-14 33q0 20 14 34t34 14t33.5 -14t13.5 -34q0 -19 -13.5 -33t-33.5 -14
z" />
    <glyph glyph-name="fehDotMovedbelowar.medi" unicode="&#x6a2;" horiz-adv-x="425" 
d="M0 -5l9 76q23 0 46.5 1.5t46.5 5t44 9t39 13.5q30 13 53.5 32.5t37.5 45.5t14 55q0 25 -9 49.5t-25.5 40.5t-36.5 16q-19 0 -36 -15.5t-28 -40.5t-11 -52q0 -34 16 -60.5t40.5 -45t49.5 -30.5l-83 -31q-20 14 -43.5 36t-40.5 55t-17 78q0 35 12 67.5t33 58.5t49.5 41
t61.5 15q43 0 76 -24.5t52.5 -64.5t19.5 -85q0 -36 -11 -66.5t-30.5 -55.5t-45.5 -44.5t-56 -34.5q-25 -12 -52 -21t-56.5 -14t-59.5 -7.5t-59 -2.5zM425 -5q-42 0 -84.5 6t-81 16.5t-68.5 24.5l68 45q27 -5 60 -8.5t63.5 -5.5t52.5 -2q21 0 30.5 -9.5t9.5 -26.5
q0 -16 -11.5 -28t-38.5 -12zM208 -202q-20 0 -34 14t-14 33q0 20 14 34t34 14t33.5 -14t13.5 -34q0 -19 -13.5 -33t-33.5 -14z" />
    <glyph glyph-name="fehDotMovedbelowar.fina" unicode="&#x6a2;" horiz-adv-x="948" 
d="M320 -21l26 76q52 0 104 3t99.5 8t87.5 13.5t68 20.5q34 14 58.5 32.5t38 43t13.5 54.5q0 19 -5 38t-14 35t-22.5 26t-30.5 10q-21 0 -38.5 -17t-27 -43t-9.5 -53q0 -34 15.5 -59t39 -41.5t48.5 -28.5l-80 -33q-20 14 -43.5 34.5t-40.5 52t-17 76.5q0 35 11.5 68t32 60.5
t49.5 43.5t63 16q45 0 78 -26t51 -67t18 -87q0 -33 -10.5 -61.5t-29.5 -52.5t-45.5 -43.5t-57.5 -33.5q-35 -19 -84.5 -31t-107.5 -20t-119.5 -11t-118.5 -3zM948 -5q-41 0 -83 5.5t-80.5 16t-69.5 25.5l67 44q24 -4 57 -7.5t65.5 -5.5t53.5 -2t30.5 -9.5t9.5 -26.5
q0 -16 -11.5 -28t-38.5 -12zM320 -21q-60 0 -112.5 9.5t-92.5 31.5t-62.5 58.5t-22.5 90.5q0 27 4.5 55t11.5 55.5t14 52.5l69 -20q-4 -13 -9 -35.5t-9.5 -46t-4.5 -43.5q0 -42 21.5 -71.5t74 -45t144.5 -15.5l20 -44zM403 -207q-20 0 -34 14t-14 33q0 20 14 34t34 14
t33.5 -14t13.5 -34q0 -19 -13.5 -33t-33.5 -14z" />
    <glyph glyph-name="uni06A3.init" unicode="&#x6a3;" horiz-adv-x="392" 
d="M0 -5l9 76q22 0 47 0.5t50.5 1.5t49 4.5t41.5 11.5q30 12 47.5 33.5t25 55.5t7.5 82q0 43 -8.5 81t-25 61t-42.5 23q-18 0 -34 -16.5t-26 -44.5t-10 -63q0 -25 10 -40t28.5 -22t43.5 -7q22 0 45 5t39 14l4 -65q-12 -10 -28.5 -16.5t-34.5 -9t-34 -2.5q-54 0 -86.5 18.5
t-47 48t-14.5 62.5q0 39 10.5 77t30.5 69t48 49.5t63 18.5q49 0 81 -33t47.5 -89t15.5 -124q0 -71 -23.5 -129t-77.5 -91q-23 -13 -50.5 -20.5t-59.5 -12t-67.5 -6t-73.5 -1.5zM187 604q-20 0 -34 14t-14 33q0 20 14 34t34 14t33.5 -14t13.5 -34q0 -19 -13.5 -33t-33.5 -14z
M169 -202q-20 0 -34 14t-14 33q0 20 14 34t34 14t33.5 -14t13.5 -34q0 -19 -13.5 -33t-33.5 -14z" />
    <glyph glyph-name="uni06A3.medi" unicode="&#x6a3;" horiz-adv-x="425" 
d="M0 -5l9 76q23 0 46.5 1.5t46.5 5t44 9t39 13.5q30 13 53.5 32.5t37.5 45.5t14 55q0 25 -9 49.5t-25.5 40.5t-36.5 16q-19 0 -36 -15.5t-28 -40.5t-11 -52q0 -34 16 -60.5t40.5 -45t49.5 -30.5l-83 -31q-20 14 -43.5 36t-40.5 55t-17 78q0 35 12 67.5t33 58.5t49.5 41
t61.5 15q43 0 76 -24.5t52.5 -64.5t19.5 -85q0 -36 -11 -66.5t-30.5 -55.5t-45.5 -44.5t-56 -34.5q-25 -12 -52 -21t-56.5 -14t-59.5 -7.5t-59 -2.5zM425 -5q-42 0 -84.5 6t-81 16.5t-68.5 24.5l68 45q27 -5 60 -8.5t63.5 -5.5t52.5 -2q21 0 30.5 -9.5t9.5 -26.5
q0 -16 -11.5 -28t-38.5 -12zM217 518q-20 0 -34 14t-14 33q0 20 14 34t34 14t33.5 -14t13.5 -34q0 -19 -13.5 -33t-33.5 -14zM208 -202q-20 0 -34 14t-14 33q0 20 14 34t34 14t33.5 -14t13.5 -34q0 -19 -13.5 -33t-33.5 -14z" />
    <glyph glyph-name="uni06A3.fina" unicode="&#x6a3;" horiz-adv-x="948" 
d="M320 -21l26 76q52 0 104 3t99.5 8t87.5 13.5t68 20.5q34 14 58.5 32.5t38 43t13.5 54.5q0 19 -5 38t-14 35t-22.5 26t-30.5 10q-21 0 -38.5 -17t-27 -43t-9.5 -53q0 -34 15.5 -59t39 -41.5t48.5 -28.5l-80 -33q-20 14 -43.5 34.5t-40.5 52t-17 76.5q0 35 11.5 68t32 60.5
t49.5 43.5t63 16q45 0 78 -26t51 -67t18 -87q0 -33 -10.5 -61.5t-29.5 -52.5t-45.5 -43.5t-57.5 -33.5q-35 -19 -84.5 -31t-107.5 -20t-119.5 -11t-118.5 -3zM948 -5q-41 0 -83 5.5t-80.5 16t-69.5 25.5l67 44q24 -4 57 -7.5t65.5 -5.5t53.5 -2t30.5 -9.5t9.5 -26.5
q0 -16 -11.5 -28t-38.5 -12zM320 -21q-60 0 -112.5 9.5t-92.5 31.5t-62.5 58.5t-22.5 90.5q0 27 4.5 55t11.5 55.5t14 52.5l69 -20q-4 -13 -9 -35.5t-9.5 -46t-4.5 -43.5q0 -42 21.5 -71.5t74 -45t144.5 -15.5l20 -44zM742 518q-20 0 -34 14t-14 33q0 20 14 34t34 14
t33.5 -14t13.5 -34q0 -19 -13.5 -33t-33.5 -14zM403 -207q-20 0 -34 14t-14 33q0 20 14 34t34 14t33.5 -14t13.5 -34q0 -19 -13.5 -33t-33.5 -14z" />
    <glyph glyph-name="uni06A5.init" unicode="&#x6a5;" horiz-adv-x="392" 
d="M0 -5l9 76q22 0 47 0.5t50.5 1.5t49 4.5t41.5 11.5q30 12 47.5 33.5t25 55.5t7.5 82q0 43 -8.5 81t-25 61t-42.5 23q-18 0 -34 -16.5t-26 -44.5t-10 -63q0 -25 10 -40t28.5 -22t43.5 -7q22 0 45 5t39 14l4 -65q-12 -10 -28.5 -16.5t-34.5 -9t-34 -2.5q-54 0 -86.5 18.5
t-47 48t-14.5 62.5q0 39 10.5 77t30.5 69t48 49.5t63 18.5q49 0 81 -33t47.5 -89t15.5 -124q0 -71 -23.5 -129t-77.5 -91q-23 -13 -50.5 -20.5t-59.5 -12t-67.5 -6t-73.5 -1.5zM169 -311q-20 0 -34 13.5t-14 32.5q0 20 14 34.5t34 14.5t33.5 -14.5t13.5 -33.5
q0 -20 -14 -33.5t-33 -13.5zM104 -201q-20 0 -34 13.5t-14 32.5q0 20 14 34.5t34 14.5q19 0 33 -14.5t14 -33.5q0 -20 -14 -33.5t-33 -13.5zM234 -201q-20 0 -34 13.5t-14 32.5q0 20 14 34.5t34 14.5t33.5 -14.5t13.5 -33.5q0 -20 -13.5 -33.5t-33.5 -13.5z" />
    <glyph glyph-name="uni06A5.medi" unicode="&#x6a5;" horiz-adv-x="425" 
d="M0 -5l9 76q23 0 46.5 1.5t46.5 5t44 9t39 13.5q30 13 53.5 32.5t37.5 45.5t14 55q0 25 -9 49.5t-25.5 40.5t-36.5 16q-19 0 -36 -15.5t-28 -40.5t-11 -52q0 -34 16 -60.5t40.5 -45t49.5 -30.5l-83 -31q-20 14 -43.5 36t-40.5 55t-17 78q0 35 12 67.5t33 58.5t49.5 41
t61.5 15q43 0 76 -24.5t52.5 -64.5t19.5 -85q0 -36 -11 -66.5t-30.5 -55.5t-45.5 -44.5t-56 -34.5q-25 -12 -52 -21t-56.5 -14t-59.5 -7.5t-59 -2.5zM425 -5q-42 0 -84.5 6t-81 16.5t-68.5 24.5l68 45q27 -5 60 -8.5t63.5 -5.5t52.5 -2q21 0 30.5 -9.5t9.5 -26.5
q0 -16 -11.5 -28t-38.5 -12zM208 -311q-20 0 -34 13.5t-14 32.5q0 20 14 34.5t34 14.5t33.5 -14.5t13.5 -33.5q0 -20 -14 -33.5t-33 -13.5zM143 -201q-20 0 -34 13.5t-14 32.5q0 20 14 34.5t34 14.5q19 0 33 -14.5t14 -33.5q0 -20 -14 -33.5t-33 -13.5zM273 -201
q-20 0 -34 13.5t-14 32.5q0 20 14 34.5t34 14.5t33.5 -14.5t13.5 -33.5q0 -20 -13.5 -33.5t-33.5 -13.5z" />
    <glyph glyph-name="uni06A5.fina" unicode="&#x6a5;" horiz-adv-x="948" 
d="M320 -21l26 76q52 0 104 3t99.5 8t87.5 13.5t68 20.5q34 14 58.5 32.5t38 43t13.5 54.5q0 19 -5 38t-14 35t-22.5 26t-30.5 10q-21 0 -38.5 -17t-27 -43t-9.5 -53q0 -34 15.5 -59t39 -41.5t48.5 -28.5l-80 -33q-20 14 -43.5 34.5t-40.5 52t-17 76.5q0 35 11.5 68t32 60.5
t49.5 43.5t63 16q45 0 78 -26t51 -67t18 -87q0 -33 -10.5 -61.5t-29.5 -52.5t-45.5 -43.5t-57.5 -33.5q-35 -19 -84.5 -31t-107.5 -20t-119.5 -11t-118.5 -3zM948 -5q-41 0 -83 5.5t-80.5 16t-69.5 25.5l67 44q24 -4 57 -7.5t65.5 -5.5t53.5 -2t30.5 -9.5t9.5 -26.5
q0 -16 -11.5 -28t-38.5 -12zM320 -21q-60 0 -112.5 9.5t-92.5 31.5t-62.5 58.5t-22.5 90.5q0 27 4.5 55t11.5 55.5t14 52.5l69 -20q-4 -13 -9 -35.5t-9.5 -46t-4.5 -43.5q0 -42 21.5 -71.5t74 -45t144.5 -15.5l20 -44zM402 -316q-20 0 -34 13.5t-14 32.5q0 20 14 34.5
t34 14.5t33.5 -14.5t13.5 -33.5q0 -20 -14 -33.5t-33 -13.5zM337 -206q-20 0 -34 13.5t-14 32.5q0 20 14 34.5t34 14.5q19 0 33 -14.5t14 -33.5q0 -20 -14 -33.5t-33 -13.5zM467 -206q-20 0 -34 13.5t-14 32.5q0 20 14 34.5t34 14.5t33.5 -14.5t13.5 -33.5
q0 -20 -13.5 -33.5t-33.5 -13.5z" />
    <glyph glyph-name="uni06A7.fina" unicode="&#x6a7;" horiz-adv-x="730" 
d="M306 -273q-51 0 -100.5 13.5t-89 40.5t-63 71t-23.5 105q0 15 4 44.5t16 70t36 86.5l67 -31q-15 -33 -25.5 -60t-15 -52t-4.5 -51q0 -56 29 -91t77 -52t104 -17q37 0 69.5 4.5t60 14t50 23t39.5 31.5t29 40q16 31 23.5 72t7.5 85q0 53 -8.5 93.5t-25.5 63.5t-40 23
q-16 0 -29 -11t-22.5 -28.5t-14.5 -39t-5 -43.5q0 -20 7 -31.5t20.5 -18t33.5 -9t45 -2.5h182q21 0 30.5 -9.5t9.5 -26.5t-12.5 -28.5t-37.5 -11.5h-191q-39 0 -69.5 8t-51 24t-31.5 39.5t-11 53.5q0 37 11 74.5t31 68.5t49 49.5t64 18.5q45 0 77 -31.5t49 -89.5t17 -137
q0 -55 -11.5 -106.5t-34.5 -92.5q-22 -39 -55 -67t-74.5 -45.5t-89.5 -26t-103 -8.5zM528 434q-20 0 -34 14t-14 33q0 20 14 34t34 14t33.5 -14t13.5 -34q0 -19 -13.5 -33t-33.5 -14z" />
    <glyph glyph-name="uni06A8.init" unicode="&#x6a8;" horiz-adv-x="392" 
d="M0 -5l9 76q22 0 47 0.5t50.5 1.5t49 4.5t41.5 11.5q30 12 47.5 33.5t25 55.5t7.5 82q0 43 -8.5 81t-25 61t-42.5 23q-18 0 -34 -16.5t-26 -44.5t-10 -63q0 -25 10 -40t28.5 -22t43.5 -7q22 0 45 5t39 14l4 -65q-12 -10 -28.5 -16.5t-34.5 -9t-34 -2.5q-54 0 -86.5 18.5
t-47 48t-14.5 62.5q0 39 10.5 77t30.5 69t48 49.5t63 18.5q49 0 81 -33t47.5 -89t15.5 -124q0 -71 -23.5 -129t-77.5 -91q-23 -13 -50.5 -20.5t-59.5 -12t-67.5 -6t-73.5 -1.5zM189 714q-20 0 -34.5 14t-14.5 33q0 20 14.5 34t34.5 14q19 0 33 -14t14 -34q0 -19 -14 -33
t-33 -14zM124 604q-20 0 -34.5 14t-14.5 33q0 20 14 34t35 14q19 0 33 -14t14 -34q0 -19 -14 -33t-33 -14zM254 604q-20 0 -34 14t-14 33q0 20 14 34t34 14q19 0 33 -14t14 -34q0 -19 -14 -33t-33 -14z" />
    <glyph glyph-name="uni06A8.medi" unicode="&#x6a8;" horiz-adv-x="425" 
d="M0 -5l9 76q23 0 46.5 1.5t46.5 5t44 9t39 13.5q30 13 53.5 32.5t37.5 45.5t14 55q0 25 -9 49.5t-25.5 40.5t-36.5 16q-19 0 -36 -15.5t-28 -40.5t-11 -52q0 -34 16 -60.5t40.5 -45t49.5 -30.5l-83 -31q-20 14 -43.5 36t-40.5 55t-17 78q0 35 12 67.5t33 58.5t49.5 41
t61.5 15q43 0 76 -24.5t52.5 -64.5t19.5 -85q0 -36 -11 -66.5t-30.5 -55.5t-45.5 -44.5t-56 -34.5q-25 -12 -52 -21t-56.5 -14t-59.5 -7.5t-59 -2.5zM425 -5q-42 0 -84.5 6t-81 16.5t-68.5 24.5l68 45q27 -5 60 -8.5t63.5 -5.5t52.5 -2q21 0 30.5 -9.5t9.5 -26.5
q0 -16 -11.5 -28t-38.5 -12zM220 628q-20 0 -34.5 14t-14.5 33q0 20 14.5 34t34.5 14q19 0 33 -14t14 -34q0 -19 -14 -33t-33 -14zM155 518q-20 0 -34.5 14t-14.5 33q0 20 14 34t35 14q19 0 33 -14t14 -34q0 -19 -14 -33t-33 -14zM285 518q-20 0 -34 14t-14 33q0 20 14 34
t34 14q19 0 33 -14t14 -34q0 -19 -14 -33t-33 -14z" />
    <glyph glyph-name="uni06A8.fina" unicode="&#x6a8;" horiz-adv-x="730" 
d="M306 -273q-51 0 -100.5 13.5t-89 40.5t-63 71t-23.5 105q0 15 4 44.5t16 70t36 86.5l67 -31q-15 -33 -25.5 -60t-15 -52t-4.5 -51q0 -56 29 -91t77 -52t104 -17q37 0 69.5 4.5t60 14t50 23t39.5 31.5t29 40q16 31 23.5 72t7.5 85q0 53 -8.5 93.5t-25.5 63.5t-40 23
q-16 0 -29 -11t-22.5 -28.5t-14.5 -39t-5 -43.5q0 -20 7 -31.5t20.5 -18t33.5 -9t45 -2.5h182q21 0 30.5 -9.5t9.5 -26.5t-12.5 -28.5t-37.5 -11.5h-191q-39 0 -69.5 8t-51 24t-31.5 39.5t-11 53.5q0 37 11 74.5t31 68.5t49 49.5t64 18.5q45 0 77 -31.5t49 -89.5t17 -137
q0 -55 -11.5 -106.5t-34.5 -92.5q-22 -39 -55 -67t-74.5 -45.5t-89.5 -26t-103 -8.5zM530 544q-20 0 -34.5 14t-14.5 33q0 20 14.5 34t34.5 14q19 0 33 -14t14 -34q0 -19 -14 -33t-33 -14zM465 434q-20 0 -34.5 14t-14.5 33q0 20 14 34t35 14q19 0 33 -14t14 -34
q0 -19 -14 -33t-33 -14zM595 434q-20 0 -34 14t-14 33q0 20 14 34t34 14q19 0 33 -14t14 -34q0 -19 -14 -33t-33 -14z" />
    <glyph glyph-name="uni06AA.init" unicode="&#x6aa;" horiz-adv-x="742" 
d="M0 -5l10 76h293q75 0 134 2t100 8t62.5 19t21.5 35q0 16 -10.5 30t-35.5 25.5t-67.5 20t-106.5 15.5q-91 9 -144.5 20.5t-76 32.5t-22.5 57q0 40 24.5 74.5t68 64.5t100 54t120.5 42l18 -68q-89 -28 -145.5 -55t-83 -52.5t-26.5 -46.5q0 -14 13 -22.5t49.5 -14.5
t104.5 -14q86 -9 142 -22.5t89 -32t46.5 -43.5t13.5 -56q0 -45 -23.5 -73.5t-71.5 -45.5t-120.5 -23.5t-171.5 -6.5h-305z" />
    <glyph glyph-name="uni06AA.medi" unicode="&#x6aa;" horiz-adv-x="781" 
d="M781 -5q-29 0 -61 7t-60.5 21.5t-48.5 35.5l71 35q21 -11 48 -17t61 -6q21 0 30.5 -9.5t9.5 -26.5q0 -16 -12 -28t-38 -12zM0 -5l10 76h293q75 0 134 2t100 8t62.5 19t21.5 35q0 16 -10.5 30t-35.5 25.5t-67.5 20t-106.5 15.5q-91 9 -144.5 20.5t-76 32.5t-22.5 57
q0 40 24.5 74.5t68 64.5t100 54t120.5 42l18 -68q-89 -28 -145.5 -55t-83 -52.5t-26.5 -46.5q0 -14 13 -22.5t49.5 -14.5t104.5 -14q86 -9 142 -22.5t89 -32t46.5 -43.5t13.5 -56q0 -45 -23.5 -73.5t-71.5 -45.5t-120.5 -23.5t-171.5 -6.5h-305z" />
    <glyph glyph-name="uni06AA.fina" unicode="&#x6aa;" horiz-adv-x="990" 
d="M990 -5q-29 0 -60.5 7t-60 21.5t-48.5 35.5l71 35q21 -11 48 -17t60 -6q21 0 30.5 -9.5t9.5 -26.5q0 -16 -11.5 -28t-38.5 -12zM515 -15q-37 0 -95 1t-124.5 3t-130 6t-110.5 9l6 74q50 -3 107.5 -6t118 -5.5t118.5 -4t108 -1.5q75 0 134 3.5t100 11.5t62.5 22.5
t21.5 36.5q0 16 -10.5 30t-35.5 25.5t-67.5 20t-106.5 15.5q-91 9 -144 20.5t-76 32.5t-23 57q0 40 24.5 74.5t68 64.5t100 54t121.5 42l17 -68q-89 -28 -145.5 -55.5t-83 -52.5t-26.5 -47q0 -14 13.5 -22t49.5 -14t104 -14q86 -9 142.5 -22.5t89 -32t46 -43.5t13.5 -56
q0 -45 -23 -75t-71.5 -49t-121 -27t-171.5 -8z" />
    <glyph glyph-name="uni06AB.init" unicode="&#x6ab;" horiz-adv-x="349" 
d="M268 466q-33 0 -55.5 23t-22.5 55q0 33 22.5 56t55.5 23t56 -23t23 -56q0 -32 -23 -55t-56 -23zM268 511q15 0 25.5 9.5t10.5 23.5q0 15 -10.5 25t-25.5 10t-25 -10t-10 -25q0 -14 10 -23.5t25 -9.5zM0 -5l10 76h81q43 0 69 6.5t39 17.5t17.5 25.5t4.5 31.5q0 32 -20 70
t-57 78q-33 36 -56.5 60t-39 39t-23.5 24t-8 15q0 12 2.5 28t7 30.5t10.5 20.5q12 13 32.5 29.5t53 37.5t81.5 49t117 64l34 -64q-62 -33 -107 -57.5t-77 -44t-58 -37.5t-51 -38l9 29q37 -39 76 -79t72 -81.5t53.5 -85.5t20.5 -94q0 -25 -9 -51.5t-32.5 -49t-66 -36
t-107.5 -13.5h-78z" />
    <glyph glyph-name="uni06AB.medi" unicode="&#x6ab;" horiz-adv-x="420" 
d="M270 465q-32 0 -54.5 22.5t-22.5 55.5t22.5 56t54.5 23q33 0 56 -23t23 -56t-23 -55.5t-56 -22.5zM270 509q15 0 26 10t11 24q0 15 -11 25t-26 10q-14 0 -24.5 -10t-10.5 -25q0 -14 10.5 -24t24.5 -10zM0 -5l9 76h67q54 0 85.5 7t45.5 24.5t14 46.5q0 22 -15 49.5
t-38 57.5t-49 59.5t-49 54.5t-38 43.5t-15 25.5q0 15 2.5 31t7 30t11.5 20q18 18 49.5 40.5t71 46.5t81.5 47t81 43l34 -65q-39 -22 -79.5 -43.5t-78 -43t-70.5 -42.5t-58 -43l1 18q33 -36 61.5 -66t55.5 -62t53.5 -71t54.5 -91q25 -46 45.5 -71t42 -35.5t47.5 -10.5
q21 0 30.5 -9.5t9.5 -26.5q0 -16 -11.5 -28t-38.5 -12q-33 0 -63 12t-56 40.5t-47 76.5l31 -8q-8 -36 -27.5 -59.5t-47.5 -37t-62.5 -19t-75.5 -5.5h-72z" />
    <glyph glyph-name="uni06AB.fina" unicode="&#x6ab;" horiz-adv-x="866" 
d="M707 459q-33 0 -55.5 23t-22.5 56q0 32 22.5 55t55.5 23q32 0 55 -23t23 -55q0 -33 -23 -56t-55 -23zM707 504q15 0 25.5 10t10.5 24t-10.5 24.5t-25.5 10.5t-25.5 -10.5t-10.5 -24.5t10.5 -24t25.5 -10zM320 -21l26 76q86 0 146.5 6.5t99 18.5t56.5 28.5t18 37.5
q0 23 -14.5 52t-37.5 59t-49 59t-49 54t-37.5 43.5t-14.5 26.5q0 13 2 28t6.5 29t11.5 22q25 27 72 57.5t103.5 62t107.5 58.5l35 -65q-60 -32 -112.5 -62t-97 -58t-82.5 -57l6 23q28 -28 59 -61.5t62.5 -72t59 -79.5t47.5 -83q17 -34 33 -55.5t32.5 -33.5t33 -17t33.5 -5
q21 0 30.5 -9.5t9.5 -26.5q0 -16 -11 -28t-38 -12q-35 0 -66.5 14t-57 42.5t-42.5 72.5l31 -8q-13 -41 -41.5 -67t-77 -41.5t-120.5 -22t-173 -6.5zM320 -21q-60 0 -112.5 9.5t-92.5 31.5t-62.5 58.5t-22.5 90.5q0 27 4.5 55t11.5 55.5t14 52.5l69 -20q-4 -13 -9 -35.5
t-9.5 -46t-4.5 -43.5q0 -42 21.5 -71.5t74 -45t144.5 -15.5l20 -44z" />
    <glyph glyph-name="uni06AC.init" unicode="&#x6ac;" horiz-adv-x="349" 
d="M0 -5l10 76h81q43 0 69 6.5t39 17.5t17.5 25.5t4.5 31.5q0 32 -20 70t-57 78q-33 36 -56.5 60t-39 39t-23.5 24t-8 15q0 12 2.5 28t7 30.5t10.5 20.5q12 13 32.5 29.5t53 37.5t81.5 49t117 64l34 -64q-62 -33 -107 -57.5t-77 -44t-58 -37.5t-51 -38l9 29q37 -39 76 -79
t72 -81.5t53.5 -85.5t20.5 -94q0 -25 -9 -51.5t-32.5 -49t-66 -36t-107.5 -13.5h-78zM155 694q-20 0 -34 14t-14 33q0 20 14 34t34 14t33.5 -14t13.5 -34q0 -19 -13.5 -33t-33.5 -14z" />
    <glyph glyph-name="uni06AC.medi" unicode="&#x6ac;" horiz-adv-x="420" 
d="M0 -5l9 76h67q54 0 85.5 7t45.5 24.5t14 46.5q0 22 -15 49.5t-38 57.5t-49 59.5t-49 54.5t-38 43.5t-15 25.5q0 15 2.5 31t7 30t11.5 20q18 18 49.5 40.5t71 46.5t81.5 47t81 43l34 -65q-39 -22 -79.5 -43.5t-78 -43t-70.5 -42.5t-58 -43l1 18q33 -36 61.5 -66t55.5 -62
t53.5 -71t54.5 -91q25 -46 45.5 -71t42 -35.5t47.5 -10.5q21 0 30.5 -9.5t9.5 -26.5q0 -16 -11.5 -28t-38.5 -12q-33 0 -63 12t-56 40.5t-47 76.5l31 -8q-8 -36 -27.5 -59.5t-47.5 -37t-62.5 -19t-75.5 -5.5h-72zM149 693q-20 0 -34 14t-14 33q0 20 14 34t34 14t33.5 -14
t13.5 -34q0 -19 -13.5 -33t-33.5 -14z" />
    <glyph glyph-name="uni06AC.fina" unicode="&#x6ac;" horiz-adv-x="832" 
d="M320 -21l26 76q97 0 157 7.5t92.5 24t44 43t9.5 64.5l-19 506h76l20 -497q2 -51 18 -80t42 -40.5t56 -11.5q21 0 30.5 -9.5t9.5 -25.5q0 -17 -11.5 -29t-38.5 -12q-47 0 -76 14.5t-44.5 36.5t-20.5 46l26 -1q-20 -31 -50.5 -52.5t-76 -34.5t-111 -19t-159.5 -6zM312 215
l-17 59q39 10 63 18t35 14.5t11 14.5q0 10 -11 19t-24.5 18.5t-24 22.5t-10.5 32q0 17 9.5 35t35 38.5t71.5 42.5l29 -53q-43 -20 -63 -34.5t-20 -26.5q0 -8 10.5 -17.5t24 -21t24.5 -26t11 -34.5q0 -13 -5.5 -25.5t-22 -25t-46.5 -25t-80 -25.5zM320 -21q-60 0 -112.5 9.5
t-92.5 31.5t-62.5 58.5t-22.5 90.5q0 27 4.5 55t11.5 55.5t14 52.5l69 -20q-4 -13 -9 -35.5t-9.5 -46t-4.5 -43.5q0 -42 21.5 -71.5t74 -45t144.5 -15.5l20 -44zM396 631q-20 0 -34 14t-14 33q0 20 14 34t34 14t33.5 -14t13.5 -34q0 -19 -13.5 -33t-33.5 -14z" />
    <glyph glyph-name="uni06AE.init" unicode="&#x6ae;" horiz-adv-x="349" 
d="M0 -5l10 76h81q43 0 69 6.5t39 17.5t17.5 25.5t4.5 31.5q0 32 -20 70t-57 78q-33 36 -56.5 60t-39 39t-23.5 24t-8 15q0 12 2.5 28t7 30.5t10.5 20.5q12 13 32.5 29.5t53 37.5t81.5 49t117 64l34 -64q-62 -33 -107 -57.5t-77 -44t-58 -37.5t-51 -38l9 29q37 -39 76 -79
t72 -81.5t53.5 -85.5t20.5 -94q0 -25 -9 -51.5t-32.5 -49t-66 -36t-107.5 -13.5h-78zM147 -295q-20 0 -34 13.5t-14 32.5q0 20 14 34.5t34 14.5t33.5 -14.5t13.5 -33.5q0 -20 -14 -33.5t-33 -13.5zM82 -185q-20 0 -34 13.5t-14 32.5q0 20 14 34.5t34 14.5q19 0 33 -14.5
t14 -33.5q0 -20 -14 -33.5t-33 -13.5zM212 -185q-20 0 -34 13.5t-14 32.5q0 20 14 34.5t34 14.5t33.5 -14.5t13.5 -33.5q0 -20 -13.5 -33.5t-33.5 -13.5z" />
    <glyph glyph-name="uni06AE.medi" unicode="&#x6ae;" horiz-adv-x="420" 
d="M0 -5l9 76h67q54 0 85.5 7t45.5 24.5t14 46.5q0 22 -15 49.5t-38 57.5t-49 59.5t-49 54.5t-38 43.5t-15 25.5q0 15 2.5 31t7 30t11.5 20q18 18 49.5 40.5t71 46.5t81.5 47t81 43l34 -65q-39 -22 -79.5 -43.5t-78 -43t-70.5 -42.5t-58 -43l1 18q33 -36 61.5 -66t55.5 -62
t53.5 -71t54.5 -91q25 -46 45.5 -71t42 -35.5t47.5 -10.5q21 0 30.5 -9.5t9.5 -26.5q0 -16 -11.5 -28t-38.5 -12q-33 0 -63 12t-56 40.5t-47 76.5l31 -8q-8 -36 -27.5 -59.5t-47.5 -37t-62.5 -19t-75.5 -5.5h-72zM151 -295q-20 0 -34 13.5t-14 32.5q0 20 14 34.5t34 14.5
t33.5 -14.5t13.5 -33.5q0 -20 -14 -33.5t-33 -13.5zM86 -185q-20 0 -34 13.5t-14 32.5q0 20 14 34.5t34 14.5q19 0 33 -14.5t14 -33.5q0 -20 -14 -33.5t-33 -13.5zM216 -185q-20 0 -34 13.5t-14 32.5q0 20 14 34.5t34 14.5t33.5 -14.5t13.5 -33.5q0 -20 -13.5 -33.5
t-33.5 -13.5z" />
    <glyph glyph-name="uni06AE.fina" unicode="&#x6ae;" horiz-adv-x="832" 
d="M320 -21l26 76q97 0 157 7.5t92.5 24t44 43t9.5 64.5l-19 506h76l20 -497q2 -51 18 -80t42 -40.5t56 -11.5q21 0 30.5 -9.5t9.5 -25.5q0 -17 -11.5 -29t-38.5 -12q-47 0 -76 14.5t-44.5 36.5t-20.5 46l26 -1q-20 -31 -50.5 -52.5t-76 -34.5t-111 -19t-159.5 -6zM312 215
l-17 59q39 10 63 18t35 14.5t11 14.5q0 10 -11 19t-24.5 18.5t-24 22.5t-10.5 32q0 17 9.5 35t35 38.5t71.5 42.5l29 -53q-43 -20 -63 -34.5t-20 -26.5q0 -8 10.5 -17.5t24 -21t24.5 -26t11 -34.5q0 -13 -5.5 -25.5t-22 -25t-46.5 -25t-80 -25.5zM320 -21q-60 0 -112.5 9.5
t-92.5 31.5t-62.5 58.5t-22.5 90.5q0 27 4.5 55t11.5 55.5t14 52.5l69 -20q-4 -13 -9 -35.5t-9.5 -46t-4.5 -43.5q0 -42 21.5 -71.5t74 -45t144.5 -15.5l20 -44zM339 -316q-20 0 -34 13.5t-14 32.5q0 20 14 34.5t34 14.5t33.5 -14.5t13.5 -33.5q0 -20 -14 -33.5t-33 -13.5z
M274 -206q-20 0 -34 13.5t-14 32.5q0 20 14 34.5t34 14.5q19 0 33 -14.5t14 -33.5q0 -20 -14 -33.5t-33 -13.5zM404 -206q-20 0 -34 13.5t-14 32.5q0 20 14 34.5t34 14.5t33.5 -14.5t13.5 -33.5q0 -20 -13.5 -33.5t-33.5 -13.5z" />
    <glyph glyph-name="uni06B0.init" unicode="&#x6b0;" horiz-adv-x="345" 
d="M270 467q-33 0 -55.5 23t-22.5 56q0 32 22.5 55t55.5 23t56 -23t23 -55q0 -33 -23 -56t-56 -23zM270 512q15 0 25.5 10t10.5 24t-10.5 24.5t-25.5 10.5t-25 -10.5t-10 -24.5t10 -24t25 -10zM23 584l-36 58q39 25 81 50.5t90 52.5t105 58l33 -60q-57 -30 -104.5 -57.5
t-88.5 -52.5t-80 -49zM0 -5l10 76h81q43 0 69 6.5t39 17.5t17.5 25.5t4.5 31.5q0 32 -20 70t-57 78q-33 36 -56.5 60t-39 39t-23.5 24t-8 15q0 12 2.5 28t7 30.5t10.5 20.5q12 13 32.5 29.5t53 37.5t81.5 49t117 64l34 -64q-62 -33 -107 -57.5t-77 -44t-58 -37.5t-51 -38
l9 29q37 -39 76 -79t72 -81.5t53.5 -85.5t20.5 -94q0 -25 -9 -51.5t-32.5 -49t-66 -36t-107.5 -13.5h-78z" />
    <glyph glyph-name="uni06B0.medi" unicode="&#x6b0;" horiz-adv-x="420" 
d="M278 469q-33 0 -55.5 23t-22.5 56t22.5 55.5t55.5 22.5q32 0 55 -22.5t23 -55.5t-23 -56t-55 -23zM278 514q14 0 25 10t11 24q0 15 -11 25t-25 10q-15 0 -25.5 -10t-10.5 -25q0 -14 10.5 -24t25.5 -10zM23 584l-36 58q39 25 81 50.5t90 52.5t105 58l33 -60
q-57 -30 -104.5 -57.5t-88.5 -52.5t-80 -49zM0 -5l9 76h67q54 0 85.5 7t45.5 24.5t14 46.5q0 22 -15 49.5t-38 57.5t-49 59.5t-49 54.5t-38 43.5t-15 25.5q0 15 2.5 31t7 30t11.5 20q18 18 49.5 40.5t71 46.5t81.5 47t81 43l34 -65q-39 -22 -79.5 -43.5t-78 -43t-70.5 -42.5
t-58 -43l1 18q33 -36 61.5 -66t55.5 -62t53.5 -71t54.5 -91q25 -46 45.5 -71t42 -35.5t47.5 -10.5q21 0 30.5 -9.5t9.5 -26.5q0 -16 -11.5 -28t-38.5 -12q-33 0 -63 12t-56 40.5t-47 76.5l31 -8q-8 -36 -27.5 -59.5t-47.5 -37t-62.5 -19t-75.5 -5.5h-72z" />
    <glyph glyph-name="uni06B0.fina" unicode="&#x6b0;" horiz-adv-x="850" 
d="M712 462q-33 0 -55.5 23t-22.5 56q0 32 22.5 55t55.5 23t55.5 -23t22.5 -55q0 -33 -22.5 -56t-55.5 -23zM712 507q15 0 25.5 10t10.5 24t-10.5 24.5t-25.5 10.5t-25 -10.5t-10 -24.5t10 -24t25 -10zM469 586l-36 59q39 24 81 49.5t90.5 53t104.5 58.5l33 -61
q-57 -30 -104 -57.5t-88.5 -52.5t-80.5 -49zM320 -21l26 76q86 0 146.5 6.5t99 18.5t56.5 28.5t18 37.5q0 23 -14.5 52t-37.5 59t-49 59t-49 54t-37.5 43.5t-14.5 26.5q0 13 2 28t6.5 29t11.5 22q25 27 72 57.5t103.5 62t107.5 58.5l35 -65q-60 -32 -112.5 -62t-97 -58
t-82.5 -57l6 23q28 -28 59 -61.5t62.5 -72t59 -79.5t47.5 -83q17 -34 33 -55.5t32.5 -33.5t33 -17t33.5 -5q21 0 30.5 -9.5t9.5 -26.5q0 -16 -11 -28t-38 -12q-35 0 -66.5 14t-57 42.5t-42.5 72.5l31 -8q-13 -41 -41.5 -67t-77 -41.5t-120.5 -22t-173 -6.5zM320 -21
q-60 0 -112.5 9.5t-92.5 31.5t-62.5 58.5t-22.5 90.5q0 27 4.5 55t11.5 55.5t14 52.5l69 -20q-4 -13 -9 -35.5t-9.5 -46t-4.5 -43.5q0 -42 21.5 -71.5t74 -45t144.5 -15.5l20 -44z" />
    <glyph glyph-name="uni06B2.init" unicode="&#x6b2;" horiz-adv-x="345" 
d="M23 584l-36 58q39 25 81 50.5t90 52.5t105 58l33 -60q-57 -30 -104.5 -57.5t-88.5 -52.5t-80 -49zM0 -5l10 76h81q43 0 69 6.5t39 17.5t17.5 25.5t4.5 31.5q0 32 -20 70t-57 78q-33 36 -56.5 60t-39 39t-23.5 24t-8 15q0 12 2.5 28t7 30.5t10.5 20.5q12 13 32.5 29.5
t53 37.5t81.5 49t117 64l34 -64q-62 -33 -107 -57.5t-77 -44t-58 -37.5t-51 -38l9 29q37 -39 76 -79t72 -81.5t53.5 -85.5t20.5 -94q0 -25 -9 -51.5t-32.5 -49t-66 -36t-107.5 -13.5h-78zM212 -185q-20 0 -34 13.5t-14 32.5q0 20 14 34.5t34 14.5q19 0 33 -14.5t14 -33.5
q0 -20 -14 -33.5t-33 -13.5zM81 -185q-20 0 -34.5 13.5t-14.5 32.5q0 20 14 34.5t35 14.5q19 0 33 -14.5t14 -33.5q0 -20 -14 -33.5t-33 -13.5z" />
    <glyph glyph-name="uni06B2.medi" unicode="&#x6b2;" horiz-adv-x="420" 
d="M23 584l-36 58q39 25 81 50.5t90 52.5t105 58l33 -60q-57 -30 -104.5 -57.5t-88.5 -52.5t-80 -49zM0 -5l9 76h67q54 0 85.5 7t45.5 24.5t14 46.5q0 22 -15 49.5t-38 57.5t-49 59.5t-49 54.5t-38 43.5t-15 25.5q0 15 2.5 31t7 30t11.5 20q18 18 49.5 40.5t71 46.5t81.5 47
t81 43l34 -65q-39 -22 -79.5 -43.5t-78 -43t-70.5 -42.5t-58 -43l1 18q33 -36 61.5 -66t55.5 -62t53.5 -71t54.5 -91q25 -46 45.5 -71t42 -35.5t47.5 -10.5q21 0 30.5 -9.5t9.5 -26.5q0 -16 -11.5 -28t-38.5 -12q-33 0 -63 12t-56 40.5t-47 76.5l31 -8q-8 -36 -27.5 -59.5
t-47.5 -37t-62.5 -19t-75.5 -5.5h-72zM207 -185q-20 0 -34 13.5t-14 32.5q0 20 14 34.5t34 14.5q19 0 33 -14.5t14 -33.5q0 -20 -14 -33.5t-33 -13.5zM76 -185q-20 0 -34.5 13.5t-14.5 32.5q0 20 14 34.5t35 14.5q19 0 33 -14.5t14 -33.5q0 -20 -14 -33.5t-33 -13.5z" />
    <glyph glyph-name="uni06B2.fina" unicode="&#x6b2;" horiz-adv-x="850" 
d="M469 586l-36 59q39 24 81 49.5t90.5 53t104.5 58.5l33 -61q-57 -30 -104 -57.5t-88.5 -52.5t-80.5 -49zM320 -21l26 76q86 0 146.5 6.5t99 18.5t56.5 28.5t18 37.5q0 23 -14.5 52t-37.5 59t-49 59t-49 54t-37.5 43.5t-14.5 26.5q0 13 2 28t6.5 29t11.5 22q25 27 72 57.5
t103.5 62t107.5 58.5l35 -65q-60 -32 -112.5 -62t-97 -58t-82.5 -57l6 23q28 -28 59 -61.5t62.5 -72t59 -79.5t47.5 -83q17 -34 33 -55.5t32.5 -33.5t33 -17t33.5 -5q21 0 30.5 -9.5t9.5 -26.5q0 -16 -11 -28t-38 -12q-35 0 -66.5 14t-57 42.5t-42.5 72.5l31 -8
q-13 -41 -41.5 -67t-77 -41.5t-120.5 -22t-173 -6.5zM320 -21q-60 0 -112.5 9.5t-92.5 31.5t-62.5 58.5t-22.5 90.5q0 27 4.5 55t11.5 55.5t14 52.5l69 -20q-4 -13 -9 -35.5t-9.5 -46t-4.5 -43.5q0 -42 21.5 -71.5t74 -45t144.5 -15.5l20 -44zM428 -206q-20 0 -34 13.5
t-14 32.5q0 20 14 34.5t34 14.5q19 0 33 -14.5t14 -33.5q0 -20 -14 -33.5t-33 -13.5zM297 -206q-20 0 -34.5 13.5t-14.5 32.5q0 20 14 34.5t35 14.5q19 0 33 -14.5t14 -33.5q0 -20 -14 -33.5t-33 -13.5z" />
    <glyph glyph-name="uni06B4.init" unicode="&#x6b4;" horiz-adv-x="345" 
d="M58 881q-20 0 -34 14t-14 33q0 20 14 34.5t34 14.5q19 0 33 -14.5t14 -34.5q0 -19 -14 -33t-33 -14zM48 756q-20 0 -34 14t-14 33q0 20 14 34.5t34 14.5q19 0 33 -14.5t14 -34.5q0 -19 -14 -33t-33 -14zM163 807q-20 0 -34 14t-14 33q0 20 14 34.5t34 14.5q19 0 33 -14.5
t14 -34.5q0 -19 -14 -33t-33 -14zM23 584l-36 58q39 25 81 50.5t90 52.5t105 58l33 -60q-57 -30 -104.5 -57.5t-88.5 -52.5t-80 -49zM0 -5l10 76h81q43 0 69 6.5t39 17.5t17.5 25.5t4.5 31.5q0 32 -20 70t-57 78q-33 36 -56.5 60t-39 39t-23.5 24t-8 15q0 12 2.5 28t7 30.5
t10.5 20.5q12 13 32.5 29.5t53 37.5t81.5 49t117 64l34 -64q-62 -33 -107 -57.5t-77 -44t-58 -37.5t-51 -38l9 29q37 -39 76 -79t72 -81.5t53.5 -85.5t20.5 -94q0 -25 -9 -51.5t-32.5 -49t-66 -36t-107.5 -13.5h-78z" />
    <glyph glyph-name="uni06B4.medi" unicode="&#x6b4;" horiz-adv-x="420" 
d="M57 881q-21 0 -35 14t-14 33q0 20 14 34.5t35 14.5q19 0 33 -14.5t14 -34.5q0 -19 -14 -33t-33 -14zM47 756q-21 0 -35 14t-14 33q0 20 14 34.5t35 14.5q19 0 33 -14.5t14 -34.5q0 -19 -14 -33t-33 -14zM162 807q-21 0 -35 14t-14 33q0 20 14 34.5t35 14.5q19 0 33 -14.5
t14 -34.5q0 -19 -14 -33t-33 -14zM23 584l-36 58q39 25 81 50.5t90 52.5t105 58l33 -60q-57 -30 -104.5 -57.5t-88.5 -52.5t-80 -49zM0 -5l9 76h67q54 0 85.5 7t45.5 24.5t14 46.5q0 22 -15 49.5t-38 57.5t-49 59.5t-49 54.5t-38 43.5t-15 25.5q0 15 2.5 31t7 30t11.5 20
q18 18 49.5 40.5t71 46.5t81.5 47t81 43l34 -65q-39 -22 -79.5 -43.5t-78 -43t-70.5 -42.5t-58 -43l1 18q33 -36 61.5 -66t55.5 -62t53.5 -71t54.5 -91q25 -46 45.5 -71t42 -35.5t47.5 -10.5q21 0 30.5 -9.5t9.5 -26.5q0 -16 -11.5 -28t-38.5 -12q-33 0 -63 12t-56 40.5
t-47 76.5l31 -8q-8 -36 -27.5 -59.5t-47.5 -37t-62.5 -19t-75.5 -5.5h-72z" />
    <glyph glyph-name="uni06B4.fina" unicode="&#x6b4;" horiz-adv-x="850" 
d="M491 882q-21 0 -35 13.5t-14 33.5t14 34t35 14q19 0 32.5 -14t13.5 -34t-13.5 -33.5t-32.5 -13.5zM481 757q-21 0 -35 13.5t-14 33.5t14 34t35 14q19 0 32.5 -14t13.5 -34t-13.5 -33.5t-32.5 -13.5zM596 808q-21 0 -35 13.5t-14 33.5t14 34t35 14q19 0 32.5 -14t13.5 -34
t-13.5 -33.5t-32.5 -13.5zM469 586l-36 59q39 24 81 49.5t90.5 53t104.5 58.5l33 -61q-57 -30 -104 -57.5t-88.5 -52.5t-80.5 -49zM320 -21l26 76q86 0 146.5 6.5t99 18.5t56.5 28.5t18 37.5q0 23 -14.5 52t-37.5 59t-49 59t-49 54t-37.5 43.5t-14.5 26.5q0 13 2 28t6.5 29
t11.5 22q25 27 72 57.5t103.5 62t107.5 58.5l35 -65q-60 -32 -112.5 -62t-97 -58t-82.5 -57l6 23q28 -28 59 -61.5t62.5 -72t59 -79.5t47.5 -83q17 -34 33 -55.5t32.5 -33.5t33 -17t33.5 -5q21 0 30.5 -9.5t9.5 -26.5q0 -16 -11 -28t-38 -12q-35 0 -66.5 14t-57 42.5
t-42.5 72.5l31 -8q-13 -41 -41.5 -67t-77 -41.5t-120.5 -22t-173 -6.5zM320 -21q-60 0 -112.5 9.5t-92.5 31.5t-62.5 58.5t-22.5 90.5q0 27 4.5 55t11.5 55.5t14 52.5l69 -20q-4 -13 -9 -35.5t-9.5 -46t-4.5 -43.5q0 -42 21.5 -71.5t74 -45t144.5 -15.5l20 -44z" />
    <glyph glyph-name="uni06B5.init" unicode="&#x6b5;" horiz-adv-x="230" 
d="M0 -5l9 76q42 0 60 12.5t21.5 42t1.5 79.5l-19 495h76l20 -486q2 -53 -3 -94t-23 -69t-52.5 -42t-90.5 -14zM83 832q-6 14 -16 38t-21.5 52t-22.5 52.5t-18 40.5l42 20q6 -9 15.5 -30t20.5 -46t20.5 -48t16.5 -37l18 -37zM138 837l-41 15q6 17 17 44t23 56.5t22 52
t13 30.5l42 -18q-4 -9 -14.5 -32.5t-22 -52t-22.5 -54.5t-17 -41z" />
    <glyph glyph-name="uni06B5.medi" unicode="&#x6b5;" horiz-adv-x="250" 
d="M0 -5l10 76q37 0 53.5 12.5t20 42t1.5 79.5l-17 495h76l18 -493q2 -51 13 -81t32.5 -42.5t52.5 -12.5q21 0 30.5 -9.5t9.5 -26.5q0 -16 -11.5 -28t-38.5 -12q-32 0 -58 11.5t-42.5 33t-20.5 49.5l25 -2q-10 -30 -30.5 -50.5t-51 -31t-72.5 -10.5zM80 832q-6 14 -16 38
t-21.5 52t-22.5 52.5t-18 40.5l42 20q6 -9 15.5 -30t20.5 -46t20.5 -48t16.5 -37l18 -37zM135 837l-41 15q6 17 17 44t23 56.5t22 52t13 30.5l42 -18q-4 -9 -14.5 -32.5t-22 -52t-22.5 -54.5t-17 -41z" />
    <glyph glyph-name="uni06B5.fina" unicode="&#x6b5;" horiz-adv-x="652" 
d="M43 -10q0 18 3.5 45.5t15 64t33.5 80.5l64 -31q-13 -30 -22.5 -57t-14 -49.5t-4.5 -43.5q0 -51 22.5 -85.5t59.5 -52t81 -17.5q82 0 126.5 34.5t61 99.5t12.5 158l-19 564h78l15 -499q2 -51 17.5 -79.5t39.5 -39.5t50 -11q21 0 30.5 -9.5t9.5 -26.5q0 -16 -11.5 -28
t-38.5 -12q-24 0 -44 6.5t-34 19.5t-23 31t-13 40l19 -32q-4 -58 -20.5 -110.5t-48.5 -93t-84 -64t-128 -23.5q-46 0 -88.5 14.5t-75 42t-51 69t-18.5 95.5zM247 589q-6 14 -16 38t-21.5 52t-22.5 52.5t-18 40.5l42 20q6 -9 15.5 -30t20.5 -46t20.5 -48t16.5 -37l18 -37z
M302 594l-41 15q6 17 17 44t23 56.5t22 52t13 30.5l42 -18q-4 -9 -14.5 -32.5t-22 -52t-22.5 -54.5t-17 -41z" />
    <glyph glyph-name="uni06B6.init" unicode="&#x6b6;" horiz-adv-x="230" 
d="M0 -5l9 76q42 0 60 12.5t21.5 42t1.5 79.5l-19 495h76l20 -486q2 -53 -3 -94t-23 -69t-52.5 -42t-90.5 -14zM109 803q-20 0 -34 14t-14 33q0 20 14 34t34 14t33.5 -14t13.5 -34q0 -19 -13.5 -33t-33.5 -14z" />
    <glyph glyph-name="uni06B6.medi" unicode="&#x6b6;" horiz-adv-x="250" 
d="M0 -5l10 76q37 0 53.5 12.5t20 42t1.5 79.5l-17 495h76l18 -493q2 -51 13 -81t32.5 -42.5t52.5 -12.5q21 0 30.5 -9.5t9.5 -26.5q0 -16 -11.5 -28t-38.5 -12q-32 0 -58 11.5t-42.5 33t-20.5 49.5l25 -2q-10 -30 -30.5 -50.5t-51 -31t-72.5 -10.5zM106 803q-20 0 -34 14
t-14 33q0 20 14 34t34 14t33.5 -14t13.5 -34q0 -19 -13.5 -33t-33.5 -14z" />
    <glyph glyph-name="uni06B6.fina" unicode="&#x6b6;" horiz-adv-x="652" 
d="M43 -10q0 18 3.5 45.5t15 64t33.5 80.5l64 -31q-13 -30 -22.5 -57t-14 -49.5t-4.5 -43.5q0 -51 22.5 -85.5t59.5 -52t81 -17.5q82 0 126.5 34.5t61 99.5t12.5 158l-19 564h78l15 -499q2 -51 17.5 -79.5t39.5 -39.5t50 -11q21 0 30.5 -9.5t9.5 -26.5q0 -16 -11.5 -28
t-38.5 -12q-24 0 -44 6.5t-34 19.5t-23 31t-13 40l19 -32q-4 -58 -20.5 -110.5t-48.5 -93t-84 -64t-128 -23.5q-46 0 -88.5 14.5t-75 42t-51 69t-18.5 95.5zM273 560q-20 0 -34 14t-14 33q0 20 14 34t34 14t33.5 -14t13.5 -34q0 -19 -13.5 -33t-33.5 -14z" />
    <glyph glyph-name="uni06B7.init" unicode="&#x6b7;" horiz-adv-x="230" 
d="M0 -5l9 76q42 0 60 12.5t21.5 42t1.5 79.5l-19 495h76l20 -486q2 -53 -3 -94t-23 -69t-52.5 -42t-90.5 -14zM112 913q-20 0 -34.5 14t-14.5 33q0 20 14.5 34t34.5 14q19 0 33 -14t14 -34q0 -19 -14 -33t-33 -14zM47 803q-20 0 -34.5 14t-14.5 33q0 20 14 34t35 14
q19 0 33 -14t14 -34q0 -19 -14 -33t-33 -14zM177 803q-20 0 -34 14t-14 33q0 20 14 34t34 14q19 0 33 -14t14 -34q0 -19 -14 -33t-33 -14z" />
    </font>
</defs>
</svg>
