<?xml version="1.0" standalone="no"?>
<!DOCTYPE svg PUBLIC "-//W3C//DTD SVG 1.1//EN" "http://www.w3.org/Graphics/SVG/1.1/DTD/svg11.dtd" >
<svg xmlns="http://www.w3.org/2000/svg" xmlns:xlink="http://www.w3.org/1999/xlink" version="1.1">
<metadata>
Created by FontForge 20170731 at Thu Nov 12 05:28:44 2020
 By Aleksey,,,
Copyright 2015-2020 Google LLC. All Rights Reserved.
</metadata>
<defs>
<font id="NotoSansArabicCondensed-SemiBold" horiz-adv-x="0" >
  <font-face 
    font-family="Noto Sans Arabic Condensed SemiBold"
    font-weight="600"
    font-stretch="condensed"
    units-per-em="1000"
    panose-1="0 0 0 0 0 0 0 0 0 0"
    ascent="800"
    descent="-200"
    bbox="-220 -600 2178 1111"
    underline-thickness="50"
    underline-position="-175"
    unicode-range="U+000D-FEFC"
  />
<missing-glyph horiz-adv-x="600" 
d="M94 0v714h411v-714h-411zM145 51h309v612h-309v-612z" />
    <glyph glyph-name="uniFC43" unicode="&#xfedf;&#xfef0;" horiz-adv-x="950" arabic-form="isolated" 
d="M691 -5l9 111q39 0 56 11t21 40t2 82l-19 484h114l20 -488q2 -56 -4 -100.5t-26.5 -75.5t-62 -47.5t-110.5 -16.5zM35 5q0 25 4.5 57t16 71.5t32.5 84.5l99 -38q-13 -33 -22 -60.5t-13 -51t-4 -44.5q0 -38 14.5 -65.5t40 -44.5t59 -25.5t72.5 -8.5q54 0 95 10t68.5 27
t41.5 36.5t14 36.5q0 9 -7.5 18t-23.5 18.5t-41.5 20t-63.5 21.5l29 108q50 -19 88.5 -32.5t69 -21.5t54.5 -12t44 -4q28 0 41 -15.5t13 -38.5q0 -25 -16 -41t-48 -16h-11h-12h-11q1 -7 2.5 -14t1.5 -15q0 -32 -21 -66.5t-62.5 -64t-104 -47.5t-146.5 -18q-93 0 -158.5 27
t-100 79.5t-34.5 128.5z" />
    <glyph glyph-name="uniFC86" unicode="&#xfee0;&#xfef0;" horiz-adv-x="974" arabic-form="final" 
d="M691 -5l10 111q35 0 51 11.5t20.5 40.5t2.5 81l-17 484h114l18 -482q2 -53 11 -83t29.5 -41t54.5 -11q28 0 41 -15.5t13 -38.5q0 -25 -16 -41t-48 -16q-34 0 -65.5 11.5t-53.5 36.5t-28 66h38q-14 -41 -38 -66t-57.5 -36.5t-79.5 -11.5zM35 5q0 25 4.5 57t16 71.5
t32.5 84.5l99 -38q-13 -33 -22 -60.5t-13 -51t-4 -44.5q0 -38 14.5 -65.5t40 -44.5t59 -25.5t72.5 -8.5q54 0 95 10t68.5 27t41.5 36.5t14 36.5q0 9 -7.5 18t-23.5 18.5t-41.5 20t-63.5 21.5l29 108q50 -19 88.5 -32.5t69 -21.5t54.5 -12t44 -4q28 0 41 -15.5t13 -38.5
q0 -25 -16 -41t-48 -16h-11h-12h-11q1 -7 2.5 -14t1.5 -15q0 -32 -21 -66.5t-62.5 -64t-104 -47.5t-146.5 -18q-93 0 -158.5 27t-100 79.5t-34.5 128.5z" />
    <glyph glyph-name="uniFD82" unicode="&#xfee0;&#xfea4;&#xfef0;" horiz-adv-x="1521" arabic-form="final" 
d="M1238 -5l10 111q35 0 51 11.5t20.5 40.5t2.5 81l-17 484h114l18 -482q2 -53 11 -83t29.5 -41t54.5 -11q28 0 41 -15.5t13 -38.5q0 -25 -16 -41t-48 -16q-34 0 -65.5 11.5t-53.5 36.5t-28 66h38q-14 -41 -38 -66t-57.5 -36.5t-79.5 -11.5zM1238 -5q-33 0 -62 7t-54 23.5
t-44.5 46.5t-32.5 76l69 47q14 -36 32 -55.5t43 -26.5t59 -7q29 0 42 -15.5t13 -38.5q0 -25 -16 -41t-49 -16zM691 -5l9 111q47 0 90.5 7.5t85 22.5t82.5 36.5t83 49.5q-32 21 -63.5 36t-63 23.5t-67.5 8.5q-16 0 -30 -1t-27.5 -3.5t-29.5 -5.5l-20 107q25 8 51.5 12t51.5 4
q51 0 90.5 -12.5t72 -30t59.5 -35.5t52.5 -30t51.5 -12h23l12 -103q-35 -2 -66 -16.5t-62.5 -35.5t-67.5 -44t-81 -43t-102.5 -33t-133.5 -13zM35 5q0 25 4.5 57t16 71.5t32.5 84.5l99 -38q-13 -33 -22 -60.5t-13 -51t-4 -44.5q0 -38 14.5 -65.5t40 -44.5t59 -25.5
t72.5 -8.5q54 0 95 10t68.5 27t41.5 36.5t14 36.5q0 9 -7.5 18t-23.5 18.5t-41.5 20t-63.5 21.5l29 108q50 -19 88.5 -32.5t69 -21.5t54.5 -12t44 -4q28 0 41 -15.5t13 -38.5q0 -25 -16 -41t-48 -16h-11h-12h-11q1 -7 2.5 -14t1.5 -15q0 -32 -21 -66.5t-62.5 -64t-104 -47.5
t-146.5 -18q-93 0 -158.5 27t-100 79.5t-34.5 128.5z" />
    <glyph glyph-name="uniFDF2" unicode="&#x627;&#xfedf;&#xfee0;&#xfeea;" horiz-adv-x="1267" arabic-form="isolated" 
d="M477 -5q-41 0 -75 9.5t-59 31t-40 57.5q-51 -9 -100.5 -5.5t-90 21t-64.5 51t-24 83.5q0 61 32.5 108.5t88.5 81.5t126 52l-3 78h112l16 -350q3 -43 11.5 -66.5t28 -32t51.5 -8.5q34 0 49.5 11t19.5 40t2 82l-12 368h114l13 -366q3 -54 12 -84t29 -41t53 -11q37 0 54 11
t21 40.5t2 82.5l-19 484h113l20 -488q3 -56 -3 -100.5t-26.5 -75.5t-62 -47.5t-109.5 -16.5q-26 0 -51 7t-45.5 22t-33.5 38q-23 -34 -60 -50.5t-90 -16.5zM284 198l-8 173q-42 -9 -73.5 -27t-49 -41t-17.5 -47q0 -20 13.5 -33.5t35.5 -20t48.5 -7.5t50.5 3zM1094 0l-21 723
h113l21 -723h-113zM512 668q-39 0 -51.5 26t-12.5 57q0 11 1.5 22.5t4.5 26.5l54 13q-3 -16 -4.5 -29.5t-1.5 -23.5q0 -17 5 -25t15 -8q13 0 21 14.5t9 56.5v29l49 16v-57q0 -14 5 -22.5t18 -8.5q15 0 20 9.5t5 25.5t-4 32.5t-10 32.5l49 13q9 -18 15 -41t6 -42
q0 -34 -17.5 -60t-57.5 -26q-25 0 -44 16t-19 42l21 -9q0 -35 -22.5 -57.5t-53.5 -22.5zM541 897l-6 162h67l6 -162h-67z" />
    <glyph glyph-name="uniFEF5" unicode="&#xfedf;&#xfe82;" horiz-adv-x="694" arabic-form="isolated" 
d="M360 536q0 29 -3 61t-8 62t-9 52l114 17q4 -20 7.5 -53t6.5 -68t3 -63q0 -46 -8 -89t-23 -83t-37 -78l-17 -28q-25 -40 -58.5 -78.5t-74.5 -75.5h72q34 0 52.5 6.5t25 17t6.5 23.5q0 23 -29 60.5t-81 85t-119 100.5t-144 108l61 90q99 -71 170.5 -130t120.5 -107
t77.5 -88t41 -73.5t12.5 -62.5q0 -26 -8.5 -51.5t-27.5 -46t-52 -32.5t-82 -12h-240v114q90 74 145 141.5t80.5 136t25.5 144.5zM194 663q-28 0 -51.5 9.5t-42.5 19t-35 9.5q-17 0 -31 -8.5t-30 -23.5l-40 39q24 31 49 46.5t52 15.5q24 0 44 -9.5t40.5 -19t44.5 -9.5
q15 0 29 5.5t33 16.5l31 -48q-33 -28 -55.5 -35.5t-37.5 -7.5z" />
    <glyph glyph-name="uniFEF6" unicode="&#xfee0;&#xfe82;" horiz-adv-x="610" arabic-form="final" 
d="M611 -5q-54 0 -93 10.5t-64 32t-38 55t-15 80.5l-19 555h112l22 -502q2 -50 9.5 -75.5t29 -35t62.5 -9.5q31 0 44.5 -15t13.5 -36q0 -25 -16 -42.5t-48 -17.5zM151 -5q-30 0 -57.5 4.5t-38.5 6.5l16 117q67 -9 126 -3t104 33.5t70.5 82t25.5 141.5l49 -143
q-11 -63 -34.5 -105.5t-56 -69t-68.5 -40.5t-71 -19t-65 -5zM338 132q-14 30 -40 70t-62.5 89t-84 103t-106.5 110l76 81q74 -79 124.5 -137t82.5 -101t52 -76t35 -61zM203 663q-28 0 -51.5 9.5t-42.5 19t-35 9.5q-17 0 -31 -8.5t-30 -23.5l-40 39q24 31 49 46.5t52 15.5
q24 0 44 -9.5t40.5 -19t44.5 -9.5q15 0 29 5.5t33 16.5l31 -48q-33 -28 -55.5 -35.5t-37.5 -7.5z" />
    <glyph glyph-name="uniFEF7" unicode="&#xfedf;&#xfe84;" horiz-adv-x="604" arabic-form="isolated" 
d="M360 536q0 29 -3 61t-8 62t-9 52l114 17q4 -20 7.5 -53t6.5 -68t3 -63q0 -46 -8 -89t-23 -83t-37 -78l-17 -28q-25 -40 -58.5 -78.5t-74.5 -75.5h72q34 0 52.5 6.5t25 17t6.5 23.5q0 23 -29 60.5t-81 85t-119 100.5t-144 108l61 90q99 -71 170.5 -130t120.5 -107
t77.5 -88t41 -73.5t12.5 -62.5q0 -26 -8.5 -51.5t-27.5 -46t-52 -32.5t-82 -12h-240v114q90 74 145 141.5t80.5 136t25.5 144.5zM31 653l-13 56q29 6 44.5 9.5t33.5 8.5l-8 -21q-24 8 -45.5 31t-21.5 57q0 28 13.5 47t35 29t47.5 10q11 0 24 -2t23 -6l-7 -52q-10 2 -19 3.5
t-18 1.5q-19 0 -29.5 -9t-10.5 -23q0 -17 11.5 -30.5t27 -20.5t25.5 -7l-41 -6q25 7 46 13.5t40 13.5l16 -53q-22 -8 -52 -17.5t-61.5 -17.5t-60.5 -15z" />
    <glyph glyph-name="uniFEF8" unicode="&#xfee0;&#xfe84;" horiz-adv-x="617" arabic-form="final" 
d="M602 -5q-54 0 -93 10.5t-64 32t-38 55t-15 80.5l-19 555h112l22 -502q2 -50 9.5 -75.5t29 -35t62.5 -9.5q31 0 44.5 -15t13.5 -36q0 -25 -16 -42.5t-48 -17.5zM142 -5q-30 0 -57.5 4.5t-38.5 6.5l16 117q67 -9 126 -3t104 33.5t70.5 82t25.5 141.5l49 -143
q-11 -63 -34.5 -105.5t-56 -69t-68.5 -40.5t-71 -19t-65 -5zM329 132q-14 30 -40 70t-62.5 89t-84 103t-106.5 110l76 81q74 -79 124.5 -137t82.5 -101t52 -76t35 -61zM49 653l-13 56q29 6 44.5 9.5t33.5 8.5l-8 -21q-24 8 -45.5 31t-21.5 57q0 28 13.5 47t35 29t47.5 10
q11 0 24 -2t23 -6l-7 -52q-10 2 -19 3.5t-18 1.5q-19 0 -29.5 -9t-10.5 -23q0 -17 11.5 -30.5t27 -20.5t25.5 -7l-41 -6q25 7 46 13.5t40 13.5l16 -53q-22 -8 -52 -17.5t-61.5 -17.5t-60.5 -15z" />
    <glyph glyph-name="uniFEF9" unicode="&#xfedf;&#xfe88;" horiz-adv-x="579" arabic-form="isolated" 
d="M360 536q0 29 -3 61t-8 62t-9 52l114 17q4 -20 7.5 -53t6.5 -68t3 -63q0 -46 -8 -89t-23 -83t-37 -78l-17 -28q-25 -40 -58.5 -78.5t-74.5 -75.5h72q34 0 52.5 6.5t25 17t6.5 23.5q0 23 -29 60.5t-81 85t-119 100.5t-144 108l61 90q99 -71 170.5 -130t120.5 -107
t77.5 -88t41 -73.5t12.5 -62.5q0 -26 -8.5 -51.5t-27.5 -46t-52 -32.5t-82 -12h-240v114q90 74 145 141.5t80.5 136t25.5 144.5zM96 -299l-13 56q29 6 44.5 9.5t33.5 8.5l-8 -21q-24 8 -45.5 31t-21.5 57q0 28 13.5 47t35 29t47.5 10q11 0 24 -2t23 -6l-7 -52q-10 2 -19 3.5
t-18 1.5q-19 0 -29.5 -9t-10.5 -23q0 -17 11.5 -30.5t27 -20.5t25.5 -7l-41 -6q25 7 46 13.5t40 13.5l16 -53q-22 -8 -52 -17.5t-61.5 -17.5t-60.5 -15z" />
    <glyph glyph-name="uniFEFA" unicode="&#xfee0;&#xfe88;" horiz-adv-x="601" arabic-form="final" 
d="M602 -5q-54 0 -93 10.5t-64 32t-38 55t-15 80.5l-19 555h112l22 -502q2 -50 9.5 -75.5t29 -35t62.5 -9.5q31 0 44.5 -15t13.5 -36q0 -25 -16 -42.5t-48 -17.5zM142 -5q-30 0 -57.5 4.5t-38.5 6.5l16 117q67 -9 126 -3t104 33.5t70.5 82t25.5 141.5l49 -143
q-11 -63 -34.5 -105.5t-56 -69t-68.5 -40.5t-71 -19t-65 -5zM329 132q-14 30 -40 70t-62.5 89t-84 103t-106.5 110l76 81q74 -79 124.5 -137t82.5 -101t52 -76t35 -61zM96 -299l-13 56q29 6 44.5 9.5t33.5 8.5l-8 -21q-24 8 -45.5 31t-21.5 57q0 28 13.5 47t35 29t47.5 10
q11 0 24 -2t23 -6l-7 -52q-10 2 -19 3.5t-18 1.5q-19 0 -29.5 -9t-10.5 -23q0 -17 11.5 -30.5t27 -20.5t25.5 -7l-41 -6q25 7 46 13.5t40 13.5l16 -53q-22 -8 -52 -17.5t-61.5 -17.5t-60.5 -15z" />
    <glyph glyph-name="uniFEFB" unicode="&#xfedf;&#xfe8e;" horiz-adv-x="579" arabic-form="isolated" 
d="M360 536q0 29 -3 61t-8 62t-9 52l114 17q4 -20 7.5 -53t6.5 -68t3 -63q0 -46 -8 -89t-23 -83t-37 -78l-17 -28q-25 -40 -58.5 -78.5t-74.5 -75.5h72q34 0 52.5 6.5t25 17t6.5 23.5q0 23 -29 60.5t-81 85t-119 100.5t-144 108l61 90q99 -71 170.5 -130t120.5 -107
t77.5 -88t41 -73.5t12.5 -62.5q0 -26 -8.5 -51.5t-27.5 -46t-52 -32.5t-82 -12h-240v114q90 74 145 141.5t80.5 136t25.5 144.5z" />
    <glyph glyph-name="uniFEFC" unicode="&#xfee0;&#xfe8e;" horiz-adv-x="601" arabic-form="final" 
d="M602 -5q-54 0 -93 10.5t-64 32t-38 55t-15 80.5l-19 555h112l22 -502q2 -50 9.5 -75.5t29 -35t62.5 -9.5q31 0 44.5 -15t13.5 -36q0 -25 -16 -42.5t-48 -17.5zM142 -5q-30 0 -57.5 4.5t-38.5 6.5l16 117q67 -9 126 -3t104 33.5t70.5 82t25.5 141.5l49 -143
q-11 -63 -34.5 -105.5t-56 -69t-68.5 -40.5t-71 -19t-65 -5zM329 132q-14 30 -40 70t-62.5 89t-84 103t-106.5 110l76 81q74 -79 124.5 -137t82.5 -101t52 -76t35 -61z" />
    <glyph glyph-name="lam_alefMaksura_meemar" unicode="&#xfedf;&#xfbe9;&#xfee2;" horiz-adv-x="1080" 
d="M821 -5l9 111q39 0 56 11t21 40t2 82l-19 484h114l20 -488q2 -56 -4 -100.5t-26.5 -75.5t-62 -47.5t-110.5 -16.5zM559 -5l10 111q29 0 49.5 7t31.5 25.5t11 52.5q0 28 -7.5 66.5t-19.5 79.5t-25 78l108 33q12 -33 24 -77t20 -90t8 -89q0 -46 -11.5 -79t-31.5 -56
t-46.5 -36.5t-57.5 -19.5t-63 -6zM79 -391q-22 80 -37 153.5t-22 130.5t-7 88q0 86 23.5 154t60.5 118t80 82.5t84 48.5t70 16q32 0 52.5 -16.5t37.5 -51t37 -88.5q22 -54 39 -84.5t34 -42t38 -11.5q28 0 41.5 -15.5t13.5 -38.5q0 -24 -16 -40.5t-49 -16.5q-38 0 -69 18
t-54 49l27 15q-8 -28 -24.5 -49t-40 -32t-54.5 -11q-23 0 -50 6t-55.5 23t-57 48t-55.5 79l28 -1q-19 -39 -26.5 -79.5t-7.5 -78.5q0 -30 5.5 -72.5t15 -90t20.5 -94t22 -85.5zM347 93q17 0 27.5 6.5t13.5 19.5t-3 30q-16 41 -26.5 68t-18.5 42.5t-14.5 22t-14.5 6.5
q-11 0 -28 -9t-34.5 -22.5t-32 -29t-21.5 -28.5l-5 28q21 -41 48 -71.5t55 -46.5t54 -16z" />
    <glyph glyph-name="lam_alefWaslaar" unicode="&#xfedf;&#xfb51;" horiz-adv-x="531" 
d="M136 675q-20 0 -47.5 2t-52 5t-36.5 5l6 55q13 -1 36 -4t48 -5t46 -2q51 0 66.5 12t15.5 27q0 17 -10 25t-23 8t-27 -9t-27 -26.5t-26 -42.5l-61 1q12 30 31.5 60.5t48 52t64.5 21.5q35 0 61 -22t26 -64q0 -25 -11.5 -47.5t-41.5 -37t-86 -14.5zM360 536q0 29 -3 61
t-8 62t-9 52l114 17q4 -20 8 -53t6.5 -68t2.5 -63q0 -46 -8 -89t-23 -83t-37 -78l-17 -28q-25 -40 -58.5 -78.5t-74.5 -75.5h72q35 0 53 6.5t24.5 16.5t6.5 24q0 23 -29 60.5t-81 85t-119 100.5t-144 108l61 90q99 -71 170.5 -130t120.5 -107t77.5 -88t41 -73.5t12.5 -62.5
q0 -26 -8.5 -51.5t-27.5 -46t-52 -32.5t-82 -12h-240v114q90 74 145 141.5t80.5 136t25.5 144.5z" />
    <glyph glyph-name="lam_alefWaslaar.fina" unicode="&#xfee0;&#xfb51;" horiz-adv-x="678" 
d="M136 675q-20 0 -47.5 2t-52 5t-36.5 5l6 55q14 -2 36.5 -4.5t48 -4.5t45.5 -2q51 0 66.5 11.5t15.5 27.5q0 17 -10 25t-23 8t-27 -9t-27.5 -26.5t-25.5 -42.5l-61 1q12 30 31.5 60.5t47.5 52t65 21.5q35 0 61 -22t26 -64q0 -25 -12 -47.5t-41.5 -37t-85.5 -14.5zM602 -5
q-54 0 -93 10.5t-64 32t-38 55t-15 80.5l-19 555h112l22 -502q2 -50 9.5 -75.5t29 -35t62.5 -9.5q31 0 44.5 -15t13.5 -36q0 -25 -16 -42.5t-48 -17.5zM142 -5q-30 0 -57.5 4.5t-38.5 6.5l16 117q67 -9 126 -3t104 33.5t70.5 82t25.5 141.5l49 -143q-11 -63 -34.5 -105.5
t-56 -69t-68.5 -40.5t-71 -19t-65 -5zM329 132q-14 30 -40 70t-62.5 89t-84 103t-106.5 110l76 81q74 -79 124.5 -137t82.5 -101t52 -76t35 -61z" />
    <glyph glyph-name="uni0620.init" unicode="&#x620;" horiz-adv-x="313" 
d="M0 -5l10 111q53 0 83 6.5t43 24.5t13 53q0 29 -7.5 67.5t-19.5 79.5t-25 78l107 33q13 -33 25 -77t20.5 -89t8.5 -84q0 -61 -18.5 -100.5t-52.5 -62t-81.5 -31.5t-105.5 -9zM158 -100q-36 0 -60 24.5t-24 59.5t24 60t60 25q35 0 59.5 -25t24.5 -60t-24.5 -59.5
t-59.5 -24.5zM158 -48q14 0 24 9t10 23q0 15 -10 24t-24 9t-24 -9.5t-10 -23.5t10 -23t24 -9z" />
    <glyph glyph-name="uni0620.medi" unicode="&#x620;" horiz-adv-x="366" 
d="M0 -5l10 111q37 0 60.5 7.5t37.5 29.5t24 65t21 113l107 -19q-3 -17 -7 -37.5t-7 -41.5t-3 -38q0 -18 5.5 -32.5t19.5 -25t40.5 -16t67.5 -5.5q29 0 42 -15.5t13 -37.5q0 -26 -16 -42t-49 -16q-50 0 -85 7.5t-57 23.5t-34.5 40t-15.5 57l39 -1q-17 -42 -39.5 -67.5
t-50 -38t-58.5 -17t-65 -4.5zM116 -107q-36 0 -60.5 25t-24.5 59q0 36 24.5 60.5t60.5 24.5q35 0 59.5 -25t24.5 -60t-24.5 -59.5t-59.5 -24.5zM116 -55q14 0 23.5 9t9.5 23q0 15 -9.5 24t-24.5 9q-14 0 -23.5 -9.5t-9.5 -23.5q0 -13 10 -22.5t24 -9.5z" />
    <glyph glyph-name="uni0620.fina" unicode="&#x620;" horiz-adv-x="691" 
d="M321 -348q-36 0 -60 25t-24 60t24 59.5t60 24.5q35 0 59.5 -24.5t24.5 -59.5t-24.5 -60t-59.5 -25zM321 -295q14 0 24 9t10 23t-10 23.5t-24 9.5t-24 -9.5t-10 -23.5t10 -23t24 -9zM35 5q0 25 4.5 57t16 71.5t32.5 84.5l99 -38q-13 -33 -22 -60.5t-13 -51t-4 -44.5
q0 -38 14.5 -65.5t40 -44.5t59 -25.5t72.5 -8.5q54 0 95 10t68.5 27t41.5 36.5t14 36.5q0 9 -7.5 18t-23.5 18.5t-41.5 20t-63.5 21.5l29 108q50 -19 88.5 -32.5t69 -21.5t54.5 -12t44 -4q28 0 41 -15.5t13 -38.5q0 -25 -16 -41t-48 -16h-11h-12h-11q1 -7 2.5 -14t1.5 -15
q0 -32 -21 -66.5t-62.5 -64t-104 -47.5t-146.5 -18q-93 0 -158.5 27t-100 79.5t-34.5 128.5z" />
    <glyph glyph-name="uni063B.init" unicode="&#x63b;" horiz-adv-x="386" 
d="M223 719q-22 0 -36.5 14.5t-14.5 34.5q0 21 14.5 36.5t36.5 15.5q21 0 35 -15.5t14 -36.5q0 -20 -14 -34.5t-35 -14.5zM103 660q-21 0 -36 14.5t-15 35.5q0 20 15 35.5t36 15.5t35.5 -15.5t14.5 -35.5q0 -21 -14.5 -35.5t-35.5 -14.5zM0 -5l10 111h92q31 0 50.5 6
t30.5 16t15 22.5t4 25.5q0 30 -20 65t-54 72q-22 25 -42 45t-34.5 35.5t-23.5 26.5t-9 18q0 13 2.5 31t7 34t10.5 23q15 14 39.5 33t60.5 42t86.5 51.5t115.5 62.5l52 -94q-58 -30 -103.5 -54.5t-80.5 -45t-62.5 -39.5t-50.5 -38l10 53q50 -50 89.5 -93.5t67.5 -83.5
t42.5 -78.5t14.5 -78.5q0 -28 -10 -57t-35.5 -54.5t-70.5 -41t-115 -15.5h-89z" />
    <glyph glyph-name="uni063B.medi" unicode="&#x63b;" horiz-adv-x="435" 
d="M222 718q-21 0 -36 14.5t-15 34.5q0 21 15 36.5t36 15.5t35 -15.5t14 -36.5q0 -20 -14 -34.5t-35 -14.5zM102 659q-21 0 -36 14.5t-15 35.5q0 20 15 35.5t36 15.5t35.5 -15.5t14.5 -35.5q0 -21 -14.5 -35.5t-35.5 -14.5zM0 -5l9 111h87q40 0 63 8t33 23t10 37
q0 18 -13.5 43t-34 52t-44 53.5t-44 50t-34 40.5t-13.5 24q0 17 3 35t7.5 33t11.5 22q18 18 48.5 40t70.5 46.5t86 50t95 50.5l52 -93q-50 -26 -93 -49.5t-79.5 -45t-66.5 -41t-54 -38.5l1 50q31 -33 59.5 -64.5t55.5 -65.5t52 -72.5t49 -86.5q22 -44 42 -65.5t41 -29
t46 -7.5q28 0 41.5 -15.5t13.5 -38.5q0 -24 -16.5 -40.5t-48.5 -16.5q-37 0 -69.5 11.5t-59 39t-44.5 73.5l41 -5q-11 -33 -29.5 -55.5t-45 -37t-62 -20.5t-78.5 -6h-89z" />
    <glyph glyph-name="uni063B.fina" unicode="&#x63b;" horiz-adv-x="871" 
d="M652 719q-22 0 -36.5 14.5t-14.5 34.5q0 21 14.5 36.5t36.5 15.5q20 0 34.5 -15.5t14.5 -36.5q0 -20 -14.5 -34.5t-34.5 -14.5zM532 660q-21 0 -36 14.5t-15 35.5q0 20 15 35.5t36 15.5q20 0 34.5 -15.5t14.5 -35.5q0 -21 -14.5 -35.5t-34.5 -14.5zM356 -21l25 111
q66 0 114 4t79.5 13.5t46.5 25t15 39.5q0 19 -13 44t-33.5 52.5t-43.5 54t-44 49.5t-34 40t-13 25q0 17 2.5 34.5t7 32t11.5 21.5q24 26 70 57t106 64.5t124 67.5l52 -93q-68 -37 -123 -67.5t-97.5 -57.5t-74.5 -53l3 54q31 -31 60.5 -64.5t58 -70t53.5 -76t46 -81.5
q16 -32 30.5 -52t30 -30t32 -13.5t34.5 -3.5q28 0 41.5 -15.5t13.5 -38.5q0 -24 -16 -40.5t-48 -16.5q-36 0 -69.5 12.5t-60.5 39.5t-42 72h39q-14 -43 -43 -70.5t-75 -42.5t-112 -21t-153 -6zM356 -21q-81 0 -141.5 13.5t-101.5 40.5t-61 66.5t-20 91.5q0 28 5 59.5
t13.5 62t16.5 55.5l98 -26q-4 -17 -10 -38.5t-9.5 -43.5t-3.5 -42q0 -38 20 -67.5t72 -45t147 -15.5l20 -79z" />
    <glyph glyph-name="uni063C.init" unicode="&#x63c;" horiz-adv-x="386" 
d="M0 -5l10 111h92q31 0 50.5 6t30.5 16t15 22.5t4 25.5q0 30 -20 65t-54 72q-22 25 -42 45t-34.5 35.5t-23.5 26.5t-9 18q0 13 2.5 31t7 34t10.5 23q15 14 39.5 33t60.5 42t86.5 51.5t115.5 62.5l52 -94q-58 -30 -103.5 -54.5t-80.5 -45t-62.5 -39.5t-50.5 -38l10 53
q50 -50 89.5 -93.5t67.5 -83.5t42.5 -78.5t14.5 -78.5q0 -28 -10 -57t-35.5 -54.5t-70.5 -41t-115 -15.5h-89zM169 -332q-23 0 -40 16t-17 39q0 24 17 41t40 17t39.5 -17.5t16.5 -40.5t-16.5 -39t-39.5 -16zM96 -204q-24 0 -40.5 16t-16.5 39q0 24 16.5 41t40.5 17
q22 0 38.5 -17.5t16.5 -39.5q0 -24 -16.5 -40t-38.5 -16zM245 -204q-24 0 -40.5 16t-16.5 39q0 24 16.5 41t40.5 17q23 0 39 -17.5t16 -39.5q0 -24 -16 -40t-39 -16z" />
    <glyph glyph-name="uni063C.medi" unicode="&#x63c;" horiz-adv-x="435" 
d="M0 -5l9 111h87q40 0 63 8t33 23t10 37q0 18 -13.5 43t-34 52t-44 53.5t-44 50t-34 40.5t-13.5 24q0 17 3 35t7.5 33t11.5 22q18 18 48.5 40t70.5 46.5t86 50t95 50.5l52 -93q-50 -26 -93 -49.5t-79.5 -45t-66.5 -41t-54 -38.5l1 50q31 -33 59.5 -64.5t55.5 -65.5
t52 -72.5t49 -86.5q22 -44 42 -65.5t41 -29t46 -7.5q28 0 41.5 -15.5t13.5 -38.5q0 -24 -16.5 -40.5t-48.5 -16.5q-37 0 -69.5 11.5t-59 39t-44.5 73.5l41 -5q-11 -33 -29.5 -55.5t-45 -37t-62 -20.5t-78.5 -6h-89zM168 -332q-23 0 -40 16t-17 39q0 24 17 41t40 17
t39.5 -17.5t16.5 -40.5t-16.5 -39t-39.5 -16zM95 -204q-24 0 -40.5 16t-16.5 39q0 24 16.5 41t40.5 17q22 0 38.5 -17.5t16.5 -39.5q0 -24 -16.5 -40t-38.5 -16zM244 -204q-24 0 -40.5 16t-16.5 39q0 24 16.5 41t40.5 17q23 0 39 -17.5t16 -39.5q0 -24 -16 -40t-39 -16z" />
    <glyph glyph-name="uni063C.fina" unicode="&#x63c;" horiz-adv-x="871" 
d="M356 -21l25 111q66 0 114 4t79.5 13.5t46.5 25t15 39.5q0 19 -13 44t-33.5 52.5t-43.5 54t-44 49.5t-34 40t-13 25q0 17 2.5 34.5t7 32t11.5 21.5q24 26 70 57t106 64.5t124 67.5l52 -93q-68 -37 -123 -67.5t-97.5 -57.5t-74.5 -53l3 54q31 -31 60.5 -64.5t58 -70
t53.5 -76t46 -81.5q16 -32 30.5 -52t30 -30t32 -13.5t34.5 -3.5q28 0 41.5 -15.5t13.5 -38.5q0 -24 -16 -40.5t-48 -16.5q-36 0 -69.5 12.5t-60.5 39.5t-42 72h39q-14 -43 -43 -70.5t-75 -42.5t-112 -21t-153 -6zM356 -21q-81 0 -141.5 13.5t-101.5 40.5t-61 66.5t-20 91.5
q0 28 5 59.5t13.5 62t16.5 55.5l98 -26q-4 -17 -10 -38.5t-9.5 -43.5t-3.5 -42q0 -38 20 -67.5t72 -45t147 -15.5l20 -79zM387 -353q-23 0 -40 16t-17 39q0 24 17 41t40 17t39.5 -17.5t16.5 -40.5t-16.5 -39t-39.5 -16zM314 -225q-24 0 -40.5 16t-16.5 39q0 24 16.5 41
t40.5 17q22 0 38.5 -17.5t16.5 -39.5q0 -24 -16.5 -40t-38.5 -16zM463 -225q-24 0 -40.5 16t-16.5 39q0 24 16.5 41t40.5 17q23 0 39 -17.5t16 -39.5q0 -24 -16 -40t-39 -16z" />
    <glyph glyph-name="uni063D.init" unicode="&#x63d;" horiz-adv-x="262" 
d="M0 -5l10 111q29 0 49.5 7t31.5 25.5t11 52.5q0 28 -7.5 66.5t-19.5 79.5t-25 78l108 33q12 -33 24 -77t20 -90t8 -89q0 -46 -11.5 -79t-31.5 -56t-46.5 -36.5t-57.5 -19.5t-63 -6zM119 741q6 -13 16.5 -37.5t21.5 -52.5t22 -53t18 -40l-49 -23q-5 10 -14.5 31t-20 45.5
t-20.5 48t-17 36.5l-20 40zM56 736l47 -19q-6 -16 -16.5 -43.5t-21.5 -57t-19.5 -52.5t-12.5 -30l-49 17q4 10 13.5 34t21 53.5t22 56t15.5 41.5zM189 -213q-25 0 -42.5 17t-17.5 41t17 42t43 18q24 0 41 -18t17 -42t-17.5 -41t-40.5 -17zM36 -213q-25 0 -42.5 17t-17.5 41
t17 42t43 18q24 0 41 -18t17 -42t-17.5 -41t-40.5 -17z" />
    <glyph glyph-name="uni063D.medi" unicode="&#x63d;" horiz-adv-x="310" 
d="M0 -5l10 111q28 0 46 7t30 29t21.5 64.5t20.5 113.5l106 -18q-3 -17 -7 -37.5t-6.5 -41.5t-2.5 -38q0 -24 9 -42t31.5 -27.5t62.5 -9.5q28 0 41.5 -15.5t13.5 -38.5q0 -25 -16 -41t-49 -16q-52 0 -86.5 13.5t-53.5 42t-24 72.5l40 -1q-15 -45 -37.5 -70.5t-48 -37.5
t-52 -15.5t-49.5 -3.5zM183 643q6 -13 16.5 -37.5t21.5 -52.5t22 -53t18 -40l-49 -23q-5 10 -14.5 31t-20 45.5t-20.5 48t-17 36.5l-20 40zM120 638l47 -19q-6 -16 -16.5 -43.5t-21.5 -57t-19.5 -52.5t-12.5 -30l-49 17q4 10 13.5 34t21 53.5t22 56t15.5 41.5zM224 -213
q-25 0 -42.5 17t-17.5 41t17 42t43 18q24 0 41 -18t17 -42t-17.5 -41t-40.5 -17zM71 -213q-25 0 -42.5 17t-17.5 41t17 42t43 18q24 0 41 -18t17 -42t-17.5 -41t-40.5 -17z" />
    <glyph glyph-name="uni063D.fina" unicode="&#x63d;" horiz-adv-x="691" 
d="M35 5q0 25 4.5 57t16 71.5t32.5 84.5l99 -38q-13 -33 -22 -60.5t-13 -51t-4 -44.5q0 -38 14.5 -65.5t40 -44.5t59 -25.5t72.5 -8.5q54 0 95 10t68.5 27t41.5 36.5t14 36.5q0 9 -7.5 18t-23.5 18.5t-41.5 20t-63.5 21.5l29 108q50 -19 88.5 -32.5t69 -21.5t54.5 -12t44 -4
q28 0 41 -15.5t13 -38.5q0 -25 -16 -41t-48 -16h-11h-12h-11q1 -7 2.5 -14t1.5 -15q0 -32 -21 -66.5t-62.5 -64t-104 -47.5t-146.5 -18q-93 0 -158.5 27t-100 79.5t-34.5 128.5zM238 509q6 -13 16.5 -37.5t21.5 -52.5t22 -53t18 -40l-49 -23q-5 10 -14.5 31t-20 45.5
t-20.5 48t-17 36.5l-20 40zM175 504l47 -19q-6 -16 -16.5 -43.5t-21.5 -57t-19.5 -52.5t-12.5 -30l-49 17q4 10 13.5 34t21 53.5t22 56t15.5 41.5z" />
    <glyph glyph-name="uni063E.init" unicode="&#x63e;" horiz-adv-x="313" 
d="M0 -5l10 111q53 0 83 6.5t43 24.5t13 53q0 29 -7.5 67.5t-19.5 79.5t-25 78l107 33q13 -33 25 -77t20.5 -88.5t8.5 -84.5q0 -61 -18.5 -100.5t-52.5 -62t-81.5 -31.5t-105.5 -9zM229 555q-25 0 -42.5 17t-17.5 41t17 42t43 18q24 0 41 -18t17 -42t-17.5 -41t-40.5 -17z
M76 555q-25 0 -42.5 17t-17.5 41t17 42t43 18q24 0 41 -18t17 -42t-17.5 -41t-40.5 -17zM206 -213q-25 0 -42 17t-17 41t17 42t42 18q24 0 41 -18t17 -42t-17 -41t-41 -17zM53 -213q-25 0 -42 17t-17 41t17 42t42 18q24 0 41 -18t17 -42t-17 -41t-41 -17z" />
    <glyph glyph-name="uni063E.medi" unicode="&#x63e;" horiz-adv-x="366" 
d="M0 -5l10 111q37 0 60.5 7.5t37.5 29.5t24 65t21 113l107 -19q-3 -17 -7 -37.5t-7 -41.5t-3 -38q0 -18 5.5 -32.5t19.5 -25t40.5 -16t67.5 -5.5q29 0 42 -15.5t13 -37.5q0 -26 -16 -42t-49 -16q-50 0 -85 7.5t-57 23.5t-34.5 40t-15.5 57l39 -1q-17 -42 -39.5 -67.5
t-50 -38t-58.5 -17t-65 -4.5zM285 460q-26 0 -43 17.5t-17 41.5t17 42t43 18q23 0 40 -18t17 -42t-17 -41.5t-40 -17.5zM132 461q-26 0 -43 17t-17 41t17 42t43 18q24 0 41 -18t17 -42t-17.5 -41t-40.5 -17zM250 -213q-25 0 -42.5 17t-17.5 41t17 42t43 18q24 0 41 -18
t17 -42t-17.5 -41t-40.5 -17zM97 -213q-25 0 -42.5 17t-17.5 41t17 42t43 18q24 0 41 -18t17 -42t-17.5 -41t-40.5 -17z" />
    <glyph glyph-name="uni063E.fina" unicode="&#x63e;" horiz-adv-x="691" 
d="M35 5q0 25 4.5 57t16 71.5t32.5 84.5l99 -38q-13 -33 -22 -60.5t-13 -51t-4 -44.5q0 -38 14.5 -65.5t40 -44.5t59 -25.5t72.5 -8.5q54 0 95 10t68.5 27t41.5 36.5t14 36.5q0 9 -7.5 18t-23.5 18.5t-41.5 20t-63.5 21.5l29 108q50 -19 88.5 -32.5t69 -21.5t54.5 -12t44 -4
q28 0 41 -15.5t13 -38.5q0 -25 -16 -41t-48 -16h-11h-12h-11q1 -7 2.5 -14t1.5 -15q0 -32 -21 -66.5t-62.5 -64t-104 -47.5t-146.5 -18q-93 0 -158.5 27t-100 79.5t-34.5 128.5zM303 330q-25 0 -42 17t-17 41t17 42t42 18q24 0 41 -18t17 -42t-17 -41t-41 -17zM151 330
q-26 0 -43 17t-17 41t17 42t42 18q24 0 41 -18t17 -42t-17 -41t-40 -17z" />
    <glyph glyph-name="uni063F.init" unicode="&#x63f;" horiz-adv-x="313" 
d="M0 -5l10 111q53 0 83 6.5t43 24.5t13 53q0 29 -7.5 67.5t-19.5 79.5t-25 78l107 33q13 -33 25 -77t20.5 -88.5t8.5 -84.5q0 -61 -18.5 -100.5t-52.5 -62t-81.5 -31.5t-105.5 -9zM156 671q-24 0 -41 16.5t-17 40.5t17 41.5t41 17.5t40.5 -17.5t16.5 -40.5
q0 -25 -16.5 -41.5t-40.5 -16.5zM83 542q-24 0 -41 17t-17 40q0 24 17 41.5t41 17.5q23 0 40 -17.5t17 -41.5t-17 -40.5t-40 -16.5zM233 542q-24 0 -41 17t-17 40q0 25 17 42t41 17t40.5 -17t16.5 -42q0 -24 -16.5 -40.5t-40.5 -16.5zM206 -213q-25 0 -42 17t-17 41t17 42
t42 18q24 0 41 -18t17 -42t-17 -41t-41 -17zM53 -213q-25 0 -42 17t-17 41t17 42t42 18q24 0 41 -18t17 -42t-17 -41t-41 -17z" />
    <glyph glyph-name="uni063F.medi" unicode="&#x63f;" horiz-adv-x="366" 
d="M0 -5l10 111q37 0 60.5 7.5t37.5 29.5t24 65t21 113l107 -19q-3 -17 -7 -37.5t-7 -41.5t-3 -38q0 -18 5.5 -32.5t19.5 -25t40.5 -16t67.5 -5.5q29 0 42 -15.5t13 -37.5q0 -26 -16 -42t-49 -16q-50 0 -85 7.5t-57 23.5t-34.5 40t-15.5 57l39 -1q-17 -42 -39.5 -67.5
t-50 -38t-58.5 -17t-65 -4.5zM197 577q-24 0 -41 16.5t-17 40.5t16.5 41t41.5 17q24 0 40.5 -17t16.5 -40q0 -25 -17 -41.5t-40 -16.5zM123 448q-24 0 -41 16.5t-17 40.5t17 41.5t41 17.5t41 -17.5t17 -41.5t-17 -40.5t-41 -16.5zM274 448q-24 0 -41 16.5t-17 40.5
t16.5 41.5t41.5 17.5q24 0 40.5 -17.5t16.5 -41.5t-17 -40.5t-40 -16.5zM250 -213q-25 0 -42.5 17t-17.5 41t17 42t43 18q24 0 41 -18t17 -42t-17 -41t-41 -17zM97 -213q-25 0 -42.5 17t-17.5 41t17.5 42t42.5 18q24 0 41 -18t17 -42t-17 -41t-41 -17z" />
    <glyph glyph-name="uni063F.fina" unicode="&#x63f;" horiz-adv-x="691" 
d="M35 5q0 25 4.5 57t16 71.5t32.5 84.5l99 -38q-13 -33 -22 -60.5t-13 -51t-4 -44.5q0 -38 14.5 -65.5t40 -44.5t59 -25.5t72.5 -8.5q54 0 95 10t68.5 27t41.5 36.5t14 36.5q0 9 -7.5 18t-23.5 18.5t-41.5 20t-63.5 21.5l29 108q50 -19 88.5 -32.5t69 -21.5t54.5 -12t44 -4
q28 0 41 -15.5t13 -38.5q0 -25 -16 -41t-48 -16h-11h-12h-11q1 -7 2.5 -14t1.5 -15q0 -32 -21 -66.5t-62.5 -64t-104 -47.5t-146.5 -18q-93 0 -158.5 27t-100 79.5t-34.5 128.5zM222 451q-24 0 -41 17t-17 40q0 25 17 42t42 17q23 0 39.5 -17t16.5 -41q0 -25 -16.5 -41.5
t-40.5 -16.5zM149 322q-24 0 -41 17t-17 40q0 24 17 41.5t41 17.5t40.5 -17.5t16.5 -41.5q0 -23 -17 -40t-40 -17zM299 322q-24 0 -41 17t-17 40q0 25 17 42t42 17q23 0 39.5 -17t16.5 -42q0 -23 -16.5 -40t-40.5 -17z" />
    <glyph glyph-name="uni066E.init" unicode="&#x66e;" horiz-adv-x="262" 
d="M0 -5l10 111q29 0 49.5 7t31.5 25.5t11 52.5q0 28 -7.5 66.5t-19.5 79.5t-25 78l108 33q12 -33 24 -77t20 -90t8 -89q0 -46 -11.5 -79t-31.5 -56t-46.5 -36.5t-57.5 -19.5t-63 -6z" />
    <glyph glyph-name="uni066E.medi" unicode="&#x66e;" horiz-adv-x="310" 
d="M0 -5l10 111q28 0 46 7t30 29t21.5 64.5t20.5 113.5l106 -18q-3 -17 -7 -37.5t-6.5 -41.5t-2.5 -38q0 -24 9 -42t31.5 -27.5t62.5 -9.5q28 0 41.5 -15.5t13.5 -38.5q0 -25 -16 -41t-49 -16q-52 0 -86.5 13.5t-53.5 42t-24 72.5l40 -1q-15 -45 -37.5 -70.5t-48 -37.5
t-52 -15.5t-49.5 -3.5z" />
    <glyph glyph-name="uni066E.fina" unicode="&#x66e;" horiz-adv-x="951" 
d="M361 -21l26 111q57 0 112 8t106 28t96.5 55.5t83.5 90.5l87 -45q-8 -20 -11.5 -35t-3.5 -26q0 -17 10 -30.5t33 -21.5t61 -8q29 0 42.5 -15.5t13.5 -38.5q0 -25 -16.5 -41t-48.5 -16q-53 0 -96.5 15.5t-67.5 46.5t-18 78l32 -1q-30 -41 -76 -70t-104 -48t-124 -28
t-137 -9zM362 -21q-81 0 -141.5 13.5t-101.5 40.5t-61 66.5t-20 91.5q0 28 5 59.5t13.5 62t16.5 55.5l98 -26q-4 -17 -10 -38.5t-9.5 -43.5t-3.5 -42q0 -38 20 -67.5t72.5 -45t146.5 -15.5l20 -79z" />
    <glyph glyph-name="uni066F.init" unicode="&#x66f;" horiz-adv-x="432" 
d="M0 -5l9 111q35 0 66.5 0.5t59 2t49.5 6t38 11.5q23 11 37 30t20.5 49.5t6.5 72.5q0 48 -8 84t-23 56t-36 20q-16 0 -30 -13.5t-22.5 -36.5t-8.5 -53q0 -21 8.5 -34t24.5 -19t36 -6t41 5t39 15l4 -87q-13 -11 -31 -18.5t-38 -11.5t-40 -4q-49 0 -83 18t-51.5 50t-17.5 74
t12.5 82t35.5 72t55.5 51t71.5 19q55 0 93 -35t57 -96t19 -139q0 -76 -23.5 -134t-73.5 -90q-25 -17 -56 -27t-68 -15.5t-80 -7.5t-93 -2z" />
    <glyph glyph-name="uni066F.medi" unicode="&#x66f;" horiz-adv-x="449" 
d="M0 -5l9 111q25 -1 50.5 0.5t50.5 5t47 9.5t40 13q29 12 50.5 29.5t33.5 40.5t12 51q0 22 -8.5 43t-22 34t-30.5 13q-15 0 -30 -12.5t-24 -33.5t-9 -47q0 -27 11.5 -49.5t31 -40t44.5 -32.5l-106 -42q-22 19 -43 42.5t-34.5 55t-13.5 72.5q0 39 14 73t38.5 61t56.5 42.5
t67 15.5q50 0 87.5 -26.5t59 -69t21.5 -88.5q0 -43 -13.5 -78t-36.5 -62t-52.5 -48t-60.5 -37q-23 -12 -52.5 -21t-61.5 -14.5t-64 -8t-62 -2.5zM449 -5q-43 0 -89 6t-88 18t-73 28l67 79q29 -8 64 -12.5t69.5 -6t59.5 -1.5q28 0 41.5 -15.5t13.5 -38.5q0 -24 -16 -40.5
t-49 -16.5z" />
    <glyph glyph-name="uni066F.fina" unicode="&#x66f;" horiz-adv-x="762" 
d="M319 -272q-56 0 -108 14t-93.5 43t-65.5 75.5t-24 111.5q0 20 4 50t16 71t36 91l99 -40q-14 -36 -23.5 -61.5t-13.5 -47.5t-4 -47q0 -50 24.5 -83t68.5 -49.5t102 -16.5q35 0 67.5 5t59.5 15.5t49 24.5t38 32t25 40q13 28 19 65t6 80q0 47 -8 83t-22.5 56t-35.5 20
q-14 0 -25 -9t-19 -23.5t-12.5 -31.5t-4.5 -33q0 -19 6.5 -31.5t22.5 -19.5t44.5 -8.5t73.5 2.5h151q28 0 41.5 -15t13.5 -38q0 -26 -16 -42t-48 -16h-190q-49 0 -87 8.5t-65 26.5t-41 46t-14 66q0 41 13 81t36.5 71.5t56 50.5t71.5 19q51 0 89 -33.5t58.5 -94.5t20.5 -144
q0 -55 -13.5 -105.5t-34.5 -90.5q-24 -43 -59 -74.5t-79 -52.5t-96 -31t-110 -10z" />
    <glyph glyph-name="uni0672.fina" unicode="&#x672;" horiz-adv-x="277" 
d="M277 -5q-71 0 -113 18.5t-60.5 57.5t-21.5 101l-18 484h112l19 -429q2 -50 10 -76t27.5 -35.5t54.5 -9.5q29 0 42 -15t13 -38q0 -26 -16 -42t-49 -16zM-27 732l-46 30q11 26 31 37.5t37 11.5q22 0 39.5 -10t32.5 -10q11 0 21.5 0.5t18.5 4.5l-9 -18q-27 10 -48 34t-21 56
q0 42 29.5 65.5t71.5 23.5q11 0 24 -2t23 -6l-8 -53q-9 2 -17.5 3.5t-18.5 1.5q-22 0 -33.5 -8.5t-11.5 -23.5q0 -19 12.5 -33t28.5 -21.5t27 -8.5l-34 -6q26 7 44.5 14.5t36.5 14.5l18 -52q-8 -3 -25.5 -10.5t-40 -15t-44.5 -12.5t-38 -5q-24 0 -41.5 10t-29.5 10
q-9 0 -16 -6t-13 -16z" />
    <glyph glyph-name="uni0673.fina" unicode="&#x673;" horiz-adv-x="279" 
d="M280 -5q-71 0 -113 18.5t-61 57.5t-21 101l-21 551h112l20 -496q2 -50 10.5 -76t28 -35.5t55.5 -9.5q28 0 41.5 -15t13.5 -39q0 -25 -16.5 -41t-48.5 -16zM6 -299l-46 29q11 26 31 38t37 12q22 0 39.5 -10.5t32.5 -10.5q11 0 21.5 1t18.5 5l-9 -19q-26 10 -47.5 34.5
t-21.5 56.5q0 42 29.5 65t71.5 23q11 0 24 -2t23 -6l-8 -53q-9 2 -17.5 4t-18.5 2q-22 0 -33.5 -9t-11.5 -24q0 -19 12.5 -33t28.5 -21.5t27 -7.5l-34 -6q26 6 45 14t36 15l18 -52q-8 -4 -25.5 -11.5t-40 -15t-44.5 -12.5t-38 -5q-24 0 -41.5 10.5t-28.5 10.5
q-10 0 -17 -6.5t-13 -15.5z" />
    <glyph glyph-name="uni0675.fina" unicode="&#x675;" horiz-adv-x="474" 
d="M474 -5h-197q-70 0 -111.5 18.5t-60 58t-20.5 100.5l-21 551h112l20 -496q2 -48 10 -74.5t27 -36.5t54 -10h197q29 0 42 -15t13 -38q0 -26 -16 -42t-49 -16zM257 583l-14 59q31 5 47.5 9t36.5 9l-10 -24q-26 8 -48.5 33.5t-22.5 58.5t15 53.5t38.5 30t49.5 9.5
q13 0 26 -2t23 -6l-8 -55q-9 2 -18.5 4t-20.5 2q-21 0 -33 -9t-12 -25q0 -19 12.5 -33t29 -22t27.5 -8l-41 -4q26 7 49 14t42 14l18 -56q-24 -9 -56 -18.5t-65.5 -18.5t-64.5 -15z" />
    <glyph glyph-name="uni0676.fina" unicode="&#x676;" horiz-adv-x="452" 
d="M50 -230l-24 106q65 10 113.5 27t81 43t48.5 64t16 91q1 72 -17 116t-49 44q-19 0 -32.5 -15.5t-20.5 -38.5t-7 -47q0 -18 5.5 -30t20.5 -18.5t42 -8t68 2.5h167q27 0 41 -14.5t14 -39.5q0 -27 -16.5 -42t-47.5 -15h-209q-62 0 -105.5 16.5t-66 49.5t-22.5 80
q0 41 13 82.5t36.5 76.5t56 55.5t71.5 20.5q52 0 90 -34.5t58 -95.5t19 -139q0 -101 -42.5 -171.5t-119 -111t-182.5 -54.5zM269 417l-13 56q29 6 44.5 9.5t33.5 8.5l-8 -21q-24 8 -45.5 31t-21.5 57q0 28 13.5 47t35 29t47.5 10q11 0 24 -2t23 -6l-7 -52q-10 2 -19 3.5
t-18 1.5q-19 0 -29.5 -9t-10.5 -23q0 -17 11.5 -30.5t27 -20.5t25.5 -7l-41 -6q25 7 46 13.5t40 13.5l16 -53q-22 -8 -52 -17.5t-61.5 -17.5t-60.5 -15z" />
    <glyph glyph-name="uni0677.fina" unicode="&#x677;" horiz-adv-x="478" 
d="M76 -230l-24 106q65 10 113.5 27t81 43t48.5 64t16 91q1 72 -17 116t-49 44q-19 0 -32.5 -15.5t-20.5 -38.5t-7 -47q0 -18 5.5 -30t20.5 -18.5t42 -8t68 2.5h167q27 0 41 -14.5t14 -39.5q0 -27 -16.5 -42t-47.5 -15h-209q-62 0 -105.5 16.5t-66 49.5t-22.5 80
q0 41 13 82.5t36.5 76.5t56 55.5t71.5 20.5q52 0 90 -34.5t58 -95.5t19 -139q0 -101 -42.5 -171.5t-119 -111t-182.5 -54.5zM304 417l-13 56q29 6 44.5 9.5t33.5 8.5l-8 -21q-24 8 -45.5 31t-21.5 57q0 28 13.5 47t35 29t47.5 10q11 0 24 -2t23 -6l-7 -52q-10 2 -19 3.5
t-18 1.5q-19 0 -29.5 -9t-10.5 -23q0 -17 11.5 -30.5t27 -20.5t25.5 -7l-41 -6q25 7 46 13.5t40 13.5l16 -53q-22 -8 -52 -17.5t-61.5 -17.5t-60.5 -15zM30 409l-10 52q59 3 100 17.5t62.5 36.5t21.5 44q0 15 -8 25.5t-23 10.5q-13 0 -22 -9t-9 -24q0 -18 14.5 -32.5
t35.5 -22.5l-36 -33q-29 12 -50 34t-21 56q0 37 25.5 61.5t64.5 24.5q41 0 62.5 -27.5t21.5 -62.5q0 -42 -28.5 -75t-80 -52.5t-120.5 -23.5z" />
    <glyph glyph-name="uni0678.init" unicode="&#x678;" horiz-adv-x="331" 
d="M0 -5l10 111q29 0 49.5 7t31.5 25.5t11 52.5q0 28 -7.5 66.5t-19.5 79.5t-25 78l108 33q12 -33 24 -77t20 -90t8 -89q0 -46 -11.5 -79t-31.5 -56t-46.5 -36.5t-57.5 -19.5t-63 -6zM149 583l-14 59q31 5 47.5 9t35.5 9l-9 -24q-26 8 -48.5 33.5t-22.5 58.5t14.5 53.5
t38 30t49.5 9.5q14 0 26.5 -2t23.5 -6l-8 -55q-9 2 -19 4t-21 2q-21 0 -32.5 -9t-11.5 -25q0 -19 12.5 -33t29 -22t27.5 -8l-41 -4q25 7 48.5 14t42.5 14l17 -56q-24 -9 -55.5 -18.5t-65 -18.5t-64.5 -15z" />
    <glyph glyph-name="uni0678.medi" unicode="&#x678;" horiz-adv-x="312" 
d="M0 -5l10 111q28 0 46 7t30 29t21.5 64.5t20.5 113.5l106 -18q-3 -17 -7 -37.5t-6.5 -41.5t-2.5 -38q0 -24 9 -42t31.5 -27.5t62.5 -9.5q28 0 41.5 -15.5t13.5 -38.5q0 -25 -16 -41t-49 -16q-52 0 -86.5 13.5t-53.5 42t-24 72.5l40 -1q-15 -45 -37.5 -70.5t-48 -37.5
t-52 -15.5t-49.5 -3.5zM139 414l-14 59q31 5 47.5 9t35.5 9l-9 -24q-26 8 -48.5 33.5t-22.5 58.5t14.5 53.5t38 30t49.5 9.5q14 0 26.5 -2t23.5 -6l-8 -55q-9 2 -19 4t-21 2q-21 0 -32.5 -9t-11.5 -25q0 -19 12.5 -33t29 -22t27.5 -8l-41 -4q25 7 48.5 14t42.5 14l17 -56
q-24 -9 -55.5 -18.5t-65 -18.5t-64.5 -15z" />
    <glyph glyph-name="uni0678.fina" unicode="&#x678;" horiz-adv-x="691" 
d="M35 5q0 25 4.5 57t16 71.5t32.5 84.5l99 -38q-13 -33 -22 -60.5t-13 -51t-4 -44.5q0 -38 14.5 -65.5t40 -44.5t59 -25.5t72.5 -8.5q54 0 95 10t68.5 27t41.5 36.5t14 36.5q0 9 -7.5 18t-23.5 18.5t-41.5 20t-63.5 21.5l29 108q50 -19 88.5 -32.5t69 -21.5t54.5 -12t44 -4
q28 0 41 -15.5t13 -38.5q0 -25 -16 -41t-48 -16h-11h-12h-11q1 -7 2.5 -14t1.5 -15q0 -32 -21 -66.5t-62.5 -64t-104 -47.5t-146.5 -18q-93 0 -158.5 27t-100 79.5t-34.5 128.5zM462 224l-14 59q31 5 47.5 9t35.5 9l-9 -24q-26 8 -48.5 33.5t-22.5 58.5t14.5 53.5t38 30
t49.5 9.5q14 0 26.5 -2t23.5 -6l-8 -55q-9 2 -19 4t-21 2q-21 0 -32.5 -9t-11.5 -25q0 -19 12.5 -33t29 -22t27.5 -8l-41 -4q25 7 48.5 14t42.5 14l17 -56q-24 -9 -55.5 -18.5t-65 -18.5t-64.5 -15z" />
    <glyph glyph-name="uni067C.init" unicode="&#x67c;" horiz-adv-x="313" 
d="M0 -5l10 111q53 0 83 6.5t43 24.5t13 53q0 29 -7.5 67.5t-19.5 79.5t-25 78l107 33q13 -33 25 -77t20.5 -89t8.5 -84q0 -61 -18.5 -100.5t-52.5 -62t-81.5 -31.5t-105.5 -9zM146 -105q-35 0 -59.5 25t-24.5 60t24.5 59.5t59.5 24.5t59.5 -25t24.5 -60q0 -34 -24 -59
t-60 -25zM146 -52q15 0 24.5 8.5t9.5 22.5q0 15 -9.5 24t-24.5 9q-14 0 -23.5 -9.5t-9.5 -23.5q0 -13 9.5 -22t23.5 -9zM233 541q-26 0 -43 17.5t-17 41.5t17 42t43 18q24 0 41 -18t17 -42t-17.5 -41.5t-40.5 -17.5zM80 542q-26 0 -43 17t-17 41t17 42t43 18q24 0 41 -18
t17 -42t-17.5 -41t-40.5 -17z" />
    <glyph glyph-name="uni067C.medi" unicode="&#x67c;" horiz-adv-x="310" 
d="M100 -108q-36 0 -60 25t-24 60t24 59.5t60 24.5q35 0 59.5 -24.5t24.5 -59.5t-24.5 -60t-59.5 -25zM100 -55q14 0 24 8.5t10 22.5q0 15 -10 24t-24 9t-24 -9.5t-10 -23.5q0 -13 10 -22t24 -9zM0 -5l10 111q28 0 46 7t30 29t21.5 64.5t20.5 113.5l106 -19q-3 -16 -7 -36.5
t-6.5 -41.5t-2.5 -39q0 -23 9 -41t31.5 -27.5t62.5 -9.5q28 0 41.5 -15.5t13.5 -37.5q0 -26 -16 -42t-49 -16q-52 0 -86.5 13.5t-53.5 42t-24 72.5l40 -1q-15 -45 -37.5 -70.5t-48 -37.5t-52 -15.5t-49.5 -3.5zM262 426q-25 0 -42.5 17.5t-17.5 41.5t17 42t43 18
q24 0 41 -18t17 -42q0 -25 -17.5 -42t-40.5 -17zM109 426q-25 0 -42.5 17.5t-17.5 41.5t17 42t43 18q24 0 41 -18t17 -42t-17.5 -41.5t-40.5 -17.5z" />
    <glyph glyph-name="uni067C.fina" unicode="&#x67c;" horiz-adv-x="951" 
d="M469 -135q-36 0 -60.5 25t-24.5 60t24.5 59.5t60.5 24.5q35 0 59.5 -24.5t24.5 -59.5t-24.5 -60t-59.5 -25zM469 -82q14 0 24 9t10 23q0 15 -10 24t-24 9q-15 0 -24.5 -9.5t-9.5 -23.5t10 -23t24 -9zM361 -21l26 111q57 0 112 8t106 28t96.5 55.5t83.5 90.5l87 -45
q-8 -20 -11.5 -35t-3.5 -26q0 -17 10 -30.5t33 -21.5t61 -8q29 0 42.5 -15.5t13.5 -37.5q0 -26 -16.5 -42t-48.5 -16q-53 0 -96.5 15.5t-67.5 46.5t-18 78l32 -1q-30 -41 -76 -70t-104 -48t-124 -28t-137 -9zM362 -21q-81 0 -141.5 13.5t-101.5 40.5t-61 66.5t-20 91.5
q0 28 5 59.5t13.5 62t16.5 55.5l98 -26q-4 -17 -10 -38.5t-9.5 -43.5t-3.5 -42q0 -38 20 -67.5t72.5 -45t146.5 -15.5l20 -79zM529 427q-26 0 -43 17t-17 41q0 25 17 42.5t43 17.5q24 0 41 -17.5t17 -42.5q0 -24 -17.5 -41t-40.5 -17zM376 427q-25 0 -42.5 17t-17.5 41
q0 25 17 43t43 18q24 0 41 -18t17 -42q0 -25 -17.5 -42t-40.5 -17z" />
    <glyph glyph-name="uni067D.init" unicode="&#x67d;" horiz-adv-x="313" 
d="M0 -5l10 111q53 0 83 6.5t43 24.5t13 53q0 29 -7.5 67.5t-19.5 79.5t-25 78l107 33q13 -33 25 -77t20.5 -89t8.5 -84q0 -61 -18.5 -100.5t-52.5 -62t-81.5 -31.5t-105.5 -9zM154 541q-23 0 -40 16t-17 39t17 40.5t40 17.5t39.5 -17.5t16.5 -40.5t-16.5 -39t-39.5 -16z
M81 669q-24 0 -40.5 16t-16.5 39q0 24 16.5 41t40.5 17q22 0 38.5 -17.5t16.5 -40.5t-16.5 -39t-38.5 -16zM230 669q-24 0 -40.5 16t-16.5 39q0 24 16.5 41t40.5 17q23 0 39 -17.5t16 -40.5t-16 -39t-39 -16z" />
    <glyph glyph-name="uni067D.medi" unicode="&#x67d;" horiz-adv-x="366" 
d="M0 -5l10 111q37 0 60.5 7.5t37.5 29.5t24 65t21 113l107 -19q-3 -17 -7 -37.5t-7 -41.5t-3 -38q0 -18 5.5 -32.5t19.5 -25t40.5 -16t67.5 -5.5q29 0 42 -15.5t13 -37.5q0 -26 -16 -42t-49 -16q-50 0 -85 7.5t-57 23.5t-34.5 40t-15.5 57l39 -1q-17 -42 -39.5 -67.5
t-50 -38t-58.5 -17t-65 -4.5zM197 447q-23 0 -39.5 16t-16.5 39t16.5 40t39.5 17t39.5 -17t16.5 -40t-16.5 -39t-39.5 -16zM124 575q-24 0 -40.5 16t-16.5 39t16.5 40t40.5 17q23 0 39 -17t16 -40t-16 -39t-39 -16zM273 575q-23 0 -40 16t-17 39t17 40t40 17t39.5 -17
t16.5 -40t-16.5 -39t-39.5 -16z" />
    <glyph glyph-name="uni067D.fina" unicode="&#x67d;" horiz-adv-x="951" 
d="M361 -21l26 111q57 0 112 8t106 28t96.5 55.5t83.5 90.5l87 -45q-8 -20 -11.5 -35t-3.5 -26q0 -17 10 -30.5t33 -21.5t61 -8q29 0 42.5 -15.5t13.5 -38.5q0 -25 -16.5 -41t-48.5 -16q-53 0 -96.5 15.5t-67.5 46.5t-18 78l32 -1q-30 -41 -76 -70t-104 -48t-124 -28
t-137 -9zM362 -21q-81 0 -141.5 13.5t-101.5 40.5t-61 66.5t-20 91.5q0 28 5 59.5t13.5 62t16.5 55.5l98 -26q-4 -17 -10 -38.5t-9.5 -43.5t-3.5 -42q0 -38 20 -67.5t72.5 -45t146.5 -15.5l20 -79zM456 428q-24 0 -40.5 16t-16.5 39q0 24 16.5 41t40.5 17q23 0 39 -17.5
t16 -40.5t-16.5 -39t-38.5 -16zM382 556q-23 0 -40 16t-17 39q0 24 16.5 41t40.5 17q23 0 39.5 -17.5t16.5 -40.5t-16.5 -39t-39.5 -16zM532 556q-24 0 -40.5 16t-16.5 39q0 24 16.5 41t40.5 17q22 0 38.5 -17.5t16.5 -40.5t-16.5 -39t-38.5 -16z" />
    <glyph glyph-name="uni0681.init" unicode="&#x681;" horiz-adv-x="536" 
d="M0 -5l9 111q47 0 90.5 7.5t85 22.5t82.5 36.5t83 49.5q-32 21 -63.5 36t-63 23.5t-67.5 8.5q-16 0 -30 -1t-27.5 -3.5t-29.5 -5.5l-20 107q25 8 51.5 12t51.5 4q51 0 90.5 -12.5t72 -30t59.5 -35.5t52.5 -30t51.5 -12h23l12 -103q-35 -2 -66 -16.5t-62.5 -35.5t-67.5 -44
t-81 -43t-102.5 -33t-133.5 -13zM82 474l-13 56q29 6 44.5 9.5t33.5 8.5l-8 -21q-24 8 -45.5 31t-21.5 57q0 28 13.5 47t35 29t47.5 10q11 0 24 -2t23 -6l-7 -52q-10 2 -19 3.5t-18 1.5q-19 0 -29.5 -9t-10.5 -23q0 -17 11.5 -30.5t27 -20.5t25.5 -7l-41 -6q25 7 46 13.5
t40 13.5l16 -53q-22 -8 -52 -17.5t-61.5 -17.5t-60.5 -15z" />
    <glyph glyph-name="uni0681.medi" unicode="&#x681;" horiz-adv-x="547" 
d="M547 -5q-33 0 -62 7t-54 23.5t-44.5 46.5t-32.5 76l69 47q14 -36 32 -55.5t43 -26.5t59 -7q29 0 42 -15.5t13 -38.5q0 -25 -16 -41t-49 -16zM0 -5l9 111q47 0 90.5 7.5t85 22.5t82.5 36.5t83 49.5q-32 21 -63.5 36t-63 23.5t-67.5 8.5q-16 0 -30 -1t-27.5 -3.5
t-29.5 -5.5l-20 107q25 8 51.5 12t51.5 4q51 0 90.5 -12.5t72 -30t59.5 -35.5t52.5 -30t51.5 -12h23l12 -103q-35 -2 -66 -16.5t-62.5 -35.5t-67.5 -44t-81 -43t-102.5 -33t-133.5 -13zM89 474l-13 56q29 6 44.5 9.5t33.5 8.5l-8 -21q-24 8 -45.5 31t-21.5 57q0 28 13.5 47
t35 29t47.5 10q11 0 24 -2t23 -6l-7 -52q-10 2 -19 3.5t-18 1.5q-19 0 -29.5 -9t-10.5 -23q0 -17 11.5 -30.5t27 -20.5t25.5 -7l-41 -6q25 7 46 13.5t40 13.5l16 -53q-22 -8 -52 -17.5t-61.5 -17.5t-60.5 -15z" />
    <glyph glyph-name="uni0681.fina" unicode="&#x681;" horiz-adv-x="606" 
d="M606 -5q-42 0 -82 9t-72.5 34t-54.5 73t-28 127l83 36q7 -55 21.5 -88.5t36 -50.5t48.5 -23t58 -6q28 0 41.5 -15.5t13.5 -38.5q0 -25 -16 -41t-49 -16zM344 -391q-65 0 -124.5 17.5t-105.5 53t-72.5 89.5t-26.5 127q0 59 18.5 113t52 101t79.5 86t101.5 69.5t117.5 51.5
l6 -26q-25 8 -53 19t-58.5 21t-62.5 16.5t-65 6.5q-25 0 -50.5 -4t-46.5 -10l-17 108q25 8 54.5 14t58.5 6q43 0 81 -10t72.5 -24.5t68 -29.5t67.5 -25t71 -10h19l9 -118q-43 -2 -90 -14.5t-93 -33.5t-87 -50t-72 -65.5t-49.5 -80.5t-18.5 -94q0 -51 19.5 -87.5t51.5 -59.5
t72.5 -33.5t82.5 -10.5q41 0 84 9t91 28l35 -98q-62 -30 -118.5 -41t-101.5 -11zM193 545l-13 56q29 6 44.5 9.5t33.5 8.5l-8 -21q-24 8 -45.5 31t-21.5 57q0 28 13.5 47t35 29t47.5 10q11 0 24 -2t23 -6l-7 -52q-10 2 -19 3.5t-18 1.5q-19 0 -29.5 -9t-10.5 -23
q0 -17 11.5 -30.5t27 -20.5t25.5 -7l-41 -6q25 7 46 13.5t40 13.5l16 -53q-22 -8 -52 -17.5t-61.5 -17.5t-60.5 -15z" />
    <glyph glyph-name="uni0682.init" unicode="&#x682;" horiz-adv-x="536" 
d="M0 -5l9 111q47 0 90.5 7.5t85 22.5t82.5 36.5t83 49.5q-32 21 -63.5 36t-63 23.5t-67.5 8.5q-16 0 -30 -1t-27.5 -3.5t-29.5 -5.5l-20 107q25 8 51.5 12t51.5 4q51 0 90.5 -12.5t72 -30t59.5 -35.5t52.5 -30t51.5 -12h23l12 -103q-35 -2 -66 -16.5t-62.5 -35.5t-67.5 -44
t-81 -43t-102.5 -33t-133.5 -13zM150 502q-24 0 -40.5 16t-16.5 39q0 24 16.5 40.5t40.5 16.5q23 0 39 -17t16 -40t-16.5 -39t-38.5 -16zM149 651q-24 0 -40 16t-16 39q0 24 16 40.5t40 16.5q23 0 39.5 -16.5t16.5 -40.5q0 -23 -16.5 -39t-39.5 -16z" />
    <glyph glyph-name="uni0682.medi" unicode="&#x682;" horiz-adv-x="547" 
d="M547 -5q-33 0 -62 7t-54 23.5t-44.5 46.5t-32.5 76l69 47q14 -36 32 -55.5t43 -26.5t59 -7q29 0 42 -15.5t13 -38.5q0 -25 -16 -41t-49 -16zM0 -5l9 111q47 0 90.5 7.5t85 22.5t82.5 36.5t83 49.5q-32 21 -63.5 36t-63 23.5t-67.5 8.5q-16 0 -30 -1t-27.5 -3.5
t-29.5 -5.5l-20 107q25 8 51.5 12t51.5 4q51 0 90.5 -12.5t72 -30t59.5 -35.5t52.5 -30t51.5 -12h23l12 -103q-35 -2 -66 -16.5t-62.5 -35.5t-67.5 -44t-81 -43t-102.5 -33t-133.5 -13zM160 504q-24 0 -40.5 16t-16.5 39q0 24 16.5 40.5t40.5 16.5q23 0 39 -17t16 -40
t-16.5 -39t-38.5 -16zM159 653q-24 0 -40 16t-16 39q0 24 16 40.5t40 16.5q23 0 39.5 -16.5t16.5 -40.5q0 -23 -16.5 -39t-39.5 -16z" />
    <glyph glyph-name="uni0682.fina" unicode="&#x682;" horiz-adv-x="606" 
d="M606 -5q-42 0 -82 9t-72.5 34t-54.5 73t-28 127l83 36q7 -55 21.5 -88.5t36 -50.5t48.5 -23t58 -6q28 0 41.5 -15.5t13.5 -38.5q0 -25 -16 -41t-49 -16zM344 -391q-65 0 -124.5 17.5t-105.5 53t-72.5 89.5t-26.5 127q0 59 18.5 113t52 101t79.5 86t101.5 69.5t117.5 51.5
l6 -26q-25 8 -53 19t-58.5 21t-62.5 16.5t-65 6.5q-25 0 -50.5 -4t-46.5 -10l-17 108q25 8 54.5 14t58.5 6q43 0 81 -10t72.5 -24.5t68 -29.5t67.5 -25t71 -10h19l9 -118q-43 -2 -90 -14.5t-93 -33.5t-87 -50t-72 -65.5t-49.5 -80.5t-18.5 -94q0 -51 19.5 -87.5t51.5 -59.5
t72.5 -33.5t82.5 -10.5q41 0 84 9t91 28l35 -98q-62 -30 -118.5 -41t-101.5 -11zM309 565q-24 0 -40.5 16t-16.5 39q0 24 16.5 40.5t40.5 16.5q23 0 39 -17t16 -40t-16.5 -39t-38.5 -16zM308 714q-24 0 -40 16t-16 39q0 24 16 40.5t40 16.5q23 0 39.5 -16.5t16.5 -40.5
q0 -23 -16.5 -39t-39.5 -16z" />
    <glyph glyph-name="uni0685.init" unicode="&#x685;" horiz-adv-x="536" 
d="M0 -5l9 111q47 0 90.5 7.5t85 22.5t82.5 36.5t83 49.5q-32 21 -63.5 36t-63 23.5t-67.5 8.5q-16 0 -30 -1t-27.5 -3.5t-29.5 -5.5l-20 107q25 8 51.5 12t51.5 4q51 0 90.5 -12.5t72 -30t59.5 -35.5t52.5 -30t51.5 -12h23l12 -103q-35 -2 -66 -16.5t-62.5 -35.5t-67.5 -44
t-81 -43t-102.5 -33t-133.5 -13zM152 631q-24 0 -41 17t-17 40q0 25 17 42t42 17q23 0 39.5 -17t16.5 -41q0 -25 -16.5 -41.5t-40.5 -16.5zM79 502q-24 0 -41 17t-17 40q0 24 17 41.5t41 17.5t40.5 -17.5t16.5 -41.5q0 -23 -17 -40t-40 -17zM229 502q-24 0 -41 17t-17 40
q0 25 17 42t42 17q23 0 39.5 -17t16.5 -42q0 -23 -16.5 -40t-40.5 -17z" />
    <glyph glyph-name="uni0685.medi" unicode="&#x685;" horiz-adv-x="547" 
d="M547 -5q-33 0 -62 7t-54 23.5t-44.5 46.5t-32.5 76l69 47q14 -36 32 -55.5t43 -26.5t59 -7q29 0 42 -15.5t13 -38.5q0 -25 -16 -41t-49 -16zM0 -5l9 111q47 0 90.5 7.5t85 22.5t82.5 36.5t83 49.5q-32 21 -63.5 36t-63 23.5t-67.5 8.5q-16 0 -30 -1t-27.5 -3.5
t-29.5 -5.5l-20 107q25 8 51.5 12t51.5 4q51 0 90.5 -12.5t72 -30t59.5 -35.5t52.5 -30t51.5 -12h23l12 -103q-35 -2 -66 -16.5t-62.5 -35.5t-67.5 -44t-81 -43t-102.5 -33t-133.5 -13zM163 631q-24 0 -41 17t-17 40q0 25 17 42t42 17q23 0 39.5 -17t16.5 -41
q0 -25 -16.5 -41.5t-40.5 -16.5zM90 502q-24 0 -41 17t-17 40q0 24 17 41.5t41 17.5t40.5 -17.5t16.5 -41.5q0 -23 -17 -40t-40 -17zM240 502q-24 0 -41 17t-17 40q0 25 17 42t42 17q23 0 39.5 -17t16.5 -42q0 -23 -16.5 -40t-40.5 -17z" />
    <glyph glyph-name="uni0685.fina" unicode="&#x685;" horiz-adv-x="606" 
d="M606 -5q-42 0 -82 9t-72.5 34t-54.5 73t-28 127l83 36q7 -55 21.5 -88.5t36 -50.5t48.5 -23t58 -6q28 0 41.5 -15.5t13.5 -38.5q0 -25 -16 -41t-49 -16zM344 -391q-65 0 -124.5 17.5t-105.5 53t-72.5 89.5t-26.5 127q0 59 18.5 113t52 101t79.5 86t101.5 69.5t117.5 51.5
l6 -26q-25 8 -53 19t-58.5 21t-62.5 16.5t-65 6.5q-25 0 -50.5 -4t-46.5 -10l-17 108q25 8 54.5 14t58.5 6q43 0 81 -10t72.5 -24.5t68 -29.5t67.5 -25t71 -10h19l9 -118q-43 -2 -90 -14.5t-93 -33.5t-87 -50t-72 -65.5t-49.5 -80.5t-18.5 -94q0 -51 19.5 -87.5t51.5 -59.5
t72.5 -33.5t82.5 -10.5q41 0 84 9t91 28l35 -98q-62 -30 -118.5 -41t-101.5 -11zM300 697q-24 0 -41 17t-17 40q0 25 17 42t42 17q23 0 39.5 -17t16.5 -41q0 -25 -16.5 -41.5t-40.5 -16.5zM227 568q-24 0 -41 17t-17 40q0 24 17 41.5t41 17.5t40.5 -17.5t16.5 -41.5
q0 -23 -17 -40t-40 -17zM377 568q-24 0 -41 17t-17 40q0 25 17 42t42 17q23 0 39.5 -17t16.5 -42q0 -23 -16.5 -40t-40.5 -17z" />
    <glyph glyph-name="uni0689.fina" unicode="&#x689;" horiz-adv-x="491" 
d="M194 -123q-36 0 -60 25t-24 60t24 59.5t60 24.5q35 0 59.5 -24.5t24.5 -59.5t-24.5 -60t-59.5 -25zM194 -70q14 0 24 9t10 23t-10 23.5t-24 9.5t-24 -9.5t-10 -23.5t10 -23t24 -9zM190 107q32 0 53.5 7.5t32 23.5t10.5 41q0 19 -8 45t-22.5 59.5t-37 73t-52.5 86.5
l102 61q37 -55 64.5 -109t45.5 -102t28 -87q11 -38 26 -60t33 -31t36 -9q28 0 41.5 -15.5t13.5 -38.5q0 -25 -16 -41t-49 -16t-65 11.5t-56 36t-36 64.5l40 -5q-8 -30 -29 -54.5t-56.5 -38.5t-89.5 -14q-26 0 -57 3.5t-59 11.5t-48 19l29 103q29 -11 63.5 -18t62.5 -7z" />
    <glyph glyph-name="uni068A.fina" unicode="&#x68a;" horiz-adv-x="491" 
d="M190 107q32 0 53.5 7.5t32 23.5t10.5 41q0 19 -8 45t-22.5 59.5t-37 73t-52.5 86.5l102 61q37 -55 64.5 -109t45.5 -102t28 -87q11 -38 26 -60t33 -31t36 -9q28 0 41.5 -15.5t13.5 -38.5q0 -25 -16 -41t-49 -16t-65 11.5t-56 36t-36 64.5l40 -5q-8 -30 -29 -54.5
t-56.5 -38.5t-89.5 -14q-26 0 -57 3.5t-59 11.5t-48 19l29 103q29 -11 63.5 -18t62.5 -7zM181 -214q-26 0 -43 17t-17 41t17 42t43 18q24 0 41 -18t17 -42t-17.5 -41t-40.5 -17z" />
    <glyph glyph-name="uni068B.fina" unicode="&#x68b;" horiz-adv-x="491" 
d="M190 107q32 0 53.5 7.5t32 23.5t10.5 41q0 19 -8 45t-22.5 59.5t-37 73t-52.5 86.5l102 61q37 -55 64.5 -109t45.5 -102t28 -87q11 -38 26 -60t33 -31t36 -9q28 0 41.5 -15.5t13.5 -38.5q0 -25 -16 -41t-49 -16t-65 11.5t-56 36t-36 64.5l40 -5q-8 -30 -29 -54.5
t-56.5 -38.5t-89.5 -14q-26 0 -57 3.5t-59 11.5t-48 19l29 103q29 -11 63.5 -18t62.5 -7zM200 617q-17 0 -40 1.5t-43.5 3.5t-30.5 3l3 55q18 -3 48.5 -5t56.5 -2q35 0 54.5 5t28.5 14t9 19q0 12 -8 19t-21 7q-18 0 -35.5 -12.5t-31.5 -29t-21 -29.5l-55 8q17 34 41.5 61
t52.5 43.5t57 16.5q35 0 56.5 -23t21.5 -57q0 -20 -11.5 -43t-42 -39t-89.5 -16zM134 683l-6 181h55l7 -159zM181 -214q-26 0 -43 17t-17 41t17 42t43 18q24 0 41 -18t17 -42t-17.5 -41t-40.5 -17z" />
    <glyph glyph-name="uni068F.fina" unicode="&#x68f;" horiz-adv-x="491" 
d="M190 107q32 0 53.5 7.5t32 23.5t10.5 41q0 19 -8 45t-22.5 59.5t-37 73t-52.5 86.5l102 61q37 -55 64.5 -109t45.5 -102t28 -87q11 -38 26 -60t33 -31t36 -9q28 0 41.5 -15.5t13.5 -38.5q0 -25 -16 -41t-49 -16t-65 11.5t-56 36t-36 64.5l40 -5q-8 -30 -29 -54.5
t-56.5 -38.5t-89.5 -14q-26 0 -57 3.5t-59 11.5t-48 19l29 103q29 -11 63.5 -18t62.5 -7zM213 605q-24 0 -40.5 16t-16.5 39q0 24 16.5 41t40.5 17q23 0 39 -17.5t16 -40.5t-16.5 -39t-38.5 -16zM139 733q-23 0 -40 16t-17 39q0 24 16.5 41t40.5 17q23 0 39.5 -17.5
t16.5 -40.5t-16.5 -39t-39.5 -16zM289 733q-24 0 -40.5 16t-16.5 39q0 24 16.5 41t40.5 17q22 0 38.5 -17.5t16.5 -40.5t-16.5 -39t-38.5 -16z" />
    <glyph glyph-name="uni0690.fina" unicode="&#x690;" horiz-adv-x="491" 
d="M190 107q32 0 53.5 7.5t32 23.5t10.5 41q0 19 -8 45t-22.5 59.5t-37 73t-52.5 86.5l102 61q37 -55 64.5 -109t45.5 -102t28 -87q11 -38 26 -60t33 -31t36 -9q28 0 41.5 -15.5t13.5 -38.5q0 -25 -16 -41t-49 -16t-65 11.5t-56 36t-36 64.5l40 -5q-8 -30 -29 -54.5
t-56.5 -38.5t-89.5 -14q-26 0 -57 3.5t-59 11.5t-48 19l29 103q29 -11 63.5 -18t62.5 -7zM124 720q-23 0 -38.5 15.5t-15.5 36.5q0 22 15.5 38t38.5 16q21 0 36.5 -16t15.5 -38q0 -21 -15.5 -36.5t-36.5 -15.5zM124 587q-23 0 -38.5 15.5t-15.5 36.5q0 22 15.5 38t38.5 16
q21 0 36.5 -16t15.5 -38q0 -21 -15.5 -36.5t-36.5 -15.5zM259 721q-23 0 -38.5 15.5t-15.5 36.5q0 22 15.5 38t38.5 16q21 0 36.5 -16t15.5 -38q0 -21 -15 -36.5t-37 -15.5zM259 587q-23 0 -38.5 15.5t-15.5 36.5q0 22 15.5 38t38.5 16q21 0 36.5 -16t15.5 -38
q0 -21 -15 -36.5t-37 -15.5z" />
    <glyph glyph-name="uni0692.fina" unicode="&#x692;" horiz-adv-x="357" 
d="M24 -230l-58 103q52 26 89 55t61 60t34.5 62.5t10.5 63.5q0 45 -18.5 94.5t-48.5 104.5l107 53q17 -31 29.5 -63t22.5 -60.5t15 -49.5q14 -51 38 -69t61 -18q29 0 42 -15.5t13 -38.5q0 -25 -16 -41t-49 -16t-59 12.5t-42.5 36t-23.5 54.5l40 11q-2 -54 -19 -103.5
t-49.5 -93t-78 -79.5t-101.5 -63zM106 479q-7 14 -17 38t-21.5 52t-22 53t-18.5 40l50 23q5 -10 14 -31t20 -45.5t21 -47.5t17 -37l19 -40zM168 484l-46 19q5 16 15.5 43.5t21.5 57t20 52.5t12 30l49 -17q-4 -10 -13.5 -34t-21 -53.5t-22 -56t-15.5 -41.5z" />
    <glyph glyph-name="uni0693.fina" unicode="&#x693;" horiz-adv-x="357" 
d="M210 -218q-35 0 -59.5 24.5t-24.5 59.5t24.5 60t59.5 25q36 0 60 -25t24 -60t-24 -59.5t-60 -24.5zM210 -166q14 0 24 9t10 23q0 15 -10 24t-24 9t-23.5 -9.5t-9.5 -23.5t9.5 -23t23.5 -9zM24 -230l-58 103q52 26 89 55t61 60t34.5 62.5t10.5 63.5q0 45 -18.5 94.5
t-48.5 104.5l107 53q17 -31 29.5 -63t22.5 -60.5t15 -49.5q14 -51 38 -69t61 -18q29 0 42 -15.5t13 -38.5q0 -25 -16 -41t-49 -16t-59 12.5t-42.5 36t-23.5 54.5l40 11q-2 -54 -19 -103.5t-49.5 -93t-78 -79.5t-101.5 -63z" />
    <glyph glyph-name="uni0694.fina" unicode="&#x694;" horiz-adv-x="357" 
d="M24 -230l-58 103q52 26 89 55t61 60t34.5 62.5t10.5 63.5q0 45 -18.5 94.5t-48.5 104.5l107 53q17 -31 29.5 -63t22.5 -60.5t15 -49.5q14 -51 38 -69t61 -18q29 0 42 -15.5t13 -38.5q0 -25 -16 -41t-49 -16t-59 12.5t-42.5 36t-23.5 54.5l40 11q-2 -54 -19 -103.5
t-49.5 -93t-78 -79.5t-101.5 -63zM145 -417q-26 0 -43 17t-17 41t17 42t43 18q24 0 41 -18t17 -42t-17.5 -41t-40.5 -17z" />
    <glyph glyph-name="uni0695.fina" unicode="&#x695;" horiz-adv-x="357" 
d="M12 -39q-7 16 -19.5 41t-25.5 50.5t-22 42.5l40 21q5 -8 12.5 -23.5t16.5 -33t16.5 -34.5t13.5 -28l15 -31zM59 -34l-39 14q5 14 13.5 34.5t17 42t16 38.5t11.5 23l39 -17q-4 -7 -11.5 -24.5l-16.5 -38.5t-17 -40.5t-13 -31.5zM24 -230l-58 103q52 26 89 55t61 60
t34.5 62.5t10.5 63.5q0 45 -18.5 94.5t-48.5 104.5l107 53q17 -31 29.5 -63t22.5 -60.5t15 -49.5q14 -51 38 -69t61 -18q29 0 42 -15.5t13 -38.5q0 -25 -16 -41t-49 -16t-59 12.5t-42.5 36t-23.5 54.5l40 11q-2 -54 -19 -103.5t-49.5 -93t-78 -79.5t-101.5 -63z" />
    <glyph glyph-name="uni0696.fina" unicode="&#x696;" horiz-adv-x="357" 
d="M24 -230l-58 103q52 26 89 55t61 60t34.5 62.5t10.5 63.5q0 45 -18.5 94.5t-48.5 104.5l107 53q17 -31 29.5 -63t22.5 -60.5t15 -49.5q14 -51 38 -69t61 -18q29 0 42 -15.5t13 -38.5q0 -25 -16 -41t-49 -16t-59 12.5t-42.5 36t-23.5 54.5l40 11q-2 -54 -19 -103.5
t-49.5 -93t-78 -79.5t-101.5 -63zM43 6q-25 0 -42.5 17t-17.5 42t17.5 43t43.5 18q24 0 41 -18t17 -43t-17.5 -42t-41.5 -17zM123 -417q-26 0 -43 17t-17 41t17 42t43 18q24 0 41 -18t17 -42t-17.5 -41t-40.5 -17z" />
    <glyph glyph-name="uni0697.fina" unicode="&#x697;" horiz-adv-x="357" 
d="M24 -230l-58 103q52 26 89 55t61 60t34.5 62.5t10.5 63.5q0 45 -18.5 94.5t-48.5 104.5l107 53q17 -31 29.5 -63t22.5 -60.5t15 -49.5q14 -51 38 -69t61 -18q29 0 42 -15.5t13 -38.5q0 -25 -16 -41t-49 -16t-59 12.5t-42.5 36t-23.5 54.5l40 11q-2 -54 -19 -103.5
t-49.5 -93t-78 -79.5t-101.5 -63zM241 478q-25 0 -42 17t-17 41t17 42t42 18q24 0 41 -18t17 -42t-17 -41t-41 -17zM89 478q-26 0 -43 17t-17 41t17 42t42 18q24 0 41 -18t17 -42t-17 -41t-40 -17z" />
    <glyph glyph-name="uni0699.fina" unicode="&#x699;" horiz-adv-x="357" 
d="M24 -230l-58 103q52 26 89 55t61 60t34.5 62.5t10.5 63.5q0 45 -18.5 94.5t-48.5 104.5l107 53q17 -31 29.5 -63t22.5 -60.5t15 -49.5q14 -51 38 -69t61 -18q29 0 42 -15.5t13 -38.5q0 -25 -16 -41t-49 -16t-59 12.5t-42.5 36t-23.5 54.5l40 11q-2 -54 -19 -103.5
t-49.5 -93t-78 -79.5t-101.5 -63zM72 610q-23 0 -38.5 15.5t-15.5 36.5q0 22 15.5 38t38.5 16q21 0 36.5 -16t15.5 -38q0 -21 -15.5 -36.5t-36.5 -15.5zM72 477q-23 0 -38.5 15.5t-15.5 36.5q0 22 15.5 38t38.5 16q21 0 36.5 -16t15.5 -38q0 -21 -15.5 -36.5t-36.5 -15.5z
M207 611q-23 0 -38.5 15.5t-15.5 36.5q0 22 15.5 38t38.5 16q21 0 36.5 -16t15.5 -38q0 -21 -15 -36.5t-37 -15.5zM207 477q-23 0 -38.5 15.5t-15.5 36.5q0 22 15.5 38t38.5 16q21 0 36.5 -16t15.5 -38q0 -21 -15 -36.5t-37 -15.5z" />
    <glyph glyph-name="uni069A.init" unicode="&#x69a;" horiz-adv-x="801" 
d="M0 -5l10 111q29 0 47 5.5t30.5 25.5t23.5 61.5t25 112.5l103 -21q-4 -22 -8.5 -43t-7.5 -40.5t-3 -39.5q0 -29 14 -45t56 -16q23 0 38 6t26.5 26.5t21 63.5t19.5 116l106 -17q-3 -21 -7.5 -47t-7.5 -50t-3 -40t6.5 -29.5t23 -21t45.5 -7.5q27 0 45 8.5t27.5 26.5t9.5 46
q0 42 -17 101t-40 122l110 36q15 -39 27.5 -85t21 -90.5t8.5 -80.5q0 -47 -14.5 -83.5t-40 -61.5t-59.5 -37.5t-75 -12.5t-70 11.5t-46.5 37t-23.5 68.5h30q-18 -51 -40.5 -76t-52.5 -33t-71 -8q-28 0 -57.5 8t-51.5 34t-30 78l45 4q-20 -55 -48 -81.5t-64.5 -34.5t-80.5 -8
zM391 -214q-26 0 -43 17t-17 41t17 42t43 18q24 0 41 -18t17 -42t-17.5 -41t-40.5 -17zM433 469q-25 0 -42.5 17t-17.5 42t17.5 43t43.5 18q24 0 41 -18t17 -43t-17.5 -42t-41.5 -17z" />
    <glyph glyph-name="uni069A.medi" unicode="&#x69a;" horiz-adv-x="836" 
d="M0 -5l10 111q27 0 44.5 5.5t29.5 25.5t23 61.5t25 112.5l104 -21q-5 -23 -12 -58t-7 -62q0 -19 5 -33.5t20 -22.5t46 -8q22 0 37 6t26.5 26.5t21 63.5t20.5 116l106 -17q-4 -22 -8 -48t-7.5 -50t-3.5 -40q0 -18 6 -31t23 -19.5t48 -6.5q37 0 56.5 19.5t19.5 68.5
q0 23 -1 50t-3.5 59.5t-8.5 74.5l106 8q6 -86 14 -141t20 -85t33 -42t53 -12q28 0 41.5 -15.5t13.5 -38.5q0 -25 -16 -41t-49 -16q-25 0 -49.5 7t-45 22t-36.5 39t-26 58l22 -5q-10 -46 -32 -72.5t-52 -37.5t-66 -11q-38 0 -67 11.5t-46.5 37.5t-18.5 68h29
q-17 -49 -38.5 -74.5t-52 -34t-74.5 -8.5q-28 0 -57.5 8.5t-52 34t-29.5 77.5l45 4q-21 -56 -48 -82.5t-61.5 -34t-79.5 -7.5zM385 -214q-26 0 -43 17t-17 41t17 42t43 18q24 0 41 -18t17 -42t-17.5 -41t-40.5 -17zM428 469q-25 0 -42.5 17t-17.5 42t17.5 43t43.5 18
q24 0 41 -18t17 -43t-17.5 -42t-41.5 -17z" />
    <glyph glyph-name="uni069A.fina" unicode="&#x69a;" horiz-adv-x="1186" 
d="M297 -232q-55 0 -102.5 15.5t-83.5 45t-56 74t-20 103.5q0 21 3.5 50.5t15 69t35.5 88.5l98 -39q-14 -33 -22.5 -59.5t-12.5 -49t-4 -47.5q0 -44 18.5 -75.5t53.5 -48t82 -16.5q49 0 81 13.5t50 37t25 53t7 61.5q0 40 -6 78.5t-17.5 79.5t-26.5 89l113 30
q14 -58 22 -87.5t13 -45.5q10 -34 21.5 -52t26.5 -24t35 -6q18 0 31.5 6t25.5 26.5t21.5 63.5t18.5 117l106 -18q-3 -22 -7.5 -48t-7.5 -50t-3 -40q0 -15 6.5 -28t23 -21t46.5 -8q36 0 56.5 22.5t20.5 65.5q0 23 -1 50t-4 59.5t-8 74.5l106 8q7 -90 15.5 -145.5t21 -85
t33 -39.5t50.5 -10q28 0 41.5 -15.5t13.5 -38.5q0 -25 -16 -41t-49 -16q-32 0 -64 11.5t-57.5 39t-37.5 75.5l27 -6q-13 -48 -37.5 -74t-54 -36t-57.5 -10q-39 0 -69.5 13t-48 39.5t-19.5 66.5h30q-16 -47 -37.5 -73t-47.5 -36t-59 -10q-21 0 -40.5 6t-35 18t-25.5 30
t-14 42l35 -47q0 -59 -18 -109.5t-54 -88t-87.5 -58t-118.5 -20.5zM781 -209q-26 0 -43 17t-17 41t17 42t43 18q24 0 41 -18t17 -42t-17.5 -41t-40.5 -17zM740 469q-25 0 -42.5 17t-17.5 42t17.5 43t43.5 18q24 0 41 -18t17 -43t-17.5 -42t-41.5 -17z" />
    <glyph glyph-name="uni069B.init" unicode="&#x69b;" horiz-adv-x="801" 
d="M0 -5l10 111q29 0 47 5.5t30.5 25.5t23.5 61.5t25 112.5l103 -21q-4 -22 -8.5 -43t-7.5 -40.5t-3 -39.5q0 -29 14 -45t56 -16q23 0 38 6t26.5 26.5t21 63.5t19.5 116l106 -17q-3 -21 -7.5 -47t-7.5 -50t-3 -40t6.5 -29.5t23 -21t45.5 -7.5q27 0 45 8.5t27.5 26.5t9.5 46
q0 42 -17 101t-40 122l110 36q15 -39 27.5 -85t21 -90.5t8.5 -80.5q0 -47 -14.5 -83.5t-40 -61.5t-59.5 -37.5t-75 -12.5t-70 11.5t-46.5 37t-23.5 68.5h30q-18 -51 -40.5 -76t-52.5 -33t-71 -8q-28 0 -57.5 8t-51.5 34t-30 78l45 4q-20 -55 -48 -81.5t-64.5 -34.5t-80.5 -8
zM392 -337q-23 0 -40 16t-17 39q0 24 17 41t40 17t39.5 -17.5t16.5 -40.5t-16.5 -39t-39.5 -16zM319 -209q-24 0 -40.5 16t-16.5 39q0 24 16.5 41t40.5 17q22 0 38.5 -17.5t16.5 -39.5q0 -24 -16.5 -40t-38.5 -16zM468 -209q-24 0 -40.5 16t-16.5 39q0 24 16.5 41t40.5 17
q23 0 39 -17.5t16 -39.5q0 -24 -16 -40t-39 -16z" />
    <glyph glyph-name="uni069B.medi" unicode="&#x69b;" horiz-adv-x="836" 
d="M0 -5l10 111q27 0 44.5 5.5t29.5 25.5t23 61.5t25 112.5l104 -21q-5 -23 -12 -58t-7 -62q0 -19 5 -33.5t20 -22.5t46 -8q22 0 37 6t26.5 26.5t21 63.5t20.5 116l106 -17q-4 -22 -8 -48t-7.5 -50t-3.5 -40q0 -18 6 -31t23 -19.5t48 -6.5q37 0 56.5 19.5t19.5 68.5
q0 23 -1 50t-3.5 59.5t-8.5 74.5l106 8q6 -86 14 -141t20 -85t33 -42t53 -12q28 0 41.5 -15.5t13.5 -38.5q0 -25 -16 -41t-49 -16q-25 0 -49.5 7t-45 22t-36.5 39t-26 58l22 -5q-10 -46 -32 -72.5t-52 -37.5t-66 -11q-38 0 -67 11.5t-46.5 37.5t-18.5 68h29
q-17 -49 -38.5 -74.5t-52 -34t-74.5 -8.5q-28 0 -57.5 8.5t-52 34t-29.5 77.5l45 4q-21 -56 -48 -82.5t-61.5 -34t-79.5 -7.5zM386 -337q-23 0 -40 16t-17 39q0 24 17 41t40 17t39.5 -17.5t16.5 -40.5t-16.5 -39t-39.5 -16zM313 -209q-24 0 -40.5 16t-16.5 39q0 24 16.5 41
t40.5 17q22 0 38.5 -17.5t16.5 -39.5q0 -24 -16.5 -40t-38.5 -16zM462 -209q-24 0 -40.5 16t-16.5 39q0 24 16.5 41t40.5 17q23 0 39 -17.5t16 -39.5q0 -24 -16 -40t-39 -16z" />
    <glyph glyph-name="uni069B.fina" unicode="&#x69b;" horiz-adv-x="1186" 
d="M297 -232q-55 0 -102.5 15.5t-83.5 45t-56 74t-20 103.5q0 21 3.5 50.5t15 69t35.5 88.5l98 -39q-14 -33 -22.5 -59.5t-12.5 -49t-4 -47.5q0 -44 18.5 -75.5t53.5 -48t82 -16.5q49 0 81 13.5t50 37t25 53t7 61.5q0 40 -6 78.5t-17.5 79.5t-26.5 89l113 30
q14 -58 22 -87.5t13 -45.5q10 -34 21.5 -52t26.5 -24t35 -6q18 0 31.5 6t25.5 26.5t21.5 63.5t18.5 117l106 -18q-3 -22 -7.5 -48t-7.5 -50t-3 -40q0 -15 6.5 -28t23 -21t46.5 -8q36 0 56.5 22.5t20.5 65.5q0 23 -1 50t-4 59.5t-8 74.5l106 8q7 -90 15.5 -145.5t21 -85
t33 -39.5t50.5 -10q28 0 41.5 -15.5t13.5 -38.5q0 -25 -16 -41t-49 -16q-32 0 -64 11.5t-57.5 39t-37.5 75.5l27 -6q-13 -48 -37.5 -74t-54 -36t-57.5 -10q-39 0 -69.5 13t-48 39.5t-19.5 66.5h30q-16 -47 -37.5 -73t-47.5 -36t-59 -10q-21 0 -40.5 6t-35 18t-25.5 30
t-14 42l35 -47q0 -59 -18 -109.5t-54 -88t-87.5 -58t-118.5 -20.5zM672 -371q-23 0 -40 16t-17 39q0 24 17 41t40 17t39.5 -17.5t16.5 -40.5t-16.5 -39t-39.5 -16zM599 -243q-24 0 -40.5 16t-16.5 39q0 24 16.5 41t40.5 17q22 0 38.5 -17.5t16.5 -39.5q0 -24 -16.5 -40
t-38.5 -16zM748 -243q-24 0 -40.5 16t-16.5 39q0 24 16.5 41t40.5 17q23 0 39 -17.5t16 -39.5q0 -24 -16 -40t-39 -16z" />
    <glyph glyph-name="uni069D.init" unicode="&#x69d;" horiz-adv-x="849" 
d="M451 -16q-80 0 -133.5 7.5t-87.5 21t-54 34t-31 47.5l27 7q-23 -44 -51 -67t-58.5 -31t-62.5 -8l10 111q27 0 43 9.5t26.5 32t20 62.5t25.5 99l105 -27q-7 -25 -11.5 -45.5t-7 -35.5t-2.5 -25q0 -21 8.5 -36.5t33 -25t71.5 -14t123 -4.5q69 0 118 8t79 23t44 37t14 49
q0 21 -9 39t-27 29.5t-45 11.5q-34 0 -68.5 -19.5t-67.5 -51t-61 -68t-50 -69.5l-116 10q35 61 77.5 116.5t91 100t100 70t104.5 25.5q55 0 96 -24t63.5 -66t22.5 -97q0 -68 -37.5 -121t-117 -84t-205.5 -31zM525 -224q-25 0 -42.5 17t-17.5 41t17 42t43 18q24 0 41 -18
t17 -42t-17.5 -41t-40.5 -17zM372 -224q-25 0 -42.5 17t-17.5 41t17 42t43 18q24 0 41 -18t17 -42t-17.5 -41t-40.5 -17z" />
    <glyph glyph-name="uni069D.medi" unicode="&#x69d;" horiz-adv-x="875" 
d="M875 -5q-35 0 -71 9t-66.5 25t-51.5 35l79 69q26 -14 56 -20.5t64 -6.5q28 0 41.5 -15.5t13.5 -38.5q0 -25 -16 -41t-49 -16zM451 -16q-80 0 -133.5 7.5t-87.5 21t-54 34t-31 47.5l27 7q-23 -44 -51 -67t-58.5 -31t-62.5 -8l10 111q27 0 43 9.5t26.5 32t20 62.5t25.5 99
l105 -27q-7 -25 -11.5 -45.5t-7 -35.5t-2.5 -25q0 -21 8.5 -36.5t33 -25t71.5 -14t123 -4.5q69 0 118 8t79 23t44 37t14 49q0 21 -9 39t-27 29.5t-45 11.5q-34 0 -68.5 -19.5t-67.5 -51t-61 -68t-50 -69.5l-116 10q35 61 77.5 116.5t91 100t100 70t104.5 25.5q55 0 96 -24
t63.5 -66t22.5 -97q0 -68 -37.5 -121t-117 -84t-205.5 -31zM525 -224q-25 0 -42.5 17t-17.5 41t17 42t43 18q24 0 41 -18t17 -42t-17.5 -41t-40.5 -17zM372 -224q-25 0 -42.5 17t-17.5 41t17 42t43 18q24 0 41 -18t17 -42t-17.5 -41t-40.5 -17z" />
    <glyph glyph-name="uni069D.fina" unicode="&#x69d;" horiz-adv-x="1239" 
d="M1239 -5q-35 0 -71 9t-66.5 25t-51.5 35l79 69q26 -14 56 -20.5t64 -6.5q28 0 41.5 -15.5t13.5 -38.5q0 -25 -16.5 -41t-48.5 -16zM294 -232q-53 0 -99.5 15t-82.5 45.5t-56.5 75.5t-20.5 104q0 22 4 51t15.5 67.5t34.5 87.5l98 -39q-14 -33 -22.5 -59t-12.5 -49t-4 -47
q0 -45 19.5 -76.5t53.5 -48t80 -16.5t77.5 12.5t50.5 35t27.5 53.5t8.5 69q0 58 -15 117t-34 125l113 31q10 -39 16 -64.5t10.5 -42t8.5 -27.5q8 -21 23 -37.5t42.5 -28.5t73 -17.5t113.5 -5.5q52 0 92.5 5t70 14.5t48.5 24t28.5 32.5t9.5 41q0 21 -9 39t-27 29.5t-45 11.5
q-32 0 -65.5 -18t-66 -48t-61.5 -66.5t-55 -74.5l-113 12q23 40 53.5 83t67 83.5t77 72.5t84.5 51.5t89 19.5q54 0 95 -24.5t64.5 -66.5t23.5 -97q0 -52 -21.5 -95t-65 -74.5t-111 -49t-159.5 -17.5q-57 0 -106.5 8t-87.5 22.5t-61.5 33t-29.5 39.5l41 -41q0 -58 -17.5 -109
t-52.5 -89.5t-88 -60.5t-124 -22zM900 -221q-25 0 -42.5 17t-17.5 41t17 42t43 18q24 0 41 -18t17 -42t-17.5 -41t-40.5 -17zM747 -221q-25 0 -42.5 17t-17.5 41t17 42t43 18q24 0 41 -18t17 -42t-17.5 -41t-40.5 -17z" />
    <glyph glyph-name="uni069E.init" unicode="&#x69e;" horiz-adv-x="849" 
d="M451 -16q-80 0 -133.5 7.5t-87.5 21t-54 34t-31 47.5l27 7q-23 -44 -51 -67t-58.5 -31t-62.5 -8l10 111q27 0 43 9.5t26.5 32t20 62.5t25.5 99l105 -27q-7 -25 -11.5 -45.5t-7 -35.5t-2.5 -25q0 -21 8.5 -36.5t33 -25t71.5 -14t123 -4.5q69 0 118 8t79 23t44 37t14 49
q0 21 -9 39t-27 29.5t-45 11.5q-34 0 -68.5 -19.5t-67.5 -51t-61 -68t-50 -69.5l-116 10q35 61 77.5 116.5t91 100t100 70t104.5 25.5q55 0 96 -24t63.5 -66t22.5 -97q0 -68 -37.5 -121t-117 -84t-205.5 -31zM601 636q-24 0 -41 17t-17 40q0 25 17 42t42 17q23 0 39.5 -17
t16.5 -41q0 -25 -16.5 -41.5t-40.5 -16.5zM528 507q-24 0 -41 17t-17 40q0 24 17 41.5t41 17.5t40.5 -17.5t16.5 -41.5q0 -23 -17 -40t-40 -17zM678 507q-24 0 -41 17t-17 40q0 25 17 42t42 17q23 0 39.5 -17t16.5 -42q0 -23 -16.5 -40t-40.5 -17z" />
    <glyph glyph-name="uni069E.medi" unicode="&#x69e;" horiz-adv-x="875" 
d="M875 -5q-35 0 -71 9t-66.5 25t-51.5 35l79 69q26 -14 56 -20.5t64 -6.5q28 0 41.5 -15.5t13.5 -38.5q0 -25 -16 -41t-49 -16zM451 -16q-80 0 -133.5 7.5t-87.5 21t-54 34t-31 47.5l27 7q-23 -44 -51 -67t-58.5 -31t-62.5 -8l10 111q27 0 43 9.5t26.5 32t20 62.5t25.5 99
l105 -27q-7 -25 -11.5 -45.5t-7 -35.5t-2.5 -25q0 -21 8.5 -36.5t33 -25t71.5 -14t123 -4.5q69 0 118 8t79 23t44 37t14 49q0 21 -9 39t-27 29.5t-45 11.5q-34 0 -68.5 -19.5t-67.5 -51t-61 -68t-50 -69.5l-116 10q35 61 77.5 116.5t91 100t100 70t104.5 25.5q55 0 96 -24
t63.5 -66t22.5 -97q0 -68 -37.5 -121t-117 -84t-205.5 -31zM601 636q-24 0 -41 17t-17 40q0 25 17 42t42 17q23 0 39.5 -17t16.5 -41q0 -25 -16.5 -41.5t-40.5 -16.5zM528 507q-24 0 -41 17t-17 40q0 24 17 41.5t41 17.5t40.5 -17.5t16.5 -41.5q0 -23 -17 -40t-40 -17z
M678 507q-24 0 -41 17t-17 40q0 25 17 42t42 17q23 0 39.5 -17t16.5 -42q0 -23 -16.5 -40t-40.5 -17z" />
    <glyph glyph-name="uni069E.fina" unicode="&#x69e;" horiz-adv-x="1239" 
d="M1239 -5q-35 0 -71 9t-66.5 25t-51.5 35l79 69q26 -14 56 -20.5t64 -6.5q28 0 41.5 -15.5t13.5 -38.5q0 -25 -16.5 -41t-48.5 -16zM294 -232q-53 0 -99.5 15t-82.5 45.5t-56.5 75.5t-20.5 104q0 22 4 51t15.5 67.5t34.5 87.5l98 -39q-14 -33 -22.5 -59t-12.5 -49t-4 -47
q0 -45 19.5 -76.5t53.5 -48t80 -16.5t77.5 12.5t50.5 35t27.5 53.5t8.5 69q0 58 -15 117t-34 125l113 31q10 -39 16 -64.5t10.5 -42t8.5 -27.5q8 -21 23 -37.5t42.5 -28.5t73 -17.5t113.5 -5.5q52 0 92.5 5t70 14.5t48.5 24t28.5 32.5t9.5 41q0 21 -9 39t-27 29.5t-45 11.5
q-32 0 -65.5 -18t-66 -48t-61.5 -66.5t-55 -74.5l-113 12q23 40 53.5 83t67 83.5t77 72.5t84.5 51.5t89 19.5q54 0 95 -24.5t64.5 -66.5t23.5 -97q0 -52 -21.5 -95t-65 -74.5t-111 -49t-159.5 -17.5q-57 0 -106.5 8t-87.5 22.5t-61.5 33t-29.5 39.5l41 -41q0 -58 -17.5 -109
t-52.5 -89.5t-88 -60.5t-124 -22zM963 639q-24 0 -41 17t-17 40q0 25 17 42t42 17q23 0 39.5 -17t16.5 -41q0 -25 -16.5 -41.5t-40.5 -16.5zM890 510q-24 0 -41 17t-17 40q0 24 17 41.5t41 17.5t40.5 -17.5t16.5 -41.5q0 -23 -17 -40t-40 -17zM1040 510q-24 0 -41 17t-17 40
q0 25 17 42t42 17q23 0 39.5 -17t16.5 -42q0 -23 -16.5 -40t-40.5 -17z" />
    <glyph glyph-name="uni069F.init" unicode="&#x69f;" horiz-adv-x="646" 
d="M0 -5l9 111h207q72 0 124.5 7t87 21t52 36t17.5 51q0 20 -9 38t-26.5 29.5t-44.5 11.5q-36 0 -70.5 -19.5t-67 -50.5t-61.5 -68t-53 -72l-117 9q37 62 80 119t91 101t100 69.5t106 25.5q55 0 96 -24.5t64 -66.5t23 -96q0 -63 -34 -111.5t-103 -78.5q-31 -14 -71 -23
t-89 -14t-108 -5h-203zM100 98l-20 625h114l18 -501zM406 634q-24 0 -41 17t-17 40q0 25 17 42t42 17q23 0 39.5 -17t16.5 -41q0 -25 -16.5 -41.5t-40.5 -16.5zM333 505q-24 0 -41 17t-17 40q0 24 17 41.5t41 17.5t40.5 -17.5t16.5 -41.5q0 -23 -17 -40t-40 -17zM483 505
q-24 0 -41 17t-17 40q0 25 17 42t42 17q23 0 39.5 -17t16.5 -42q0 -23 -16.5 -40t-40.5 -17z" />
    <glyph glyph-name="uni069F.medi" unicode="&#x69f;" horiz-adv-x="659" 
d="M660 -5q-35 0 -71.5 9t-67 25t-50.5 35l79 69q25 -14 55.5 -20.5t63.5 -6.5q29 0 42.5 -15.5t13.5 -38.5q0 -25 -16.5 -41t-48.5 -16zM0 -5l9 111h207q72 0 124.5 7t87 21t52 36t17.5 51q0 20 -9 38t-26.5 29.5t-44.5 11.5q-36 0 -70.5 -19.5t-67 -50.5t-61.5 -68
t-53 -72l-117 9q37 62 80 119t91 101t100 69.5t106 25.5q55 0 96 -24.5t64 -66.5t23 -96q0 -63 -34 -111.5t-103 -78.5q-31 -14 -71 -23t-89 -14t-108 -5h-203zM100 98l-20 625h114l18 -501zM406 634q-24 0 -41 17t-17 40q0 25 17 42t42 17q23 0 39.5 -17t16.5 -41
q0 -25 -16.5 -41.5t-40.5 -16.5zM333 505q-24 0 -41 17t-17 40q0 24 17 41.5t41 17.5t40.5 -17.5t16.5 -41.5q0 -23 -17 -40t-40 -17zM483 505q-24 0 -41 17t-17 40q0 25 17 42t42 17q23 0 39.5 -17t16.5 -42q0 -23 -16.5 -40t-40.5 -17z" />
    <glyph glyph-name="uni069F.fina" unicode="&#x69f;" horiz-adv-x="744" 
d="M744 -5q-35 0 -71 9t-67 25t-51 35l79 69q26 -14 56 -20.5t64 -6.5q28 0 41.5 -15.5t13.5 -38.5q0 -25 -16.5 -41t-48.5 -16zM331 -13q-42 0 -86 1.5t-86 4t-79 6t-65 7.5l13 110q40 -4 76 -7.5t71 -5.5t72.5 -3t80.5 -1q65 0 112 7.5t77.5 22t45.5 36.5t15 50
q0 21 -9 39t-27 30t-46 12q-33 0 -67.5 -19.5t-67.5 -51.5t-61.5 -68t-50.5 -69l-117 11q35 60 78.5 116t92 100t100 69.5t103.5 25.5q53 0 94.5 -23.5t65 -65.5t23.5 -99q0 -69 -38.5 -122t-118 -83t-201.5 -30zM183 98l-20 625h114l18 -501zM492 630q-24 0 -41 17t-17 40
q0 25 17 42t42 17q23 0 39.5 -17t16.5 -41q0 -25 -16.5 -41.5t-40.5 -16.5zM419 501q-24 0 -41 17t-17 40q0 24 17 41.5t41 17.5t40.5 -17.5t16.5 -41.5q0 -23 -17 -40t-40 -17zM569 501q-24 0 -41 17t-17 40q0 25 17 42t42 17q23 0 39.5 -17t16.5 -42q0 -23 -16.5 -40
t-40.5 -17z" />
    <glyph glyph-name="uni06A0.init" unicode="&#x6a0;" horiz-adv-x="473" 
d="M0 -5l10 111q36 0 60 1t43 3t37 5q-17 11 -37.5 33.5t-35.5 56.5t-15 78q0 60 27.5 102.5t74 65.5t103.5 23q24 0 45.5 -3t46.5 -11l-18 -102q-18 4 -33.5 6t-31.5 2q-29 0 -51.5 -11t-36 -31.5t-13.5 -49.5q0 -22 8.5 -41.5t22.5 -35.5t30 -27t31.5 -18t26.5 -8
q15 4 25 6.5t20.5 6t25.5 10t39 16.5l36 -96q-68 -32 -137 -52.5t-143.5 -30t-159.5 -9.5zM237 703q-24 0 -41 17t-17 40q0 25 17 42t42 17q23 0 39.5 -17t16.5 -41q0 -25 -16.5 -41.5t-40.5 -16.5zM164 574q-24 0 -41 17t-17 40q0 24 17 41.5t41 17.5t40.5 -17.5
t16.5 -41.5q0 -23 -17 -40t-40 -17zM314 574q-24 0 -41 17t-17 40q0 25 17 42t42 17q23 0 39.5 -17t16.5 -42q0 -23 -16.5 -40t-40.5 -17z" />
    <glyph glyph-name="uni06A0.medi" unicode="&#x6a0;" horiz-adv-x="486" 
d="M-1 -5l10 111q58 0 107 11.5t88.5 31t67 44t42 51.5t14.5 52q0 16 -9 27.5t-25 17.5t-38 6q-17 0 -37 -4.5t-39.5 -13.5t-34.5 -22q22 -20 43.5 -43t42.5 -48t41 -53q19 -13 43 -24t53 -18t61.5 -11t67.5 -4q27 0 41 -15t14 -39q0 -26 -17.5 -41.5t-47.5 -15.5
q-59 0 -109.5 9.5t-94.5 30t-85 53.5q-23 31 -46 58t-44.5 50.5t-41.5 42.5q-4 4 -8.5 17t-7.5 27.5t-3 21.5q0 22 18.5 47.5t49.5 47t70 35.5t81 14q50 0 88 -15t59.5 -44.5t21.5 -74.5q0 -49 -21.5 -96t-61 -87.5t-93.5 -71t-120 -48t-140 -17.5zM257 678q-24 0 -41 17
t-17 40q0 25 17 42t42 17q23 0 39.5 -17t16.5 -41q0 -25 -16.5 -41.5t-40.5 -16.5zM184 549q-24 0 -41 17t-17 40q0 24 17 41.5t41 17.5t40.5 -17.5t16.5 -41.5q0 -23 -17 -40t-40 -17zM334 549q-24 0 -41 17t-17 40q0 25 17 42t42 17q23 0 39.5 -17t16.5 -42
q0 -23 -16.5 -40t-40.5 -17z" />
    <glyph glyph-name="uni06A0.fina" unicode="&#x6a0;" horiz-adv-x="493" 
d="M283 -386q-52 0 -102.5 12t-90.5 38.5t-64 69t-24 105.5q0 60 24 108t62 86.5t80.5 71.5t80.5 63t62.5 60.5t25.5 65.5q1 15 -7.5 27t-24.5 19t-40 7q-17 0 -37 -5t-38.5 -14t-33.5 -21q23 -22 45.5 -45.5t44.5 -48.5t42 -54q21 -14 45 -24t51 -16.5t57 -9.5t62 -3
q26 0 40.5 -15t14.5 -39q0 -25 -16.5 -41t-48.5 -16q-62 0 -114 10.5t-96.5 33.5t-85.5 60q-17 26 -39 52t-43 48.5t-38 39.5q-4 4 -8.5 17t-8 28t-3.5 21q0 22 18 47t49 47t70.5 36t82.5 14q82 0 124.5 -38t42.5 -98q1 -53 -22.5 -96t-60.5 -80t-79.5 -70t-80 -66t-61 -70
t-23.5 -81q0 -37 15.5 -61.5t40 -38.5t54 -19.5t58.5 -5.5q26 0 53.5 3t59 12t67.5 24l36 -92q-32 -19 -69.5 -32t-75.5 -19.5t-73 -6.5zM268 678q-24 0 -41 17t-17 40q0 25 17 42t42 17q23 0 39.5 -17t16.5 -41q0 -25 -16.5 -41.5t-40.5 -16.5zM195 549q-24 0 -41 17
t-17 40q0 24 17 41.5t41 17.5t40.5 -17.5t16.5 -41.5q0 -23 -17 -40t-40 -17zM345 549q-24 0 -41 17t-17 40q0 25 17 42t42 17q23 0 39.5 -17t16.5 -42q0 -23 -16.5 -40t-40.5 -17z" />
    <glyph glyph-name="uni06A1.init" unicode="&#x6a1;" horiz-adv-x="432" 
d="M0 -5l9 111q35 0 66.5 0.5t59 2t49.5 6t38 11.5q23 11 37 30t20.5 49.5t6.5 72.5q0 48 -8 84t-23 56t-36 20q-16 0 -30 -13.5t-22.5 -36.5t-8.5 -53q0 -21 8.5 -34t24.5 -19t36 -6t41 5t39 15l4 -87q-13 -11 -31 -18.5t-38 -11.5t-40 -4q-49 0 -83 18t-51.5 50t-17.5 74
t12.5 82t35.5 72t55.5 51t71.5 19q55 0 93 -35t57 -96t19 -139q0 -76 -23.5 -134t-73.5 -90q-25 -17 -56 -27t-68 -15.5t-80 -7.5t-93 -2z" />
    <glyph glyph-name="uni06A1.medi" unicode="&#x6a1;" horiz-adv-x="449" 
d="M0 -5l9 111q25 -1 50.5 0.5t50.5 5t47 9.5t40 13q29 12 50.5 29.5t33.5 40.5t12 51q0 22 -8.5 43t-22 34t-30.5 13q-15 0 -30 -12.5t-24 -33.5t-9 -47q0 -27 11.5 -49.5t31 -40t44.5 -32.5l-106 -42q-22 19 -43 42.5t-34.5 55t-13.5 72.5q0 39 14 73t38.5 61t56.5 42.5
t67 15.5q50 0 87.5 -26.5t59 -69t21.5 -88.5q0 -43 -13.5 -78t-36.5 -62t-52.5 -48t-60.5 -37q-23 -12 -52.5 -21t-61.5 -14.5t-64 -8t-62 -2.5zM449 -5q-43 0 -89 6t-88 18t-73 28l67 79q29 -8 64 -12.5t69.5 -6t59.5 -1.5q28 0 41.5 -15.5t13.5 -38.5q0 -24 -16 -40.5
t-49 -16.5z" />
    <glyph glyph-name="uni06A1.fina" unicode="&#x6a1;" horiz-adv-x="987" 
d="M356 -21l25 111q52 0 103.5 3t98.5 8.5t85 13.5t63 18q33 14 55.5 31.5t33.5 39.5t11 47q0 16 -4 32.5t-12 30.5t-19.5 22.5t-24.5 8.5q-17 0 -32 -14t-24 -36.5t-9 -48.5q0 -24 11.5 -45.5t31 -38.5t43.5 -31l-106 -43q-20 19 -41 41.5t-35 52.5t-14 69q0 40 14 75.5
t38.5 63.5t57 44t67.5 16q51 0 88.5 -27.5t59 -71.5t21.5 -92q0 -39 -14 -72t-37 -59.5t-52.5 -47.5t-60.5 -36q-32 -17 -80 -29t-105.5 -20t-118.5 -12t-118 -4zM987 -5q-44 0 -90 6t-87 17.5t-73 27.5l68 79q26 -6 60.5 -10.5t69.5 -6.5t62 -2q28 0 41.5 -15.5t13.5 -38.5
q0 -24 -16.5 -40.5t-48.5 -16.5zM356 -21q-81 0 -141.5 13.5t-101.5 40.5t-61 66.5t-20 91.5q0 28 5 59.5t13.5 62t16.5 55.5l98 -26q-4 -17 -10 -38.5t-9.5 -43.5t-3.5 -42q0 -38 20 -67.5t72 -45t147 -15.5l20 -79z" />
    <glyph glyph-name="fehDotMovedbelowar.init" unicode="&#x6a2;" horiz-adv-x="432" 
d="M0 -5l9 111q35 0 66.5 0.5t59 2t49.5 6t38 11.5q23 11 37 30t20.5 49.5t6.5 72.5q0 48 -8 84t-23 56t-36 20q-16 0 -30 -13.5t-22.5 -36.5t-8.5 -53q0 -21 8.5 -34t24.5 -19t36 -6t41 5t39 15l4 -87q-13 -11 -31 -18.5t-38 -11.5t-40 -4q-49 0 -83 18t-51.5 50t-17.5 74
t12.5 82t35.5 72t55.5 51t71.5 19q55 0 93 -35t57 -96t19 -139q0 -76 -23.5 -134t-73.5 -90q-25 -17 -56 -27t-68 -15.5t-80 -7.5t-93 -2zM182 -226q-26 0 -43 17t-17 41t17 42t43 18q24 0 41 -18t17 -42t-17.5 -41t-40.5 -17z" />
    <glyph glyph-name="fehDotMovedbelowar.medi" unicode="&#x6a2;" horiz-adv-x="449" 
d="M0 -5l9 111q25 -1 50.5 0.5t50.5 5t47 9.5t40 13q29 12 50.5 29.5t33.5 40.5t12 51q0 22 -8.5 43t-22 34t-30.5 13q-15 0 -30 -12.5t-24 -33.5t-9 -47q0 -27 11.5 -49.5t31 -40t44.5 -32.5l-106 -42q-22 19 -43 42.5t-34.5 55t-13.5 72.5q0 39 14 73t38.5 61t56.5 42.5
t67 15.5q50 0 87.5 -26.5t59 -69t21.5 -88.5q0 -43 -13.5 -78t-36.5 -62t-52.5 -48t-60.5 -37q-23 -12 -52.5 -21t-61.5 -14.5t-64 -8t-62 -2.5zM449 -5q-43 0 -89 6t-88 18t-73 28l67 79q29 -8 64 -12.5t69.5 -6t59.5 -1.5q28 0 41.5 -15.5t13.5 -38.5q0 -24 -16 -40.5
t-49 -16.5zM225 -227q-26 0 -43 17t-17 41t17 42t43 18q24 0 41 -18t17 -42t-17.5 -41t-40.5 -17z" />
    <glyph glyph-name="fehDotMovedbelowar.fina" unicode="&#x6a2;" horiz-adv-x="987" 
d="M356 -21l25 111q52 0 103.5 3t98.5 8.5t85 13.5t63 18q33 14 55.5 31.5t33.5 39.5t11 47q0 16 -4 32.5t-12 30.5t-19.5 22.5t-24.5 8.5q-17 0 -32 -14t-24 -36.5t-9 -48.5q0 -24 11.5 -45.5t31 -38.5t43.5 -31l-106 -43q-20 19 -41 41.5t-35 52.5t-14 69q0 40 14 75.5
t38.5 63.5t57 44t67.5 16q51 0 88.5 -27.5t59 -71.5t21.5 -92q0 -39 -14 -72t-37 -59.5t-52.5 -47.5t-60.5 -36q-32 -17 -80 -29t-105.5 -20t-118.5 -12t-118 -4zM987 -5q-44 0 -90 6t-87 17.5t-73 27.5l68 79q26 -6 60.5 -10.5t69.5 -6.5t62 -2q28 0 41.5 -15.5t13.5 -38.5
q0 -24 -16.5 -40.5t-48.5 -16.5zM356 -21q-81 0 -141.5 13.5t-101.5 40.5t-61 66.5t-20 91.5q0 28 5 59.5t13.5 62t16.5 55.5l98 -26q-4 -17 -10 -38.5t-9.5 -43.5t-3.5 -42q0 -38 20 -67.5t72 -45t147 -15.5l20 -79zM428 -231q-26 0 -43 17t-17 41t17 42t43 18q24 0 41 -18
t17 -42t-17.5 -41t-40.5 -17z" />
    <glyph glyph-name="uni06A3.init" unicode="&#x6a3;" horiz-adv-x="432" 
d="M0 -5l9 111q35 0 66.5 0.5t59 2t49.5 6t38 11.5q23 11 37 30t20.5 49.5t6.5 72.5q0 48 -8 84t-23 56t-36 20q-16 0 -30 -13.5t-22.5 -36.5t-8.5 -53q0 -21 8.5 -34t24.5 -19t36 -6t41 5t39 15l4 -87q-13 -11 -31 -18.5t-38 -11.5t-40 -4q-49 0 -83 18t-51.5 50t-17.5 74
t12.5 82t35.5 72t55.5 51t71.5 19q55 0 93 -35t57 -96t19 -139q0 -76 -23.5 -134t-73.5 -90q-25 -17 -56 -27t-68 -15.5t-80 -7.5t-93 -2zM215 641q-25 0 -42.5 17t-17.5 42t17.5 43t43.5 18q24 0 41 -18t17 -43t-17.5 -42t-41.5 -17zM182 -226q-26 0 -43 17t-17 41t17 42
t43 18q24 0 41 -18t17 -42t-17.5 -41t-40.5 -17z" />
    <glyph glyph-name="uni06A3.medi" unicode="&#x6a3;" horiz-adv-x="449" 
d="M0 -5l9 111q25 -1 50.5 0.5t50.5 5t47 9.5t40 13q29 12 50.5 29.5t33.5 40.5t12 51q0 22 -8.5 43t-22 34t-30.5 13q-15 0 -30 -12.5t-24 -33.5t-9 -47q0 -27 11.5 -49.5t31 -40t44.5 -32.5l-106 -42q-22 19 -43 42.5t-34.5 55t-13.5 72.5q0 39 14 73t38.5 61t56.5 42.5
t67 15.5q50 0 87.5 -26.5t59 -69t21.5 -88.5q0 -43 -13.5 -78t-36.5 -62t-52.5 -48t-60.5 -37q-23 -12 -52.5 -21t-61.5 -14.5t-64 -8t-62 -2.5zM449 -5q-43 0 -89 6t-88 18t-73 28l67 79q29 -8 64 -12.5t69.5 -6t59.5 -1.5q28 0 41.5 -15.5t13.5 -38.5q0 -24 -16 -40.5
t-49 -16.5zM233 550q-25 0 -42.5 17t-17.5 42t17.5 43t43.5 18q24 0 41 -18t17 -43t-17.5 -42t-41.5 -17zM225 -227q-26 0 -43 17t-17 41t17 42t43 18q24 0 41 -18t17 -42t-17.5 -41t-40.5 -17z" />
    <glyph glyph-name="uni06A3.fina" unicode="&#x6a3;" horiz-adv-x="987" 
d="M356 -21l25 111q52 0 103.5 3t98.5 8.5t85 13.5t63 18q33 14 55.5 31.5t33.5 39.5t11 47q0 16 -4 32.5t-12 30.5t-19.5 22.5t-24.5 8.5q-17 0 -32 -14t-24 -36.5t-9 -48.5q0 -24 11.5 -45.5t31 -38.5t43.5 -31l-106 -43q-20 19 -41 41.5t-35 52.5t-14 69q0 40 14 75.5
t38.5 63.5t57 44t67.5 16q51 0 88.5 -27.5t59 -71.5t21.5 -92q0 -39 -14 -72t-37 -59.5t-52.5 -47.5t-60.5 -36q-32 -17 -80 -29t-105.5 -20t-118.5 -12t-118 -4zM987 -5q-44 0 -90 6t-87 17.5t-73 27.5l68 79q26 -6 60.5 -10.5t69.5 -6.5t62 -2q28 0 41.5 -15.5t13.5 -38.5
q0 -24 -16.5 -40.5t-48.5 -16.5zM356 -21q-81 0 -141.5 13.5t-101.5 40.5t-61 66.5t-20 91.5q0 28 5 59.5t13.5 62t16.5 55.5l98 -26q-4 -17 -10 -38.5t-9.5 -43.5t-3.5 -42q0 -38 20 -67.5t72 -45t147 -15.5l20 -79zM772 550q-25 0 -42.5 17t-17.5 42t17.5 43t43.5 18
q24 0 41 -18t17 -43t-17.5 -42t-41.5 -17zM428 -231q-26 0 -43 17t-17 41t17 42t43 18q24 0 41 -18t17 -42t-17.5 -41t-40.5 -17z" />
    <glyph glyph-name="uni06A5.init" unicode="&#x6a5;" horiz-adv-x="432" 
d="M0 -5l9 111q35 0 66.5 0.5t59 2t49.5 6t38 11.5q23 11 37 30t20.5 49.5t6.5 72.5q0 48 -8 84t-23 56t-36 20q-16 0 -30 -13.5t-22.5 -36.5t-8.5 -53q0 -21 8.5 -34t24.5 -19t36 -6t41 5t39 15l4 -87q-13 -11 -31 -18.5t-38 -11.5t-40 -4q-49 0 -83 18t-51.5 50t-17.5 74
t12.5 82t35.5 72t55.5 51t71.5 19q55 0 93 -35t57 -96t19 -139q0 -76 -23.5 -134t-73.5 -90q-25 -17 -56 -27t-68 -15.5t-80 -7.5t-93 -2zM183 -349q-23 0 -40 16t-17 39q0 24 17 41t40 17t39.5 -17.5t16.5 -40.5t-16.5 -39t-39.5 -16zM110 -221q-24 0 -40.5 16t-16.5 39
q0 24 16.5 41t40.5 17q22 0 38.5 -17.5t16.5 -39.5q0 -24 -16.5 -40t-38.5 -16zM259 -221q-24 0 -40.5 16t-16.5 39q0 24 16.5 41t40.5 17q23 0 39 -17.5t16 -39.5q0 -24 -16 -40t-39 -16z" />
    <glyph glyph-name="uni06A5.medi" unicode="&#x6a5;" horiz-adv-x="449" 
d="M0 -5l9 111q25 -1 50.5 0.5t50.5 5t47 9.5t40 13q29 12 50.5 29.5t33.5 40.5t12 51q0 22 -8.5 43t-22 34t-30.5 13q-15 0 -30 -12.5t-24 -33.5t-9 -47q0 -27 11.5 -49.5t31 -40t44.5 -32.5l-106 -42q-22 19 -43 42.5t-34.5 55t-13.5 72.5q0 39 14 73t38.5 61t56.5 42.5
t67 15.5q50 0 87.5 -26.5t59 -69t21.5 -88.5q0 -43 -13.5 -78t-36.5 -62t-52.5 -48t-60.5 -37q-23 -12 -52.5 -21t-61.5 -14.5t-64 -8t-62 -2.5zM449 -5q-43 0 -89 6t-88 18t-73 28l67 79q29 -8 64 -12.5t69.5 -6t59.5 -1.5q28 0 41.5 -15.5t13.5 -38.5q0 -24 -16 -40.5
t-49 -16.5zM226 -350q-23 0 -40 16t-17 39q0 24 17 41t40 17t39.5 -17.5t16.5 -40.5t-16.5 -39t-39.5 -16zM153 -222q-24 0 -40.5 16t-16.5 39q0 24 16.5 41t40.5 17q22 0 38.5 -17.5t16.5 -39.5q0 -24 -16.5 -40t-38.5 -16zM302 -222q-24 0 -40.5 16t-16.5 39q0 24 16.5 41
t40.5 17q23 0 39 -17.5t16 -39.5q0 -24 -16 -40t-39 -16z" />
    <glyph glyph-name="uni06A5.fina" unicode="&#x6a5;" horiz-adv-x="987" 
d="M356 -21l25 111q52 0 103.5 3t98.5 8.5t85 13.5t63 18q33 14 55.5 31.5t33.5 39.5t11 47q0 16 -4 32.5t-12 30.5t-19.5 22.5t-24.5 8.5q-17 0 -32 -14t-24 -36.5t-9 -48.5q0 -24 11.5 -45.5t31 -38.5t43.5 -31l-106 -43q-20 19 -41 41.5t-35 52.5t-14 69q0 40 14 75.5
t38.5 63.5t57 44t67.5 16q51 0 88.5 -27.5t59 -71.5t21.5 -92q0 -39 -14 -72t-37 -59.5t-52.5 -47.5t-60.5 -36q-32 -17 -80 -29t-105.5 -20t-118.5 -12t-118 -4zM987 -5q-44 0 -90 6t-87 17.5t-73 27.5l68 79q26 -6 60.5 -10.5t69.5 -6.5t62 -2q28 0 41.5 -15.5t13.5 -38.5
q0 -24 -16.5 -40.5t-48.5 -16.5zM356 -21q-81 0 -141.5 13.5t-101.5 40.5t-61 66.5t-20 91.5q0 28 5 59.5t13.5 62t16.5 55.5l98 -26q-4 -17 -10 -38.5t-9.5 -43.5t-3.5 -42q0 -38 20 -67.5t72 -45t147 -15.5l20 -79zM429 -354q-23 0 -40 16t-17 39q0 24 17 41t40 17
t39.5 -17.5t16.5 -40.5t-16.5 -39t-39.5 -16zM356 -226q-24 0 -40.5 16t-16.5 39q0 24 16.5 41t40.5 17q22 0 38.5 -17.5t16.5 -39.5q0 -24 -16.5 -40t-38.5 -16zM505 -226q-24 0 -40.5 16t-16.5 39q0 24 16.5 41t40.5 17q23 0 39 -17.5t16 -39.5q0 -24 -16 -40t-39 -16z
" />
    <glyph glyph-name="uni06A7.fina" unicode="&#x6a7;" horiz-adv-x="762" 
d="M319 -272q-56 0 -108 14t-93.5 43t-65.5 75.5t-24 111.5q0 20 4 50t16 71t36 91l99 -40q-14 -36 -23.5 -61.5t-13.5 -47.5t-4 -47q0 -50 24.5 -83t68.5 -49.5t102 -16.5q35 0 67.5 5t59.5 15.5t49 24.5t38 32t25 40q13 28 19 65t6 80q0 47 -8 83t-22.5 56t-35.5 20
q-14 0 -25 -9t-19 -23.5t-12.5 -31.5t-4.5 -33q0 -19 6.5 -31.5t22.5 -19.5t44.5 -8.5t73.5 2.5h151q28 0 41.5 -15t13.5 -38q0 -26 -16 -42t-48 -16h-190q-49 0 -87 8.5t-65 26.5t-41 46t-14 66q0 41 13 81t36.5 71.5t56 50.5t71.5 19q51 0 89 -33.5t58.5 -94.5t20.5 -144
q0 -55 -13.5 -105.5t-34.5 -90.5q-24 -43 -59 -74.5t-79 -52.5t-96 -31t-110 -10zM541 464q-25 0 -42.5 17t-17.5 42t17.5 43t43.5 18q24 0 41 -18t17 -43t-17.5 -42t-41.5 -17z" />
    <glyph glyph-name="uni06A8.init" unicode="&#x6a8;" horiz-adv-x="432" 
d="M0 -5l9 111q35 0 66.5 0.5t59 2t49.5 6t38 11.5q23 11 37 30t20.5 49.5t6.5 72.5q0 48 -8 84t-23 56t-36 20q-16 0 -30 -13.5t-22.5 -36.5t-8.5 -53q0 -21 8.5 -34t24.5 -19t36 -6t41 5t39 15l4 -87q-13 -11 -31 -18.5t-38 -11.5t-40 -4q-49 0 -83 18t-51.5 50t-17.5 74
t12.5 82t35.5 72t55.5 51t71.5 19q55 0 93 -35t57 -96t19 -139q0 -76 -23.5 -134t-73.5 -90q-25 -17 -56 -27t-68 -15.5t-80 -7.5t-93 -2zM217 770q-24 0 -41 17t-17 40q0 25 17 42t42 17q23 0 39.5 -17t16.5 -41q0 -25 -16.5 -41.5t-40.5 -16.5zM144 641q-24 0 -41 17
t-17 40q0 24 17 41.5t41 17.5t40.5 -17.5t16.5 -41.5q0 -23 -17 -40t-40 -17zM294 641q-24 0 -41 17t-17 40q0 25 17 42t42 17q23 0 39.5 -17t16.5 -42q0 -23 -16.5 -40t-40.5 -17z" />
    <glyph glyph-name="uni06A8.medi" unicode="&#x6a8;" horiz-adv-x="449" 
d="M0 -5l9 111q25 -1 50.5 0.5t50.5 5t47 9.5t40 13q29 12 50.5 29.5t33.5 40.5t12 51q0 22 -8.5 43t-22 34t-30.5 13q-15 0 -30 -12.5t-24 -33.5t-9 -47q0 -27 11.5 -49.5t31 -40t44.5 -32.5l-106 -42q-22 19 -43 42.5t-34.5 55t-13.5 72.5q0 39 14 73t38.5 61t56.5 42.5
t67 15.5q50 0 87.5 -26.5t59 -69t21.5 -88.5q0 -43 -13.5 -78t-36.5 -62t-52.5 -48t-60.5 -37q-23 -12 -52.5 -21t-61.5 -14.5t-64 -8t-62 -2.5zM449 -5q-43 0 -89 6t-88 18t-73 28l67 79q29 -8 64 -12.5t69.5 -6t59.5 -1.5q28 0 41.5 -15.5t13.5 -38.5q0 -24 -16 -40.5
t-49 -16.5zM235 679q-24 0 -41 17t-17 40q0 25 17 42t42 17q23 0 39.5 -17t16.5 -41q0 -25 -16.5 -41.5t-40.5 -16.5zM162 550q-24 0 -41 17t-17 40q0 24 17 41.5t41 17.5t40.5 -17.5t16.5 -41.5q0 -23 -17 -40t-40 -17zM312 550q-24 0 -41 17t-17 40q0 25 17 42t42 17
q23 0 39.5 -17t16.5 -42q0 -23 -16.5 -40t-40.5 -17z" />
    <glyph glyph-name="uni06A8.fina" unicode="&#x6a8;" horiz-adv-x="762" 
d="M319 -272q-56 0 -108 14t-93.5 43t-65.5 75.5t-24 111.5q0 20 4 50t16 71t36 91l99 -40q-14 -36 -23.5 -61.5t-13.5 -47.5t-4 -47q0 -50 24.5 -83t68.5 -49.5t102 -16.5q35 0 67.5 5t59.5 15.5t49 24.5t38 32t25 40q13 28 19 65t6 80q0 47 -8 83t-22.5 56t-35.5 20
q-14 0 -25 -9t-19 -23.5t-12.5 -31.5t-4.5 -33q0 -19 6.5 -31.5t22.5 -19.5t44.5 -8.5t73.5 2.5h151q28 0 41.5 -15t13.5 -38q0 -26 -16 -42t-48 -16h-190q-49 0 -87 8.5t-65 26.5t-41 46t-14 66q0 41 13 81t36.5 71.5t56 50.5t71.5 19q51 0 89 -33.5t58.5 -94.5t20.5 -144
q0 -55 -13.5 -105.5t-34.5 -90.5q-24 -43 -59 -74.5t-79 -52.5t-96 -31t-110 -10zM542 593q-24 0 -41 17t-17 40q0 25 17 42t42 17q23 0 39.5 -17t16.5 -41q0 -25 -16.5 -41.5t-40.5 -16.5zM469 464q-24 0 -41 17t-17 40q0 24 17 41.5t41 17.5t40.5 -17.5t16.5 -41.5
q0 -23 -17 -40t-40 -17zM619 464q-24 0 -41 17t-17 40q0 25 17 42t42 17q23 0 39.5 -17t16.5 -42q0 -23 -16.5 -40t-40.5 -17z" />
    <glyph glyph-name="uni06AA.init" unicode="&#x6aa;" horiz-adv-x="763" 
d="M0 -5l10 111h293q80 0 138 1.5t96 6t56.5 14.5t18.5 27q0 13 -9.5 24t-32 20t-61.5 16.5t-98 13.5q-100 11 -158.5 26.5t-83.5 40.5t-25 65q0 46 26.5 84t72.5 68.5t107 54.5t130 40l24 -100q-81 -21 -136 -43.5t-83.5 -44t-28.5 -39.5q0 -13 14 -21t51 -14.5t106 -14.5
q84 -10 139.5 -24.5t88.5 -35.5t47 -49.5t14 -65.5q0 -47 -24 -78t-74.5 -49t-128 -26t-184.5 -8h-305z" />
    <glyph glyph-name="uni06AA.medi" unicode="&#x6aa;" horiz-adv-x="802" 
d="M802 -5q-35 0 -71 9t-66.5 25t-51.5 35l80 69q25 -14 55 -20.5t64 -6.5q29 0 42 -15.5t13 -38.5q0 -25 -16 -41t-49 -16zM0 -5l10 111h293q80 0 138 1.5t96 6t56.5 14.5t18.5 27q0 13 -9.5 24t-32 20t-61.5 16.5t-98 13.5q-100 11 -158.5 26.5t-83.5 40.5t-25 65
q0 46 26.5 84t72.5 68.5t107 54.5t130 40l24 -100q-81 -21 -136 -43.5t-83.5 -44t-28.5 -39.5q0 -13 14 -21t51 -14.5t106 -14.5q84 -10 139.5 -24.5t88.5 -35.5t47 -49.5t14 -65.5q0 -47 -24 -78t-74.5 -49t-128 -26t-184.5 -8h-305z" />
    <glyph glyph-name="uni06AA.fina" unicode="&#x6aa;" horiz-adv-x="1003" 
d="M1004 -5q-36 0 -72 9t-66.5 25t-51.5 35l80 69q25 -14 55.5 -20.5t63.5 -6.5q29 0 42.5 -15.5t13.5 -38.5q0 -25 -16.5 -41t-48.5 -16zM506 -15q-37 0 -94.5 1t-123 3t-128 6t-109.5 9l6 107q50 -3 107 -6t116 -5.5t116.5 -4t108.5 -1.5q79 0 137.5 3t96 9.5t56 18
t18.5 28.5q0 13 -9 24.5t-31.5 20.5t-61.5 17t-99 14q-100 11 -158.5 26t-83.5 40.5t-25 66.5q0 46 27 84t73.5 68.5t107.5 54t128 39.5l24 -100q-81 -22 -136.5 -44.5t-83.5 -43.5t-28 -40q0 -12 13.5 -20t51 -14.5t106.5 -14.5q84 -10 139.5 -24.5t88.5 -35.5t47.5 -49.5
t14.5 -65.5q0 -47 -24 -79.5t-74.5 -53t-128.5 -29.5t-185 -9z" />
    <glyph glyph-name="uni06AB.init" unicode="&#x6ab;" horiz-adv-x="386" 
d="M293 445q-35 0 -59.5 24.5t-24.5 59.5q0 36 24.5 60.5t59.5 24.5q36 0 60 -24.5t24 -60.5q0 -35 -24 -59.5t-60 -24.5zM293 498q14 0 24 9t10 22q0 15 -10 24t-24 9t-23.5 -9.5t-9.5 -23.5q0 -13 9.5 -22t23.5 -9zM0 -5l10 111h92q31 0 50.5 6t30.5 16t15 22.5t4 25.5
q0 30 -20 65t-54 72q-22 25 -42 45t-34.5 35.5t-23.5 26.5t-9 18q0 13 2.5 31t7 34t10.5 23q15 14 39.5 33t60.5 42t86.5 51.5t115.5 62.5l52 -94q-58 -30 -103.5 -54.5t-80.5 -45t-62.5 -39.5t-50.5 -38l10 53q50 -50 89.5 -93.5t67.5 -83.5t42.5 -78.5t14.5 -78.5
q0 -28 -10 -57t-35.5 -54.5t-70.5 -41t-115 -15.5h-89z" />
    <glyph glyph-name="uni06AB.medi" unicode="&#x6ab;" horiz-adv-x="435" 
d="M294 444q-36 0 -60.5 25t-24.5 59q0 36 24.5 60.5t60.5 24.5q35 0 59.5 -24.5t24.5 -60.5q0 -34 -24.5 -59t-59.5 -25zM293 497q15 0 24.5 9t9.5 22q0 15 -9.5 24t-24.5 9q-14 0 -23.5 -9t-9.5 -24q0 -13 9.5 -22t23.5 -9zM0 -5l9 111h87q40 0 63 8t33 23t10 37
q0 18 -13.5 43t-34 52t-44 53.5t-44 50t-34 40.5t-13.5 24q0 17 3 35t7.5 33t11.5 22q18 18 48.5 40t70.5 46.5t86 50t95 50.5l52 -93q-50 -26 -93 -49.5t-79.5 -45t-66.5 -41t-54 -38.5l1 50q31 -33 59.5 -64.5t55.5 -65.5t52 -72.5t49 -86.5q22 -44 42 -65.5t41 -29
t46 -7.5q28 0 41.5 -15.5t13.5 -38.5q0 -24 -16.5 -40.5t-48.5 -16.5q-37 0 -69.5 11.5t-59 39t-44.5 73.5l41 -5q-11 -33 -29.5 -55.5t-45 -37t-62 -20.5t-78.5 -6h-89z" />
    <glyph glyph-name="uni06AB.fina" unicode="&#x6ab;" horiz-adv-x="871" 
d="M727 441q-35 0 -59.5 25t-24.5 60t24.5 59.5t59.5 24.5q36 0 60 -24.5t24 -59.5t-24 -60t-60 -25zM727 494q14 0 24 9t10 23q0 15 -10 24t-24 9t-23.5 -9.5t-9.5 -23.5t9.5 -23t23.5 -9zM356 -21l25 111q66 0 114 4t79.5 13.5t46.5 25t15 39.5q0 19 -13 44t-33.5 52.5
t-43.5 54t-44 49.5t-34 40t-13 25q0 17 2.5 34.5t7 32t11.5 21.5q24 26 70 57t106 64.5t124 67.5l52 -93q-68 -37 -123 -67.5t-97.5 -57.5t-74.5 -53l3 54q31 -31 60.5 -64.5t58 -70t53.5 -76t46 -81.5q16 -32 30.5 -52t30 -30t32 -13.5t34.5 -3.5q28 0 41.5 -15.5
t13.5 -38.5q0 -24 -16 -40.5t-48 -16.5q-36 0 -69.5 12.5t-60.5 39.5t-42 72h39q-14 -43 -43 -70.5t-75 -42.5t-112 -21t-153 -6zM356 -21q-81 0 -141.5 13.5t-101.5 40.5t-61 66.5t-20 91.5q0 28 5 59.5t13.5 62t16.5 55.5l98 -26q-4 -17 -10 -38.5t-9.5 -43.5t-3.5 -42
q0 -38 20 -67.5t72 -45t147 -15.5l20 -79z" />
    <glyph glyph-name="uni06AC.init" unicode="&#x6ac;" horiz-adv-x="386" 
d="M0 -5l10 111h92q31 0 50.5 6t30.5 16t15 22.5t4 25.5q0 30 -20 65t-54 72q-22 25 -42 45t-34.5 35.5t-23.5 26.5t-9 18q0 13 2.5 31t7 34t10.5 23q15 14 39.5 33t60.5 42t86.5 51.5t115.5 62.5l52 -94q-58 -30 -103.5 -54.5t-80.5 -45t-62.5 -39.5t-50.5 -38l10 53
q50 -50 89.5 -93.5t67.5 -83.5t42.5 -78.5t14.5 -78.5q0 -28 -10 -57t-35.5 -54.5t-70.5 -41t-115 -15.5h-89zM151 721q-25 0 -42.5 17t-17.5 42t17.5 43t43.5 18q24 0 41 -18t17 -43t-17.5 -42t-41.5 -17z" />
    <glyph glyph-name="uni06AC.medi" unicode="&#x6ac;" horiz-adv-x="435" 
d="M0 -5l9 111h87q40 0 63 8t33 23t10 37q0 18 -13.5 43t-34 52t-44 53.5t-44 50t-34 40.5t-13.5 24q0 17 3 35t7.5 33t11.5 22q18 18 48.5 40t70.5 46.5t86 50t95 50.5l52 -93q-50 -26 -93 -49.5t-79.5 -45t-66.5 -41t-54 -38.5l1 50q31 -33 59.5 -64.5t55.5 -65.5
t52 -72.5t49 -86.5q22 -44 42 -65.5t41 -29t46 -7.5q28 0 41.5 -15.5t13.5 -38.5q0 -24 -16.5 -40.5t-48.5 -16.5q-37 0 -69.5 11.5t-59 39t-44.5 73.5l41 -5q-11 -33 -29.5 -55.5t-45 -37t-62 -20.5t-78.5 -6h-89zM145 721q-25 0 -42.5 17t-17.5 42t17.5 43t43.5 18
q24 0 41 -18t17 -43t-17.5 -42t-41.5 -17z" />
    <glyph glyph-name="uni06AC.fina" unicode="&#x6ac;" horiz-adv-x="880" 
d="M356 -21l25 111q92 -1 150 6t90 25.5t43 51t8 82.5l-21 468h112l21 -469q3 -58 16 -90.5t36 -45t54 -12.5q29 0 42 -15.5t13 -37.5q0 -25 -16 -41.5t-48 -16.5q-42 0 -74 13t-52 39t-27 63h39q-22 -42 -58.5 -68t-87.5 -40t-117 -19t-148 -4zM333 218l-22 81
q37 9 60.5 16.5t34.5 15t11 15.5q0 9 -10 19t-23 21.5t-22.5 26.5t-9.5 34q0 22 12 43t40 41.5t76 42.5l37 -73q-41 -18 -59 -32t-18 -26q0 -10 10 -21t23 -24t23 -29t10 -35q0 -15 -5.5 -30t-23.5 -30t-52.5 -29t-91.5 -27zM356 -21q-81 0 -141.5 13.5t-101.5 40.5
t-61 66.5t-20 91.5q0 28 5 59.5t13.5 62t16.5 55.5l98 -26q-4 -17 -10 -38.5t-9.5 -43.5t-3.5 -42q0 -38 20 -67.5t72 -45t147 -15.5l20 -79zM428 651q-25 0 -42.5 17t-17.5 42t17.5 43t43.5 18q24 0 41 -18t17 -43t-17.5 -42t-41.5 -17z" />
    <glyph glyph-name="uni06AE.init" unicode="&#x6ae;" horiz-adv-x="386" 
d="M0 -5l10 111h92q31 0 50.5 6t30.5 16t15 22.5t4 25.5q0 30 -20 65t-54 72q-22 25 -42 45t-34.5 35.5t-23.5 26.5t-9 18q0 13 2.5 31t7 34t10.5 23q15 14 39.5 33t60.5 42t86.5 51.5t115.5 62.5l52 -94q-58 -30 -103.5 -54.5t-80.5 -45t-62.5 -39.5t-50.5 -38l10 53
q50 -50 89.5 -93.5t67.5 -83.5t42.5 -78.5t14.5 -78.5q0 -28 -10 -57t-35.5 -54.5t-70.5 -41t-115 -15.5h-89zM169 -332q-23 0 -40 16t-17 39q0 24 17 41t40 17t39.5 -17.5t16.5 -40.5t-16.5 -39t-39.5 -16zM96 -204q-24 0 -40.5 16t-16.5 39q0 24 16.5 41t40.5 17
q22 0 38.5 -17.5t16.5 -39.5q0 -24 -16.5 -40t-38.5 -16zM245 -204q-24 0 -40.5 16t-16.5 39q0 24 16.5 41t40.5 17q23 0 39 -17.5t16 -39.5q0 -24 -16 -40t-39 -16z" />
    <glyph glyph-name="uni06AE.medi" unicode="&#x6ae;" horiz-adv-x="435" 
d="M0 -5l9 111h87q40 0 63 8t33 23t10 37q0 18 -13.5 43t-34 52t-44 53.5t-44 50t-34 40.5t-13.5 24q0 17 3 35t7.5 33t11.5 22q18 18 48.5 40t70.5 46.5t86 50t95 50.5l52 -93q-50 -26 -93 -49.5t-79.5 -45t-66.5 -41t-54 -38.5l1 50q31 -33 59.5 -64.5t55.5 -65.5
t52 -72.5t49 -86.5q22 -44 42 -65.5t41 -29t46 -7.5q28 0 41.5 -15.5t13.5 -38.5q0 -24 -16.5 -40.5t-48.5 -16.5q-37 0 -69.5 11.5t-59 39t-44.5 73.5l41 -5q-11 -33 -29.5 -55.5t-45 -37t-62 -20.5t-78.5 -6h-89zM168 -332q-23 0 -40 16t-17 39q0 24 17 41t40 17
t39.5 -17.5t16.5 -40.5t-16.5 -39t-39.5 -16zM95 -204q-24 0 -40.5 16t-16.5 39q0 24 16.5 41t40.5 17q22 0 38.5 -17.5t16.5 -39.5q0 -24 -16.5 -40t-38.5 -16zM244 -204q-24 0 -40.5 16t-16.5 39q0 24 16.5 41t40.5 17q23 0 39 -17.5t16 -39.5q0 -24 -16 -40t-39 -16z" />
    <glyph glyph-name="uni06AE.fina" unicode="&#x6ae;" horiz-adv-x="880" 
d="M356 -21l25 111q92 -1 150 6t90 25.5t43 51t8 82.5l-21 468h112l21 -469q3 -58 16 -90.5t36 -45t54 -12.5q29 0 42 -15.5t13 -37.5q0 -25 -16 -41.5t-48 -16.5q-42 0 -74 13t-52 39t-27 63h39q-22 -42 -58.5 -68t-87.5 -40t-117 -19t-148 -4zM333 218l-22 81
q37 9 60.5 16.5t34.5 15t11 15.5q0 9 -10 19t-23 21.5t-22.5 26.5t-9.5 34q0 22 12 43t40 41.5t76 42.5l37 -73q-41 -18 -59 -32t-18 -26q0 -10 10 -21t23 -24t23 -29t10 -35q0 -15 -5.5 -30t-23.5 -30t-52.5 -29t-91.5 -27zM356 -21q-81 0 -141.5 13.5t-101.5 40.5
t-61 66.5t-20 91.5q0 28 5 59.5t13.5 62t16.5 55.5l98 -26q-4 -17 -10 -38.5t-9.5 -43.5t-3.5 -42q0 -38 20 -67.5t72 -45t147 -15.5l20 -79zM381 -353q-23 0 -40 16t-17 39q0 24 17 41t40 17t39.5 -17.5t16.5 -40.5t-16.5 -39t-39.5 -16zM308 -225q-24 0 -40.5 16t-16.5 39
q0 24 16.5 41t40.5 17q22 0 38.5 -17.5t16.5 -39.5q0 -24 -16.5 -40t-38.5 -16zM457 -225q-24 0 -40.5 16t-16.5 39q0 24 16.5 41t40.5 17q23 0 39 -17.5t16 -39.5q0 -24 -16 -40t-39 -16z" />
    <glyph glyph-name="uni06B0.init" unicode="&#x6b0;" horiz-adv-x="384" 
d="M295 445q-36 0 -60.5 25t-24.5 60t24.5 59.5t60.5 24.5q35 0 59.5 -24.5t24.5 -59.5t-24.5 -60t-59.5 -25zM294 498q15 0 24.5 9t9.5 23q0 15 -9.5 24t-24.5 9q-14 0 -23.5 -9.5t-9.5 -23.5t9.5 -23t23.5 -9zM22 600l-47 75q41 25 84.5 51.5t95 56.5t112.5 64l45 -79
q-62 -33 -113 -62.5t-94.5 -55.5t-82.5 -50zM0 -5l10 111h92q31 0 50.5 6t30.5 16t15 22.5t4 25.5q0 30 -20 65t-54 72q-22 25 -42 45t-34.5 35.5t-23.5 26.5t-9 18q0 13 2.5 31t7 34t10.5 23q15 14 39.5 33t60.5 42t86.5 51.5t115.5 62.5l52 -94q-58 -30 -103.5 -54.5
t-80.5 -45t-62.5 -39.5t-50.5 -38l10 53q50 -50 89.5 -93.5t67.5 -83.5t42.5 -78.5t14.5 -78.5q0 -28 -10 -57t-35.5 -54.5t-70.5 -41t-115 -15.5h-89z" />
    <glyph glyph-name="uni06B0.medi" unicode="&#x6b0;" horiz-adv-x="435" 
d="M298 447q-35 0 -59.5 24.5t-24.5 59.5t24.5 60t59.5 25q36 0 60 -25t24 -60t-24 -59.5t-60 -24.5zM298 499q14 0 24 9t10 23q0 15 -10 24t-24 9t-23.5 -9.5t-9.5 -23.5t9.5 -23t23.5 -9zM22 600l-47 75q41 25 84.5 51.5t95 56.5t112.5 64l45 -79q-62 -33 -113 -62.5
t-94.5 -55.5t-82.5 -50zM0 -5l9 111h87q40 0 63 8t33 23t10 37q0 18 -13.5 43t-34 52t-44 53.5t-44 50t-34 40.5t-13.5 24q0 17 3 35t7.5 33t11.5 22q18 18 48.5 40t70.5 46.5t86 50t95 50.5l52 -93q-50 -26 -93 -49.5t-79.5 -45t-66.5 -41t-54 -38.5l1 50
q31 -33 59.5 -64.5t55.5 -65.5t52 -72.5t49 -86.5q22 -44 42 -65.5t41 -29t46 -7.5q28 0 41.5 -15.5t13.5 -38.5q0 -24 -16.5 -40.5t-48.5 -16.5q-37 0 -69.5 11.5t-59 39t-44.5 73.5l41 -5q-11 -33 -29.5 -55.5t-45 -37t-62 -20.5t-78.5 -6h-89z" />
    <glyph glyph-name="uni06B0.fina" unicode="&#x6b0;" horiz-adv-x="865" 
d="M731 443q-36 0 -60.5 25t-24.5 60t24.5 59.5t60.5 24.5q35 0 59.5 -24.5t24.5 -59.5t-24.5 -60t-59.5 -25zM730 496q15 0 24.5 9t9.5 23q0 15 -9.5 24t-24.5 9q-14 0 -23.5 -9.5t-9.5 -23.5t9.5 -23t23.5 -9zM460 600l-46 76q40 25 83.5 51.5t95 56.5t112.5 64l45 -79
q-62 -33 -113 -62.5t-94.5 -56t-82.5 -50.5zM356 -21l25 111q66 0 114 4t79.5 13.5t46.5 25t15 39.5q0 19 -13 44t-33.5 52.5t-43.5 54t-44 49.5t-34 40t-13 25q0 17 2.5 34.5t7 32t11.5 21.5q24 26 70 57t106 64.5t124 67.5l52 -93q-68 -37 -123 -67.5t-97.5 -57.5
t-74.5 -53l3 54q31 -31 60.5 -64.5t58 -70t53.5 -76t46 -81.5q16 -32 30.5 -52t30 -30t32 -13.5t34.5 -3.5q28 0 41.5 -15.5t13.5 -38.5q0 -24 -16 -40.5t-48 -16.5q-36 0 -69.5 12.5t-60.5 39.5t-42 72h39q-14 -43 -43 -70.5t-75 -42.5t-112 -21t-153 -6zM356 -21
q-81 0 -141.5 13.5t-101.5 40.5t-61 66.5t-20 91.5q0 28 5 59.5t13.5 62t16.5 55.5l98 -26q-4 -17 -10 -38.5t-9.5 -43.5t-3.5 -42q0 -38 20 -67.5t72 -45t147 -15.5l20 -79z" />
    <glyph glyph-name="uni06B2.init" unicode="&#x6b2;" horiz-adv-x="384" 
d="M22 600l-47 75q41 25 84.5 51.5t95 56.5t112.5 64l45 -79q-62 -33 -113 -62.5t-94.5 -55.5t-82.5 -50zM0 -5l10 111h92q31 0 50.5 6t30.5 16t15 22.5t4 25.5q0 30 -20 65t-54 72q-22 25 -42 45t-34.5 35.5t-23.5 26.5t-9 18q0 13 2.5 31t7 34t10.5 23q15 14 39.5 33
t60.5 42t86.5 51.5t115.5 62.5l52 -94q-58 -30 -103.5 -54.5t-80.5 -45t-62.5 -39.5t-50.5 -38l10 53q50 -50 89.5 -93.5t67.5 -83.5t42.5 -78.5t14.5 -78.5q0 -28 -10 -57t-35.5 -54.5t-70.5 -41t-115 -15.5h-89zM237 -208q-25 0 -42.5 17t-17.5 41t17 42t43 18
q24 0 41 -18t17 -42t-17.5 -41t-40.5 -17zM84 -208q-25 0 -42.5 17t-17.5 41t17 42t43 18q24 0 41 -18t17 -42t-17.5 -41t-40.5 -17z" />
    <glyph glyph-name="uni06B2.medi" unicode="&#x6b2;" horiz-adv-x="435" 
d="M22 600l-47 75q41 25 84.5 51.5t95 56.5t112.5 64l45 -79q-62 -33 -113 -62.5t-94.5 -55.5t-82.5 -50zM0 -5l9 111h87q40 0 63 8t33 23t10 37q0 18 -13.5 43t-34 52t-44 53.5t-44 50t-34 40.5t-13.5 24q0 17 3 35t7.5 33t11.5 22q18 18 48.5 40t70.5 46.5t86 50t95 50.5
l52 -93q-50 -26 -93 -49.5t-79.5 -45t-66.5 -41t-54 -38.5l1 50q31 -33 59.5 -64.5t55.5 -65.5t52 -72.5t49 -86.5q22 -44 42 -65.5t41 -29t46 -7.5q28 0 41.5 -15.5t13.5 -38.5q0 -24 -16.5 -40.5t-48.5 -16.5q-37 0 -69.5 11.5t-59 39t-44.5 73.5l41 -5
q-11 -33 -29.5 -55.5t-45 -37t-62 -20.5t-78.5 -6h-89zM235 -208q-25 0 -42.5 17t-17.5 41t17 42t43 18q24 0 41 -18t17 -42t-17.5 -41t-40.5 -17zM82 -208q-25 0 -42.5 17t-17.5 41t17 42t43 18q24 0 41 -18t17 -42t-17.5 -41t-40.5 -17z" />
    <glyph glyph-name="uni06B2.fina" unicode="&#x6b2;" horiz-adv-x="865" 
d="M460 600l-46 76q40 25 83.5 51.5t95 56.5t112.5 64l45 -79q-62 -33 -113 -62.5t-94.5 -56t-82.5 -50.5zM356 -21l25 111q66 0 114 4t79.5 13.5t46.5 25t15 39.5q0 19 -13 44t-33.5 52.5t-43.5 54t-44 49.5t-34 40t-13 25q0 17 2.5 34.5t7 32t11.5 21.5q24 26 70 57
t106 64.5t124 67.5l52 -93q-68 -37 -123 -67.5t-97.5 -57.5t-74.5 -53l3 54q31 -31 60.5 -64.5t58 -70t53.5 -76t46 -81.5q16 -32 30.5 -52t30 -30t32 -13.5t34.5 -3.5q28 0 41.5 -15.5t13.5 -38.5q0 -24 -16 -40.5t-48 -16.5q-36 0 -69.5 12.5t-60.5 39.5t-42 72h39
q-14 -43 -43 -70.5t-75 -42.5t-112 -21t-153 -6zM356 -21q-81 0 -141.5 13.5t-101.5 40.5t-61 66.5t-20 91.5q0 28 5 59.5t13.5 62t16.5 55.5l98 -26q-4 -17 -10 -38.5t-9.5 -43.5t-3.5 -42q0 -38 20 -67.5t72 -45t147 -15.5l20 -79zM459 -229q-25 0 -42.5 17t-17.5 41
t17 42t43 18q24 0 41 -18t17 -42t-17.5 -41t-40.5 -17zM306 -229q-25 0 -42.5 17t-17.5 41t17 42t43 18q24 0 41 -18t17 -42t-17.5 -41t-40.5 -17z" />
    <glyph glyph-name="uni06B4.init" unicode="&#x6b4;" horiz-adv-x="384" 
d="M42 914q-22 0 -37 14.5t-15 34.5q0 22 15 37t37 15q20 0 34.5 -15t14.5 -37q0 -20 -14.5 -34.5t-34.5 -14.5zM31 788q-21 0 -35.5 14.5t-14.5 34.5q0 21 14.5 36t35.5 15t35.5 -15t14.5 -36q0 -20 -14.5 -34.5t-35.5 -14.5zM147 841q-21 0 -36 14.5t-15 35.5t15 36t36 15
q20 0 34.5 -15t14.5 -36t-14.5 -35.5t-34.5 -14.5zM22 600l-47 75q41 25 84.5 51.5t95 56.5t112.5 64l45 -79q-62 -33 -113 -62.5t-94.5 -55.5t-82.5 -50zM0 -5l10 111h92q31 0 50.5 6t30.5 16t15 22.5t4 25.5q0 30 -20 65t-54 72q-22 25 -42 45t-34.5 35.5t-23.5 26.5
t-9 18q0 13 2.5 31t7 34t10.5 23q15 14 39.5 33t60.5 42t86.5 51.5t115.5 62.5l52 -94q-58 -30 -103.5 -54.5t-80.5 -45t-62.5 -39.5t-50.5 -38l10 53q50 -50 89.5 -93.5t67.5 -83.5t42.5 -78.5t14.5 -78.5q0 -28 -10 -57t-35.5 -54.5t-70.5 -41t-115 -15.5h-89z" />
    <glyph glyph-name="uni06B4.medi" unicode="&#x6b4;" horiz-adv-x="435" 
d="M36 914q-22 0 -36.5 14.5t-14.5 34.5q0 22 14.5 37t36.5 15q20 0 34.5 -15t14.5 -37q0 -20 -14.5 -34.5t-34.5 -14.5zM26 788q-22 0 -36.5 14.5t-14.5 34.5q0 21 14.5 36t36.5 15q20 0 34.5 -15t14.5 -36q0 -20 -14.5 -34.5t-34.5 -14.5zM141 841q-21 0 -35.5 14.5
t-14.5 35.5t14.5 36t35.5 15t35.5 -15t14.5 -36t-14.5 -35.5t-35.5 -14.5zM22 600l-47 75q41 25 84.5 51.5t95 56.5t112.5 64l45 -79q-62 -33 -113 -62.5t-94.5 -55.5t-82.5 -50zM0 -5l9 111h87q40 0 63 8t33 23t10 37q0 18 -13.5 43t-34 52t-44 53.5t-44 50t-34 40.5
t-13.5 24q0 17 3 35t7.5 33t11.5 22q18 18 48.5 40t70.5 46.5t86 50t95 50.5l52 -93q-50 -26 -93 -49.5t-79.5 -45t-66.5 -41t-54 -38.5l1 50q31 -33 59.5 -64.5t55.5 -65.5t52 -72.5t49 -86.5q22 -44 42 -65.5t41 -29t46 -7.5q28 0 41.5 -15.5t13.5 -38.5
q0 -24 -16.5 -40.5t-48.5 -16.5q-37 0 -69.5 11.5t-59 39t-44.5 73.5l41 -5q-11 -33 -29.5 -55.5t-45 -37t-62 -20.5t-78.5 -6h-89z" />
    <glyph glyph-name="uni06B4.fina" unicode="&#x6b4;" horiz-adv-x="865" 
d="M473 915q-22 0 -36.5 15t-14.5 35q0 21 14.5 36t36.5 15q20 0 34.5 -15t14.5 -36q0 -20 -14.5 -35t-34.5 -15zM463 789q-22 0 -36.5 14.5t-14.5 35.5t14.5 36t36.5 15q20 0 34.5 -15t14.5 -36t-14.5 -35.5t-34.5 -14.5zM578 843q-21 0 -35.5 14.5t-14.5 34.5
q0 21 14.5 36.5t35.5 15.5t35.5 -15.5t14.5 -36.5q0 -20 -14.5 -34.5t-35.5 -14.5zM460 600l-46 76q40 25 83.5 51.5t95 56.5t112.5 64l45 -79q-62 -33 -113 -62.5t-94.5 -56t-82.5 -50.5zM356 -21l25 111q66 0 114 4t79.5 13.5t46.5 25t15 39.5q0 19 -13 44t-33.5 52.5
t-43.5 54t-44 49.5t-34 40t-13 25q0 17 2.5 34.5t7 32t11.5 21.5q24 26 70 57t106 64.5t124 67.5l52 -93q-68 -37 -123 -67.5t-97.5 -57.5t-74.5 -53l3 54q31 -31 60.5 -64.5t58 -70t53.5 -76t46 -81.5q16 -32 30.5 -52t30 -30t32 -13.5t34.5 -3.5q28 0 41.5 -15.5
t13.5 -38.5q0 -24 -16 -40.5t-48 -16.5q-36 0 -69.5 12.5t-60.5 39.5t-42 72h39q-14 -43 -43 -70.5t-75 -42.5t-112 -21t-153 -6zM356 -21q-81 0 -141.5 13.5t-101.5 40.5t-61 66.5t-20 91.5q0 28 5 59.5t13.5 62t16.5 55.5l98 -26q-4 -17 -10 -38.5t-9.5 -43.5t-3.5 -42
q0 -38 20 -67.5t72 -45t147 -15.5l20 -79z" />
    <glyph glyph-name="uni06B5.init" unicode="&#x6b5;" horiz-adv-x="259" 
d="M0 -5l9 111q39 0 56 11t21 40t2 82l-19 484h114l20 -488q2 -56 -4 -100.5t-26.5 -75.5t-62 -47.5t-110.5 -16.5zM99 825q-7 14 -17 38t-21.5 52t-22 53t-18.5 40l50 23q5 -10 14 -31t20 -45.5t21 -47.5t17 -37l19 -40zM161 830l-46 19q5 16 15.5 43.5t21.5 57t20 52.5
t12 30l49 -17q-4 -10 -13.5 -34t-21 -53.5t-22 -56t-15.5 -41.5z" />
    <glyph glyph-name="uni06B5.medi" unicode="&#x6b5;" horiz-adv-x="283" 
d="M0 -5l10 111q35 0 51 11.5t20.5 40.5t2.5 81l-17 484h114l18 -482q2 -53 11 -83t29.5 -41t54.5 -11q28 0 41 -15.5t13 -38.5q0 -25 -16 -41t-48 -16q-34 0 -65.5 11.5t-53.5 36.5t-28 66h38q-14 -41 -38 -66t-57.5 -36.5t-79.5 -11.5zM104 838q-7 14 -17 38t-21.5 52
t-22 53t-18.5 40l50 23q5 -10 14 -31t20 -45.5t21 -47.5t17 -37l19 -40zM166 843l-46 19q5 16 15.5 43.5t21.5 57t20 52.5t12 30l49 -17q-4 -10 -13.5 -34t-21 -53.5t-22 -56t-15.5 -41.5z" />
    <glyph glyph-name="uni06B5.fina" unicode="&#x6b5;" horiz-adv-x="687" 
d="M35 9q0 21 4 50t15 68t34 88l98 -40q-13 -32 -21.5 -58t-12.5 -48.5t-4 -45.5q0 -47 19.5 -79t54 -48.5t77.5 -16.5q74 0 114 30.5t54.5 93t10.5 156.5l-20 564h115l15 -486q2 -53 15.5 -81.5t37 -39t56.5 -10.5q28 0 41.5 -15.5t13.5 -38.5q0 -25 -16 -41t-48 -16
q-22 0 -44 6t-41 18.5t-32.5 33t-19.5 50.5l38 -7q-2 -72 -20 -132t-53.5 -103.5t-90.5 -67t-131 -23.5q-50 0 -97 14.5t-83.5 44t-57.5 74.5t-21 106zM221 573q-7 14 -17 38t-21.5 52t-22 53t-18.5 40l50 23q5 -10 14 -31t20 -45.5t21 -47.5t17 -37l19 -40zM283 578l-46 19
q5 16 15.5 43.5t21.5 57t20 52.5t12 30l49 -17q-4 -10 -13.5 -34t-21 -53.5t-22 -56t-15.5 -41.5z" />
    <glyph glyph-name="uni06B6.init" unicode="&#x6b6;" horiz-adv-x="259" 
d="M0 -5l9 111q39 0 56 11t21 40t2 82l-19 484h114l20 -488q2 -56 -4 -100.5t-26.5 -75.5t-62 -47.5t-110.5 -16.5zM129 809q-25 0 -42.5 17t-17.5 42t17.5 43t43.5 18q24 0 41 -18t17 -43t-17.5 -42t-41.5 -17z" />
    <glyph glyph-name="uni06B6.medi" unicode="&#x6b6;" horiz-adv-x="283" 
d="M0 -5l10 111q35 0 51 11.5t20.5 40.5t2.5 81l-17 484h114l18 -482q2 -53 11 -83t29.5 -41t54.5 -11q28 0 41 -15.5t13 -38.5q0 -25 -16 -41t-48 -16q-34 0 -65.5 11.5t-53.5 36.5t-28 66h38q-14 -41 -38 -66t-57.5 -36.5t-79.5 -11.5zM131 809q-25 0 -42.5 17t-17.5 42
t17.5 43t43.5 18q24 0 41 -18t17 -43t-17.5 -42t-41.5 -17z" />
    <glyph glyph-name="uni06B6.fina" unicode="&#x6b6;" horiz-adv-x="687" 
d="M35 9q0 21 4 50t15 68t34 88l98 -40q-13 -32 -21.5 -58t-12.5 -48.5t-4 -45.5q0 -47 19.5 -79t54 -48.5t77.5 -16.5q74 0 114 30.5t54.5 93t10.5 156.5l-20 564h115l15 -486q2 -53 15.5 -81.5t37 -39t56.5 -10.5q28 0 41.5 -15.5t13.5 -38.5q0 -25 -16 -41t-48 -16
q-22 0 -44 6t-41 18.5t-32.5 33t-19.5 50.5l38 -7q-2 -72 -20 -132t-53.5 -103.5t-90.5 -67t-131 -23.5q-50 0 -97 14.5t-83.5 44t-57.5 74.5t-21 106zM251 557q-25 0 -42.5 17t-17.5 42t17.5 43t43.5 18q24 0 41 -18t17 -43t-17.5 -42t-41.5 -17z" />
    <glyph glyph-name="uni06B7.init" unicode="&#x6b7;" horiz-adv-x="259" 
d="M0 -5l9 111q39 0 56 11t21 40t2 82l-19 484h114l20 -488q2 -56 -4 -100.5t-26.5 -75.5t-62 -47.5t-110.5 -16.5zM130 938q-24 0 -41 17t-17 40q0 25 17 42t42 17q23 0 39.5 -17t16.5 -41q0 -25 -16.5 -41.5t-40.5 -16.5zM57 809q-24 0 -41 17t-17 40q0 24 17 41.5
t41 17.5t40.5 -17.5t16.5 -41.5q0 -23 -17 -40t-40 -17zM207 809q-24 0 -41 17t-17 40q0 25 17 42t42 17q23 0 39.5 -17t16.5 -42q0 -23 -16.5 -40t-40.5 -17z" />
    <glyph glyph-name="uni06B7.medi" unicode="&#x6b7;" horiz-adv-x="283" 
d="M0 -5l10 111q35 0 51 11.5t20.5 40.5t2.5 81l-17 484h114l18 -482q2 -53 11 -83t29.5 -41t54.5 -11q28 0 41 -15.5t13 -38.5q0 -25 -16 -41t-48 -16q-34 0 -65.5 11.5t-53.5 36.5t-28 66h38q-14 -41 -38 -66t-57.5 -36.5t-79.5 -11.5zM122 938q-24 0 -41 17t-17 40
q0 25 17 42t42 17q23 0 39.5 -17t16.5 -41q0 -25 -16.5 -41.5t-40.5 -16.5zM49 809q-24 0 -41 17t-17 40q0 24 17 41.5t41 17.5t40.5 -17.5t16.5 -41.5q0 -23 -17 -40t-40 -17zM199 809q-24 0 -41 17t-17 40q0 25 17 42t42 17q23 0 39.5 -17t16.5 -42q0 -23 -16.5 -40
t-40.5 -17z" />
    </font>
</defs>
</svg>
