<?xml version="1.0" standalone="no"?>
<!DOCTYPE svg PUBLIC "-//W3C//DTD SVG 1.1//EN" "http://www.w3.org/Graphics/SVG/1.1/DTD/svg11.dtd" >
<svg xmlns="http://www.w3.org/2000/svg" xmlns:xlink="http://www.w3.org/1999/xlink" version="1.1">
<metadata>
Created by FontForge 20170731 at Thu Nov 12 05:28:44 2020
 By Aleksey,,,
Copyright 2015-2020 Google LLC. All Rights Reserved.
</metadata>
<defs>
<font id="NotoSansArabicCondensed-Thin" horiz-adv-x="0" >
  <font-face 
    font-family="Noto Sans Arabic Condensed Thin"
    font-weight="250"
    font-stretch="condensed"
    units-per-em="1000"
    panose-1="0 0 0 0 0 0 0 0 0 0"
    ascent="800"
    descent="-200"
    bbox="-214 -573 1995 1060"
    underline-thickness="50"
    underline-position="-175"
    unicode-range="U+000D-FEFC"
  />
<missing-glyph horiz-adv-x="600" 
d="M107 0v714h385v-714h-385zM131 24h337v666h-337v-666z" />
    <glyph glyph-name="uniFC43" unicode="&#xfedf;&#xfef0;" horiz-adv-x="835" arabic-form="isolated" 
d="M655 -5l4 23q49 0 71 15t28 49.5t4 92.5l-19 539h23l20 -537q2 -50 -2.5 -84.5t-18.5 -56t-40.5 -31.5t-69.5 -10zM43 -16q0 19 3.5 46t15 64.5t36.5 84.5l22 -10q-17 -32 -29 -64.5t-17.5 -63t-5.5 -59.5q0 -42 13.5 -76.5t42.5 -59.5t72.5 -38.5t102.5 -13.5
q67 0 118 17.5t85.5 44t51.5 56t17 54.5q0 20 -12.5 35t-34.5 26.5t-49.5 21.5t-59.5 21l7 25q39 -16 72.5 -30t62.5 -24.5t54 -16.5t48 -6q7 0 10.5 -2.5t3.5 -8.5t-4.5 -9t-15.5 -3q-9 0 -22 1.5t-26.5 5.5t-27.5 10q11 -13 14.5 -27.5t3.5 -23.5q0 -27 -18.5 -60
t-55.5 -62.5t-92 -49t-128 -19.5q-72 0 -131 22.5t-93 70t-34 121.5z" />
    <glyph glyph-name="uniFC86" unicode="&#xfee0;&#xfef0;" horiz-adv-x="887" arabic-form="final" 
d="M655 -5l4 23q49 0 72 22t29 64t4 101l-17 509h25l16 -507q3 -76 14 -117t33 -56.5t56 -15.5q6 0 10 -2.5t4 -8.5t-4.5 -9t-13.5 -3q-33 0 -56 15.5t-37 41.5t-20 55h10q-7 -34 -21 -59t-39.5 -39t-68.5 -14zM43 -16q0 19 3.5 46t15 64.5t36.5 84.5l22 -10
q-17 -32 -29 -64.5t-17.5 -63t-5.5 -59.5q0 -42 13.5 -76.5t42.5 -59.5t72.5 -38.5t102.5 -13.5q67 0 118 17.5t85.5 44t51.5 56t17 54.5q0 20 -12.5 35t-34.5 26.5t-49.5 21.5t-59.5 21l7 25q39 -16 72.5 -30t62.5 -24.5t54 -16.5t48 -6q7 0 10.5 -2.5t3.5 -8.5t-4.5 -9
t-15.5 -3q-9 0 -22 1.5t-26.5 5.5t-27.5 10q11 -13 14.5 -27.5t3.5 -23.5q0 -27 -18.5 -60t-55.5 -62.5t-92 -49t-128 -19.5q-72 0 -131 22.5t-93 70t-34 121.5z" />
    <glyph glyph-name="uniFD82" unicode="&#xfee0;&#xfea4;&#xfef0;" horiz-adv-x="1403" arabic-form="final" 
d="M1171 -5l4 23q49 0 72 22t29 64t4 101l-17 509h25l16 -507q3 -76 14 -117t33 -56.5t56 -15.5q6 0 10 -2.5t4 -8.5t-4.5 -9t-13.5 -3q-33 0 -56 15.5t-37 41.5t-20 55h10q-7 -34 -21 -59t-39.5 -39t-68.5 -14zM1171 -5q-25 0 -51 2.5t-49.5 15t-42.5 41.5t-30 81l20 8
q14 -62 37.5 -88t54 -31.5t65.5 -5.5q9 0 11.5 -3.5t2.5 -7.5q0 -5 -4.5 -8.5t-13.5 -3.5zM655 -5l4 23q46 0 87 7t82.5 23.5t88.5 43t105 65.5q-48 36 -87 64t-74.5 44t-76.5 16q-13 0 -25 -1t-24.5 -2.5t-27.5 -6.5l-4 23q19 6 40 8t41 2q44 0 79.5 -13.5t65 -33t54 -39.5
t46.5 -33.5t44 -13.5h18l3 -23q-28 0 -54 -11.5t-53.5 -28.5t-60 -36.5t-72 -37t-88.5 -28.5t-111 -11zM43 -16q0 19 3.5 46t15 64.5t36.5 84.5l22 -10q-17 -32 -29 -64.5t-17.5 -63t-5.5 -59.5q0 -42 13.5 -76.5t42.5 -59.5t72.5 -38.5t102.5 -13.5q67 0 118 17.5t85.5 44
t51.5 56t17 54.5q0 20 -12.5 35t-34.5 26.5t-49.5 21.5t-59.5 21l7 25q39 -16 72.5 -30t62.5 -24.5t54 -16.5t48 -6q7 0 10.5 -2.5t3.5 -8.5t-4.5 -9t-15.5 -3q-9 0 -22 1.5t-26.5 5.5t-27.5 10q11 -13 14.5 -27.5t3.5 -23.5q0 -27 -18.5 -60t-55.5 -62.5t-92 -49
t-128 -19.5q-72 0 -131 22.5t-93 70t-34 121.5z" />
    <glyph glyph-name="uniFDF2" unicode="&#x627;&#xfedf;&#xfee0;&#xfeea;" horiz-adv-x="1034" arabic-form="isolated" 
d="M410 -5q-25 0 -49 7t-41.5 29t-24.5 66q-50 -11 -95.5 -8t-81 17.5t-55.5 40.5t-20 62q0 48 29 94.5t81.5 83t123.5 52.5l-4 77h24l18 -367q3 -51 11.5 -80t29.5 -40t60 -11q49 0 72 22t29 64t4 101l-15 363h25l14 -361q2 -76 13.5 -117t34 -56.5t57.5 -15.5
q48 0 70.5 15t28.5 49.5t4 92.5l-19 539h23l20 -537q2 -50 -2.5 -84.5t-18.5 -56t-41 -31.5t-71 -10q-29 0 -50.5 12.5t-35.5 33t-22 45.5q-12 -42 -39.5 -66.5t-86.5 -24.5zM292 120l-14 294q-59 -13 -107 -44.5t-75.5 -73t-27.5 -83.5q0 -35 20 -56.5t53 -32t72.5 -11.5
t78.5 7zM932 0l-19 714h23l20 -714h-24zM453 598q-29 0 -44 21.5t-15 57.5q0 11 1.5 25.5t4.5 30.5l21 6q-3 -19 -4.5 -34t-1.5 -26q0 -23 8.5 -41t29.5 -18q16 0 30 17.5t14 60.5v63l22 8v-81q0 -14 11 -24.5t28 -10.5q21 0 30 16t9 44q0 22 -4 41.5t-11 36.5l20 7
q7 -13 12 -37.5t5 -47.5q0 -34 -14.5 -58t-47.5 -24q-23 0 -38 14.5t-15 37.5h12q0 -34 -16.5 -59.5t-46.5 -25.5zM494 828l-6 155h22l5 -155h-21z" />
    <glyph glyph-name="uniFEF5" unicode="&#xfedf;&#xfe82;" horiz-adv-x="596" arabic-form="isolated" 
d="M342 527q0 33 -3.5 68.5t-8 67t-8.5 51.5l23 5q4 -19 8.5 -52t8 -70.5t3.5 -71.5q0 -38 -5 -74.5t-15 -72.5t-24 -70l-3 -9q-33 -78 -84.5 -148t-113.5 -127h181q47 0 72 14t34 35t9 43q0 43 -26 85.5t-74.5 90.5t-117.5 108.5t-157 139.5l13 20q82 -71 145 -127
t108.5 -100.5t75 -81.5t43 -69.5t13.5 -64.5q0 -18 -5.5 -38.5t-20.5 -38t-42 -29t-70 -11.5h-204v37q82 70 136.5 152t81.5 168.5t27 169.5zM158 611q-25 0 -47 10.5t-41.5 20.5t-35.5 10q-14 0 -29 -9t-31 -25l-15 14q17 18 35.5 30.5t41.5 12.5q21 0 41 -10l41 -20.5
t43 -10.5q19 0 38 9t41 28l12 -17q-25 -23 -49 -33t-45 -10z" />
    <glyph glyph-name="uniFEF6" unicode="&#xfee0;&#xfe82;" horiz-adv-x="479" arabic-form="final" 
d="M483 -5q-33 0 -55.5 9.5t-37 31.5t-22 59.5t-9.5 94.5l-20 524h23l18 -499q3 -66 8.5 -110t27 -65.5t70.5 -21.5q6 0 8.5 -3t2.5 -8q0 -4 -4 -8t-10 -4zM134 -11q-27 0 -54.5 4.5t-38.5 6.5l4 25q64 -18 120 -9t98 47t66.5 104.5t24.5 163.5l17 -24q0 -79 -16.5 -134.5
t-43 -91.5t-58 -56t-63 -28t-56.5 -8zM338 154q-29 47 -59.5 97t-64 100t-70 97.5t-75.5 90.5l17 16q44 -48 81 -97t69.5 -98t60.5 -95.5t53 -90.5zM158 611q-25 0 -47 10.5t-41.5 20.5t-35.5 10q-14 0 -29 -9t-31 -25l-15 14q17 18 35.5 30.5t41.5 12.5q21 0 41 -10
l41 -20.5t43 -10.5q19 0 38 9t41 28l12 -17q-25 -23 -49 -33t-45 -10z" />
    <glyph glyph-name="uniFEF7" unicode="&#xfedf;&#xfe84;" horiz-adv-x="517" arabic-form="isolated" 
d="M342 527q0 33 -3.5 68.5t-8 67t-8.5 51.5l23 5q4 -19 8.5 -52t8 -70.5t3.5 -71.5q0 -38 -5 -74.5t-15 -72.5t-24 -70l-3 -9q-33 -78 -84.5 -148t-113.5 -127h181q47 0 72 14t34 35t9 43q0 43 -26 85.5t-74.5 90.5t-117.5 108.5t-157 139.5l13 20q82 -71 145 -127
t108.5 -100.5t75 -81.5t43 -69.5t13.5 -64.5q0 -18 -5.5 -38.5t-20.5 -38t-42 -29t-70 -11.5h-204v37q82 70 136.5 152t81.5 168.5t27 169.5zM14 609l-5 22q24 6 43 11.5t35 10.5l29 -8q-43 5 -71.5 33t-28.5 62q0 26 12.5 44t31.5 27t39 9q13 0 25 -2t22 -6l-5 -20
q-10 3 -20.5 4.5t-21.5 1.5q-30 0 -45.5 -17.5t-15.5 -40.5q0 -21 13 -38t33.5 -27.5t44.5 -15.5l-38 -4q26 7 48 14t42 14l7 -20q-24 -9 -54.5 -19t-61 -19t-58.5 -16z" />
    <glyph glyph-name="uniFEF8" unicode="&#xfee0;&#xfe84;" horiz-adv-x="479" arabic-form="final" 
d="M483 -5q-33 0 -55.5 9.5t-37 31.5t-22 59.5t-9.5 94.5l-20 524h23l18 -499q3 -66 8.5 -110t27 -65.5t70.5 -21.5q6 0 8.5 -3t2.5 -8q0 -4 -4 -8t-10 -4zM134 -11q-27 0 -54.5 4.5t-38.5 6.5l4 25q64 -18 120 -9t98 47t66.5 104.5t24.5 163.5l17 -24q0 -79 -16.5 -134.5
t-43 -91.5t-58 -56t-63 -28t-56.5 -8zM338 154q-29 47 -59.5 97t-64 100t-70 97.5t-75.5 90.5l17 16q44 -48 81 -97t69.5 -98t60.5 -95.5t53 -90.5zM51 609l-5 22q24 6 43 11.5t35 10.5l29 -8q-43 5 -71.5 33t-28.5 62q0 26 12.5 44t31.5 27t39 9q13 0 25 -2t22 -6l-5 -20
q-10 3 -20.5 4.5t-21.5 1.5q-30 0 -45.5 -17.5t-15.5 -40.5q0 -21 13 -38t33.5 -27.5t44.5 -15.5l-38 -4q26 7 48 14t42 14l7 -20q-24 -9 -54.5 -19t-61 -19t-58.5 -16z" />
    <glyph glyph-name="uniFEF9" unicode="&#xfedf;&#xfe88;" horiz-adv-x="517" arabic-form="isolated" 
d="M342 527q0 33 -3.5 68.5t-8 67t-8.5 51.5l23 5q4 -19 8.5 -52t8 -70.5t3.5 -71.5q0 -38 -5 -74.5t-15 -72.5t-24 -70l-3 -9q-33 -78 -84.5 -148t-113.5 -127h181q47 0 72 14t34 35t9 43q0 43 -26 85.5t-74.5 90.5t-117.5 108.5t-157 139.5l13 20q82 -71 145 -127
t108.5 -100.5t75 -81.5t43 -69.5t13.5 -64.5q0 -18 -5.5 -38.5t-20.5 -38t-42 -29t-70 -11.5h-204v37q82 70 136.5 152t81.5 168.5t27 169.5zM82 -281l-5 22q24 6 43 11.5t35 10.5l29 -8q-43 5 -71.5 33t-28.5 62q0 26 12.5 44t31.5 27t39 9q13 0 25 -2t22 -6l-5 -20
q-10 3 -20.5 4.5t-21.5 1.5q-30 0 -45.5 -17.5t-15.5 -40.5q0 -21 13 -38t33.5 -27.5t44.5 -15.5l-38 -4q26 7 48 14t42 14l7 -20q-24 -9 -54.5 -19t-61 -19t-58.5 -16z" />
    <glyph glyph-name="uniFEFA" unicode="&#xfee0;&#xfe88;" horiz-adv-x="479" arabic-form="final" 
d="M483 -5q-33 0 -55.5 9.5t-37 31.5t-22 59.5t-9.5 94.5l-20 524h23l18 -499q3 -66 8.5 -110t27 -65.5t70.5 -21.5q6 0 8.5 -3t2.5 -8q0 -4 -4 -8t-10 -4zM134 -11q-27 0 -54.5 4.5t-38.5 6.5l4 25q64 -18 120 -9t98 47t66.5 104.5t24.5 163.5l17 -24q0 -79 -16.5 -134.5
t-43 -91.5t-58 -56t-63 -28t-56.5 -8zM338 154q-29 47 -59.5 97t-64 100t-70 97.5t-75.5 90.5l17 16q44 -48 81 -97t69.5 -98t60.5 -95.5t53 -90.5zM89 -281l-5 22q24 6 43 11.5t35 10.5l29 -8q-43 5 -71.5 33t-28.5 62q0 26 12.5 44t31.5 27t39 9q13 0 25 -2t22 -6l-5 -20
q-10 3 -20.5 4.5t-21.5 1.5q-30 0 -45.5 -17.5t-15.5 -40.5q0 -21 13 -38t33.5 -27.5t44.5 -15.5l-38 -4q26 7 48 14t42 14l7 -20q-24 -9 -54.5 -19t-61 -19t-58.5 -16z" />
    <glyph glyph-name="uniFEFB" unicode="&#xfedf;&#xfe8e;" horiz-adv-x="517" arabic-form="isolated" 
d="M342 527q0 33 -3.5 68.5t-8 67t-8.5 51.5l23 5q4 -19 8.5 -52t8 -70.5t3.5 -71.5q0 -38 -5 -74.5t-15 -72.5t-24 -70l-3 -9q-33 -78 -84.5 -148t-113.5 -127h181q47 0 72 14t34 35t9 43q0 43 -26 85.5t-74.5 90.5t-117.5 108.5t-157 139.5l13 20q82 -71 145 -127
t108.5 -100.5t75 -81.5t43 -69.5t13.5 -64.5q0 -18 -5.5 -38.5t-20.5 -38t-42 -29t-70 -11.5h-204v37q82 70 136.5 152t81.5 168.5t27 169.5z" />
    <glyph glyph-name="uniFEFC" unicode="&#xfee0;&#xfe8e;" horiz-adv-x="479" arabic-form="final" 
d="M483 -5q-33 0 -55.5 9.5t-37 31.5t-22 59.5t-9.5 94.5l-20 524h23l18 -499q3 -66 8.5 -110t27 -65.5t70.5 -21.5q6 0 8.5 -3t2.5 -8q0 -4 -4 -8t-10 -4zM134 -11q-27 0 -54.5 4.5t-38.5 6.5l4 25q64 -18 120 -9t98 47t66.5 104.5t24.5 163.5l17 -24q0 -79 -16.5 -134.5
t-43 -91.5t-58 -56t-63 -28t-56.5 -8zM338 154q-29 47 -59.5 97t-64 100t-70 97.5t-75.5 90.5l17 16q44 -48 81 -97t69.5 -98t60.5 -95.5t53 -90.5z" />
    <glyph glyph-name="lam_alefMaksura_meemar" unicode="&#xfedf;&#xfbe9;&#xfee2;" horiz-adv-x="891" 
d="M711 -5l4 23q49 0 71 15t28 49.5t4 92.5l-19 539h23l20 -537q2 -50 -2.5 -84.5t-18.5 -56t-40.5 -31.5t-69.5 -10zM491 -5l4 23q50 0 75 14t33.5 38.5t8.5 58.5q0 35 -5.5 69t-16.5 72t-28 84l23 9q16 -43 27.5 -82t17.5 -76t6 -72q0 -25 -4 -46t-13.5 -38t-26.5 -29
t-41.5 -18.5t-59.5 -6.5zM90 -393q-21 81 -36 155t-23 131.5t-8 89.5q0 73 16 131t42.5 101t57.5 71t61.5 42t54.5 14q20 0 33.5 -15t30 -55t44.5 -119q18 -51 37 -80.5t42 -42t53 -12.5q7 0 10.5 -2.5t3.5 -8.5t-4.5 -9t-13.5 -3q-41 0 -75 25.5t-49 67.5l13 -1
q3 -28 -6.5 -49.5t-28.5 -33.5t-45 -12q-25 0 -54 11t-57.5 35.5t-54.5 63t-44 92.5l6 -3q-25 -43 -37.5 -97.5t-12.5 -113.5q0 -29 5 -69.5t14 -89t21 -101.5t26 -107zM301 15q23 0 38 13t18.5 37.5t-8.5 57.5q-18 50 -31 86.5t-24 60.5t-21 35.5t-21 11.5q-15 0 -34 -7
t-39 -21.5t-39 -34.5t-34 -47v11q18 -59 48 -104.5t68.5 -72t78.5 -26.5z" />
    <glyph glyph-name="lam_alefWaslaar" unicode="&#xfedf;&#xfb51;" horiz-adv-x="436" 
d="M133 633q-22 0 -47.5 2t-48.5 5t-37 5l3 21q15 -2 37 -4.5t46 -4.5t46 -2q56 0 78 22t22 47q0 23 -13 33.5t-31 10.5q-27 0 -51.5 -18t-44 -44.5t-31.5 -53.5l-21 4q15 33 37 63.5t51 50.5t62 20q31 0 47 -19t16 -46q0 -24 -13 -45t-39 -34t-68 -13zM342 527
q0 33 -3.5 68.5t-8 67t-8.5 51.5l24 5q3 -19 7.5 -52t8 -70.5t3.5 -71.5q0 -38 -5 -74.5t-15 -72.5t-24 -70l-3 -9q-33 -78 -84.5 -148t-113.5 -127h181q47 0 72 14t34 35t9 43q0 43 -26 85.5t-74.5 90.5t-117.5 108.5t-157 139.5l13 20q82 -71 145 -127t108.5 -100.5
t75 -81.5t43 -69.5t13.5 -64.5q0 -18 -5.5 -38.5t-20.5 -38t-42 -29t-70 -11.5h-204v37q82 70 136.5 152t81.5 168.5t27 169.5z" />
    <glyph glyph-name="lam_alefWaslaar.fina" unicode="&#xfee0;&#xfb51;" horiz-adv-x="495" 
d="M133 661q-22 0 -47.5 2t-48.5 5t-37 5l3 21q15 -2 37 -4.5t46 -4.5t46 -2q56 0 78 22t22 47q0 23 -13 33.5t-31 10.5q-27 0 -51.5 -18t-44 -44.5t-31.5 -53.5l-21 4q15 33 37 63.5t50.5 50.5t62.5 20q31 0 47 -19t16 -46q0 -24 -13 -45t-39.5 -34t-67.5 -13zM483 -5
q-33 0 -55.5 9.5t-37 31.5t-22 59.5t-9.5 94.5l-20 524h23l18 -499q3 -66 8.5 -110t27 -65.5t70.5 -21.5q6 0 8.5 -3t2.5 -8q0 -4 -4 -8t-10 -4zM134 -11q-27 0 -54.5 4.5t-38.5 6.5l4 25q64 -18 120 -9t98 47t66.5 104.5t24.5 163.5l17 -24q0 -79 -16.5 -134.5t-43 -91.5
t-58 -56t-63 -28t-56.5 -8zM338 154q-29 47 -59.5 97t-64 100t-70 97.5t-75.5 90.5l17 16q44 -48 81 -97t69.5 -98t60.5 -95.5t53 -90.5z" />
    <glyph glyph-name="uni0620.init" unicode="&#x620;" horiz-adv-x="246" 
d="M0 -5l4 23q50 0 80 10.5t44 35t14 65.5q0 34 -6 68.5t-17 72.5t-27 84l23 9q16 -42 27 -81.5t17.5 -75.5t6.5 -72q0 -35 -8.5 -61.5t-28 -43.5t-51.5 -25.5t-78 -8.5zM125 -107q-30 0 -51 21.5t-21 51.5t21 51t51 21t51.5 -21t21.5 -51t-21.5 -51.5t-51.5 -21.5zM125 -86
q21 0 36.5 15t15.5 37q0 21 -15.5 36.5t-36.5 15.5q-20 0 -35 -15.5t-15 -36.5t15 -36.5t35 -15.5z" />
    <glyph glyph-name="uni0620.medi" unicode="&#x620;" horiz-adv-x="272" 
d="M0 -5l4 23q26 0 49 7.5t42.5 31.5t36.5 73.5t31 133.5l24 -5q-7 -36 -12.5 -60t-8 -42.5t-2.5 -40.5q0 -23 4.5 -41t16 -31t33.5 -19.5t58 -6.5q9 0 11.5 -3.5t2.5 -7.5q0 -5 -4 -8.5t-14 -3.5q-37 0 -62 7.5t-40 21.5t-21 37t-5 53h3q-11 -39 -25.5 -63t-32.5 -36
t-40 -16t-49 -4zM88 -116q-30 0 -51 21.5t-21 51.5t21 51t51 21t51.5 -21t21.5 -51t-21.5 -51.5t-51.5 -21.5zM88 -96q21 0 36 15.5t15 37.5q0 21 -15 36t-36 15t-36 -15t-15 -36t15 -37t36 -16z" />
    <glyph glyph-name="uni0620.fina" unicode="&#x620;" horiz-adv-x="655" 
d="M291 -355q-30 0 -51 22t-21 52q0 29 21 50.5t51 21.5t51.5 -21.5t21.5 -50.5q0 -30 -21.5 -52t-51.5 -22zM291 -334q20 0 35.5 15.5t15.5 37.5q0 20 -15 35.5t-36 15.5t-36 -15.5t-15 -35.5q0 -22 15 -37.5t36 -15.5zM43 -16q0 19 3.5 46t15 64.5t36.5 84.5l22 -10
q-17 -32 -29 -64.5t-17.5 -63t-5.5 -59.5q0 -42 13.5 -76.5t42.5 -59.5t72.5 -38.5t102.5 -13.5q67 0 118 17.5t85.5 44t51.5 56t17 54.5q0 20 -12.5 35t-34.5 26.5t-49.5 21.5t-59.5 21l7 25q39 -16 72.5 -30t62.5 -24.5t54 -16.5t48 -6q7 0 10.5 -2.5t3.5 -8.5t-4.5 -9
t-15.5 -3q-9 0 -22 1.5t-26.5 5.5t-27.5 10q11 -13 14.5 -27.5t3.5 -23.5q0 -27 -18.5 -60t-55.5 -62.5t-92 -49t-128 -19.5q-72 0 -131 22.5t-93 70t-34 121.5z" />
    <glyph glyph-name="uni063B.init" unicode="&#x63b;" horiz-adv-x="342" 
d="M215 744q-10 0 -16.5 7t-6.5 16t6.5 15.5t16.5 6.5q9 0 15.5 -6.5t6.5 -15.5t-6.5 -16t-15.5 -7zM106 692q-10 0 -16.5 7t-6.5 16t6.5 15.5t16.5 6.5q9 0 15.5 -6.5t6.5 -15.5t-6.5 -16t-15.5 -7zM0 -5l4 23h76q53 0 86.5 10.5t51 28.5t24 41t6.5 48q0 44 -24.5 93.5
t-70.5 104.5q-39 48 -63.5 76t-38 43t-18.5 21.5t-5 9.5q0 9 2 14.5t5.5 10t7.5 7.5q28 22 58.5 44.5t66 46t76 48.5t87.5 51l11 -19q-46 -27 -89.5 -53.5t-81.5 -53t-70 -50.5t-57 -46v11q40 -47 80 -92.5t73 -89.5t53.5 -88t20.5 -90q0 -34 -10 -61t-32.5 -47t-59.5 -31
t-90 -11h-79z" />
    <glyph glyph-name="uni063B.medi" unicode="&#x63b;" horiz-adv-x="409" 
d="M209 744q-10 0 -16.5 7t-6.5 16t6.5 15.5t16.5 6.5q9 0 15.5 -6.5t6.5 -15.5t-6.5 -16t-15.5 -7zM100 692q-10 0 -16.5 7t-6.5 16t6.5 15.5t16.5 6.5q9 0 15.5 -6.5t6.5 -15.5t-6.5 -16t-15.5 -7zM0 -5l4 23h81q57 0 93 13.5t53 42t17 71.5q0 33 -15.5 69.5t-40.5 73.5
t-53 71.5t-53 62.5t-41 47.5t-16 25.5q0 8 2 13.5t5.5 10t7.5 7.5q25 21 56.5 44t67.5 47t77 49t86 50l11 -20q-45 -25 -88.5 -52.5t-82.5 -53.5t-71.5 -50.5t-54.5 -45.5l2 10q27 -35 60 -72.5t66 -78.5t59 -85.5t39 -92.5q13 -47 32.5 -82.5t46.5 -55t62 -19.5
q7 0 11 -2.5t4 -8.5t-5 -9t-13 -3q-34 0 -64.5 19t-53 55t-35.5 86l15 -13q-1 -44 -16 -72.5t-41.5 -45t-60 -23t-72.5 -6.5h-81z" />
    <glyph glyph-name="uni063B.fina" unicode="&#x63b;" horiz-adv-x="833" 
d="M622 745q-10 0 -16.5 7t-6.5 16t6.5 15.5t16.5 6.5q9 0 15.5 -6.5t6.5 -15.5t-6.5 -16t-15.5 -7zM513 693q-10 0 -16.5 7t-6.5 16t6.5 15.5t16.5 6.5q9 0 15.5 -6.5t6.5 -15.5t-6.5 -16t-15.5 -7zM326 -21l12 23q69 0 129.5 7t106.5 23t72 43.5t26 68.5q0 34 -16.5 71
t-42.5 74t-54.5 71t-54 62t-42 47.5t-16.5 25.5q0 8 2 13.5t5.5 10t7.5 7.5q32 26 75.5 57t96.5 65t114 68l12 -19q-58 -33 -116.5 -71.5t-106 -73t-74.5 -58.5l2 10q27 -34 61.5 -72t68 -79t60.5 -85.5t40 -92.5q6 -21 16.5 -47.5t27 -51.5t40.5 -41.5t58 -16.5
q7 0 11 -2.5t4 -8.5t-5 -9t-13 -3q-34 0 -64 18t-52.5 54t-36.5 88l15 -13q-1 -46 -27.5 -77.5t-75 -50t-116.5 -27t-150 -8.5zM326 -21q-67 0 -119 11.5t-88.5 35t-56 59t-19.5 82.5q0 23 4 48.5t9.5 50t11.5 45.5l22 -6q-6 -19 -11 -41.5t-8.5 -46.5t-3.5 -47
q0 -58 31.5 -95.5t92 -55t147.5 -17.5l20 -14z" />
    <glyph glyph-name="uni063C.init" unicode="&#x63c;" horiz-adv-x="342" 
d="M0 -5l4 23h76q53 0 86.5 10.5t51 28.5t24 41t6.5 48q0 44 -24.5 93.5t-70.5 104.5q-39 48 -63.5 76t-38 43t-18.5 21.5t-5 9.5q0 9 2 14.5t5.5 10t7.5 7.5q28 22 58.5 44.5t66 46t76 48.5t87.5 51l11 -19q-46 -27 -89.5 -53.5t-81.5 -53t-70 -50.5t-57 -46v11
q40 -47 80 -92.5t73 -89.5t53.5 -88t20.5 -90q0 -34 -10 -61t-32.5 -47t-59.5 -31t-90 -11h-79zM136 -250q-11 0 -19 8t-8 18q0 11 8 19t19 8t18.5 -8t7.5 -19q0 -10 -7.5 -18t-18.5 -8zM87 -167q-11 0 -19 8t-8 18q0 11 7.5 19t19.5 8q11 0 18.5 -8t7.5 -19q0 -10 -8 -18
t-18 -8zM185 -167q-12 0 -20 8t-8 18q0 11 8 19t20 8q10 0 17.5 -8t7.5 -19q0 -10 -7.5 -18t-17.5 -8z" />
    <glyph glyph-name="uni063C.medi" unicode="&#x63c;" horiz-adv-x="409" 
d="M0 -5l4 23h81q57 0 93 13.5t53 42t17 71.5q0 33 -15.5 69.5t-40.5 73.5t-53 71.5t-53 62.5t-41 47.5t-16 25.5q0 8 2 13.5t5.5 10t7.5 7.5q25 21 56.5 44t67.5 47t77 49t86 50l11 -20q-45 -25 -88.5 -52.5t-82.5 -53.5t-71.5 -50.5t-54.5 -45.5l2 10q27 -35 60 -72.5
t66 -78.5t59 -85.5t39 -92.5q13 -47 32.5 -82.5t46.5 -55t62 -19.5q7 0 11 -2.5t4 -8.5t-5 -9t-13 -3q-34 0 -64.5 19t-53 55t-35.5 86l15 -13q-1 -44 -16 -72.5t-41.5 -45t-60 -23t-72.5 -6.5h-81zM136 -250q-11 0 -19 8t-8 18q0 11 8 19t19 8t18.5 -8t7.5 -19
q0 -10 -7.5 -18t-18.5 -8zM87 -167q-11 0 -19 8t-8 18q0 11 7.5 19t19.5 8q11 0 18.5 -8t7.5 -19q0 -10 -8 -18t-18 -8zM185 -167q-12 0 -20 8t-8 18q0 11 8 19t20 8q10 0 17.5 -8t7.5 -19q0 -10 -7.5 -18t-17.5 -8z" />
    <glyph glyph-name="uni063C.fina" unicode="&#x63c;" horiz-adv-x="833" 
d="M326 -21l12 23q69 0 129.5 7t106.5 23t72 43.5t26 68.5q0 34 -16.5 71t-42.5 74t-54.5 71t-54 62t-42 47.5t-16.5 25.5q0 8 2 13.5t5.5 10t7.5 7.5q32 26 75.5 57t96.5 65t114 68l12 -19q-58 -33 -116.5 -71.5t-106 -73t-74.5 -58.5l2 10q27 -34 61.5 -72t68 -79
t60.5 -85.5t40 -92.5q6 -21 16.5 -47.5t27 -51.5t40.5 -41.5t58 -16.5q7 0 11 -2.5t4 -8.5t-5 -9t-13 -3q-34 0 -64 18t-52.5 54t-36.5 88l15 -13q-1 -46 -27.5 -77.5t-75 -50t-116.5 -27t-150 -8.5zM326 -21q-67 0 -119 11.5t-88.5 35t-56 59t-19.5 82.5q0 23 4 48.5
t9.5 50t11.5 45.5l22 -6q-6 -19 -11 -41.5t-8.5 -46.5t-3.5 -47q0 -58 31.5 -95.5t92 -55t147.5 -17.5l20 -14zM360 -271q-11 0 -19 8t-8 18q0 11 8 19t19 8t18.5 -8t7.5 -19q0 -10 -7.5 -18t-18.5 -8zM311 -188q-11 0 -19 8t-8 18q0 11 7.5 19t19.5 8q11 0 18.5 -8t7.5 -19
q0 -10 -8 -18t-18 -8zM409 -188q-12 0 -20 8t-8 18q0 11 8 19t20 8q10 0 17.5 -8t7.5 -19q0 -10 -7.5 -18t-17.5 -8z" />
    <glyph glyph-name="uni063D.init" unicode="&#x63d;" horiz-adv-x="220" 
d="M0 -5l4 23q50 0 75 14t33.5 38.5t8.5 58.5q0 35 -5.5 69t-16.5 72t-28 84l23 9q16 -43 27.5 -82t17.5 -76t6 -72q0 -25 -4 -46t-13.5 -38t-26.5 -29t-41.5 -18.5t-59.5 -6.5zM95 694q6 -15 15 -40.5t19 -53.5t19.5 -53.5t16.5 -41.5l-19 -9q-5 10 -14 34t-20 53.5
t-20 55.5t-14 40l-7 13zM71 692l19 -6q-5 -17 -14 -46t-18.5 -60.5t-17.5 -55.5t-10 -32l-21 7q3 10 11.5 35t18 55.5t18 58.5t14.5 44zM139 -170q-11 0 -19 8t-8 18q0 11 8 19t19 8t18.5 -8t7.5 -19q0 -10 -7.5 -18t-18.5 -8zM41 -170q-11 0 -19 8t-8 18q0 11 8 19t19 8
t18.5 -8t7.5 -19q0 -10 -7.5 -18t-18.5 -8z" />
    <glyph glyph-name="uni063D.medi" unicode="&#x63d;" horiz-adv-x="258" 
d="M0 -5l4 23q23 0 43 7t37.5 31t33.5 73.5t31 134.5l24 -5q-7 -36 -12.5 -60t-8 -42.5t-2.5 -40.5q0 -30 8.5 -52t32 -34t71.5 -12q9 0 11.5 -3.5t2.5 -7.5q0 -5 -4 -8.5t-14 -3.5q-48 0 -77 12.5t-40.5 39.5t-10.5 67h3q-11 -39 -24.5 -63t-29.5 -36t-35.5 -16t-43.5 -4z
M154 594q6 -15 15 -40.5t19 -53.5t19.5 -53.5t16.5 -41.5l-19 -9q-5 10 -14 34t-20 53.5t-20 55.5t-14 40l-7 13zM130 592l19 -6q-5 -17 -14 -46t-18.5 -60.5t-17.5 -55.5t-10 -32l-21 7q3 10 11.5 35t18 55.5t18 58.5t14.5 44zM173 -170q-11 0 -19 8t-8 18q0 11 8 19t19 8
t18.5 -8t7.5 -19q0 -10 -7.5 -18t-18.5 -8zM75 -170q-11 0 -19 8t-8 18q0 11 8 19t19 8t18.5 -8t7.5 -19q0 -10 -7.5 -18t-18.5 -8z" />
    <glyph glyph-name="uni063D.fina" unicode="&#x63d;" horiz-adv-x="655" 
d="M43 -16q0 19 3.5 46t15 64.5t36.5 84.5l22 -10q-17 -32 -29 -64.5t-17.5 -63t-5.5 -59.5q0 -42 13.5 -76.5t42.5 -59.5t72.5 -38.5t102.5 -13.5q67 0 118 17.5t85.5 44t51.5 56t17 54.5q0 20 -12.5 35t-34.5 26.5t-49.5 21.5t-59.5 21l7 25q39 -16 72.5 -30t62.5 -24.5
t54 -16.5t48 -6q7 0 10.5 -2.5t3.5 -8.5t-4.5 -9t-15.5 -3q-9 0 -22 1.5t-26.5 5.5t-27.5 10q11 -13 14.5 -27.5t3.5 -23.5q0 -27 -18.5 -60t-55.5 -62.5t-92 -49t-128 -19.5q-72 0 -131 22.5t-93 70t-34 121.5zM217 455q6 -15 15 -40.5t19 -53.5t19.5 -53.5t16.5 -41.5
l-19 -9q-5 10 -14 34t-20 53.5t-20 55.5t-14 40l-7 13zM193 453l19 -6q-5 -17 -14 -46t-18.5 -60.5t-17.5 -55.5t-10 -32l-21 7q3 10 11.5 35t18 55.5t18 58.5t14.5 44z" />
    <glyph glyph-name="uni063E.init" unicode="&#x63e;" horiz-adv-x="246" 
d="M0 -5l4 23q50 0 80 10.5t44 35t14 65.5q0 34 -6 68.5t-17 72.5t-27 84l23 9q16 -42 27 -81.5t17.5 -75.5t6.5 -72q0 -35 -8.5 -61.5t-28 -43.5t-51.5 -25.5t-78 -8.5zM162 504q-11 0 -19 8t-8 19q0 10 8 18t19 8t18.5 -8t7.5 -18q0 -11 -7.5 -19t-18.5 -8zM64 504
q-11 0 -19 8t-8 19q0 10 8 18t19 8t18.5 -8t7.5 -18q0 -11 -7.5 -19t-18.5 -8zM152 -170q-11 0 -19 8t-8 18q0 11 8 19t19 8t18.5 -8t7.5 -19q0 -10 -7.5 -18t-18.5 -8zM54 -170q-11 0 -19 8t-8 18q0 11 8 19t19 8t18.5 -8t7.5 -19q0 -10 -7.5 -18t-18.5 -8z" />
    <glyph glyph-name="uni063E.medi" unicode="&#x63e;" horiz-adv-x="272" 
d="M0 -5l4 23q26 0 49 7.5t42.5 31.5t36.5 73.5t31 133.5l24 -5q-7 -36 -12.5 -60t-8 -42.5t-2.5 -41.5q0 -22 4.5 -40t16 -31t33.5 -19.5t58 -6.5q9 0 11.5 -3.5t2.5 -7.5q0 -5 -4 -8.5t-14 -3.5q-37 0 -62 7.5t-40 21.5t-21 37t-5 53h3q-11 -39 -25.5 -63t-32.5 -36
t-40 -16t-49 -4zM218 418q-11 0 -19 8t-8 18q0 11 8 19t19 8t18.5 -8t7.5 -19q0 -10 -7.5 -18t-18.5 -8zM120 418q-11 0 -19 8t-8 18q0 11 8 19t19 8t18.5 -8t7.5 -19q0 -10 -7.5 -18t-18.5 -8zM192 -170q-11 0 -19 7.5t-8 18.5t8 19t19 8t18.5 -8t7.5 -19t-7.5 -18.5
t-18.5 -7.5zM94 -170q-11 0 -19 7.5t-8 18.5t8 19t19 8t18.5 -8t7.5 -19t-7.5 -18.5t-18.5 -7.5z" />
    <glyph glyph-name="uni063E.fina" unicode="&#x63e;" horiz-adv-x="655" 
d="M43 -16q0 19 3.5 46t15 64.5t36.5 84.5l22 -10q-17 -32 -29 -64.5t-17.5 -63t-5.5 -59.5q0 -42 13.5 -76.5t42.5 -59.5t72.5 -38.5t102.5 -13.5q67 0 118 17.5t85.5 44t51.5 56t17 54.5q0 20 -12.5 35t-34.5 26.5t-49.5 21.5t-59.5 21l7 25q39 -16 72.5 -30t62.5 -24.5
t54 -16.5t48 -6q7 0 10.5 -2.5t3.5 -8.5t-4.5 -9t-15.5 -3q-9 0 -22 1.5t-26.5 5.5t-27.5 10q11 -13 14.5 -27.5t3.5 -23.5q0 -27 -18.5 -60t-55.5 -62.5t-92 -49t-128 -19.5q-72 0 -131 22.5t-93 70t-34 121.5zM263 265q-12 0 -20 8t-8 18q0 11 8 19t20 8q10 0 17.5 -8
t7.5 -19q0 -10 -7.5 -18t-17.5 -8zM165 265q-11 0 -19 8t-8 18q0 11 7.5 19t19.5 8q11 0 18.5 -8t7.5 -19q0 -10 -8 -18t-18 -8z" />
    <glyph glyph-name="uni063F.init" unicode="&#x63f;" horiz-adv-x="246" 
d="M0 -5l4 23q50 0 80 10.5t44 35t14 65.5q0 34 -6 68.5t-17 72.5t-27 84l23 9q16 -42 27 -81.5t17.5 -75.5t6.5 -72q0 -35 -8.5 -61.5t-28 -43.5t-51.5 -25.5t-78 -8.5zM112 587q-10 0 -18 8t-8 19t8 18.5t18 7.5q11 0 19 -7.5t8 -18.5t-8 -19t-19 -8zM64 504q-10 0 -18 8
t-8 19t8 18.5t18 7.5q11 0 19 -7.5t8 -18.5t-8 -19t-19 -8zM162 504q-10 0 -18 8t-8 19t8 18.5t18 7.5q11 0 19 -7.5t8 -18.5t-8 -19t-19 -8zM152 -170q-11 0 -19 8t-8 18q0 11 8 19t19 8t18.5 -8t7.5 -19q0 -10 -7.5 -18t-18.5 -8zM54 -170q-11 0 -19 8t-8 18q0 11 8 19
t19 8t18.5 -8t7.5 -19q0 -10 -7.5 -18t-18.5 -8z" />
    <glyph glyph-name="uni063F.medi" unicode="&#x63f;" horiz-adv-x="272" 
d="M0 -5l4 23q26 0 49 7.5t42.5 31.5t36.5 73.5t31 133.5l24 -5q-7 -36 -12.5 -60t-8 -42.5t-2.5 -41.5q0 -22 4.5 -40t16 -31t33.5 -19.5t58 -6.5q9 0 11.5 -3.5t2.5 -7.5q0 -5 -4 -8.5t-14 -3.5q-37 0 -62 7.5t-40 21.5t-21 37t-5 53h3q-11 -39 -25.5 -63t-32.5 -36
t-40 -16t-49 -4zM168 501q-10 0 -18 8t-8 19t8 18.5t18 7.5q12 0 19.5 -7.5t7.5 -18.5t-7.5 -19t-19.5 -8zM120 418q-10 0 -18 8t-8 19t8 18.5t18 7.5q11 0 19 -7.5t8 -18.5t-8 -19t-19 -8zM218 418q-10 0 -18 8t-8 19t8 18.5t18 7.5q11 0 19 -7.5t8 -18.5t-8 -19t-19 -8z
M192 -170q-11 0 -19 7.5t-8 18.5t8 19t19 8t18.5 -8t7.5 -19t-7.5 -18.5t-18.5 -7.5zM94 -170q-11 0 -19 7.5t-8 18.5t8 19t19 8t18.5 -8t7.5 -19t-7.5 -18.5t-18.5 -7.5z" />
    <glyph glyph-name="uni063F.fina" unicode="&#x63f;" horiz-adv-x="655" 
d="M43 -16q0 19 3.5 46t15 64.5t36.5 84.5l22 -10q-17 -32 -29 -64.5t-17.5 -63t-5.5 -59.5q0 -42 13.5 -76.5t42.5 -59.5t72.5 -38.5t102.5 -13.5q67 0 118 17.5t85.5 44t51.5 56t17 54.5q0 20 -12.5 35t-34.5 26.5t-49.5 21.5t-59.5 21l7 25q39 -16 72.5 -30t62.5 -24.5
t54 -16.5t48 -6q7 0 10.5 -2.5t3.5 -8.5t-4.5 -9t-15.5 -3q-9 0 -22 1.5t-26.5 5.5t-27.5 10q11 -13 14.5 -27.5t3.5 -23.5q0 -27 -18.5 -60t-55.5 -62.5t-92 -49t-128 -19.5q-72 0 -131 22.5t-93 70t-34 121.5zM213 348q-10 0 -18 8t-8 19t8 18.5t18 7.5q11 0 19 -7.5
t8 -18.5t-8 -19t-19 -8zM165 265q-10 0 -18 8t-8 19t8 18.5t18 7.5q11 0 19 -7.5t8 -18.5t-8 -19t-19 -8zM262 265q-10 0 -18 8t-8 19t8 18.5t18 7.5q12 0 19.5 -7.5t7.5 -18.5t-7.5 -19t-19.5 -8z" />
    <glyph glyph-name="uni066E.init" unicode="&#x66e;" horiz-adv-x="220" 
d="M0 -5l4 23q50 0 75 14t33.5 38.5t8.5 58.5q0 35 -5.5 69t-16.5 72t-28 84l23 9q16 -43 27.5 -82t17.5 -76t6 -72q0 -25 -4 -46t-13.5 -38t-26.5 -29t-41.5 -18.5t-59.5 -6.5z" />
    <glyph glyph-name="uni066E.medi" unicode="&#x66e;" horiz-adv-x="258" 
d="M0 -5l4 23q23 0 43 7t37.5 31t33.5 73.5t31 134.5l24 -5q-7 -36 -12.5 -60t-8 -42.5t-2.5 -40.5q0 -30 8.5 -52t32 -34t71.5 -12q9 0 11.5 -3.5t2.5 -7.5q0 -5 -4 -8.5t-14 -3.5q-48 0 -77 12.5t-40.5 39.5t-10.5 67h3q-11 -39 -24.5 -63t-29.5 -36t-35.5 -16t-43.5 -4z
" />
    <glyph glyph-name="uni066E.fina" unicode="&#x66e;" horiz-adv-x="801" 
d="M326 -21l12 23q75 0 134.5 11t106 35t80.5 63t55 94l22 -8q-10 -28 -19.5 -55.5t-9.5 -53.5q0 -19 8 -35t29.5 -25.5t60.5 -9.5q9 0 11.5 -3.5t2.5 -7.5q0 -5 -4.5 -8.5t-13.5 -3.5q-43 0 -71.5 14t-39.5 43t-1 74l9 -1q-29 -44 -69 -72.5t-88 -44.5t-102.5 -22.5
t-112.5 -6.5zM326 -21q-67 0 -119 11.5t-88.5 35t-56 59t-19.5 82.5q0 23 4 48.5t9.5 50t11.5 45.5l22 -6q-6 -19 -11 -41.5t-8.5 -46.5t-3.5 -47q0 -58 31.5 -95.5t92 -55t147.5 -17.5l20 -14z" />
    <glyph glyph-name="uni066F.init" unicode="&#x66f;" horiz-adv-x="385" 
d="M0 -5l4 23q35 0 69 1.5t65.5 6.5t58 13.5t46.5 21.5q15 10 31.5 29t27.5 55t11 96q0 51 -12 100.5t-35.5 82t-60.5 32.5q-29 0 -53.5 -26.5t-39 -66t-14.5 -80.5q0 -42 16.5 -64.5t42 -31t53.5 -8.5q27 0 57 7.5t51 18.5l4 -21q-16 -10 -37.5 -16.5t-42.5 -9t-36 -2.5
q-34 0 -64 12t-49 39.5t-19 73.5q0 32 10 67.5t27 65.5t42 48.5t56 18.5q42 0 70.5 -34.5t43 -90.5t14.5 -121q0 -60 -16 -107.5t-62 -81.5q-18 -13 -42.5 -22.5t-56.5 -16t-72 -9.5t-88 -3z" />
    <glyph glyph-name="uni066F.medi" unicode="&#x66f;" horiz-adv-x="384" 
d="M0 -5l4 23q23 0 46 2.5t45.5 8t44 13t41.5 18.5q34 18 60 42t41.5 54t15.5 68q0 29 -11 61.5t-33 56t-57 23.5q-27 0 -52.5 -19.5t-41.5 -52t-16 -72.5t15 -71t40 -53t55 -36l-28 -9q-22 13 -46.5 35.5t-41 55.5t-16.5 78q0 34 11 64.5t29.5 53.5t42.5 36t49 13
q37 0 64.5 -23.5t43 -60t15.5 -78.5q0 -30 -9 -56.5t-25 -49.5t-38 -42t-49 -34q-21 -13 -45.5 -22t-50 -15.5t-51.5 -9t-52 -2.5zM384 -5q-28 0 -69 7.5t-79.5 19.5t-60.5 26l24 11q20 -9 47.5 -18.5t63.5 -16t78 -6.5q6 0 10 -2.5t4 -8.5t-4.5 -9t-13.5 -3z" />
    <glyph glyph-name="uni066F.fina" unicode="&#x66f;" horiz-adv-x="734" 
d="M305 -272q-58 0 -105.5 13.5t-83 41.5t-54.5 72.5t-19 106.5q0 10 3 38.5t15 70t39 89.5l21 -11q-13 -22 -25.5 -50.5t-20.5 -62t-8 -70.5q0 -82 33.5 -128.5t89 -66t121.5 -19.5q31 0 69 4.5t76.5 17.5t73 36.5t60.5 62t37 94.5q4 19 6 43.5t2 47.5q0 65 -13 116.5
t-37 82t-57 30.5q-23 0 -42.5 -16t-34 -42.5t-23 -57t-8.5 -60.5q0 -31 10.5 -50t29.5 -28t45.5 -12t57.5 -3h175q7 0 11 -2.5t4 -8.5t-5 -9t-14 -3h-175q-28 0 -57 4t-53 15.5t-38.5 34t-14.5 59.5q0 33 9.5 68.5t26.5 66.5t42.5 50t57.5 19q41 0 69 -34t43 -91.5
t15 -129.5q0 -28 -3 -56t-8 -51q-17 -71 -55 -115t-87.5 -67t-102 -31.5t-98.5 -8.5z" />
    <glyph glyph-name="uni0672.fina" unicode="&#x672;" horiz-adv-x="220" 
d="M220 -5q-43 0 -67.5 13t-35.5 47.5t-14 98.5l-18 490h22l18 -479q3 -62 10.5 -93.5t28 -42.5t60.5 -11q9 0 11.5 -3.5t2.5 -7.5q0 -5 -4.5 -8.5t-13.5 -3.5zM-77 720l-17 11q13 20 27 30t31 10q21 0 37 -11.5t35 -11.5q12 0 27 4t23 8l14 -7q-43 5 -71.5 32.5t-28.5 64.5
t26 57.5t58 20.5q12 0 24 -2t22 -6l-5 -20q-10 3 -20 4.5t-20 1.5q-33 0 -48 -17t-15 -40q0 -22 11.5 -39t32 -27.5t47.5 -15.5l-23 -5q27 7 43 14t32 15l8 -18q-10 -6 -28.5 -14t-39 -15t-39.5 -12t-31 -5q-24 0 -40.5 11.5t-31.5 11.5q-13 0 -22.5 -9.5t-17.5 -20.5z" />
    <glyph glyph-name="uni0673.fina" unicode="&#x673;" horiz-adv-x="229" 
d="M229 -5q-46 0 -72.5 12.5t-37.5 47t-14 99.5l-20 560h22l20 -549q3 -65 11 -96.5t30 -41t65 -9.5q9 0 11.5 -3.5t2.5 -7.5q0 -5 -4.5 -8.5t-13.5 -3.5zM-8 -292l-17 11q13 20 27 30t31 10q20 0 36.5 -11.5t35.5 -11.5q12 0 27 4t23 8l14 -7q-43 5 -72 32.5t-29 64.5
t26.5 57.5t58.5 20.5q12 0 24 -2t22 -6l-5 -20q-10 3 -20 4.5t-20 1.5q-33 0 -48.5 -17t-15.5 -40q0 -22 12 -39t32.5 -27.5t47.5 -15.5l-23 -5q27 7 43 14t32 15l8 -18q-11 -6 -29 -14t-38.5 -15t-39.5 -12t-31 -5q-24 0 -40.5 11.5t-31.5 11.5q-13 0 -22.5 -9.5
t-17.5 -20.5z" />
    <glyph glyph-name="uni0675.fina" unicode="&#x675;" horiz-adv-x="378" 
d="M378 -5h-150q-46 0 -72 12.5t-37 47t-14 99.5l-20 560h22l20 -549q3 -64 11 -96t29.5 -41.5t63.5 -9.5h151q9 0 11.5 -3.5t2.5 -7.5q0 -5 -4.5 -8.5t-13.5 -3.5zM194 592l-5 21q26 6 42 11t36 10l30 -6q-50 5 -76.5 33t-26.5 62q0 26 13 44t33 27t39 9q13 0 25.5 -2
t22.5 -6l-5 -20q-10 3 -20 5t-21 2q-31 0 -48 -17.5t-17 -41.5q0 -21 12.5 -38t33 -27.5t47.5 -15.5l-40 -6q27 7 50.5 14.5t42.5 14.5l7 -19q-24 -9 -54 -19t-61.5 -19t-59.5 -16z" />
    <glyph glyph-name="uni0676.fina" unicode="&#x676;" horiz-adv-x="409" 
d="M52 -230l-7 24q46 11 92.5 29.5t86 49.5t63.5 80t24 122q0 103 -31 157.5t-76 54.5q-28 0 -53 -25.5t-40.5 -64t-15.5 -79.5q0 -34 9.5 -54t29 -30t48 -13t65.5 -3h166q7 0 11 -2.5t4 -8.5t-5 -9t-14 -3h-161q-57 0 -96.5 8.5t-60 34.5t-20.5 78q0 34 10 68.5t28.5 63.5
t43.5 46.5t54 17.5q39 0 67.5 -30t44.5 -84.5t16 -125.5q0 -82 -32.5 -141.5t-95 -99t-155.5 -61.5zM263 360l-5 22q24 6 43 11.5t35 10.5l29 -8q-43 5 -71.5 33t-28.5 62q0 26 12.5 44t31.5 27t39 9q13 0 25 -2t22 -6l-5 -20q-10 3 -20.5 4.5t-21.5 1.5q-30 0 -45.5 -17.5
t-15.5 -40.5q0 -21 13 -38t33.5 -27.5t44.5 -15.5l-38 -4q26 7 48 14t42 14l7 -20q-24 -9 -54.5 -19t-61 -19t-58.5 -16z" />
    <glyph glyph-name="uni0677.fina" unicode="&#x677;" horiz-adv-x="471" 
d="M99 -230l-7 24q46 11 92.5 29.5t86 49.5t63.5 80t24 122q0 103 -31 157.5t-76 54.5q-28 0 -53 -25.5t-40.5 -64t-15.5 -79.5q0 -34 9.5 -54t29 -30t48 -13t65.5 -3h166q7 0 11 -2.5t4 -8.5t-5 -9t-14 -3h-161q-57 0 -96.5 8.5t-60 34.5t-20.5 78q0 34 10 68.5t28.5 63.5
t43.5 46.5t54 17.5q39 0 67.5 -30t44.5 -84.5t16 -125.5q0 -82 -32.5 -141.5t-95 -99t-155.5 -61.5zM310 396l-5 22q24 6 43 11.5t35 10.5l29 -8q-43 5 -71.5 33t-28.5 62q0 26 12.5 44t31.5 27t39 9q13 0 25 -2t22 -6l-5 -20q-10 3 -20.5 4.5t-21.5 1.5q-30 0 -45.5 -17.5
t-15.5 -40.5q0 -21 13 -38t33.5 -27.5t44.5 -15.5l-38 -4q26 7 48 14t42 14l7 -20q-24 -9 -54.5 -19t-61 -19t-58.5 -16zM49 392l-4 20q50 6 81 23t46 42.5t15 53.5q0 23 -9 42t-33 19q-20 0 -31.5 -15t-11.5 -35q0 -31 26.5 -48.5t54.5 -21.5l-11 -18q-42 7 -67 31t-25 57
q0 30 19.5 50.5t46.5 20.5q23 0 43 -18.5t20 -61.5q0 -39 -19.5 -68.5t-55.5 -48t-85 -24.5z" />
    <glyph glyph-name="uni0678.init" unicode="&#x678;" horiz-adv-x="296" 
d="M0 -5l4 23q50 0 75 14t33.5 38.5t8.5 58.5q0 35 -5.5 69t-16.5 72t-28 84l23 9q16 -43 27.5 -82t17.5 -76t6 -72q0 -25 -4 -46t-13.5 -38t-26.5 -29t-41.5 -18.5t-59.5 -6.5zM119 592l-5 21q26 6 42 11t36 10l29 -6q-49 5 -75.5 33t-26.5 62q0 26 13 44t32.5 27t39.5 9
q13 0 25.5 -2t22.5 -6l-5 -20q-10 3 -20.5 5t-21.5 2q-30 0 -47 -17.5t-17 -41.5q0 -21 12 -38t33 -27.5t48 -15.5l-40 -6q27 7 50.5 14.5t42.5 14.5l7 -19q-24 -9 -55 -19t-61.5 -19t-58.5 -16z" />
    <glyph glyph-name="uni0678.medi" unicode="&#x678;" horiz-adv-x="269" 
d="M0 -5l4 23q23 0 43 7t37.5 31t33.5 73.5t31 134.5l24 -5q-7 -36 -12.5 -60t-8 -42.5t-2.5 -40.5q0 -30 8.5 -52t32 -34t71.5 -12q9 0 11.5 -3.5t2.5 -7.5q0 -5 -4 -8.5t-14 -3.5q-48 0 -77 12.5t-40.5 39.5t-10.5 67h3q-11 -39 -24.5 -63t-29.5 -36t-35.5 -16t-43.5 -4z
M129 423l-5 21q26 6 42 11t36 10l29 -6q-49 5 -75.5 33t-26.5 62q0 26 13 44t32.5 27t39.5 9q13 0 25.5 -2t22.5 -6l-5 -20q-10 3 -20.5 5t-21.5 2q-30 0 -47 -17.5t-17 -41.5q0 -21 12 -38t33 -27.5t48 -15.5l-40 -6q27 7 50.5 14.5t42.5 14.5l7 -19q-24 -9 -55 -19
t-61.5 -19t-58.5 -16z" />
    <glyph glyph-name="uni0678.fina" unicode="&#x678;" horiz-adv-x="655" 
d="M43 -16q0 19 3.5 46t15 64.5t36.5 84.5l22 -10q-17 -32 -29 -64.5t-17.5 -63t-5.5 -59.5q0 -42 13.5 -76.5t42.5 -59.5t72.5 -38.5t102.5 -13.5q67 0 118 17.5t85.5 44t51.5 56t17 54.5q0 20 -12.5 35t-34.5 26.5t-49.5 21.5t-59.5 21l7 25q39 -16 72.5 -30t62.5 -24.5
t54 -16.5t48 -6q7 0 10.5 -2.5t3.5 -8.5t-4.5 -9t-15.5 -3q-9 0 -22 1.5t-26.5 5.5t-27.5 10q11 -13 14.5 -27.5t3.5 -23.5q0 -27 -18.5 -60t-55.5 -62.5t-92 -49t-128 -19.5q-72 0 -131 22.5t-93 70t-34 121.5zM446 219l-5 21q26 6 42 11t36 10l29 -6q-49 5 -75.5 33
t-26.5 62q0 26 13 44t32.5 27t39.5 9q13 0 25.5 -2t22.5 -6l-5 -20q-10 3 -20.5 5t-21.5 2q-30 0 -47 -17.5t-17 -41.5q0 -21 12 -38t33 -27.5t48 -15.5l-40 -6q27 7 50.5 14.5t42.5 14.5l7 -19q-24 -9 -55 -19t-61.5 -19t-58.5 -16z" />
    <glyph glyph-name="uni067C.init" unicode="&#x67c;" horiz-adv-x="246" 
d="M0 -5l4 23q50 0 80 10.5t44 35t14 65.5q0 34 -6 68.5t-17 72.5t-27 84l23 9q16 -42 27 -81.5t17.5 -75.5t6.5 -72q0 -35 -8.5 -61.5t-28 -43.5t-51.5 -25.5t-78 -8.5zM104 -111q-30 0 -51 21.5t-21 51.5t21 51t51 21t51.5 -21t21.5 -51q0 -29 -21 -51t-52 -22zM104 -90
q21 0 36.5 15.5t15.5 36.5q0 22 -15.5 37t-36.5 15t-35.5 -15t-14.5 -37q0 -21 14.5 -36.5t35.5 -15.5zM162 504q-11 0 -19 8t-8 19q0 10 8 18t19 8t18.5 -8t7.5 -18q0 -11 -7.5 -19t-18.5 -8zM64 504q-11 0 -19 8t-8 19q0 10 8 18t19 8t18.5 -8t7.5 -18q0 -11 -7.5 -19
t-18.5 -8z" />
    <glyph glyph-name="uni067C.medi" unicode="&#x67c;" horiz-adv-x="258" 
d="M84 -115q-30 0 -51.5 21.5t-21.5 51.5t21.5 51.5t51.5 21.5q29 0 51 -21.5t22 -51.5q0 -29 -21.5 -51t-51.5 -22zM84 -94q20 0 35.5 15.5t15.5 36.5q0 22 -15.5 37t-36.5 15q-20 0 -35 -15t-15 -37q0 -21 15 -36.5t36 -15.5zM0 -5l4 23q23 0 43 7t37.5 31t33.5 73.5
t31 134.5l24 -5q-7 -36 -12.5 -60t-8 -42.5t-2.5 -41.5q0 -29 8.5 -51t32.5 -34t71 -12q9 0 11.5 -3.5t2.5 -7.5q0 -5 -4 -8.5t-14 -3.5q-48 0 -77 12.5t-40.5 39.5t-10.5 67h3q-11 -39 -24.5 -63t-29.5 -36t-35.5 -16t-43.5 -4zM233 418q-11 0 -19 8t-8 18q0 11 7.5 19
t19.5 8q11 0 18.5 -8t7.5 -19q0 -10 -8 -18t-18 -8zM135 418q-11 0 -19 8t-8 18q0 11 7.5 19t19.5 8q11 0 18.5 -8t7.5 -19q0 -10 -8 -18t-18 -8z" />
    <glyph glyph-name="uni067C.fina" unicode="&#x67c;" horiz-adv-x="801" 
d="M387 -145q-30 0 -51 21.5t-21 52.5q0 29 21 50t51 21t51.5 -21t21.5 -51q0 -29 -21.5 -51t-51.5 -22zM387 -124q21 0 36.5 15t15.5 37t-15.5 37t-36.5 15t-35.5 -15t-14.5 -36q0 -22 14.5 -37.5t35.5 -15.5zM326 -21l12 23q75 0 134.5 11t106 35t80.5 63t55 94l22 -8
q-10 -28 -19.5 -55t-9.5 -54q0 -19 8 -35t29.5 -25.5t60.5 -9.5q9 0 11.5 -3.5t2.5 -7.5q0 -5 -4 -8.5t-14 -3.5q-43 0 -71.5 14t-39.5 43t-1 74l9 -1q-29 -44 -69 -72.5t-88 -44.5t-102.5 -22.5t-112.5 -6.5zM326 -21q-67 0 -119 11.5t-88.5 35t-56 59t-19.5 82.5
q0 23 4 48t9.5 50t11.5 46l22 -6q-6 -19 -11 -41.5t-8.5 -46.5t-3.5 -47q0 -58 31.5 -95.5t92 -55t147.5 -17.5l20 -14zM425 433q-11 0 -19 8t-8 18q0 11 7.5 19t19.5 8q11 0 18.5 -8t7.5 -18q0 -11 -8 -19t-18 -8zM327 433q-11 0 -19 8t-8 18q0 11 7.5 19t19.5 8
q11 0 18.5 -8t7.5 -18q0 -11 -8 -19t-18 -8z" />
    <glyph glyph-name="uni067D.init" unicode="&#x67d;" horiz-adv-x="246" 
d="M0 -5l4 23q50 0 80 10.5t44 35t14 65.5q0 34 -6 68.5t-17 72.5t-27 84l23 9q16 -42 27 -81.5t17.5 -75.5t6.5 -72q0 -35 -8.5 -61.5t-28 -43.5t-51.5 -25.5t-78 -8.5zM113 504q-11 0 -19 8t-8 19q0 10 8 18t20 8q10 0 17.5 -8t7.5 -18q0 -11 -7.5 -19t-18.5 -8zM64 587
q-11 0 -19 8t-8 19q0 10 8 18t19 8t18.5 -8t7.5 -18q0 -11 -7.5 -19t-18.5 -8zM162 587q-11 0 -19 8t-8 19q0 10 8 18t19 8t18.5 -8t7.5 -18q0 -11 -7.5 -19t-18.5 -8z" />
    <glyph glyph-name="uni067D.medi" unicode="&#x67d;" horiz-adv-x="272" 
d="M0 -5l4 23q26 0 49 7.5t42.5 31.5t36.5 73.5t31 133.5l24 -5q-7 -36 -12.5 -60t-8 -42.5t-2.5 -41.5q0 -22 4.5 -40t16 -31t33.5 -19.5t58 -6.5q9 0 11.5 -3.5t2.5 -7.5q0 -5 -4 -8.5t-14 -3.5q-37 0 -62 7.5t-40 21.5t-21 37t-5 53h3q-11 -39 -25.5 -63t-32.5 -36
t-40 -16t-49 -4zM170 418q-12 0 -20 8t-8 18q0 11 8 19t20 8q10 0 17.5 -8t7.5 -19q0 -10 -7.5 -18t-17.5 -8zM120 501q-11 0 -19 8t-8 18q0 11 8 19t19 8t18.5 -8t7.5 -19q0 -10 -7.5 -18t-18.5 -8zM218 501q-11 0 -19 8t-8 18q0 11 8 19t19 8t18.5 -8t7.5 -19
q0 -10 -7.5 -18t-18.5 -8z" />
    <glyph glyph-name="uni067D.fina" unicode="&#x67d;" horiz-adv-x="801" 
d="M326 -21l12 23q75 0 134.5 11t106 35t80.5 63t55 94l22 -8q-10 -28 -19.5 -55.5t-9.5 -53.5q0 -19 8 -35t29.5 -25.5t60.5 -9.5q9 0 11.5 -3.5t2.5 -7.5q0 -5 -4.5 -8.5t-13.5 -3.5q-43 0 -71.5 14t-39.5 43t-1 74l9 -1q-29 -44 -69 -72.5t-88 -44.5t-102.5 -22.5
t-112.5 -6.5zM326 -21q-67 0 -119 11.5t-88.5 35t-56 59t-19.5 82.5q0 23 4 48.5t9.5 50t11.5 45.5l22 -6q-6 -19 -11 -41.5t-8.5 -46.5t-3.5 -47q0 -58 31.5 -95.5t92 -55t147.5 -17.5l20 -14zM383 433q-11 0 -19 8t-8 18q0 11 8 19t19 8t18.5 -8t7.5 -19q0 -10 -7.5 -18
t-18.5 -8zM334 516q-11 0 -19 8t-8 18q0 11 7.5 19t19.5 8q11 0 18.5 -8t7.5 -19q0 -10 -8 -18t-18 -8zM432 516q-12 0 -20 8t-8 18q0 11 8 19t20 8q10 0 17.5 -8t7.5 -19q0 -10 -7.5 -18t-17.5 -8z" />
    <glyph glyph-name="uni0681.init" unicode="&#x681;" horiz-adv-x="492" 
d="M0 -5l4 23q46 0 87 7t82.5 23.5t88.5 43t105 65.5q-48 36 -87 64t-74.5 44t-76.5 16q-13 0 -25 -1t-24.5 -2.5t-27.5 -6.5l-4 23q19 6 40 8t41 2q44 0 79.5 -13.5t65 -33t54 -39.5t46.5 -33.5t44 -13.5h18l3 -23q-28 0 -54 -11.5t-53.5 -28.5t-60 -36.5t-72 -37
t-88.5 -28.5t-111 -11zM49 385l-5 22q24 6 43 11.5t35 10.5l29 -8q-43 5 -71.5 33t-28.5 62q0 26 12.5 44t31.5 27t39 9q13 0 25 -2t22 -6l-5 -20q-10 3 -20.5 4.5t-21.5 1.5q-30 0 -45.5 -17.5t-15.5 -40.5q0 -21 13 -38t33.5 -27.5t44.5 -15.5l-38 -4q26 7 48 14t42 14
l7 -20q-24 -9 -54.5 -19t-61 -19t-58.5 -16z" />
    <glyph glyph-name="uni0681.medi" unicode="&#x681;" horiz-adv-x="516" 
d="M516 -5q-25 0 -51 2.5t-49.5 15t-42.5 41.5t-30 81l20 8q14 -62 37.5 -88t54 -31.5t65.5 -5.5q9 0 11.5 -3.5t2.5 -7.5q0 -5 -4.5 -8.5t-13.5 -3.5zM0 -5l4 23q46 0 87 7t82.5 23.5t88.5 43t105 65.5q-48 36 -87 64t-74.5 44t-76.5 16q-13 0 -25 -1t-24.5 -2.5
t-27.5 -6.5l-4 23q19 6 40 8t41 2q44 0 79.5 -13.5t65 -33t54 -39.5t46.5 -33.5t44 -13.5h18l3 -23q-28 0 -54 -11.5t-53.5 -28.5t-60 -36.5t-72 -37t-88.5 -28.5t-111 -11zM51 385l-5 22q24 6 43 11.5t35 10.5l29 -8q-43 5 -71.5 33t-28.5 62q0 26 12.5 44t31.5 27t39 9
q13 0 25 -2t22 -6l-5 -20q-10 3 -20.5 4.5t-21.5 1.5q-30 0 -45.5 -17.5t-15.5 -40.5q0 -21 13 -38t33.5 -27.5t44.5 -15.5l-38 -4q26 7 48 14t42 14l7 -20q-24 -9 -54.5 -19t-61 -19t-58.5 -16z" />
    <glyph glyph-name="uni0681.fina" unicode="&#x681;" horiz-adv-x="552" 
d="M552 -5q-48 0 -85 12t-64 38.5t-43 71.5t-20 112l21 7q4 -63 17.5 -105t37.5 -67t59 -35.5t81 -10.5q9 0 11.5 -3.5t2.5 -7.5q0 -5 -4.5 -8.5t-13.5 -3.5zM314 -394q-56 0 -105 16.5t-87 49.5t-59.5 83t-21.5 116q0 72 24 130.5t64.5 104.5t90 79t100.5 53t96 27l2 -8
q-28 5 -57 16.5t-60 25.5t-68 23.5t-83 9.5q-27 0 -45 -4t-38 -11l-4 23q21 8 44 12t46 4q38 0 72 -8.5t65 -20t59.5 -24t56 -21t55.5 -8.5h6v-27q-40 0 -85 -11.5t-90 -34t-85.5 -55t-72.5 -74t-50 -92.5t-18 -110q0 -63 20.5 -108.5t56 -74.5t80.5 -43t94 -14t87.5 7.5
t70.5 18.5l8 -21q-36 -15 -82 -22t-87 -7zM189 489l-5 22q24 6 43 11.5t35 10.5l29 -8q-43 5 -71.5 33t-28.5 62q0 26 12.5 44t31.5 27t39 9q13 0 25 -2t22 -6l-5 -20q-10 3 -20.5 4.5t-21.5 1.5q-30 0 -45.5 -17.5t-15.5 -40.5q0 -21 13 -38t33.5 -27.5t44.5 -15.5l-38 -4
q26 7 48 14t42 14l7 -20q-24 -9 -54.5 -19t-61 -19t-58.5 -16z" />
    <glyph glyph-name="uni0682.init" unicode="&#x682;" horiz-adv-x="492" 
d="M0 -5l4 23q46 0 87 7t82.5 23.5t88.5 43t105 65.5q-48 36 -87 64t-74.5 44t-76.5 16q-13 0 -25 -1t-24.5 -2.5t-27.5 -6.5l-4 23q19 6 40 8t41 2q44 0 79.5 -13.5t65 -33t54 -39.5t46.5 -33.5t44 -13.5h18l3 -23q-28 0 -54 -11.5t-53.5 -28.5t-60 -36.5t-72 -37
t-88.5 -28.5t-111 -11zM130 439q-11 0 -19 8t-8 18q0 11 8 19t19 8t18.5 -8t7.5 -19q0 -10 -7.5 -18t-18.5 -8zM129 547q-11 0 -19 8t-8 18q0 11 8 19t19 8t18.5 -8t7.5 -19q0 -10 -7.5 -18t-18.5 -8z" />
    <glyph glyph-name="uni0682.medi" unicode="&#x682;" horiz-adv-x="516" 
d="M516 -5q-25 0 -51 2.5t-49.5 15t-42.5 41.5t-30 81l20 8q14 -62 37.5 -88t54 -31.5t65.5 -5.5q9 0 11.5 -3.5t2.5 -7.5q0 -5 -4.5 -8.5t-13.5 -3.5zM0 -5l4 23q46 0 87 7t82.5 23.5t88.5 43t105 65.5q-48 36 -87 64t-74.5 44t-76.5 16q-13 0 -25 -1t-24.5 -2.5
t-27.5 -6.5l-4 23q19 6 40 8t41 2q44 0 79.5 -13.5t65 -33t54 -39.5t46.5 -33.5t44 -13.5h18l3 -23q-28 0 -54 -11.5t-53.5 -28.5t-60 -36.5t-72 -37t-88.5 -28.5t-111 -11zM132 439q-11 0 -19 8t-8 18q0 11 8 19t19 8t18.5 -8t7.5 -19q0 -10 -7.5 -18t-18.5 -8zM131 547
q-11 0 -19 8t-8 18q0 11 8 19t19 8t18.5 -8t7.5 -19q0 -10 -7.5 -18t-18.5 -8z" />
    <glyph glyph-name="uni0682.fina" unicode="&#x682;" horiz-adv-x="552" 
d="M552 -5q-48 0 -85 12t-64 38.5t-43 71.5t-20 112l21 7q4 -63 17.5 -105t37.5 -67t59 -35.5t81 -10.5q9 0 11.5 -3.5t2.5 -7.5q0 -5 -4.5 -8.5t-13.5 -3.5zM314 -394q-56 0 -105 16.5t-87 49.5t-59.5 83t-21.5 116q0 72 24 130.5t64.5 104.5t90 79t100.5 53t96 27l2 -8
q-28 5 -57 16.5t-60 25.5t-68 23.5t-83 9.5q-27 0 -45 -4t-38 -11l-4 23q21 8 44 12t46 4q38 0 72 -8.5t65 -20t59.5 -24t56 -21t55.5 -8.5h6v-27q-40 0 -85 -11.5t-90 -34t-85.5 -55t-72.5 -74t-50 -92.5t-18 -110q0 -63 20.5 -108.5t56 -74.5t80.5 -43t94 -14t87.5 7.5
t70.5 18.5l8 -21q-36 -15 -82 -22t-87 -7zM276 505q-11 0 -19 8t-8 18q0 11 8 19t19 8t18.5 -8t7.5 -19q0 -10 -7.5 -18t-18.5 -8zM275 613q-11 0 -19 8t-8 18q0 11 8 19t19 8t18.5 -8t7.5 -19q0 -10 -7.5 -18t-18.5 -8z" />
    <glyph glyph-name="uni0685.init" unicode="&#x685;" horiz-adv-x="492" 
d="M0 -5l4 23q46 0 87 7t82.5 23.5t88.5 43t105 65.5q-48 36 -87 64t-74.5 44t-76.5 16q-13 0 -25 -1t-24.5 -2.5t-27.5 -6.5l-4 23q19 6 40 8t41 2q44 0 79.5 -13.5t65 -33t54 -39.5t46.5 -33.5t44 -13.5h18l3 -23q-28 0 -54 -11.5t-53.5 -28.5t-60 -36.5t-72 -37
t-88.5 -28.5t-111 -11zM131 508q-10 0 -18 8t-8 19t8 18.5t18 7.5q11 0 19 -7.5t8 -18.5t-8 -19t-19 -8zM83 425q-10 0 -18 8t-8 19t8 18.5t18 7.5q11 0 19 -7.5t8 -18.5t-8 -19t-19 -8zM180 425q-10 0 -18 8t-8 19t8 18.5t18 7.5q12 0 19.5 -7.5t7.5 -18.5t-7.5 -19
t-19.5 -8z" />
    <glyph glyph-name="uni0685.medi" unicode="&#x685;" horiz-adv-x="516" 
d="M516 -5q-25 0 -51 2.5t-49.5 15t-42.5 41.5t-30 81l20 8q14 -62 37.5 -88t54 -31.5t65.5 -5.5q9 0 11.5 -3.5t2.5 -7.5q0 -5 -4.5 -8.5t-13.5 -3.5zM0 -5l4 23q46 0 87 7t82.5 23.5t88.5 43t105 65.5q-48 36 -87 64t-74.5 44t-76.5 16q-13 0 -25 -1t-24.5 -2.5
t-27.5 -6.5l-4 23q19 6 40 8t41 2q44 0 79.5 -13.5t65 -33t54 -39.5t46.5 -33.5t44 -13.5h18l3 -23q-28 0 -54 -11.5t-53.5 -28.5t-60 -36.5t-72 -37t-88.5 -28.5t-111 -11zM133 508q-10 0 -18 8t-8 19t8 18.5t18 7.5q11 0 19 -7.5t8 -18.5t-8 -19t-19 -8zM85 425
q-10 0 -18 8t-8 19t8 18.5t18 7.5q11 0 19 -7.5t8 -18.5t-8 -19t-19 -8zM182 425q-10 0 -18 8t-8 19t8 18.5t18 7.5q12 0 19.5 -7.5t7.5 -18.5t-7.5 -19t-19.5 -8z" />
    <glyph glyph-name="uni0685.fina" unicode="&#x685;" horiz-adv-x="552" 
d="M552 -5q-48 0 -85 12t-64 38.5t-43 71.5t-20 112l21 7q4 -63 17.5 -105t37.5 -67t59 -35.5t81 -10.5q9 0 11.5 -3.5t2.5 -7.5q0 -5 -4.5 -8.5t-13.5 -3.5zM314 -394q-56 0 -105 16.5t-87 49.5t-59.5 83t-21.5 116q0 72 24 130.5t64.5 104.5t90 79t100.5 53t96 27l2 -8
q-28 5 -57 16.5t-60 25.5t-68 23.5t-83 9.5q-27 0 -45 -4t-38 -11l-4 23q21 8 44 12t46 4q38 0 72 -8.5t65 -20t59.5 -24t56 -21t55.5 -8.5h6v-27q-40 0 -85 -11.5t-90 -34t-85.5 -55t-72.5 -74t-50 -92.5t-18 -110q0 -63 20.5 -108.5t56 -74.5t80.5 -43t94 -14t87.5 7.5
t70.5 18.5l8 -21q-36 -15 -82 -22t-87 -7zM291 588q-10 0 -18 8t-8 19t8 18.5t18 7.5q11 0 19 -7.5t8 -18.5t-8 -19t-19 -8zM243 505q-10 0 -18 8t-8 19t8 18.5t18 7.5q11 0 19 -7.5t8 -18.5t-8 -19t-19 -8zM340 505q-10 0 -18 8t-8 19t8 18.5t18 7.5q12 0 19.5 -7.5
t7.5 -18.5t-7.5 -19t-19.5 -8z" />
    <glyph glyph-name="uni0689.fina" unicode="&#x689;" horiz-adv-x="414" 
d="M186 -128q-30 0 -51.5 21.5t-21.5 51.5t21.5 51t51.5 21q29 0 51 -21t22 -51t-22 -51.5t-51 -21.5zM186 -107q20 0 35.5 15.5t15.5 36.5t-15.5 36.5t-35.5 15.5q-21 0 -36 -15.5t-15 -36.5t15 -36.5t36 -15.5zM153 18q42 0 66.5 14t34.5 37.5t10 49.5q0 20 -4 47
t-16.5 62.5t-38 83t-67.5 110.5l20 13q40 -59 65.5 -108t39 -86.5t18.5 -64.5q11 -51 25.5 -86.5t40.5 -53.5t71 -18q9 0 11.5 -3.5t2.5 -7.5q0 -5 -4 -8.5t-14 -3.5q-42 0 -70.5 16.5t-45.5 48t-25 76.5l12 -16q0 -28 -11 -57t-40 -48.5t-83 -19.5q-21 0 -43 3t-41.5 8.5
t-34.5 12.5l9 22q23 -12 51 -17.5t61 -5.5z" />
    <glyph glyph-name="uni068A.fina" unicode="&#x68a;" horiz-adv-x="414" 
d="M153 18q42 0 66.5 14t34.5 37.5t10 49.5q0 20 -4 47t-16.5 62.5t-38 83t-67.5 110.5l20 13q40 -59 65.5 -108t39 -86.5t18.5 -64.5q11 -51 25.5 -86.5t40.5 -53.5t71 -18q9 0 11.5 -3.5t2.5 -7.5q0 -5 -4 -8.5t-14 -3.5q-42 0 -70.5 16.5t-45.5 48t-25 76.5l12 -16
q0 -28 -11 -57t-40 -48.5t-83 -19.5q-21 0 -43 3t-41.5 8.5t-34.5 12.5l9 22q23 -12 51 -17.5t61 -5.5zM141 -170q-11 0 -19 8t-8 18q0 11 8 19t19 8t18.5 -8t7.5 -19q0 -10 -7.5 -18t-18.5 -8z" />
    <glyph glyph-name="uni068B.fina" unicode="&#x68b;" horiz-adv-x="414" 
d="M153 18q42 0 66.5 14t34.5 37.5t10 49.5q0 20 -4 47t-16.5 62.5t-38 83t-67.5 110.5l20 13q40 -59 65.5 -108t39 -86.5t18.5 -64.5q11 -51 25.5 -86.5t40.5 -53.5t71 -18q9 0 11.5 -3.5t2.5 -7.5q0 -5 -4 -8.5t-14 -3.5q-42 0 -70.5 16.5t-45.5 48t-25 76.5l12 -16
q0 -28 -11 -57t-40 -48.5t-83 -19.5q-21 0 -43 3t-41.5 8.5t-34.5 12.5l9 22q23 -12 51 -17.5t61 -5.5zM116 603q-13 0 -31 1t-35 3t-29 3l1 18q33 -3 56.5 -5t41.5 -2q36 0 60.5 10t37 26t12.5 34q0 20 -10.5 33.5t-29.5 13.5q-25 0 -48 -17.5t-42 -44.5t-34 -54l-17 3
q16 32 38 62t48 49.5t55 19.5q27 0 42.5 -17.5t15.5 -46.5q0 -27 -16 -47t-45.5 -31t-70.5 -11zM73 662l-6 194h17l6 -173zM141 -170q-11 0 -19 8t-8 18q0 11 8 19t19 8t18.5 -8t7.5 -19q0 -10 -7.5 -18t-18.5 -8z" />
    <glyph glyph-name="uni068F.fina" unicode="&#x68f;" horiz-adv-x="414" 
d="M153 18q42 0 66.5 14t34.5 37.5t10 49.5q0 20 -4 47t-16.5 62.5t-38 83t-67.5 110.5l20 13q40 -59 65.5 -108t39 -86.5t18.5 -64.5q11 -51 25.5 -86.5t40.5 -53.5t71 -18q9 0 11.5 -3.5t2.5 -7.5q0 -5 -4 -8.5t-14 -3.5q-42 0 -70.5 16.5t-45.5 48t-25 76.5l12 -16
q0 -28 -11 -57t-40 -48.5t-83 -19.5q-21 0 -43 3t-41.5 8.5t-34.5 12.5l9 22q23 -12 51 -17.5t61 -5.5zM143 601q-11 0 -19 8t-8 18q0 11 8 19t19 8t18.5 -8t7.5 -19q0 -10 -7.5 -18t-18.5 -8zM94 684q-11 0 -19 8t-8 18q0 11 7.5 19t19.5 8q11 0 18.5 -8t7.5 -19
q0 -10 -8 -18t-18 -8zM192 684q-12 0 -20 8t-8 18q0 11 8 19t20 8q10 0 17.5 -8t7.5 -19q0 -10 -7.5 -18t-17.5 -8z" />
    <glyph glyph-name="uni0690.fina" unicode="&#x690;" horiz-adv-x="414" 
d="M153 18q42 0 66.5 14t34.5 37.5t10 49.5q0 20 -4 47t-16.5 62.5t-38 83t-67.5 110.5l20 13q40 -59 65.5 -108t39 -86.5t18.5 -64.5q11 -51 25.5 -86.5t40.5 -53.5t71 -18q9 0 11.5 -3.5t2.5 -7.5q0 -5 -4 -8.5t-14 -3.5q-42 0 -70.5 16.5t-45.5 48t-25 76.5l12 -16
q0 -28 -11 -57t-40 -48.5t-83 -19.5q-21 0 -43 3t-41.5 8.5t-34.5 12.5l9 22q23 -12 51 -17.5t61 -5.5zM96 709q-11 0 -19 8t-8 18q0 11 7.5 19t19.5 8q11 0 18.5 -8t7.5 -19q0 -10 -8 -18t-18 -8zM94 601q-11 0 -19 8t-8 18q0 11 7.5 19t19.5 8q11 0 18.5 -8t7.5 -19
q0 -10 -8 -18t-18 -8zM194 709q-12 0 -20 8t-8 18q0 11 8 19t20 8q10 0 17.5 -8t7.5 -19q0 -10 -7.5 -18t-17.5 -8zM192 601q-12 0 -20 8t-8 18q0 11 8 19t20 8q10 0 17.5 -8t7.5 -19q0 -10 -7.5 -18t-17.5 -8z" />
    <glyph glyph-name="uni0692.fina" unicode="&#x692;" horiz-adv-x="312" 
d="M3 -230l-13 21q37 21 72.5 53t63.5 72.5t44 86t16 91.5q0 50 -20.5 104t-57.5 117l23 13q20 -36 34.5 -67t24.5 -60t16 -57q14 -63 38 -94.5t72 -31.5q9 0 11.5 -3.5t2.5 -7.5q0 -5 -4 -8.5t-14 -3.5q-31 0 -54.5 12t-38.5 34.5t-21 50.5l12 2q0 -54 -19 -104.5
t-49.5 -93.5t-67 -75t-71.5 -51zM105 480q-6 16 -15 41t-19 53.5t-19.5 53.5t-16.5 41l19 9q5 -10 14.5 -34t20 -53t19.5 -55t14 -41l7 -13zM129 482l-19 6q5 18 14 47t19 60t17.5 55.5t10.5 32.5l20 -7q-3 -10 -11 -35t-18 -55.5t-18.5 -58.5t-14.5 -45z" />
    <glyph glyph-name="uni0693.fina" unicode="&#x693;" horiz-adv-x="312" 
d="M176 -217q-30 0 -51 21.5t-21 51.5t21 51t51 21t51.5 -21t21.5 -51t-21.5 -51.5t-51.5 -21.5zM176 -196q20 0 35.5 15t15.5 37q0 21 -15 36.5t-36 15.5t-36 -15.5t-15 -36.5q0 -22 15 -37t36 -15zM3 -230l-13 21q37 21 72.5 53t63.5 72.5t44 86t16 91.5q0 50 -20.5 104
t-57.5 117l23 13q20 -36 34.5 -67t24.5 -60t16 -57q14 -63 38 -94.5t72 -31.5q9 0 11.5 -3.5t2.5 -7.5q0 -5 -4 -8.5t-14 -3.5q-31 0 -54.5 12t-38.5 34.5t-21 50.5l12 2q0 -54 -19 -104.5t-49.5 -93.5t-67 -75t-71.5 -51z" />
    <glyph glyph-name="uni0694.fina" unicode="&#x694;" horiz-adv-x="312" 
d="M3 -230l-13 21q37 21 72.5 53t63.5 72.5t44 86t16 91.5q0 50 -20.5 104t-57.5 117l23 13q20 -36 34.5 -67t24.5 -60t16 -57q14 -63 38 -94.5t72 -31.5q9 0 11.5 -3.5t2.5 -7.5q0 -5 -4 -8.5t-14 -3.5q-31 0 -54.5 12t-38.5 34.5t-21 50.5l12 2q0 -54 -19 -104.5
t-49.5 -93.5t-67 -75t-71.5 -51zM96 -384q-11 0 -19 8t-8 18q0 11 8 19t19 8t18.5 -8t7.5 -19q0 -10 -7.5 -18t-18.5 -8z" />
    <glyph glyph-name="uni0695.fina" unicode="&#x695;" horiz-adv-x="312" 
d="M38 -92q-7 16 -17 43.5t-21 55t-19 44.5l17 6q4 -8 11 -26t15.5 -39.5t15.5 -41t12 -30.5l5 -11zM57 -91l-16 5q4 14 11 35.5t14.5 45t13.5 41.5t8 25l17 -7q-3 -8 -9 -27t-14 -41.5t-14.5 -43t-10.5 -33.5zM3 -230l-13 21q37 21 72.5 53t63.5 72.5t44 86t16 91.5
q0 50 -20.5 104t-57.5 117l23 13q20 -36 34.5 -67t24.5 -60t16 -57q14 -63 38 -94.5t72 -31.5q9 0 11.5 -3.5t2.5 -7.5q0 -5 -4 -8.5t-14 -3.5q-31 0 -54.5 12t-38.5 34.5t-21 50.5l12 2q0 -54 -19 -104.5t-49.5 -93.5t-67 -75t-71.5 -51z" />
    <glyph glyph-name="uni0696.fina" unicode="&#x696;" horiz-adv-x="312" 
d="M3 -230l-13 21q37 21 72.5 53t63.5 72.5t44 86t16 91.5q0 50 -20.5 104t-57.5 117l23 13q20 -36 34.5 -67t24.5 -60t16 -57q14 -63 38 -94.5t72 -31.5q9 0 11.5 -3.5t2.5 -7.5q0 -5 -4 -8.5t-14 -3.5q-31 0 -54.5 12t-38.5 34.5t-21 50.5l12 2q0 -54 -19 -104.5
t-49.5 -93.5t-67 -75t-71.5 -51zM25 25q-11 0 -19 8t-8 18q0 11 8 19t19 8t18.5 -8t7.5 -19q0 -10 -7.5 -18t-18.5 -8zM61 -384q-11 0 -19 8t-8 18q0 11 8 19t19 8t18.5 -8t7.5 -19q0 -10 -7.5 -18t-18.5 -8z" />
    <glyph glyph-name="uni0697.fina" unicode="&#x697;" horiz-adv-x="312" 
d="M3 -230l-13 21q37 21 72.5 53t63.5 72.5t44 86t16 91.5q0 50 -20.5 104t-57.5 117l23 13q20 -36 34.5 -67t24.5 -60t16 -57q14 -63 38 -94.5t72 -31.5q9 0 11.5 -3.5t2.5 -7.5q0 -5 -4 -8.5t-14 -3.5q-31 0 -54.5 12t-38.5 34.5t-21 50.5l12 2q0 -54 -19 -104.5
t-49.5 -93.5t-67 -75t-71.5 -51zM167 487q-12 0 -20 8t-8 18q0 11 8 19t20 8q10 0 17.5 -8t7.5 -19q0 -10 -7.5 -18t-17.5 -8zM69 487q-11 0 -19 8t-8 18q0 11 7.5 19t19.5 8q11 0 18.5 -8t7.5 -19q0 -10 -8 -18t-18 -8z" />
    <glyph glyph-name="uni0699.fina" unicode="&#x699;" horiz-adv-x="312" 
d="M3 -230l-13 21q37 21 72.5 53t63.5 72.5t44 86t16 91.5q0 50 -20.5 104t-57.5 117l23 13q20 -36 34.5 -67t24.5 -60t16 -57q14 -63 38 -94.5t72 -31.5q9 0 11.5 -3.5t2.5 -7.5q0 -5 -4 -8.5t-14 -3.5q-31 0 -54.5 12t-38.5 34.5t-21 50.5l12 2q0 -54 -19 -104.5
t-49.5 -93.5t-67 -75t-71.5 -51zM71 595q-11 0 -19 8t-8 18q0 11 7.5 19t19.5 8q11 0 18.5 -8t7.5 -19q0 -10 -8 -18t-18 -8zM69 487q-11 0 -19 8t-8 18q0 11 7.5 19t19.5 8q11 0 18.5 -8t7.5 -19q0 -10 -8 -18t-18 -8zM169 595q-12 0 -20 8t-8 18q0 11 8 19t20 8
q10 0 17.5 -8t7.5 -19q0 -10 -7.5 -18t-17.5 -8zM167 487q-12 0 -20 8t-8 18q0 11 8 19t20 8q10 0 17.5 -8t7.5 -19q0 -10 -7.5 -18t-17.5 -8z" />
    <glyph glyph-name="uni069A.init" unicode="&#x69a;" horiz-adv-x="638" 
d="M0 -5l4 23q26 0 43.5 7t31 30t25.5 69t27 123l23 -6q-4 -17 -9 -39.5t-9 -47t-4 -47.5q0 -54 23.5 -71.5t61.5 -17.5q31 0 51 9.5t32.5 34.5t22 72.5t19.5 123.5l23 -4q-4 -27 -8.5 -54.5t-7 -51.5t-2.5 -43q0 -35 11 -54t31.5 -26t49.5 -7q21 0 44 7t39.5 33t16.5 82
q0 55 -15 107t-31 106l24 10q12 -37 22.5 -74.5t17 -74.5t6.5 -73q0 -47 -12 -76t-32 -44t-42 -20.5t-42 -5.5q-47 0 -69.5 15t-30 39t-11.5 51h12q-10 -39 -24.5 -62t-37 -33t-59.5 -10q-28 0 -51.5 8t-38.5 33t-15 75h9q-9 -47 -25.5 -72t-39.5 -34.5t-54 -9.5zM297 -171
q-11 0 -19 8t-8 18q0 11 8 19t19 8t18.5 -8t7.5 -19q0 -10 -7.5 -18t-18.5 -8zM343 467q-11 0 -19 8t-8 18q0 11 8 19t19 8t18.5 -8t7.5 -19q0 -10 -7.5 -18t-18.5 -8z" />
    <glyph glyph-name="uni069A.medi" unicode="&#x69a;" horiz-adv-x="663" 
d="M0 -5l4 23q22 0 39.5 5t32.5 26t29 68t30 130l23 -6q-6 -25 -14 -62.5t-8 -68.5q0 -35 6.5 -55t22.5 -28.5t45 -8.5t48.5 7.5t34 31t25.5 71.5t22 130l25 -4q-3 -18 -8 -45.5t-9 -54.5t-4 -44q0 -32 7 -52.5t25.5 -30t50.5 -9.5q56 0 77.5 24.5t21.5 82.5q0 24 -1.5 61
t-4 74.5t-4.5 59.5l25 2q4 -103 11.5 -163.5t21 -90.5t36 -40t57.5 -10q9 0 11.5 -3.5t2.5 -7.5q0 -5 -4 -8.5t-14 -3.5q-28 0 -49 6.5t-35 20t-23.5 33.5t-14.5 47h5q-6 -45 -22 -68t-40.5 -31t-57.5 -8q-36 0 -57.5 11.5t-32 34.5t-13.5 59h8q-11 -34 -24 -57.5
t-35.5 -35.5t-60.5 -12q-26 0 -48.5 8.5t-35 33.5t-11.5 74h9q-14 -51 -31.5 -75.5t-40.5 -32.5t-53 -8zM293 -171q-11 0 -19 8t-8 18q0 11 8 19t19 8t18.5 -8t7.5 -19q0 -10 -7.5 -18t-18.5 -8zM357 467q-11 0 -19 8t-8 18q0 11 8 19t19 8t18.5 -8t7.5 -19q0 -10 -7.5 -18
t-18.5 -8z" />
    <glyph glyph-name="uni069A.fina" unicode="&#x69a;" horiz-adv-x="981" 
d="M246 -231q-40 0 -76 11t-64.5 34.5t-45.5 61t-17 89.5q0 27 4.5 55t16.5 63t34 80l22 -12q-16 -31 -27.5 -62.5t-17.5 -62t-6 -58.5q0 -64 25.5 -102.5t66.5 -55.5t88 -17q60 0 99 19.5t60 53t29.5 75.5t8.5 85q0 34 -6 72t-15 78.5t-19 79.5l25 8q14 -57 21.5 -90.5
t16.5 -65.5q10 -33 20 -52.5t25.5 -28.5t41.5 -9q21 0 37.5 6t30 29t25 72.5t22.5 136.5l24 -4q-6 -40 -11 -67t-7.5 -46t-2.5 -36q0 -32 5.5 -52t23.5 -29.5t55 -9.5q45 0 69.5 27.5t24.5 79.5q0 24 -1.5 62t-4 76.5t-4.5 60.5l25 2q6 -93 10.5 -152.5t15 -93t31.5 -47.5
t61 -15q9 0 11.5 -3.5t2.5 -7.5q0 -5 -4.5 -8.5t-13.5 -3.5q-33 0 -56 11.5t-37.5 31.5t-21.5 47h3q-5 -27 -19.5 -47t-38 -31.5t-54.5 -11.5q-42 0 -64 11.5t-30 35t-9 58.5l9 1q-10 -42 -25 -65t-35 -32t-48 -9t-46 8.5t-29 22.5t-16.5 31.5t-9.5 35.5l17 -32
q0 -65 -9.5 -118.5t-34 -92.5t-69 -60t-112.5 -21zM659 -167q-11 0 -19 8t-8 18q0 11 8 19t19 8t18.5 -8t7.5 -19q0 -10 -7.5 -18t-18.5 -8zM661 467q-11 0 -19 8t-8 18q0 11 8 19t19 8t18.5 -8t7.5 -19q0 -10 -7.5 -18t-18.5 -8z" />
    <glyph glyph-name="uni069B.init" unicode="&#x69b;" horiz-adv-x="638" 
d="M0 -5l4 23q26 0 43.5 7t31 30t25.5 69t27 123l23 -6q-4 -17 -9 -39.5t-9 -47t-4 -47.5q0 -54 23.5 -71.5t61.5 -17.5q31 0 51 9.5t32.5 34.5t22 72.5t19.5 123.5l23 -4q-4 -27 -8.5 -54.5t-7 -51.5t-2.5 -43q0 -35 11 -54t31.5 -26t49.5 -7q21 0 44 7t39.5 33t16.5 82
q0 55 -15 107t-31 106l24 10q12 -37 22.5 -74.5t17 -74.5t6.5 -73q0 -47 -12 -76t-32 -44t-42 -20.5t-42 -5.5q-47 0 -69.5 15t-30 39t-11.5 51h12q-10 -39 -24.5 -62t-37 -33t-59.5 -10q-28 0 -51.5 8t-38.5 33t-15 75h9q-9 -47 -25.5 -72t-39.5 -34.5t-54 -9.5zM297 -255
q-11 0 -19 8t-8 18q0 11 8 19t19 8t18.5 -8t7.5 -19q0 -10 -7.5 -18t-18.5 -8zM248 -172q-11 0 -19 8t-8 18q0 11 7.5 19t19.5 8q11 0 18.5 -8t7.5 -19q0 -10 -8 -18t-18 -8zM346 -172q-12 0 -20 8t-8 18q0 11 8 19t20 8q10 0 17.5 -8t7.5 -19q0 -10 -7.5 -18t-17.5 -8z" />
    <glyph glyph-name="uni069B.medi" unicode="&#x69b;" horiz-adv-x="663" 
d="M0 -5l4 23q22 0 39.5 5t32.5 26t29 68t30 130l23 -6q-6 -25 -14 -62.5t-8 -68.5q0 -35 6.5 -55t22.5 -28.5t45 -8.5t48.5 7.5t34 31t25.5 71.5t22 130l25 -4q-3 -18 -8 -45.5t-9 -54.5t-4 -44q0 -32 7 -52.5t25.5 -30t50.5 -9.5q56 0 77.5 24.5t21.5 82.5q0 24 -1.5 61
t-4 74.5t-4.5 59.5l25 2q4 -103 11.5 -163.5t21 -90.5t36 -40t57.5 -10q9 0 11.5 -3.5t2.5 -7.5q0 -5 -4 -8.5t-14 -3.5q-28 0 -49 6.5t-35 20t-23.5 33.5t-14.5 47h5q-6 -45 -22 -68t-40.5 -31t-57.5 -8q-36 0 -57.5 11.5t-32 34.5t-13.5 59h8q-11 -34 -24 -57.5
t-35.5 -35.5t-60.5 -12q-26 0 -48.5 8.5t-35 33.5t-11.5 74h9q-14 -51 -31.5 -75.5t-40.5 -32.5t-53 -8zM293 -255q-11 0 -19 8t-8 18q0 11 8 19t19 8t18.5 -8t7.5 -19q0 -10 -7.5 -18t-18.5 -8zM244 -172q-11 0 -19 8t-8 18q0 11 7.5 19t19.5 8q11 0 18.5 -8t7.5 -19
q0 -10 -8 -18t-18 -8zM342 -172q-12 0 -20 8t-8 18q0 11 8 19t20 8q10 0 17.5 -8t7.5 -19q0 -10 -7.5 -18t-17.5 -8z" />
    <glyph glyph-name="uni069B.fina" unicode="&#x69b;" horiz-adv-x="981" 
d="M246 -231q-40 0 -76 11t-64.5 34.5t-45.5 61t-17 89.5q0 27 4.5 55t16.5 63t34 80l22 -12q-16 -31 -27.5 -62.5t-17.5 -62t-6 -58.5q0 -64 25.5 -102.5t66.5 -55.5t88 -17q60 0 99 19.5t60 53t29.5 75.5t8.5 85q0 34 -6 72t-15 78.5t-19 79.5l25 8q14 -57 21.5 -90.5
t16.5 -65.5q10 -33 20 -52.5t25.5 -28.5t41.5 -9q21 0 37.5 6t30 29t25 72.5t22.5 136.5l24 -4q-6 -40 -11 -67t-7.5 -46t-2.5 -36q0 -32 5.5 -52t23.5 -29.5t55 -9.5q45 0 69.5 27.5t24.5 79.5q0 24 -1.5 62t-4 76.5t-4.5 60.5l25 2q6 -93 10.5 -152.5t15 -93t31.5 -47.5
t61 -15q9 0 11.5 -3.5t2.5 -7.5q0 -5 -4.5 -8.5t-13.5 -3.5q-33 0 -56 11.5t-37.5 31.5t-21.5 47h3q-5 -27 -19.5 -47t-38 -31.5t-54.5 -11.5q-42 0 -64 11.5t-30 35t-9 58.5l9 1q-10 -42 -25 -65t-35 -32t-48 -9t-46 8.5t-29 22.5t-16.5 31.5t-9.5 35.5l17 -32
q0 -65 -9.5 -118.5t-34 -92.5t-69 -60t-112.5 -21zM659 -251q-11 0 -19 8t-8 18q0 11 8 19t19 8t18.5 -8t7.5 -19q0 -10 -7.5 -18t-18.5 -8zM610 -168q-11 0 -19 8t-8 18q0 11 7.5 19t19.5 8q11 0 18.5 -8t7.5 -19q0 -10 -8 -18t-18 -8zM708 -168q-12 0 -20 8t-8 18
q0 11 8 19t20 8q10 0 17.5 -8t7.5 -19q0 -10 -7.5 -18t-17.5 -8z" />
    <glyph glyph-name="uni069D.init" unicode="&#x69d;" horiz-adv-x="760" 
d="M396 -18q-42 0 -88.5 5.5t-87.5 19.5t-67 39t-28 65h7q-14 -51 -33 -75.5t-43.5 -32.5t-55.5 -8l3 23q28 0 47 6.5t34.5 30.5t31 75t34.5 139l23 -6q-4 -17 -10.5 -42t-12 -51t-5.5 -47q0 -28 15.5 -50t47 -37t78 -23t107.5 -8q68 0 122 11t93 32t59.5 52.5t20.5 73.5
q0 39 -15.5 66.5t-43.5 41.5t-64 14q-46 0 -91.5 -24t-87 -65.5t-77.5 -92.5t-62 -105l-21 11q38 72 78.5 127.5t84 94t88 58.5t90.5 20q41 0 73.5 -16t52 -48t19.5 -79q0 -63 -37 -106.5t-107 -66t-172 -22.5zM453 -183q-11 0 -19 8t-8 18q0 11 8 19t19 8t18.5 -8t7.5 -19
q0 -10 -7.5 -18t-18.5 -8zM355 -183q-11 0 -19 8t-8 18q0 11 8 19t19 8t18.5 -8t7.5 -19q0 -10 -7.5 -18t-18.5 -8z" />
    <glyph glyph-name="uni069D.medi" unicode="&#x69d;" horiz-adv-x="805" 
d="M805 -5q-30 0 -60.5 5t-58.5 17.5t-53 32.5l18 14q36 -24 75 -35t83 -11q10 0 12.5 -3.5t2.5 -7.5q0 -5 -4.5 -8.5t-14.5 -3.5zM396 -18q-42 0 -88.5 5.5t-87.5 19.5t-67 39t-28 65h7q-14 -51 -33 -75.5t-43.5 -32.5t-55.5 -8l3 23q28 0 47 6.5t34.5 30.5t31 75t34.5 139
l23 -6q-4 -17 -10.5 -42t-12 -51t-5.5 -47q0 -28 15.5 -50t47 -37t78 -23t107.5 -8q68 0 122 11t93 32t59.5 52.5t20.5 73.5q0 39 -15.5 66.5t-43.5 41.5t-64 14q-46 0 -91.5 -24t-87 -65.5t-77.5 -92.5t-62 -105l-21 11q38 72 78.5 127.5t84 94t88 58.5t90.5 20
q41 0 73.5 -16t52 -48t19.5 -79q0 -63 -37 -106.5t-107 -66t-172 -22.5zM453 -183q-11 0 -19 8t-8 18q0 11 8 19t19 8t18.5 -8t7.5 -19q0 -10 -7.5 -18t-18.5 -8zM355 -183q-11 0 -19 8t-8 18q0 11 8 19t19 8t18.5 -8t7.5 -19q0 -10 -7.5 -18t-18.5 -8z" />
    <glyph glyph-name="uni069D.fina" unicode="&#x69d;" horiz-adv-x="1147" 
d="M1147 -5q-31 0 -61 5t-58 17.5t-53 32.5l17 14q36 -24 75 -35t84 -11q9 0 11.5 -3.5t2.5 -7.5q0 -5 -4 -8.5t-14 -3.5zM245 -231q-43 0 -80 12t-64 36.5t-42.5 62t-15.5 89.5q0 25 4.5 52.5t16.5 62t34 79.5l22 -12q-16 -32 -27.5 -64t-17.5 -61.5t-6 -55.5
q0 -62 24 -101.5t64.5 -57.5t88.5 -18q62 0 101 19.5t60.5 52.5t30 74.5t8.5 86.5q0 51 -12.5 111t-27.5 119l25 8q9 -38 14.5 -64.5t10 -45t9.5 -32.5q9 -26 25.5 -46.5t46 -35t74.5 -22.5t112 -8q36 0 77 4t80.5 15t71.5 30t51 48t19 72q0 35 -13.5 62.5t-40.5 43.5
t-69 16q-41 0 -83.5 -20.5t-84 -58.5t-79.5 -90.5t-70 -117.5l-21 10q29 58 61 105t66 84t69.5 61.5t71.5 37.5t72 13q50 0 82 -20t47.5 -52.5t15.5 -71.5q0 -60 -29.5 -98t-78 -59t-103.5 -29t-107 -8q-68 0 -114 7t-76.5 20t-49.5 30.5t-34 38.5l17 -10q2 -68 -7.5 -124
t-34.5 -96.5t-69.5 -62t-114.5 -21.5zM796 -178q-11 0 -19 8t-8 18q0 11 8 19t19 8t18.5 -8t7.5 -19q0 -10 -7.5 -18t-18.5 -8zM698 -178q-11 0 -19 8t-8 18q0 11 8 19t19 8t18.5 -8t7.5 -19q0 -10 -7.5 -18t-18.5 -8z" />
    <glyph glyph-name="uni069E.init" unicode="&#x69e;" horiz-adv-x="760" 
d="M396 -18q-42 0 -88.5 5.5t-87.5 19.5t-67 39t-28 65h7q-14 -51 -33 -75.5t-43.5 -32.5t-55.5 -8l3 23q28 0 47 6.5t34.5 30.5t31 75t34.5 139l23 -6q-4 -17 -10.5 -42t-12 -51t-5.5 -47q0 -28 15.5 -50t47 -37t78 -23t107.5 -8q68 0 122 11t93 32t59.5 52.5t20.5 73.5
q0 39 -15.5 66.5t-43.5 41.5t-64 14q-46 0 -91.5 -24t-87 -65.5t-77.5 -92.5t-62 -105l-21 11q38 72 78.5 127.5t84 94t88 58.5t90.5 20q41 0 73.5 -16t52 -48t19.5 -79q0 -63 -37 -106.5t-107 -66t-172 -22.5zM539 538q-10 0 -18 8t-8 19t8 18.5t18 7.5q11 0 19 -7.5
t8 -18.5t-8 -19t-19 -8zM491 455q-10 0 -18 8t-8 19t8 18.5t18 7.5q11 0 19 -7.5t8 -18.5t-8 -19t-19 -8zM588 455q-10 0 -18 8t-8 19t8 18.5t18 7.5q12 0 19.5 -7.5t7.5 -18.5t-7.5 -19t-19.5 -8z" />
    <glyph glyph-name="uni069E.medi" unicode="&#x69e;" horiz-adv-x="805" 
d="M805 -5q-30 0 -60.5 5t-58.5 17.5t-53 32.5l18 14q36 -24 75 -35t83 -11q10 0 12.5 -3.5t2.5 -7.5q0 -5 -4.5 -8.5t-14.5 -3.5zM396 -18q-42 0 -88.5 5.5t-87.5 19.5t-67 39t-28 65h7q-14 -51 -33 -75.5t-43.5 -32.5t-55.5 -8l3 23q28 0 47 6.5t34.5 30.5t31 75t34.5 139
l23 -6q-4 -17 -10.5 -42t-12 -51t-5.5 -47q0 -28 15.5 -50t47 -37t78 -23t107.5 -8q68 0 122 11t93 32t59.5 52.5t20.5 73.5q0 39 -15.5 66.5t-43.5 41.5t-64 14q-46 0 -91.5 -24t-87 -65.5t-77.5 -92.5t-62 -105l-21 11q38 72 78.5 127.5t84 94t88 58.5t90.5 20
q41 0 73.5 -16t52 -48t19.5 -79q0 -63 -37 -106.5t-107 -66t-172 -22.5zM539 538q-10 0 -18 8t-8 19t8 18.5t18 7.5q11 0 19 -7.5t8 -18.5t-8 -19t-19 -8zM491 455q-10 0 -18 8t-8 19t8 18.5t18 7.5q11 0 19 -7.5t8 -18.5t-8 -19t-19 -8zM588 455q-10 0 -18 8t-8 19t8 18.5
t18 7.5q12 0 19.5 -7.5t7.5 -18.5t-7.5 -19t-19.5 -8z" />
    <glyph glyph-name="uni069E.fina" unicode="&#x69e;" horiz-adv-x="1147" 
d="M1147 -5q-31 0 -61 5t-58 17.5t-53 32.5l17 14q36 -24 75 -35t84 -11q9 0 11.5 -3.5t2.5 -7.5q0 -5 -4 -8.5t-14 -3.5zM245 -231q-43 0 -80 12t-64 36.5t-42.5 62t-15.5 89.5q0 25 4.5 52.5t16.5 62t34 79.5l22 -12q-16 -32 -27.5 -64t-17.5 -61.5t-6 -55.5
q0 -62 24 -101.5t64.5 -57.5t88.5 -18q62 0 101 19.5t60.5 52.5t30 74.5t8.5 86.5q0 51 -12.5 111t-27.5 119l25 8q9 -38 14.5 -64.5t10 -45t9.5 -32.5q9 -26 25.5 -46.5t46 -35t74.5 -22.5t112 -8q36 0 77 4t80.5 15t71.5 30t51 48t19 72q0 35 -13.5 62.5t-40.5 43.5
t-69 16q-41 0 -83.5 -20.5t-84 -58.5t-79.5 -90.5t-70 -117.5l-21 10q29 58 61 105t66 84t69.5 61.5t71.5 37.5t72 13q50 0 82 -20t47.5 -52.5t15.5 -71.5q0 -60 -29.5 -98t-78 -59t-103.5 -29t-107 -8q-68 0 -114 7t-76.5 20t-49.5 30.5t-34 38.5l17 -10q2 -68 -7.5 -124
t-34.5 -96.5t-69.5 -62t-114.5 -21.5zM873 543q-10 0 -18 8t-8 19t8 18.5t18 7.5q11 0 19 -7.5t8 -18.5t-8 -19t-19 -8zM825 460q-10 0 -18 8t-8 19t8 18.5t18 7.5q11 0 19 -7.5t8 -18.5t-8 -19t-19 -8zM922 460q-10 0 -18 8t-8 19t8 18.5t18 7.5q12 0 19.5 -7.5t7.5 -18.5
t-7.5 -19t-19.5 -8z" />
    <glyph glyph-name="uni069F.init" unicode="&#x69f;" horiz-adv-x="593" 
d="M0 -5l4 23h246q63 0 113 10t85.5 30t54 50.5t18.5 70.5q0 34 -13 61.5t-40 44t-70 16.5q-47 0 -92 -25.5t-86.5 -67.5t-76.5 -93t-63 -102l-31 -11q35 66 75 124.5t84.5 103t92.5 70t99 25.5q50 0 82.5 -20t47.5 -52.5t15 -72.5q0 -59 -36 -103.5t-119 -66.5
q-35 -8 -81.5 -11.5t-98 -3.5h-101.5h-109zM99 74l-18 640h23l18 -604zM359 543q-10 0 -18 8t-8 19t8 18.5t18 7.5q11 0 19 -7.5t8 -18.5t-8 -19t-19 -8zM311 460q-10 0 -18 8t-8 19t8 18.5t18 7.5q11 0 19 -7.5t8 -18.5t-8 -19t-19 -8zM408 460q-10 0 -18 8t-8 19t8 18.5
t18 7.5q12 0 19.5 -7.5t7.5 -18.5t-7.5 -19t-19.5 -8z" />
    <glyph glyph-name="uni069F.medi" unicode="&#x69f;" horiz-adv-x="616" 
d="M616 -5q-31 0 -61 5t-58 17.5t-53 32.5l18 14q36 -24 74.5 -35t83.5 -11q9 0 11.5 -3.5t2.5 -7.5q0 -5 -4 -8.5t-14 -3.5zM0 -5l4 23h246q63 0 113 10t85.5 30t54 50.5t18.5 70.5q0 34 -13 61.5t-40 44t-70 16.5q-47 0 -92 -25.5t-86.5 -67.5t-76.5 -93t-63 -102l-31 -11
q35 66 75 124.5t84.5 103t92.5 70t99 25.5q50 0 82.5 -20t47.5 -52.5t15 -72.5q0 -59 -36 -103.5t-119 -66.5q-35 -8 -81.5 -11.5t-98 -3.5h-101.5h-109zM99 74l-18 640h23l18 -604zM359 543q-10 0 -18 8t-8 19t8 18.5t18 7.5q11 0 19 -7.5t8 -18.5t-8 -19t-19 -8zM311 460
q-10 0 -18 8t-8 19t8 18.5t18 7.5q11 0 19 -7.5t8 -18.5t-8 -19t-19 -8zM408 460q-10 0 -18 8t-8 19t8 18.5t18 7.5q12 0 19.5 -7.5t7.5 -18.5t-7.5 -19t-19.5 -8z" />
    <glyph glyph-name="uni069F.fina" unicode="&#x69f;" horiz-adv-x="731" 
d="M731 -5q-31 0 -61 5t-58 17.5t-54 32.5l18 14q36 -24 75 -35t83 -11q10 0 12.5 -3.5t2.5 -7.5q0 -5 -4.5 -8.5t-13.5 -3.5zM323 -13q-31 0 -71 2t-80.5 4.5t-75.5 6t-56 6.5l3 23q24 -3 61 -6.5t78 -6.5t79 -4.5t66 -1.5q60 0 112.5 9.5t93.5 29.5t64 52.5t23 78.5
q0 36 -14.5 63t-41.5 42.5t-67 15.5q-46 0 -91 -23.5t-86.5 -64.5t-77 -92.5t-63.5 -107.5l-31 -11q37 76 78.5 136t86.5 101.5t91.5 63.5t93.5 22q48 0 80.5 -18.5t49 -51t16.5 -74.5q0 -69 -41.5 -112t-114.5 -62.5t-165 -19.5zM198 72l-20 642h24l21 -607zM457 543
q-10 0 -18 8t-8 19t8 18.5t18 7.5q11 0 19 -7.5t8 -18.5t-8 -19t-19 -8zM409 460q-10 0 -18 8t-8 19t8 18.5t18 7.5q11 0 19 -7.5t8 -18.5t-8 -19t-19 -8zM506 460q-10 0 -18 8t-8 19t8 18.5t18 7.5q12 0 19.5 -7.5t7.5 -18.5t-7.5 -19t-19.5 -8z" />
    <glyph glyph-name="uni06A0.init" unicode="&#x6a0;" horiz-adv-x="380" 
d="M0 -5l3 23q43 0 79 3t69.5 8.5t68.5 13.5q-43 15 -79 42.5t-58 66t-22 85.5q0 45 19 82t57 59t92 22q17 0 38 -3.5t40 -10.5l-5 -22q-19 6 -38 9t-37 3q-43 0 -75.5 -18t-50 -49.5t-17.5 -70.5q0 -32 11.5 -59t31 -47t42 -35t45.5 -25t42 -17l20 5t16 4.5t22 8t38 15.5
l8 -22q-64 -27 -121 -42.5t-114.5 -22t-124.5 -6.5zM217 619q-10 0 -18 8t-8 19t8 18.5t18 7.5q11 0 19 -7.5t8 -18.5t-8 -19t-19 -8zM169 536q-10 0 -18 8t-8 19t8 18.5t18 7.5q11 0 19 -7.5t8 -18.5t-8 -19t-19 -8zM266 536q-10 0 -18 8t-8 19t8 18.5t18 7.5
q12 0 19.5 -7.5t7.5 -18.5t-7.5 -19t-19.5 -8z" />
    <glyph glyph-name="uni06A0.medi" unicode="&#x6a0;" horiz-adv-x="407" 
d="M0 -5l4 23q44 0 88.5 17t84 45.5t70 63.5t48 71.5t17.5 69.5q0 17 -9 34t-30.5 29t-60.5 12q-34 0 -63 -11t-48.5 -26.5t-28.5 -30.5q24 -29 48.5 -61t47.5 -65t42 -68q21 -25 42.5 -40.5t45.5 -24.5t51.5 -12t61.5 -3q6 0 10 -2.5t4 -8.5t-4.5 -9t-13.5 -3q-47 0 -85 8
t-69 27.5t-60 54.5q-23 42 -49.5 79t-49 66t-37.5 45q0 2 -1.5 5t-2 6.5t-0.5 4.5q0 12 13.5 28t36.5 31t51.5 24.5t58.5 9.5q39 0 66.5 -11.5t42 -32.5t14.5 -50q0 -37 -18 -78t-51 -79.5t-75.5 -69.5t-91.5 -49.5t-100 -18.5zM210 602q-10 0 -18 8t-8 19t8 18.5t18 7.5
q11 0 19 -7.5t8 -18.5t-8 -19t-19 -8zM162 519q-10 0 -18 8t-8 19t8 18.5t18 7.5q11 0 19 -7.5t8 -18.5t-8 -19t-19 -8zM259 519q-10 0 -18 8t-8 19t8 18.5t18 7.5q12 0 19.5 -7.5t7.5 -18.5t-7.5 -19t-19.5 -8z" />
    <glyph glyph-name="uni06A0.fina" unicode="&#x6a0;" horiz-adv-x="427" 
d="M267 -394q-34 0 -76 9t-80.5 32t-63 64.5t-24.5 106.5q0 54 22.5 100t57.5 85t75 74.5t75 68.5t57.5 67.5t22.5 71.5q0 18 -9 35t-31 28.5t-60 11.5q-34 0 -62 -11t-48.5 -26.5t-29.5 -30.5q19 -21 42 -51.5t46.5 -65.5t44.5 -71q22 -27 44.5 -44.5t47.5 -26.5t53 -12
t60 -3q5 0 9.5 -2t4.5 -9t-5.5 -9.5t-12.5 -2.5q-42 0 -81 7.5t-74 28.5t-65 61q-17 31 -41 67t-48 67.5t-39 48.5l-2.5 5t-2 6.5t-0.5 5.5q0 11 13 26.5t36.5 30.5t52 25t58.5 10q59 0 91 -25.5t32 -69.5q0 -43 -22.5 -80.5t-57.5 -72t-75 -69.5t-75 -72t-57.5 -80
t-22.5 -94q0 -47 16 -83.5t46 -60t70.5 -35.5t90.5 -12q33 0 63.5 3.5t58.5 11t53 18.5l8 -21q-33 -14 -64.5 -21.5t-61 -11t-60.5 -3.5zM240 602q-10 0 -18 8t-8 19t8 18.5t18 7.5q11 0 19 -7.5t8 -18.5t-8 -19t-19 -8zM192 519q-10 0 -18 8t-8 19t8 18.5t18 7.5
q11 0 19 -7.5t8 -18.5t-8 -19t-19 -8zM289 519q-10 0 -18 8t-8 19t8 18.5t18 7.5q12 0 19.5 -7.5t7.5 -18.5t-7.5 -19t-19.5 -8z" />
    <glyph glyph-name="uni06A1.init" unicode="&#x6a1;" horiz-adv-x="385" 
d="M0 -5l4 23q35 0 69 1.5t65.5 6.5t58 13.5t46.5 21.5q15 10 31.5 29t27.5 55t11 96q0 51 -12 100.5t-35.5 82t-60.5 32.5q-29 0 -53.5 -26.5t-39 -66t-14.5 -80.5q0 -42 16.5 -64.5t42 -31t53.5 -8.5q27 0 57 7.5t51 18.5l4 -21q-16 -10 -37.5 -16.5t-42.5 -9t-36 -2.5
q-34 0 -64 12t-49 39.5t-19 73.5q0 32 10 67.5t27 65.5t42 48.5t56 18.5q42 0 70.5 -34.5t43 -90.5t14.5 -121q0 -60 -16 -107.5t-62 -81.5q-18 -13 -42.5 -22.5t-56.5 -16t-72 -9.5t-88 -3z" />
    <glyph glyph-name="uni06A1.medi" unicode="&#x6a1;" horiz-adv-x="384" 
d="M0 -5l4 23q23 0 46 2.5t45.5 8t44 13t41.5 18.5q34 18 60 42t41.5 54t15.5 68q0 29 -11 61.5t-33 56t-57 23.5q-27 0 -52.5 -19.5t-41.5 -52t-16 -72.5t15 -71t40 -53t55 -36l-28 -9q-22 13 -46.5 35.5t-41 55.5t-16.5 78q0 34 11 64.5t29.5 53.5t42.5 36t49 13
q37 0 64.5 -23.5t43 -60t15.5 -78.5q0 -30 -9 -56.5t-25 -49.5t-38 -42t-49 -34q-21 -13 -45.5 -22t-50 -15.5t-51.5 -9t-52 -2.5zM384 -5q-28 0 -69 7.5t-79.5 19.5t-60.5 26l24 11q20 -9 47.5 -18.5t63.5 -16t78 -6.5q6 0 10 -2.5t4 -8.5t-4.5 -9t-13.5 -3z" />
    <glyph glyph-name="uni06A1.fina" unicode="&#x6a1;" horiz-adv-x="890" 
d="M325 -21l13 23q47 0 95 4t94.5 11t86 18t69.5 26q40 20 67.5 43.5t41.5 52t14 62.5q0 24 -6.5 49.5t-19 47.5t-31.5 35.5t-44 13.5q-29 0 -54.5 -20.5t-40.5 -55t-15 -76.5q0 -36 15 -65.5t40.5 -51t54.5 -35.5l-31 -9q-21 13 -45 34.5t-40 52.5t-16 73q0 36 10.5 67.5
t28.5 56t42 38.5t51 14q36 0 63.5 -23t43.5 -61.5t16 -84.5q0 -27 -8.5 -51t-24 -45.5t-38 -40t-52.5 -35.5q-31 -17 -73.5 -30t-93 -21.5t-104.5 -12.5t-109 -4zM890 -5q-38 0 -75 6.5t-71.5 18.5t-62.5 28l26 11q20 -9 45 -18.5t59.5 -16t81.5 -6.5q7 0 11 -2.5t4 -8.5
t-5 -9t-13 -3zM326 -21q-67 0 -119 11.5t-88.5 35t-56 59t-19.5 82.5q0 23 4 48.5t9.5 50t11.5 45.5l22 -6q-6 -19 -11 -41.5t-8.5 -46.5t-3.5 -47q0 -58 31.5 -95.5t92 -55t147.5 -17.5l20 -14z" />
    <glyph glyph-name="fehDotMovedbelowar.init" unicode="&#x6a2;" horiz-adv-x="385" 
d="M0 -5l4 23q35 0 69 1.5t65.5 6.5t58 13.5t46.5 21.5q15 10 31.5 29t27.5 55t11 96q0 51 -12 100.5t-35.5 82t-60.5 32.5q-29 0 -53.5 -26.5t-39 -66t-14.5 -80.5q0 -42 16.5 -64.5t42 -31t53.5 -8.5q27 0 57 7.5t51 18.5l4 -21q-16 -10 -37.5 -16.5t-42.5 -9t-36 -2.5
q-34 0 -64 12t-49 39.5t-19 73.5q0 32 10 67.5t27 65.5t42 48.5t56 18.5q42 0 70.5 -34.5t43 -90.5t14.5 -121q0 -60 -16 -107.5t-62 -81.5q-18 -13 -42.5 -22.5t-56.5 -16t-72 -9.5t-88 -3zM187 -185q-11 0 -19 8t-8 18q0 11 8 19t19 8t18.5 -8t7.5 -19q0 -10 -7.5 -18
t-18.5 -8z" />
    <glyph glyph-name="fehDotMovedbelowar.medi" unicode="&#x6a2;" horiz-adv-x="384" 
d="M0 -5l4 23q23 0 46 2.5t45.5 8t44 13t41.5 18.5q34 18 60 42t41.5 54t15.5 68q0 29 -11 61.5t-33 56t-57 23.5q-27 0 -52.5 -19.5t-41.5 -52t-16 -72.5t15 -71t40 -53t55 -36l-28 -9q-22 13 -46.5 35.5t-41 55.5t-16.5 78q0 34 11 64.5t29.5 53.5t42.5 36t49 13
q37 0 64.5 -23.5t43 -60t15.5 -78.5q0 -30 -9 -56.5t-25 -49.5t-38 -42t-49 -34q-21 -13 -45.5 -22t-50 -15.5t-51.5 -9t-52 -2.5zM384 -5q-28 0 -69 7.5t-79.5 19.5t-60.5 26l24 11q20 -9 47.5 -18.5t63.5 -16t78 -6.5q6 0 10 -2.5t4 -8.5t-4.5 -9t-13.5 -3zM188 -186
q-11 0 -19 8t-8 18q0 11 8 19t19 8t18.5 -8t7.5 -19q0 -10 -7.5 -18t-18.5 -8z" />
    <glyph glyph-name="fehDotMovedbelowar.fina" unicode="&#x6a2;" horiz-adv-x="890" 
d="M325 -21l13 23q47 0 95 4t94.5 11t86 18t69.5 26q40 20 67.5 43.5t41.5 52t14 62.5q0 24 -6.5 49.5t-19 47.5t-31.5 35.5t-44 13.5q-29 0 -54.5 -20.5t-40.5 -55t-15 -76.5q0 -36 15 -65.5t40.5 -51t54.5 -35.5l-31 -9q-21 13 -45 34.5t-40 52.5t-16 73q0 36 10.5 67.5
t28.5 56t42 38.5t51 14q36 0 63.5 -23t43.5 -61.5t16 -84.5q0 -27 -8.5 -51t-24 -45.5t-38 -40t-52.5 -35.5q-31 -17 -73.5 -30t-93 -21.5t-104.5 -12.5t-109 -4zM890 -5q-38 0 -75 6.5t-71.5 18.5t-62.5 28l26 11q20 -9 45 -18.5t59.5 -16t81.5 -6.5q7 0 11 -2.5t4 -8.5
t-5 -9t-13 -3zM326 -21q-67 0 -119 11.5t-88.5 35t-56 59t-19.5 82.5q0 23 4 48.5t9.5 50t11.5 45.5l22 -6q-6 -19 -11 -41.5t-8.5 -46.5t-3.5 -47q0 -58 31.5 -95.5t92 -55t147.5 -17.5l20 -14zM359 -192q-11 0 -19 8t-8 18q0 11 8 19t19 8t18.5 -8t7.5 -19q0 -10 -7.5 -18
t-18.5 -8z" />
    <glyph glyph-name="uni06A3.init" unicode="&#x6a3;" horiz-adv-x="385" 
d="M0 -5l4 23q35 0 69 1.5t65.5 6.5t58 13.5t46.5 21.5q15 10 31.5 29t27.5 55t11 96q0 51 -12 100.5t-35.5 82t-60.5 32.5q-29 0 -53.5 -26.5t-39 -66t-14.5 -80.5q0 -42 16.5 -64.5t42 -31t53.5 -8.5q27 0 57 7.5t51 18.5l4 -21q-16 -10 -37.5 -16.5t-42.5 -9t-36 -2.5
q-34 0 -64 12t-49 39.5t-19 73.5q0 32 10 67.5t27 65.5t42 48.5t56 18.5q42 0 70.5 -34.5t43 -90.5t14.5 -121q0 -60 -16 -107.5t-62 -81.5q-18 -13 -42.5 -22.5t-56.5 -16t-72 -9.5t-88 -3zM201 616q-11 0 -19 8t-8 18q0 11 8 19t19 8t18.5 -8t7.5 -19q0 -10 -7.5 -18
t-18.5 -8zM187 -185q-11 0 -19 8t-8 18q0 11 8 19t19 8t18.5 -8t7.5 -19q0 -10 -7.5 -18t-18.5 -8z" />
    <glyph glyph-name="uni06A3.medi" unicode="&#x6a3;" horiz-adv-x="384" 
d="M0 -5l4 23q23 0 46 2.5t45.5 8t44 13t41.5 18.5q34 18 60 42t41.5 54t15.5 68q0 29 -11 61.5t-33 56t-57 23.5q-27 0 -52.5 -19.5t-41.5 -52t-16 -72.5t15 -71t40 -53t55 -36l-28 -9q-22 13 -46.5 35.5t-41 55.5t-16.5 78q0 34 11 64.5t29.5 53.5t42.5 36t49 13
q37 0 64.5 -23.5t43 -60t15.5 -78.5q0 -30 -9 -56.5t-25 -49.5t-38 -42t-49 -34q-21 -13 -45.5 -22t-50 -15.5t-51.5 -9t-52 -2.5zM384 -5q-28 0 -69 7.5t-79.5 19.5t-60.5 26l24 11q20 -9 47.5 -18.5t63.5 -16t78 -6.5q6 0 10 -2.5t4 -8.5t-4.5 -9t-13.5 -3zM193 523
q-11 0 -19 8t-8 18q0 11 8 19t19 8t18.5 -8t7.5 -19q0 -10 -7.5 -18t-18.5 -8zM188 -186q-11 0 -19 8t-8 18q0 11 8 19t19 8t18.5 -8t7.5 -19q0 -10 -7.5 -18t-18.5 -8z" />
    <glyph glyph-name="uni06A3.fina" unicode="&#x6a3;" horiz-adv-x="890" 
d="M325 -21l13 23q47 0 95 4t94.5 11t86 18t69.5 26q40 20 67.5 43.5t41.5 52t14 62.5q0 24 -6.5 49.5t-19 47.5t-31.5 35.5t-44 13.5q-29 0 -54.5 -20.5t-40.5 -55t-15 -76.5q0 -36 15 -65.5t40.5 -51t54.5 -35.5l-31 -9q-21 13 -45 34.5t-40 52.5t-16 73q0 36 10.5 67.5
t28.5 56t42 38.5t51 14q36 0 63.5 -23t43.5 -61.5t16 -84.5q0 -27 -8.5 -51t-24 -45.5t-38 -40t-52.5 -35.5q-31 -17 -73.5 -30t-93 -21.5t-104.5 -12.5t-109 -4zM890 -5q-38 0 -75 6.5t-71.5 18.5t-62.5 28l26 11q20 -9 45 -18.5t59.5 -16t81.5 -6.5q7 0 11 -2.5t4 -8.5
t-5 -9t-13 -3zM326 -21q-67 0 -119 11.5t-88.5 35t-56 59t-19.5 82.5q0 23 4 48.5t9.5 50t11.5 45.5l22 -6q-6 -19 -11 -41.5t-8.5 -46.5t-3.5 -47q0 -58 31.5 -95.5t92 -55t147.5 -17.5l20 -14zM704 523q-11 0 -19 8t-8 18q0 11 8 19t19 8t18.5 -8t7.5 -19q0 -10 -7.5 -18
t-18.5 -8zM359 -192q-11 0 -19 8t-8 18q0 11 8 19t19 8t18.5 -8t7.5 -19q0 -10 -7.5 -18t-18.5 -8z" />
    <glyph glyph-name="uni06A5.init" unicode="&#x6a5;" horiz-adv-x="385" 
d="M0 -5l4 23q35 0 69 1.5t65.5 6.5t58 13.5t46.5 21.5q15 10 31.5 29t27.5 55t11 96q0 51 -12 100.5t-35.5 82t-60.5 32.5q-29 0 -53.5 -26.5t-39 -66t-14.5 -80.5q0 -42 16.5 -64.5t42 -31t53.5 -8.5q27 0 57 7.5t51 18.5l4 -21q-16 -10 -37.5 -16.5t-42.5 -9t-36 -2.5
q-34 0 -64 12t-49 39.5t-19 73.5q0 32 10 67.5t27 65.5t42 48.5t56 18.5q42 0 70.5 -34.5t43 -90.5t14.5 -121q0 -60 -16 -107.5t-62 -81.5q-18 -13 -42.5 -22.5t-56.5 -16t-72 -9.5t-88 -3zM187 -269q-11 0 -19 8t-8 18q0 11 8 19t19 8t18.5 -8t7.5 -19q0 -10 -7.5 -18
t-18.5 -8zM138 -186q-11 0 -19 8t-8 18q0 11 7.5 19t19.5 8q11 0 18.5 -8t7.5 -19q0 -10 -8 -18t-18 -8zM236 -186q-12 0 -20 8t-8 18q0 11 8 19t20 8q10 0 17.5 -8t7.5 -19q0 -10 -7.5 -18t-17.5 -8z" />
    <glyph glyph-name="uni06A5.medi" unicode="&#x6a5;" horiz-adv-x="384" 
d="M0 -5l4 23q23 0 46 2.5t45.5 8t44 13t41.5 18.5q34 18 60 42t41.5 54t15.5 68q0 29 -11 61.5t-33 56t-57 23.5q-27 0 -52.5 -19.5t-41.5 -52t-16 -72.5t15 -71t40 -53t55 -36l-28 -9q-22 13 -46.5 35.5t-41 55.5t-16.5 78q0 34 11 64.5t29.5 53.5t42.5 36t49 13
q37 0 64.5 -23.5t43 -60t15.5 -78.5q0 -30 -9 -56.5t-25 -49.5t-38 -42t-49 -34q-21 -13 -45.5 -22t-50 -15.5t-51.5 -9t-52 -2.5zM384 -5q-28 0 -69 7.5t-79.5 19.5t-60.5 26l24 11q20 -9 47.5 -18.5t63.5 -16t78 -6.5q6 0 10 -2.5t4 -8.5t-4.5 -9t-13.5 -3zM188 -270
q-11 0 -19 8t-8 18q0 11 8 19t19 8t18.5 -8t7.5 -19q0 -10 -7.5 -18t-18.5 -8zM139 -187q-11 0 -19 8t-8 18q0 11 7.5 19t19.5 8q11 0 18.5 -8t7.5 -19q0 -10 -8 -18t-18 -8zM237 -187q-12 0 -20 8t-8 18q0 11 8 19t20 8q10 0 17.5 -8t7.5 -19q0 -10 -7.5 -18t-17.5 -8z" />
    <glyph glyph-name="uni06A5.fina" unicode="&#x6a5;" horiz-adv-x="890" 
d="M325 -21l13 23q47 0 95 4t94.5 11t86 18t69.5 26q40 20 67.5 43.5t41.5 52t14 62.5q0 24 -6.5 49.5t-19 47.5t-31.5 35.5t-44 13.5q-29 0 -54.5 -20.5t-40.5 -55t-15 -76.5q0 -36 15 -65.5t40.5 -51t54.5 -35.5l-31 -9q-21 13 -45 34.5t-40 52.5t-16 73q0 36 10.5 67.5
t28.5 56t42 38.5t51 14q36 0 63.5 -23t43.5 -61.5t16 -84.5q0 -27 -8.5 -51t-24 -45.5t-38 -40t-52.5 -35.5q-31 -17 -73.5 -30t-93 -21.5t-104.5 -12.5t-109 -4zM890 -5q-38 0 -75 6.5t-71.5 18.5t-62.5 28l26 11q20 -9 45 -18.5t59.5 -16t81.5 -6.5q7 0 11 -2.5t4 -8.5
t-5 -9t-13 -3zM326 -21q-67 0 -119 11.5t-88.5 35t-56 59t-19.5 82.5q0 23 4 48.5t9.5 50t11.5 45.5l22 -6q-6 -19 -11 -41.5t-8.5 -46.5t-3.5 -47q0 -58 31.5 -95.5t92 -55t147.5 -17.5l20 -14zM359 -276q-11 0 -19 8t-8 18q0 11 8 19t19 8t18.5 -8t7.5 -19q0 -10 -7.5 -18
t-18.5 -8zM310 -193q-11 0 -19 8t-8 18q0 11 7.5 19t19.5 8q11 0 18.5 -8t7.5 -19q0 -10 -8 -18t-18 -8zM408 -193q-12 0 -20 8t-8 18q0 11 8 19t20 8q10 0 17.5 -8t7.5 -19q0 -10 -7.5 -18t-17.5 -8z" />
    <glyph glyph-name="uni06A7.fina" unicode="&#x6a7;" horiz-adv-x="734" 
d="M305 -272q-58 0 -105.5 13.5t-83 41.5t-54.5 72.5t-19 106.5q0 10 3 38.5t15 70t39 89.5l21 -11q-13 -22 -25.5 -50.5t-20.5 -62t-8 -70.5q0 -82 33.5 -128.5t89 -66t121.5 -19.5q31 0 69 4.5t76.5 17.5t73 36.5t60.5 62t37 94.5q4 19 6 43.5t2 47.5q0 65 -13 116.5
t-37 82t-57 30.5q-23 0 -42.5 -16t-34 -42.5t-23 -57t-8.5 -60.5q0 -31 10.5 -50t29.5 -28t45.5 -12t57.5 -3h175q7 0 11 -2.5t4 -8.5t-5 -9t-14 -3h-175q-28 0 -57 4t-53 15.5t-38.5 34t-14.5 59.5q0 33 9.5 68.5t26.5 66.5t42.5 50t57.5 19q41 0 69 -34t43 -91.5
t15 -129.5q0 -28 -3 -56t-8 -51q-17 -71 -55 -115t-87.5 -67t-102 -31.5t-98.5 -8.5zM530 447q-11 0 -19 8t-8 18q0 11 8 19t19 8t18.5 -8t7.5 -19q0 -10 -7.5 -18t-18.5 -8z" />
    <glyph glyph-name="uni06A8.init" unicode="&#x6a8;" horiz-adv-x="385" 
d="M0 -5l4 23q35 0 69 1.5t65.5 6.5t58 13.5t46.5 21.5q15 10 31.5 29t27.5 55t11 96q0 51 -12 100.5t-35.5 82t-60.5 32.5q-29 0 -53.5 -26.5t-39 -66t-14.5 -80.5q0 -42 16.5 -64.5t42 -31t53.5 -8.5q27 0 57 7.5t51 18.5l4 -21q-16 -10 -37.5 -16.5t-42.5 -9t-36 -2.5
q-34 0 -64 12t-49 39.5t-19 73.5q0 32 10 67.5t27 65.5t42 48.5t56 18.5q42 0 70.5 -34.5t43 -90.5t14.5 -121q0 -60 -16 -107.5t-62 -81.5q-18 -13 -42.5 -22.5t-56.5 -16t-72 -9.5t-88 -3zM202 699q-10 0 -18 8t-8 19t8 18.5t18 7.5q11 0 19 -7.5t8 -18.5t-8 -19t-19 -8z
M154 616q-10 0 -18 8t-8 19t8 18.5t18 7.5q11 0 19 -7.5t8 -18.5t-8 -19t-19 -8zM251 616q-10 0 -18 8t-8 19t8 18.5t18 7.5q12 0 19.5 -7.5t7.5 -18.5t-7.5 -19t-19.5 -8z" />
    <glyph glyph-name="uni06A8.medi" unicode="&#x6a8;" horiz-adv-x="384" 
d="M0 -5l4 23q23 0 46 2.5t45.5 8t44 13t41.5 18.5q34 18 60 42t41.5 54t15.5 68q0 29 -11 61.5t-33 56t-57 23.5q-27 0 -52.5 -19.5t-41.5 -52t-16 -72.5t15 -71t40 -53t55 -36l-28 -9q-22 13 -46.5 35.5t-41 55.5t-16.5 78q0 34 11 64.5t29.5 53.5t42.5 36t49 13
q37 0 64.5 -23.5t43 -60t15.5 -78.5q0 -30 -9 -56.5t-25 -49.5t-38 -42t-49 -34q-21 -13 -45.5 -22t-50 -15.5t-51.5 -9t-52 -2.5zM384 -5q-28 0 -69 7.5t-79.5 19.5t-60.5 26l24 11q20 -9 47.5 -18.5t63.5 -16t78 -6.5q6 0 10 -2.5t4 -8.5t-4.5 -9t-13.5 -3zM194 606
q-10 0 -18 8t-8 19t8 18.5t18 7.5q11 0 19 -7.5t8 -18.5t-8 -19t-19 -8zM146 523q-10 0 -18 8t-8 19t8 18.5t18 7.5q11 0 19 -7.5t8 -18.5t-8 -19t-19 -8zM243 523q-10 0 -18 8t-8 19t8 18.5t18 7.5q12 0 19.5 -7.5t7.5 -18.5t-7.5 -19t-19.5 -8z" />
    <glyph glyph-name="uni06A8.fina" unicode="&#x6a8;" horiz-adv-x="734" 
d="M305 -272q-58 0 -105.5 13.5t-83 41.5t-54.5 72.5t-19 106.5q0 10 3 38.5t15 70t39 89.5l21 -11q-13 -22 -25.5 -50.5t-20.5 -62t-8 -70.5q0 -82 33.5 -128.5t89 -66t121.5 -19.5q31 0 69 4.5t76.5 17.5t73 36.5t60.5 62t37 94.5q4 19 6 43.5t2 47.5q0 65 -13 116.5
t-37 82t-57 30.5q-23 0 -42.5 -16t-34 -42.5t-23 -57t-8.5 -60.5q0 -31 10.5 -50t29.5 -28t45.5 -12t57.5 -3h175q7 0 11 -2.5t4 -8.5t-5 -9t-14 -3h-175q-28 0 -57 4t-53 15.5t-38.5 34t-14.5 59.5q0 33 9.5 68.5t26.5 66.5t42.5 50t57.5 19q41 0 69 -34t43 -91.5
t15 -129.5q0 -28 -3 -56t-8 -51q-17 -71 -55 -115t-87.5 -67t-102 -31.5t-98.5 -8.5zM531 530q-10 0 -18 8t-8 19t8 18.5t18 7.5q11 0 19 -7.5t8 -18.5t-8 -19t-19 -8zM483 447q-10 0 -18 8t-8 19t8 18.5t18 7.5q11 0 19 -7.5t8 -18.5t-8 -19t-19 -8zM580 447q-10 0 -18 8
t-8 19t8 18.5t18 7.5q12 0 19.5 -7.5t7.5 -18.5t-7.5 -19t-19.5 -8z" />
    <glyph glyph-name="uni06AA.init" unicode="&#x6aa;" horiz-adv-x="692" 
d="M0 -5l4 23h240q87 0 154.5 6.5t114 19.5t70.5 34t24 50q0 18 -8.5 35t-31 32.5t-66 29t-113.5 23.5q-95 13 -154.5 22.5t-87 26t-28.5 49.5q0 36 28 69.5t75 62.5t106 52.5t121 40.5l5 -23q-106 -29 -174.5 -65t-102.5 -71.5t-34 -63.5q0 -23 25.5 -35t80.5 -20.5
t143 -21.5q45 -6 87 -16t76.5 -25.5t54.5 -39.5t20 -59q0 -45 -33.5 -72t-89 -40.5t-124 -18.5t-137.5 -5h-245z" />
    <glyph glyph-name="uni06AA.medi" unicode="&#x6aa;" horiz-adv-x="739" 
d="M739 -5q-31 0 -61 5t-58 17.5t-53 32.5l18 14q36 -24 74.5 -35t83.5 -11q9 0 11.5 -3.5t2.5 -7.5q0 -5 -4 -8.5t-14 -3.5zM0 -5l4 23h240q87 0 154.5 6.5t114 19.5t70.5 34t24 50q0 18 -8.5 35t-31 32.5t-66 29t-113.5 23.5q-95 13 -154.5 22.5t-87 26t-28.5 49.5
q0 36 28 69.5t75 62.5t106 52.5t121 40.5l5 -23q-106 -29 -174.5 -65t-102.5 -71.5t-34 -63.5q0 -23 25.5 -35t80.5 -20.5t143 -21.5q45 -6 87 -16t76.5 -25.5t54.5 -39.5t20 -59q0 -45 -33.5 -72t-89 -40.5t-124 -18.5t-137.5 -5h-245z" />
    <glyph glyph-name="uni06AA.fina" unicode="&#x6aa;" horiz-adv-x="978" 
d="M978 -5q-31 0 -61.5 5t-58.5 17.5t-53 32.5l18 14q36 -24 75 -35t83 -11q10 0 12.5 -3.5t2.5 -7.5q0 -5 -4.5 -8.5t-13.5 -3.5zM484 -15q-32 0 -82 1t-109 3t-117.5 5.5t-107.5 9.5l2 22q49 -5 109 -9t120 -6t109 -3t75 -1q87 0 154.5 8.5t114 24t70.5 38t24 50.5
q0 18 -8.5 35t-31 32.5t-66 29t-113.5 23.5q-96 13 -155 22.5t-86.5 26t-28.5 49.5q0 36 28 69.5t75 62.5t106 52.5t121 40.5l5 -23q-106 -29 -175 -65t-102.5 -71.5t-33.5 -63.5q0 -23 25.5 -35t80 -20.5t143.5 -21.5q45 -6 87 -16t76.5 -25.5t54.5 -39.5t20 -59
q0 -44 -33.5 -72.5t-89 -44.5t-124 -22.5t-137.5 -6.5z" />
    <glyph glyph-name="uni06AB.init" unicode="&#x6ab;" horiz-adv-x="342" 
d="M267 517q-30 0 -51 22t-21 52q0 29 21 50.5t51 21.5t51.5 -21.5t21.5 -50.5q0 -30 -21.5 -52t-51.5 -22zM267 538q21 0 36.5 15.5t15.5 37.5q0 20 -15.5 35.5t-36.5 15.5q-20 0 -35 -15.5t-15 -35.5q0 -22 15 -37.5t35 -15.5zM0 -5l4 23h76q53 0 86.5 10.5t51 28.5t24 41
t6.5 48q0 44 -24.5 93.5t-70.5 104.5q-39 48 -63.5 76t-38 43t-18.5 21.5t-5 9.5q0 9 2 14.5t5.5 10t7.5 7.5q28 22 58.5 44.5t66 46t76 48.5t87.5 51l11 -19q-46 -27 -89.5 -53.5t-81.5 -53t-70 -50.5t-57 -46v11q40 -47 80 -92.5t73 -89.5t53.5 -88t20.5 -90
q0 -34 -10 -61t-32.5 -47t-59.5 -31t-90 -11h-79z" />
    <glyph glyph-name="uni06AB.medi" unicode="&#x6ab;" horiz-adv-x="409" 
d="M267 517q-30 0 -51 21.5t-21 51.5t21 51t51 21t51.5 -21t21.5 -51t-21.5 -51.5t-51.5 -21.5zM267 537q21 0 36.5 15.5t15.5 37.5q0 21 -15.5 36t-36.5 15t-35.5 -15t-14.5 -36q0 -22 14.5 -37.5t35.5 -15.5zM0 -5l4 23h81q57 0 93 13.5t53 42t17 71.5q0 33 -15.5 69.5
t-40.5 73.5t-53 71.5t-53 62.5t-41 47.5t-16 25.5q0 8 2 13.5t5.5 10t7.5 7.5q25 21 56.5 44t67.5 47t77 49t86 50l11 -20q-45 -25 -88.5 -52.5t-82.5 -53.5t-71.5 -50.5t-54.5 -45.5l2 10q27 -35 60 -72.5t66 -78.5t59 -85.5t39 -92.5q13 -47 32.5 -82.5t46.5 -55t62 -19.5
q7 0 11 -2.5t4 -8.5t-5 -9t-13 -3q-34 0 -64.5 19t-53 55t-35.5 86l15 -13q-1 -44 -16 -72.5t-41.5 -45t-60 -23t-72.5 -6.5h-81z" />
    <glyph glyph-name="uni06AB.fina" unicode="&#x6ab;" horiz-adv-x="833" 
d="M688 519q-30 0 -51.5 22t-21.5 51q0 30 21.5 51t51.5 21q29 0 51 -21t22 -51q0 -29 -22 -51t-51 -22zM688 540q20 0 35.5 15.5t15.5 36.5t-15.5 36.5t-35.5 15.5q-21 0 -36 -15.5t-15 -36.5t15 -36.5t36 -15.5zM326 -21l12 23q69 0 129.5 7t106.5 23t72 43.5t26 68.5
q0 34 -16.5 71t-42.5 74t-54.5 71t-54 62t-42 47.5t-16.5 25.5q0 8 2 13.5t5.5 10t7.5 7.5q32 26 75.5 57t96.5 65t114 68l12 -19q-58 -33 -116.5 -71.5t-106 -73t-74.5 -58.5l2 10q27 -34 61.5 -72t68 -79t60.5 -85.5t40 -92.5q6 -21 16.5 -47.5t27 -51.5t40.5 -41.5
t58 -16.5q7 0 11 -2.5t4 -8.5t-5 -9t-13 -3q-34 0 -64 18t-52.5 54t-36.5 88l15 -13q-1 -46 -27.5 -77.5t-75 -50t-116.5 -27t-150 -8.5zM326 -21q-67 0 -119 11.5t-88.5 35t-56 59t-19.5 82.5q0 23 4 48.5t9.5 50t11.5 45.5l22 -6q-6 -19 -11 -41.5t-8.5 -46.5t-3.5 -47
q0 -58 31.5 -95.5t92 -55t147.5 -17.5l20 -14z" />
    <glyph glyph-name="uni06AC.init" unicode="&#x6ac;" horiz-adv-x="342" 
d="M0 -5l4 23h76q53 0 86.5 10.5t51 28.5t24 41t6.5 48q0 44 -24.5 93.5t-70.5 104.5q-39 48 -63.5 76t-38 43t-18.5 21.5t-5 9.5q0 9 2 14.5t5.5 10t7.5 7.5q28 22 58.5 44.5t66 46t76 48.5t87.5 51l11 -19q-46 -27 -89.5 -53.5t-81.5 -53t-70 -50.5t-57 -46v11
q40 -47 80 -92.5t73 -89.5t53.5 -88t20.5 -90q0 -34 -10 -61t-32.5 -47t-59.5 -31t-90 -11h-79zM153 771q-11 0 -19 8t-8 18q0 11 8 19t19 8t18.5 -8t7.5 -19q0 -10 -7.5 -18t-18.5 -8z" />
    <glyph glyph-name="uni06AC.medi" unicode="&#x6ac;" horiz-adv-x="409" 
d="M0 -5l4 23h81q57 0 93 13.5t53 42t17 71.5q0 33 -15.5 69.5t-40.5 73.5t-53 71.5t-53 62.5t-41 47.5t-16 25.5q0 8 2 13.5t5.5 10t7.5 7.5q25 21 56.5 44t67.5 47t77 49t86 50l11 -20q-45 -25 -88.5 -52.5t-82.5 -53.5t-71.5 -50.5t-54.5 -45.5l2 10q27 -35 60 -72.5
t66 -78.5t59 -85.5t39 -92.5q13 -47 32.5 -82.5t46.5 -55t62 -19.5q7 0 11 -2.5t4 -8.5t-5 -9t-13 -3q-34 0 -64.5 19t-53 55t-35.5 86l15 -13q-1 -44 -16 -72.5t-41.5 -45t-60 -23t-72.5 -6.5h-81zM147 771q-11 0 -19 8t-8 18q0 11 8 19t19 8t18.5 -8t7.5 -19
q0 -10 -7.5 -18t-18.5 -8z" />
    <glyph glyph-name="uni06AC.fina" unicode="&#x6ac;" horiz-adv-x="738" 
d="M326 -21l12 23q79 0 134.5 8.5t90 28t50.5 51t14 76.5l-19 548h23l20 -542q2 -52 6.5 -86.5t23 -51t61.5 -16.5q6 0 10 -2.5t4 -8.5t-4.5 -9t-13.5 -3q-24 0 -47.5 8t-39 32.5t-15.5 75.5h11q-9 -41 -36 -67t-69 -40t-97 -19.5t-119 -5.5zM307 204l-6 21q53 15 80 29
t37 26t10 20q0 17 -14.5 29.5t-34 25t-34.5 28t-15 38.5q0 13 9.5 31.5t33.5 41t67 46.5l10 -19q-39 -21 -68.5 -49t-29.5 -51q0 -18 15 -31t34 -25.5t34 -27.5t15 -37q0 -12 -7.5 -24.5t-24.5 -24.5t-44 -23.5t-67 -23.5zM326 -21q-67 0 -119 11.5t-88.5 35t-56 59
t-19.5 82.5q0 23 4 48.5t9.5 50t11.5 45.5l22 -6q-6 -19 -11 -41.5t-8.5 -46.5t-3.5 -47q0 -58 31.5 -95.5t92 -55t147.5 -17.5l20 -14zM379 665q-11 0 -19 8t-8 18q0 11 8 19t19 8t18.5 -8t7.5 -19q0 -10 -7.5 -18t-18.5 -8z" />
    <glyph glyph-name="uni06AE.init" unicode="&#x6ae;" horiz-adv-x="342" 
d="M0 -5l4 23h76q53 0 86.5 10.5t51 28.5t24 41t6.5 48q0 44 -24.5 93.5t-70.5 104.5q-39 48 -63.5 76t-38 43t-18.5 21.5t-5 9.5q0 9 2 14.5t5.5 10t7.5 7.5q28 22 58.5 44.5t66 46t76 48.5t87.5 51l11 -19q-46 -27 -89.5 -53.5t-81.5 -53t-70 -50.5t-57 -46v11
q40 -47 80 -92.5t73 -89.5t53.5 -88t20.5 -90q0 -34 -10 -61t-32.5 -47t-59.5 -31t-90 -11h-79zM143 -250q-11 0 -19 8t-8 18q0 11 8 19t19 8t18.5 -8t7.5 -19q0 -10 -7.5 -18t-18.5 -8zM94 -167q-11 0 -19 8t-8 18q0 11 7.5 19t19.5 8q11 0 18.5 -8t7.5 -19q0 -10 -8 -18
t-18 -8zM192 -167q-12 0 -20 8t-8 18q0 11 8 19t20 8q10 0 17.5 -8t7.5 -19q0 -10 -7.5 -18t-17.5 -8z" />
    <glyph glyph-name="uni06AE.medi" unicode="&#x6ae;" horiz-adv-x="409" 
d="M0 -5l4 23h81q57 0 93 13.5t53 42t17 71.5q0 33 -15.5 69.5t-40.5 73.5t-53 71.5t-53 62.5t-41 47.5t-16 25.5q0 8 2 13.5t5.5 10t7.5 7.5q25 21 56.5 44t67.5 47t77 49t86 50l11 -20q-45 -25 -88.5 -52.5t-82.5 -53.5t-71.5 -50.5t-54.5 -45.5l2 10q27 -35 60 -72.5
t66 -78.5t59 -85.5t39 -92.5q13 -47 32.5 -82.5t46.5 -55t62 -19.5q7 0 11 -2.5t4 -8.5t-5 -9t-13 -3q-34 0 -64.5 19t-53 55t-35.5 86l15 -13q-1 -44 -16 -72.5t-41.5 -45t-60 -23t-72.5 -6.5h-81zM122 -250q-11 0 -19 8t-8 18q0 11 8 19t19 8t18.5 -8t7.5 -19
q0 -10 -7.5 -18t-18.5 -8zM73 -167q-11 0 -19 8t-8 18q0 11 7.5 19t19.5 8q11 0 18.5 -8t7.5 -19q0 -10 -8 -18t-18 -8zM171 -167q-12 0 -20 8t-8 18q0 11 8 19t20 8q10 0 17.5 -8t7.5 -19q0 -10 -7.5 -18t-17.5 -8z" />
    <glyph glyph-name="uni06AE.fina" unicode="&#x6ae;" horiz-adv-x="738" 
d="M326 -21l12 23q79 0 134.5 8.5t90 28t50.5 51t14 76.5l-19 548h23l20 -542q2 -52 6.5 -86.5t23 -51t61.5 -16.5q6 0 10 -2.5t4 -8.5t-4.5 -9t-13.5 -3q-24 0 -47.5 8t-39 32.5t-15.5 75.5h11q-9 -41 -36 -67t-69 -40t-97 -19.5t-119 -5.5zM307 204l-6 21q53 15 80 29
t37 26t10 20q0 17 -14.5 29.5t-34 25t-34.5 28t-15 38.5q0 13 9.5 31.5t33.5 41t67 46.5l10 -19q-39 -21 -68.5 -49t-29.5 -51q0 -18 15 -31t34 -25.5t34 -27.5t15 -37q0 -12 -7.5 -24.5t-24.5 -24.5t-44 -23.5t-67 -23.5zM326 -21q-67 0 -119 11.5t-88.5 35t-56 59
t-19.5 82.5q0 23 4 48.5t9.5 50t11.5 45.5l22 -6q-6 -19 -11 -41.5t-8.5 -46.5t-3.5 -47q0 -58 31.5 -95.5t92 -55t147.5 -17.5l20 -14zM344 -271q-11 0 -19 8t-8 18q0 11 8 19t19 8t18.5 -8t7.5 -19q0 -10 -7.5 -18t-18.5 -8zM295 -188q-11 0 -19 8t-8 18q0 11 7.5 19
t19.5 8q11 0 18.5 -8t7.5 -19q0 -10 -8 -18t-18 -8zM393 -188q-12 0 -20 8t-8 18q0 11 8 19t20 8q10 0 17.5 -8t7.5 -19q0 -10 -7.5 -18t-17.5 -8z" />
    <glyph glyph-name="uni06B0.init" unicode="&#x6b0;" horiz-adv-x="342" 
d="M270 519q-30 0 -51 21.5t-21 51.5t21 51t51 21t51.5 -21t21.5 -51t-21.5 -51.5t-51.5 -21.5zM270 540q20 0 35.5 15.5t15.5 36.5t-15 36.5t-36 15.5t-36 -15.5t-15 -36.5t15 -36.5t36 -15.5zM6 590l-13 18q38 28 79 56.5t90.5 60t112.5 69.5l11 -18q-62 -38 -111.5 -70
t-90.5 -60t-78 -56zM0 -5l4 23h76q53 0 86.5 10.5t51 28.5t24 41t6.5 48q0 44 -24.5 93.5t-70.5 104.5q-39 48 -63.5 76t-38 43t-18.5 21.5t-5 9.5q0 9 2 14.5t5.5 10t7.5 7.5q28 22 58.5 44.5t66 46t76 48.5t87.5 51l11 -19q-46 -27 -89.5 -53.5t-81.5 -53t-70 -50.5
t-57 -46v11q40 -47 80 -92.5t73 -89.5t53.5 -88t20.5 -90q0 -34 -10 -61t-32.5 -47t-59.5 -31t-90 -11h-79z" />
    <glyph glyph-name="uni06B0.medi" unicode="&#x6b0;" horiz-adv-x="409" 
d="M267 517q-30 0 -51 22t-21 51q0 30 21 51t51 21t51.5 -21t21.5 -51q0 -29 -21.5 -51t-51.5 -22zM267 538q21 0 36.5 15.5t15.5 36.5t-15.5 36.5t-36.5 15.5q-20 0 -35 -15.5t-15 -36.5t15 -36.5t35 -15.5zM4 590l-13 18q38 28 79 56.5t90.5 60t112.5 69.5l12 -18
q-63 -38 -112.5 -70t-90 -60t-78.5 -56zM0 -5l4 23h81q57 0 93 13.5t53 42t17 71.5q0 33 -15.5 69.5t-40.5 73.5t-53 71.5t-53 62.5t-41 47.5t-16 25.5q0 8 2 13.5t5.5 10t7.5 7.5q25 21 56.5 44t67.5 47t77 49t86 50l11 -20q-45 -25 -88.5 -52.5t-82.5 -53.5t-71.5 -50.5
t-54.5 -45.5l2 10q27 -35 60 -72.5t66 -78.5t59 -85.5t39 -92.5q13 -47 32.5 -82.5t46.5 -55t62 -19.5q7 0 11 -2.5t4 -8.5t-5 -9t-13 -3q-34 0 -64.5 19t-53 55t-35.5 86l15 -13q-1 -44 -16 -72.5t-41.5 -45t-60 -23t-72.5 -6.5h-81z" />
    <glyph glyph-name="uni06B0.fina" unicode="&#x6b0;" horiz-adv-x="833" 
d="M684 517q-30 0 -51 21.5t-21 51.5t21 51t51 21t51.5 -21t21.5 -51t-21.5 -51.5t-51.5 -21.5zM684 538q21 0 36 15.5t15 36.5t-15 36.5t-36 15.5t-36 -15.5t-15 -36.5t15 -36.5t36 -15.5zM421 590l-12 18q37 28 78 56.5t91 60t113 69.5l11 -18q-63 -38 -112.5 -70t-90 -60
t-78.5 -56zM326 -21l12 23q69 0 129.5 7t106.5 23t72 43.5t26 68.5q0 34 -16.5 71t-42.5 74t-54.5 71t-54 62t-42 47.5t-16.5 25.5q0 8 2 13.5t5.5 10t7.5 7.5q32 26 75.5 57t96.5 65t114 68l12 -19q-58 -33 -116.5 -71.5t-106 -73t-74.5 -58.5l2 10q27 -34 61.5 -72t68 -79
t60.5 -85.5t40 -92.5q6 -21 16.5 -47.5t27 -51.5t40.5 -41.5t58 -16.5q7 0 11 -2.5t4 -8.5t-5 -9t-13 -3q-34 0 -64 18t-52.5 54t-36.5 88l15 -13q-1 -46 -27.5 -77.5t-75 -50t-116.5 -27t-150 -8.5zM326 -21q-67 0 -119 11.5t-88.5 35t-56 59t-19.5 82.5q0 23 4 48.5
t9.5 50t11.5 45.5l22 -6q-6 -19 -11 -41.5t-8.5 -46.5t-3.5 -47q0 -58 31.5 -95.5t92 -55t147.5 -17.5l20 -14z" />
    <glyph glyph-name="uni06B2.init" unicode="&#x6b2;" horiz-adv-x="342" 
d="M6 590l-13 18q38 28 79 56.5t90.5 60t112.5 69.5l11 -18q-62 -38 -111.5 -70t-90.5 -60t-78 -56zM0 -5l4 23h76q53 0 86.5 10.5t51 28.5t24 41t6.5 48q0 44 -24.5 93.5t-70.5 104.5q-39 48 -63.5 76t-38 43t-18.5 21.5t-5 9.5q0 9 2 14.5t5.5 10t7.5 7.5q28 22 58.5 44.5
t66 46t76 48.5t87.5 51l11 -19q-46 -27 -89.5 -53.5t-81.5 -53t-70 -50.5t-57 -46v11q40 -47 80 -92.5t73 -89.5t53.5 -88t20.5 -90q0 -34 -10 -61t-32.5 -47t-59.5 -31t-90 -11h-79zM200 -165q-11 0 -19 8t-8 18q0 11 8 19t19 8t18.5 -8t7.5 -19q0 -10 -7.5 -18t-18.5 -8z
M102 -165q-11 0 -19 8t-8 18q0 11 8 19t19 8t18.5 -8t7.5 -19q0 -10 -7.5 -18t-18.5 -8z" />
    <glyph glyph-name="uni06B2.medi" unicode="&#x6b2;" horiz-adv-x="409" 
d="M4 590l-13 18q38 28 79 56.5t90.5 60t112.5 69.5l12 -18q-63 -38 -112.5 -70t-90 -60t-78.5 -56zM0 -5l4 23h81q57 0 93 13.5t53 42t17 71.5q0 33 -15.5 69.5t-40.5 73.5t-53 71.5t-53 62.5t-41 47.5t-16 25.5q0 8 2 13.5t5.5 10t7.5 7.5q25 21 56.5 44t67.5 47t77 49
t86 50l11 -20q-45 -25 -88.5 -52.5t-82.5 -53.5t-71.5 -50.5t-54.5 -45.5l2 10q27 -35 60 -72.5t66 -78.5t59 -85.5t39 -92.5q13 -47 32.5 -82.5t46.5 -55t62 -19.5q7 0 11 -2.5t4 -8.5t-5 -9t-13 -3q-34 0 -64.5 19t-53 55t-35.5 86l15 -13q-1 -44 -16 -72.5t-41.5 -45
t-60 -23t-72.5 -6.5h-81zM214 -165q-11 0 -19 8t-8 18q0 11 8 19t19 8t18.5 -8t7.5 -19q0 -10 -7.5 -18t-18.5 -8zM116 -165q-11 0 -19 8t-8 18q0 11 8 19t19 8t18.5 -8t7.5 -19q0 -10 -7.5 -18t-18.5 -8z" />
    <glyph glyph-name="uni06B2.fina" unicode="&#x6b2;" horiz-adv-x="833" 
d="M421 590l-12 18q37 28 78 56.5t91 60t113 69.5l11 -18q-63 -38 -112.5 -70t-90 -60t-78.5 -56zM326 -21l12 23q69 0 129.5 7t106.5 23t72 43.5t26 68.5q0 34 -16.5 71t-42.5 74t-54.5 71t-54 62t-42 47.5t-16.5 25.5q0 8 2 13.5t5.5 10t7.5 7.5q32 26 75.5 57t96.5 65
t114 68l12 -19q-58 -33 -116.5 -71.5t-106 -73t-74.5 -58.5l2 10q27 -34 61.5 -72t68 -79t60.5 -85.5t40 -92.5q6 -21 16.5 -47.5t27 -51.5t40.5 -41.5t58 -16.5q7 0 11 -2.5t4 -8.5t-5 -9t-13 -3q-34 0 -64 18t-52.5 54t-36.5 88l15 -13q-1 -46 -27.5 -77.5t-75 -50
t-116.5 -27t-150 -8.5zM326 -21q-67 0 -119 11.5t-88.5 35t-56 59t-19.5 82.5q0 23 4 48.5t9.5 50t11.5 45.5l22 -6q-6 -19 -11 -41.5t-8.5 -46.5t-3.5 -47q0 -58 31.5 -95.5t92 -55t147.5 -17.5l20 -14zM411 -186q-11 0 -19 8t-8 18q0 11 8 19t19 8t18.5 -8t7.5 -19
q0 -10 -7.5 -18t-18.5 -8zM313 -186q-11 0 -19 8t-8 18q0 11 8 19t19 8t18.5 -8t7.5 -19q0 -10 -7.5 -18t-18.5 -8z" />
    <glyph glyph-name="uni06B4.init" unicode="&#x6b4;" horiz-adv-x="342" 
d="M63 862q-10 0 -16.5 7t-6.5 16t6.5 15.5t16.5 6.5q9 0 15.5 -6.5t6.5 -15.5t-6.5 -16t-15.5 -7zM53 736q-10 0 -16.5 7t-6.5 16t6.5 15.5t16.5 6.5q9 0 15.5 -6.5t6.5 -15.5t-6.5 -16t-15.5 -7zM162 788q-10 0 -16.5 7t-6.5 16t6.5 15.5t16.5 6.5q9 0 15.5 -6.5
t6.5 -15.5t-6.5 -16t-15.5 -7zM6 590l-13 18q38 28 79 56.5t90.5 60t112.5 69.5l11 -18q-62 -38 -111.5 -70t-90.5 -60t-78 -56zM0 -5l4 23h76q53 0 86.5 10.5t51 28.5t24 41t6.5 48q0 44 -24.5 93.5t-70.5 104.5q-39 48 -63.5 76t-38 43t-18.5 21.5t-5 9.5q0 9 2 14.5
t5.5 10t7.5 7.5q28 22 58.5 44.5t66 46t76 48.5t87.5 51l11 -19q-46 -27 -89.5 -53.5t-81.5 -53t-70 -50.5t-57 -46v11q40 -47 80 -92.5t73 -89.5t53.5 -88t20.5 -90q0 -34 -10 -61t-32.5 -47t-59.5 -31t-90 -11h-79z" />
    <glyph glyph-name="uni06B4.medi" unicode="&#x6b4;" horiz-adv-x="409" 
d="M63 861q-10 0 -16.5 7t-6.5 16t6.5 15.5t16.5 6.5q9 0 15.5 -6.5t6.5 -15.5t-6.5 -16t-15.5 -7zM53 735q-10 0 -16.5 7t-6.5 16t6.5 15.5t16.5 6.5q9 0 15.5 -6.5t6.5 -15.5t-6.5 -16t-15.5 -7zM162 787q-10 0 -16.5 7t-6.5 16t6.5 15.5t16.5 6.5q9 0 15.5 -6.5
t6.5 -15.5t-6.5 -16t-15.5 -7zM4 590l-13 18q38 28 79 56.5t90.5 60t112.5 69.5l12 -18q-63 -38 -112.5 -70t-90 -60t-78.5 -56zM0 -5l4 23h81q57 0 93 13.5t53 42t17 71.5q0 33 -15.5 69.5t-40.5 73.5t-53 71.5t-53 62.5t-41 47.5t-16 25.5q0 8 2 13.5t5.5 10t7.5 7.5
q25 21 56.5 44t67.5 47t77 49t86 50l11 -20q-45 -25 -88.5 -52.5t-82.5 -53.5t-71.5 -50.5t-54.5 -45.5l2 10q27 -35 60 -72.5t66 -78.5t59 -85.5t39 -92.5q13 -47 32.5 -82.5t46.5 -55t62 -19.5q7 0 11 -2.5t4 -8.5t-5 -9t-13 -3q-34 0 -64.5 19t-53 55t-35.5 86l15 -13
q-1 -44 -16 -72.5t-41.5 -45t-60 -23t-72.5 -6.5h-81z" />
    <glyph glyph-name="uni06B4.fina" unicode="&#x6b4;" horiz-adv-x="833" 
d="M475 862q-10 0 -16.5 7t-6.5 16t6.5 15.5t16.5 6.5q9 0 15.5 -6.5t6.5 -15.5t-6.5 -16t-15.5 -7zM465 736q-10 0 -16.5 7t-6.5 16t6.5 15.5t16.5 6.5q9 0 15.5 -6.5t6.5 -15.5t-6.5 -16t-15.5 -7zM574 788q-10 0 -16.5 7t-6.5 16t6.5 15.5t16.5 6.5q9 0 15.5 -6.5
t6.5 -15.5t-6.5 -16t-15.5 -7zM421 590l-12 18q37 28 78 56.5t91 60t113 69.5l11 -18q-63 -38 -112.5 -70t-90 -60t-78.5 -56zM326 -21l12 23q69 0 129.5 7t106.5 23t72 43.5t26 68.5q0 34 -16.5 71t-42.5 74t-54.5 71t-54 62t-42 47.5t-16.5 25.5q0 8 2 13.5t5.5 10
t7.5 7.5q32 26 75.5 57t96.5 65t114 68l12 -19q-58 -33 -116.5 -71.5t-106 -73t-74.5 -58.5l2 10q27 -34 61.5 -72t68 -79t60.5 -85.5t40 -92.5q6 -21 16.5 -47.5t27 -51.5t40.5 -41.5t58 -16.5q7 0 11 -2.5t4 -8.5t-5 -9t-13 -3q-34 0 -64 18t-52.5 54t-36.5 88l15 -13
q-1 -46 -27.5 -77.5t-75 -50t-116.5 -27t-150 -8.5zM326 -21q-67 0 -119 11.5t-88.5 35t-56 59t-19.5 82.5q0 23 4 48.5t9.5 50t11.5 45.5l22 -6q-6 -19 -11 -41.5t-8.5 -46.5t-3.5 -47q0 -58 31.5 -95.5t92 -55t147.5 -17.5l20 -14z" />
    <glyph glyph-name="uni06B5.init" unicode="&#x6b5;" horiz-adv-x="180" 
d="M0 -5l4 23q49 0 71 15t28 49.5t4 92.5l-19 539h23l20 -537q2 -50 -2.5 -84.5t-18.5 -56t-40.5 -31.5t-69.5 -10zM88 842q-6 16 -15 41t-19 53.5t-19.5 53.5t-16.5 41l19 9q5 -10 14.5 -34t20 -53t19.5 -55t14 -41l7 -13zM112 844l-19 6q5 18 14 47t19 60t17.5 55.5
t10.5 32.5l20 -7q-3 -10 -11 -35t-18 -55.5t-18.5 -58.5t-14.5 -45z" />
    <glyph glyph-name="uni06B5.medi" unicode="&#x6b5;" horiz-adv-x="232" 
d="M0 -5l4 23q49 0 72 22t29 64t4 101l-17 509h25l16 -507q3 -76 14 -117t33 -56.5t56 -15.5q6 0 10 -2.5t4 -8.5t-4.5 -9t-13.5 -3q-33 0 -56 15.5t-37 41.5t-20 55h10q-7 -34 -21 -59t-39.5 -39t-68.5 -14zM91 842q-6 16 -15 41t-19 53.5t-19.5 53.5t-16.5 41l19 9
q5 -10 14.5 -34t20 -53t19.5 -55t14 -41l7 -13zM115 844l-19 6q5 18 14 47t19 60t17.5 55.5t10.5 32.5l20 -7q-3 -10 -11 -35t-18 -55.5t-18.5 -58.5t-14.5 -45z" />
    <glyph glyph-name="uni06B5.fina" unicode="&#x6b5;" horiz-adv-x="613" 
d="M43 -29q0 22 4 49.5t14.5 62.5t29.5 80l23 -11q-15 -32 -25 -63t-15.5 -61t-5.5 -59q0 -54 22.5 -93.5t63.5 -60.5t97 -21q76 0 123 39.5t67.5 122.5t16.5 213l-17 545h24l18 -539q2 -42 20.5 -78t48.5 -57.5t64 -21.5q7 0 11 -2.5t4 -8.5t-5 -9t-13 -3q-24 0 -47 9.5
t-42 26t-31 36.5t-13 41l1 -6q-1 -67 -12 -127t-37 -106.5t-70 -72.5t-112 -26q-48 0 -86.5 13.5t-65.5 39.5t-41 63t-14 85zM236 585q-6 16 -15 41t-19 53.5t-19.5 53.5t-16.5 41l19 9q5 -10 14.5 -34t20 -53t19.5 -55t14 -41l7 -13zM260 587l-19 6q5 18 14 47t19 60
t17.5 55.5t10.5 32.5l20 -7q-3 -10 -11 -35t-18 -55.5t-18.5 -58.5t-14.5 -45z" />
    <glyph glyph-name="uni06B6.init" unicode="&#x6b6;" horiz-adv-x="180" 
d="M0 -5l4 23q49 0 71 15t28 49.5t4 92.5l-19 539h23l20 -537q2 -50 -2.5 -84.5t-18.5 -56t-40.5 -31.5t-69.5 -10zM99 849q-11 0 -19 8t-8 18q0 11 8 19t19 8t18.5 -8t7.5 -19q0 -10 -7.5 -18t-18.5 -8z" />
    <glyph glyph-name="uni06B6.medi" unicode="&#x6b6;" horiz-adv-x="232" 
d="M0 -5l4 23q49 0 72 22t29 64t4 101l-17 509h25l16 -507q3 -76 14 -117t33 -56.5t56 -15.5q6 0 10 -2.5t4 -8.5t-4.5 -9t-13.5 -3q-33 0 -56 15.5t-37 41.5t-20 55h10q-7 -34 -21 -59t-39.5 -39t-68.5 -14zM102 849q-11 0 -19 8t-8 18q0 11 8 19t19 8t18.5 -8t7.5 -19
q0 -10 -7.5 -18t-18.5 -8z" />
    <glyph glyph-name="uni06B6.fina" unicode="&#x6b6;" horiz-adv-x="613" 
d="M43 -29q0 22 4 49.5t14.5 62.5t29.5 80l23 -11q-15 -32 -25 -63t-15.5 -61t-5.5 -59q0 -54 22.5 -93.5t63.5 -60.5t97 -21q76 0 123 39.5t67.5 122.5t16.5 213l-17 545h24l18 -539q2 -42 20.5 -78t48.5 -57.5t64 -21.5q7 0 11 -2.5t4 -8.5t-5 -9t-13 -3q-24 0 -47 9.5
t-42 26t-31 36.5t-13 41l1 -6q-1 -67 -12 -127t-37 -106.5t-70 -72.5t-112 -26q-48 0 -86.5 13.5t-65.5 39.5t-41 63t-14 85zM247 592q-11 0 -19 8t-8 18q0 11 8 19t19 8t18.5 -8t7.5 -19q0 -10 -7.5 -18t-18.5 -8z" />
    <glyph glyph-name="uni06B7.init" unicode="&#x6b7;" horiz-adv-x="180" 
d="M0 -5l4 23q49 0 71 15t28 49.5t4 92.5l-19 539h23l20 -537q2 -50 -2.5 -84.5t-18.5 -56t-40.5 -31.5t-69.5 -10zM100 932q-10 0 -18 8t-8 19t8 18.5t18 7.5q11 0 19 -7.5t8 -18.5t-8 -19t-19 -8zM52 849q-10 0 -18 8t-8 19t8 18.5t18 7.5q11 0 19 -7.5t8 -18.5t-8 -19
t-19 -8zM149 849q-10 0 -18 8t-8 19t8 18.5t18 7.5q12 0 19.5 -7.5t7.5 -18.5t-7.5 -19t-19.5 -8z" />
    <glyph glyph-name="uni06B7.medi" unicode="&#x6b7;" horiz-adv-x="232" 
d="M0 -5l4 23q49 0 72 22t29 64t4 101l-17 509h25l16 -507q3 -76 14 -117t33 -56.5t56 -15.5q6 0 10 -2.5t4 -8.5t-4.5 -9t-13.5 -3q-33 0 -56 15.5t-37 41.5t-20 55h10q-7 -34 -21 -59t-39.5 -39t-68.5 -14zM103 932q-10 0 -18 8t-8 19t8 18.5t18 7.5q11 0 19 -7.5t8 -18.5
t-8 -19t-19 -8zM55 849q-10 0 -18 8t-8 19t8 18.5t18 7.5q11 0 19 -7.5t8 -18.5t-8 -19t-19 -8zM152 849q-10 0 -18 8t-8 19t8 18.5t18 7.5q12 0 19.5 -7.5t7.5 -18.5t-7.5 -19t-19.5 -8z" />
    <glyph glyph-name="uni06B7.fina" unicode="&#x6b7;" horiz-adv-x="613" 
d="M43 -29q0 22 4 49.5t14.5 62.5t29.5 80l23 -11q-15 -32 -25 -63t-15.5 -61t-5.5 -59q0 -54 22.5 -93.5t63.5 -60.5t97 -21q76 0 123 39.5t67.5 122.5t16.5 213l-17 545h24l18 -539q2 -42 20.5 -78t48.5 -57.5t64 -21.5q7 0 11 -2.5t4 -8.5t-5 -9t-13 -3q-24 0 -47 9.5
t-42 26t-31 36.5t-13 41l1 -6q-1 -67 -12 -127t-37 -106.5t-70 -72.5t-112 -26q-48 0 -86.5 13.5t-65.5 39.5t-41 63t-14 85zM248 675q-10 0 -18 8t-8 19t8 18.5t18 7.5q11 0 19 -7.5t8 -18.5t-8 -19t-19 -8zM200 592q-10 0 -18 8t-8 19t8 18.5t18 7.5q11 0 19 -7.5t8 -18.5
t-8 -19t-19 -8zM297 592q-10 0 -18 8t-8 19t8 18.5t18 7.5q12 0 19.5 -7.5t7.5 -18.5t-7.5 -19t-19.5 -8z" />
    <glyph glyph-name="uni06B8.init" unicode="&#x6b8;" horiz-adv-x="180" 
d="M0 -5l4 23q49 0 71 15t28 49.5t4 92.5l-19 539h23l20 -537q2 -50 -2.5 -84.5t-18.5 -56t-40.5 -31.5t-69.5 -10zM82 -250q-11 0 -19 8t-8 18q0 11 8 19t19 8t18.5 -8t7.5 -19q0 -10 -7.5 -18t-18.5 -8zM33 -167q-11 0 -19 8t-8 18q0 11 7.5 19t19.5 8q11 0 18.5 -8
t7.5 -19q0 -10 -8 -18t-18 -8zM131 -167q-12 0 -20 8t-8 18q0 11 8 19t20 8q10 0 17.5 -8t7.5 -19q0 -10 -7.5 -18t-17.5 -8z" />
    <glyph glyph-name="uni06B8.medi" unicode="&#x6b8;" horiz-adv-x="232" 
d="M0 -5l4 23q49 0 72 22t29 64t4 101l-17 509h25l16 -507q3 -76 14 -117t33 -56.5t56 -15.5q6 0 10 -2.5t4 -8.5t-4.5 -9t-13.5 -3q-33 0 -56 15.5t-37 41.5t-20 55h10q-7 -34 -21 -59t-39.5 -39t-68.5 -14zM107 -250q-11 0 -19 8t-8 18q0 11 8 19t19 8t18.5 -8t7.5 -19
q0 -10 -7.5 -18t-18.5 -8zM58 -167q-11 0 -19 8t-8 18q0 11 7.5 19t19.5 8q11 0 18.5 -8t7.5 -19q0 -10 -8 -18t-18 -8zM156 -167q-12 0 -20 8t-8 18q0 11 8 19t20 8q10 0 17.5 -8t7.5 -19q0 -10 -7.5 -18t-17.5 -8z" />
    <glyph glyph-name="uni06B8.fina" unicode="&#x6b8;" horiz-adv-x="613" 
d="M43 -29q0 22 4 49.5t14.5 62.5t29.5 80l23 -11q-15 -32 -25 -63t-15.5 -61t-5.5 -59q0 -54 22.5 -93.5t63.5 -60.5t97 -21q76 0 123 39.5t67.5 122.5t16.5 213l-17 545h24l18 -539q2 -42 20.5 -78t48.5 -57.5t64 -21.5q7 0 11 -2.5t4 -8.5t-5 -9t-13 -3q-24 0 -47 9.5
t-42 26t-31 36.5t-13 41l1 -6q-1 -67 -12 -127t-37 -106.5t-70 -72.5t-112 -26q-48 0 -86.5 13.5t-65.5 39.5t-41 63t-14 85zM253 -480q-11 0 -19 8t-8 18q0 11 8 19t19 8t18.5 -8t7.5 -19q0 -10 -7.5 -18t-18.5 -8zM204 -397q-11 0 -19 8t-8 18q0 11 7.5 19t19.5 8
q11 0 18.5 -8t7.5 -19q0 -10 -8 -18t-18 -8zM302 -397q-12 0 -20 8t-8 18q0 11 8 19t20 8q10 0 17.5 -8t7.5 -19q0 -10 -7.5 -18t-17.5 -8z" />
    <glyph glyph-name="uni06B9.init" unicode="&#x6b9;" horiz-adv-x="220" 
d="M0 -5l4 23q50 0 75 14t33.5 38.5t8.5 58.5q0 35 -5.5 69t-16.5 72t-28 84l23 9q16 -43 27.5 -82t17.5 -76t6 -72q0 -25 -4 -46t-13.5 -38t-26.5 -29t-41.5 -18.5t-59.5 -6.5zM90 504q-11 0 -19 8t-8 18q0 11 8 19t19 8t18.5 -8t7.5 -19q0 -10 -7.5 -18t-18.5 -8zM64 -172
q-11 0 -19 8t-8 18q0 11 8 19t19 8t18.5 -8t7.5 -19q0 -10 -7.5 -18t-18.5 -8z" />
    </font>
</defs>
</svg>
