<?xml version="1.0" standalone="no"?>
<!DOCTYPE svg PUBLIC "-//W3C//DTD SVG 1.1//EN" "http://www.w3.org/Graphics/SVG/1.1/DTD/svg11.dtd" >
<svg xmlns="http://www.w3.org/2000/svg" xmlns:xlink="http://www.w3.org/1999/xlink" version="1.1">
<metadata>
Created by FontForge 20170731 at Thu Nov 12 05:28:44 2020
 By Aleksey,,,
Copyright 2015-2020 Google LLC. All Rights Reserved.
</metadata>
<defs>
<font id="NotoSansArabicExtraCondensed-Bold" horiz-adv-x="0" >
  <font-face 
    font-family="Noto Sans Arabic ExtraCondensed"
    font-weight="700"
    font-stretch="extra-condensed"
    units-per-em="1000"
    panose-1="0 0 0 0 0 0 0 0 0 0"
    ascent="800"
    descent="-200"
    bbox="-220 -671 2163 1119"
    underline-thickness="50"
    underline-position="-175"
    unicode-range="U+000D-FEFC"
  />
<missing-glyph horiz-adv-x="600" 
d="M94 0v714h411v-714h-411zM145 51h309v612h-309v-612z" />
    <glyph glyph-name="uniFC43" unicode="&#xfedf;&#xfef0;" horiz-adv-x="941" arabic-form="isolated" 
d="M673 -5l9 128q33 0 48 10.5t19 40.5t2 86l-19 478h135l20 -490q3 -58 -3.5 -104.5t-28.5 -79.5t-65.5 -51t-116.5 -18zM32 12q0 22 4 55.5t16 77t35 94.5l117 -43q-14 -37 -22.5 -66.5t-12 -52.5t-3.5 -42q0 -33 10 -58t30 -42.5t49 -27t67 -9.5q51 -1 89 10t62.5 27.5
t36.5 34.5t12 31q0 7 -6 14.5t-20.5 16t-39 18t-61.5 20.5l37 124q44 -17 81 -30t68 -22t56.5 -14t46.5 -5q30 0 45.5 -18t15.5 -44q0 -30 -18 -48t-53 -18h-9.5t-10.5 0.5t-10 0.5q2 -7 3.5 -14t1.5 -15q0 -32 -20 -66.5t-60.5 -64t-101 -48t-142.5 -18.5
q-91 0 -156.5 26.5t-101 80.5t-35.5 135z" />
    <glyph glyph-name="uniFC86" unicode="&#xfee0;&#xfef0;" horiz-adv-x="959" arabic-form="final" 
d="M673 -5l10 128q28 0 42.5 11.5t19 41.5t2.5 85l-16 477h135l18 -475q2 -57 9.5 -87.5t25.5 -41.5t51 -11q31 0 46 -18t15 -44q0 -30 -18 -48t-52 -18q-32 0 -65.5 11.5t-58.5 39t-32 75.5h46q-17 -45 -42 -73t-58.5 -40.5t-77.5 -12.5zM32 12q0 22 4 55.5t16 77t35 94.5
l117 -43q-14 -37 -22.5 -66.5t-12 -52.5t-3.5 -42q0 -33 10 -58t30 -42.5t49 -27t67 -9.5q51 -1 89 10t62.5 27.5t36.5 34.5t12 31q0 7 -6 14.5t-20.5 16t-39 18t-61.5 20.5l37 124q44 -17 81 -30t68 -22t56.5 -14t46.5 -5q30 0 45.5 -18t15.5 -44q0 -30 -18 -48t-53 -18
h-9.5t-10.5 0.5t-10 0.5q2 -7 3.5 -14t1.5 -15q0 -32 -20 -66.5t-60.5 -64t-101 -48t-142.5 -18.5q-91 0 -156.5 26.5t-101 80.5t-35.5 135z" />
    <glyph glyph-name="uniFD82" unicode="&#xfee0;&#xfea4;&#xfef0;" horiz-adv-x="1491" arabic-form="final" 
d="M1205 -5l10 128q28 0 42.5 11.5t19 41.5t2.5 85l-16 477h135l18 -475q2 -57 9.5 -87.5t25.5 -41.5t51 -11q31 0 46 -18t15 -44q0 -30 -18 -48t-52 -18q-32 0 -65.5 11.5t-58.5 39t-32 75.5h46q-17 -45 -42 -73t-58.5 -40.5t-77.5 -12.5zM1206 -5q-27 0 -53.5 7.5
t-50.5 25t-44 48.5t-33 77l76 55q13 -35 31 -53.5t39.5 -25t44.5 -6.5q31 0 46 -18t15 -44q0 -30 -18 -48t-53 -18zM673 -5l9 128q42 0 84.5 7.5t85.5 22t85.5 36.5t84.5 51q-34 20 -66 32.5t-61.5 19t-59.5 6.5q-16 0 -30 -1t-28 -3t-30 -6l-24 130q26 8 51.5 11.5
t53.5 3.5q54 0 96 -12t75 -29.5t60 -35t51 -29.5t48 -12h22l15 -117q-29 -3 -57.5 -19t-59.5 -39t-69 -48t-85.5 -47t-109 -36t-141.5 -14zM32 12q0 22 4 55.5t16 77t35 94.5l117 -43q-14 -37 -22.5 -66.5t-12 -52.5t-3.5 -42q0 -33 10 -58t30 -42.5t49 -27t67 -9.5
q51 -1 89 10t62.5 27.5t36.5 34.5t12 31q0 7 -6 14.5t-20.5 16t-39 18t-61.5 20.5l37 124q44 -17 81 -30t68 -22t56.5 -14t46.5 -5q30 0 45.5 -18t15.5 -44q0 -30 -18 -48t-53 -18h-9.5t-10.5 0.5t-10 0.5q2 -7 3.5 -14t1.5 -15q0 -32 -20 -66.5t-60.5 -64t-101 -48
t-142.5 -18.5q-91 0 -156.5 26.5t-101 80.5t-35.5 135z" />
    <glyph glyph-name="uniFDF2" unicode="&#x627;&#xfedf;&#xfee0;&#xfeea;" horiz-adv-x="1294" arabic-form="isolated" 
d="M487 -5q-39 0 -72.5 9t-59 30t-41.5 56q-53 -9 -104.5 -5t-93.5 23.5t-67 56t-25 91.5q0 66 33.5 116.5t91 86t128.5 55.5l-4 78h131l17 -364q2 -42 9 -65t23 -31.5t44 -8.5q25 0 38.5 11.5t17.5 41.5t2 85l-12 358h135l14 -356q2 -57 9.5 -87.5t25 -41.5t48.5 -11
t45.5 10.5t18 40.5t1.5 86l-19 478h134l21 -490q3 -58 -3.5 -104.5t-28 -79.5t-64.5 -51t-115 -18q-23 0 -48.5 6.5t-48 22.5t-37.5 42q-25 -37 -61 -54t-83 -17zM291 210l-8 172q-37 -9 -66 -26t-45.5 -39.5t-16.5 -48.5q0 -19 12 -32.5t31.5 -20.5t44 -8t48.5 3zM1102 0
l-21 738h134l21 -738h-134zM511 692q-40 0 -52.5 26.5t-12.5 61.5q0 11 1.5 21.5t4.5 25.5l57 13q-3 -16 -4.5 -29t-1.5 -23q0 -18 4.5 -25.5t14.5 -7.5q12 0 18.5 14t7.5 55v30l49 15v-56q0 -15 5 -23t16 -8q13 0 17.5 9.5t4.5 25.5t-4 32t-9 32l52 12q9 -17 15 -39t6 -41
q0 -38 -17.5 -64.5t-58.5 -26.5q-22 0 -41 16.5t-19 46.5l20 -8q0 -40 -22 -62.5t-51 -22.5zM537 935l-5 156h71l5 -156h-71z" />
    <glyph glyph-name="uniFEF5" unicode="&#xfedf;&#xfe82;" horiz-adv-x="710" arabic-form="isolated" 
d="M351 536q0 33 -3.5 66t-8.5 62.5t-9 51.5l132 20q4 -20 8 -53t7 -69.5t3 -69.5q0 -43 -8.5 -83t-24.5 -78.5t-39 -75.5l-21 -32q-25 -37 -57.5 -73.5t-69.5 -72.5h52q36 0 54.5 5t25.5 13.5t7 20.5q0 23 -28 58.5t-78 81t-116 96.5t-142 104l66 107q106 -73 180.5 -134
t123 -111t75.5 -91t38 -73.5t11 -58.5q0 -29 -9 -55.5t-29 -47t-52 -32.5t-79 -12h-256v134q88 74 142 140t79.5 130t25.5 132zM197 682q-28 0 -51.5 9.5t-42.5 19t-36 9.5q-16 0 -30.5 -8.5t-29.5 -23.5l-42 45q25 32 50 47.5t52 15.5q24 0 44.5 -9t41.5 -18.5t44 -9.5
q15 0 29 5t33 17l32 -55q-33 -28 -56 -36t-38 -8z" />
    <glyph glyph-name="uniFEF6" unicode="&#xfee0;&#xfe82;" horiz-adv-x="610" arabic-form="final" 
d="M612 -5q-50 0 -89.5 10.5t-67.5 33t-43 56.5t-17 81l-23 562h131l23 -495q2 -51 11 -76.5t28 -34.5t50 -9q36 0 51.5 -17t15.5 -41q0 -31 -15.5 -50.5t-54.5 -19.5zM144 -5q-35 0 -62 4.5t-38 6.5l19 139q69 -10 128 -4t103 33.5t68.5 80t24.5 136.5l54 -157
q-11 -63 -35.5 -105.5t-58 -69t-70 -40.5t-71 -19t-62.5 -5zM324 132q-13 29 -37.5 68.5t-60 88t-83.5 103t-108 112.5l87 95q80 -88 131 -148t80.5 -100.5t45.5 -69.5t28 -56zM197 682q-28 0 -51.5 9.5t-42.5 19t-36 9.5q-16 0 -30.5 -8.5t-29.5 -23.5l-42 45
q25 32 50 47.5t52 15.5q24 0 44.5 -9t41.5 -18.5t44 -9.5q15 0 29 5t33 17l32 -55q-33 -28 -56 -36t-38 -8z" />
    <glyph glyph-name="uniFEF7" unicode="&#xfedf;&#xfe84;" horiz-adv-x="614" arabic-form="isolated" 
d="M351 536q0 33 -3.5 66t-8.5 62.5t-9 51.5l132 20q4 -20 8 -53t7 -69.5t3 -69.5q0 -43 -8.5 -83t-24.5 -78.5t-39 -75.5l-21 -32q-25 -37 -57.5 -73.5t-69.5 -72.5h52q36 0 54.5 5t25.5 13.5t7 20.5q0 23 -28 58.5t-78 81t-116 96.5t-142 104l66 107q106 -73 180.5 -134
t123 -111t75.5 -91t38 -73.5t11 -58.5q0 -29 -9 -55.5t-29 -47t-52 -32.5t-79 -12h-256v134q88 74 142 140t79.5 130t25.5 132zM33 672l-14 58q32 5 48 9t33 8l-11 -24q-23 8 -44.5 31t-21.5 59q0 28 12.5 46.5t34 28.5t48.5 10q11 0 25 -2t24 -6l-7 -53q-9 2 -18.5 3.5
t-17.5 1.5q-21 0 -30.5 -8.5t-9.5 -22.5q0 -17 11 -30t26 -20t25 -8l-39 -4q24 7 45 13.5t40 13.5l17 -55q-23 -8 -52.5 -17.5t-61 -17.5t-62.5 -14z" />
    <glyph glyph-name="uniFEF8" unicode="&#xfee0;&#xfe84;" horiz-adv-x="632" arabic-form="final" 
d="M612 -5q-50 0 -89.5 10.5t-67.5 33t-43 56.5t-17 81l-23 562h131l23 -495q2 -51 11 -76.5t28 -34.5t50 -9q36 0 51.5 -17t15.5 -41q0 -31 -15.5 -50.5t-54.5 -19.5zM144 -5q-35 0 -62 4.5t-38 6.5l19 139q69 -10 128 -4t103 33.5t68.5 80t24.5 136.5l54 -157
q-11 -63 -35.5 -105.5t-58 -69t-70 -40.5t-71 -19t-62.5 -5zM324 132q-13 29 -37.5 68.5t-60 88t-83.5 103t-108 112.5l87 95q80 -88 131 -148t80.5 -100.5t45.5 -69.5t28 -56zM49 672l-14 58q32 5 48 9t33 8l-11 -24q-23 8 -44.5 31t-21.5 59q0 28 12.5 46.5t34 28.5
t48.5 10q11 0 25 -2t24 -6l-7 -53q-9 2 -18.5 3.5t-17.5 1.5q-21 0 -30.5 -8.5t-9.5 -22.5q0 -17 11 -30t26 -20t25 -8l-39 -4q24 7 45 13.5t40 13.5l17 -55q-23 -8 -52.5 -17.5t-61 -17.5t-62.5 -14z" />
    <glyph glyph-name="uniFEF9" unicode="&#xfedf;&#xfe88;" horiz-adv-x="587" arabic-form="isolated" 
d="M351 536q0 33 -3.5 66t-8.5 62.5t-9 51.5l132 20q4 -20 8 -53t7 -69.5t3 -69.5q0 -43 -8.5 -83t-24.5 -78.5t-39 -75.5l-21 -32q-25 -37 -57.5 -73.5t-69.5 -72.5h52q36 0 54.5 5t25.5 13.5t7 20.5q0 23 -28 58.5t-78 81t-116 96.5t-142 104l66 107q106 -73 180.5 -134
t123 -111t75.5 -91t38 -73.5t11 -58.5q0 -29 -9 -55.5t-29 -47t-52 -32.5t-79 -12h-256v134q88 74 142 140t79.5 130t25.5 132zM95 -297l-14 58q32 5 48 9t33 8l-11 -24q-23 8 -44.5 31t-21.5 59q0 28 12.5 46.5t34 28.5t48.5 10q11 0 25 -2t24 -6l-7 -53q-9 2 -18.5 3.5
t-17.5 1.5q-21 0 -30.5 -8.5t-9.5 -22.5q0 -17 11 -30t26 -20t25 -8l-39 -4q24 7 45 13.5t40 13.5l17 -55q-23 -8 -52.5 -17.5t-61 -17.5t-62.5 -14z" />
    <glyph glyph-name="uniFEFA" unicode="&#xfee0;&#xfe88;" horiz-adv-x="610" arabic-form="final" 
d="M612 -5q-50 0 -89.5 10.5t-67.5 33t-43 56.5t-17 81l-23 562h131l23 -495q2 -51 11 -76.5t28 -34.5t50 -9q36 0 51.5 -17t15.5 -41q0 -31 -15.5 -50.5t-54.5 -19.5zM144 -5q-35 0 -62 4.5t-38 6.5l19 139q69 -10 128 -4t103 33.5t68.5 80t24.5 136.5l54 -157
q-11 -63 -35.5 -105.5t-58 -69t-70 -40.5t-71 -19t-62.5 -5zM324 132q-13 29 -37.5 68.5t-60 88t-83.5 103t-108 112.5l87 95q80 -88 131 -148t80.5 -100.5t45.5 -69.5t28 -56zM94 -297l-14 58q32 5 48 9t33 8l-11 -24q-23 8 -44.5 31t-21.5 59q0 28 12.5 46.5t34 28.5
t48.5 10q11 0 25 -2t24 -6l-7 -53q-9 2 -18.5 3.5t-17.5 1.5q-21 0 -30.5 -8.5t-9.5 -22.5q0 -17 11 -30t26 -20t25 -8l-39 -4q24 7 45 13.5t40 13.5l17 -55q-23 -8 -52.5 -17.5t-61 -17.5t-62.5 -14z" />
    <glyph glyph-name="uniFEFB" unicode="&#xfedf;&#xfe8e;" horiz-adv-x="587" arabic-form="isolated" 
d="M351 536q0 33 -3.5 66t-8.5 62.5t-9 51.5l132 20q4 -20 8 -53t7 -69.5t3 -69.5q0 -43 -8.5 -83t-24.5 -78.5t-39 -75.5l-21 -32q-25 -37 -57.5 -73.5t-69.5 -72.5h52q36 0 54.5 5t25.5 13.5t7 20.5q0 23 -28 58.5t-78 81t-116 96.5t-142 104l66 107q106 -73 180.5 -134
t123 -111t75.5 -91t38 -73.5t11 -58.5q0 -29 -9 -55.5t-29 -47t-52 -32.5t-79 -12h-256v134q88 74 142 140t79.5 130t25.5 132z" />
    <glyph glyph-name="uniFEFC" unicode="&#xfee0;&#xfe8e;" horiz-adv-x="610" arabic-form="final" 
d="M612 -5q-50 0 -89.5 10.5t-67.5 33t-43 56.5t-17 81l-23 562h131l23 -495q2 -51 11 -76.5t28 -34.5t50 -9q36 0 51.5 -17t15.5 -41q0 -31 -15.5 -50.5t-54.5 -19.5zM144 -5q-35 0 -62 4.5t-38 6.5l19 139q69 -10 128 -4t103 33.5t68.5 80t24.5 136.5l54 -157
q-11 -63 -35.5 -105.5t-58 -69t-70 -40.5t-71 -19t-62.5 -5zM324 132q-13 29 -37.5 68.5t-60 88t-83.5 103t-108 112.5l87 95q80 -88 131 -148t80.5 -100.5t45.5 -69.5t28 -56z" />
    <glyph glyph-name="lam_alefMaksura_meemar" unicode="&#xfedf;&#xfbe9;&#xfee2;" horiz-adv-x="1098" 
d="M830 -5l9 128q33 0 48 10.5t19 40.5t2 86l-19 478h135l20 -490q3 -58 -3.5 -104.5t-28.5 -79.5t-65.5 -51t-116.5 -18zM571 -5l10 128q21 0 37 7.5t25.5 26t9.5 50.5q0 31 -7 71.5t-18.5 83t-23.5 78.5l123 36q13 -34 25 -79.5t20 -95t8 -97.5q0 -52 -13.5 -88t-35.5 -60
t-49.5 -37t-56 -18.5t-54.5 -5.5zM80 -387q-22 79 -37 152.5t-22 130t-7 84.5q0 97 25 170.5t64.5 125.5t84.5 85t87 48t70 15q38 0 60 -21t37 -57.5t33 -83.5q21 -53 38 -83.5t34 -43t35 -12.5q30 0 45.5 -18t15.5 -44q0 -28 -18.5 -47t-52.5 -19q-37 0 -67.5 17t-57.5 50
l24 14q-8 -27 -25 -48t-42 -33.5t-58 -12.5q-19 0 -44 4t-54 19t-59.5 47.5t-60.5 88.5l39 -4q-18 -40 -24 -78t-6 -73q0 -32 5.5 -73.5t14.5 -87t20 -90.5t22 -85zM352 106q18 0 27 8t10.5 20.5t-3.5 24.5q-17 47 -28 75t-17.5 41.5t-11 17.5t-10.5 4q-11 0 -29 -11
t-36.5 -27t-32 -32t-16.5 -25l-8 38q22 -35 47 -66t52 -49.5t56 -18.5z" />
    <glyph glyph-name="lam_alefWaslaar" unicode="&#xfedf;&#xfb51;" horiz-adv-x="551" 
d="M133 689q-20 0 -46.5 2t-50.5 4.5t-36 4.5l6 58q13 -1 35 -3.5t47 -4.5t45 -2q49 0 64.5 11.5t15.5 26.5q0 17 -9.5 25t-21.5 8t-26 -9t-27 -26t-24 -42l-67 1q11 29 31 60.5t49 53.5t67 22q37 0 62.5 -24t25.5 -65q0 -27 -12.5 -50t-42.5 -37t-85 -14zM351 536
q0 33 -3.5 66t-8.5 62.5t-9 51.5l132 20q4 -20 8 -53t7 -69.5t3 -69.5q0 -43 -8.5 -83t-24.5 -78.5t-39 -75.5l-21 -32q-25 -37 -57.5 -73.5t-69.5 -72.5h52q36 0 54.5 5t25.5 13.5t7 20.5q0 23 -28 58.5t-78 81t-116 96.5t-142 104l66 107q106 -73 180.5 -134t123 -111
t75.5 -91t38 -73.5t11 -58.5q0 -29 -9 -55.5t-29 -47t-52 -32.5t-79 -12h-256v134q88 74 142 140t79.5 130t25.5 132z" />
    <glyph glyph-name="lam_alefWaslaar.fina" unicode="&#xfee0;&#xfb51;" horiz-adv-x="704" 
d="M133 689q-20 0 -46.5 2t-50.5 4.5t-36 4.5l6 58q13 -1 35 -3.5t47 -4.5t45 -2q49 0 64.5 11.5t15.5 26.5q0 17 -9.5 25t-21.5 8t-26 -9t-27 -26t-24 -42l-67 1q11 29 31 60.5t49 53.5t66 22q38 0 63.5 -24t25.5 -65q0 -27 -12.5 -50t-42.5 -37t-85 -14zM612 -5
q-50 0 -89.5 10.5t-67.5 33t-43 56.5t-17 81l-23 562h131l23 -495q2 -51 11 -76.5t28 -34.5t50 -9q36 0 51.5 -17t15.5 -41q0 -31 -15.5 -50.5t-54.5 -19.5zM144 -5q-35 0 -62 4.5t-38 6.5l19 139q69 -10 128 -4t103 33.5t68.5 80t24.5 136.5l54 -157q-11 -63 -35.5 -105.5
t-58 -69t-70 -40.5t-71 -19t-62.5 -5zM324 132q-13 29 -37.5 68.5t-60 88t-83.5 103t-108 112.5l87 95q80 -88 131 -148t80.5 -100.5t45.5 -69.5t28 -56z" />
    <glyph glyph-name="uni0620.init" unicode="&#x620;" horiz-adv-x="335" 
d="M0 -5l10 128q56 0 87 7t43.5 25t12.5 50t-7.5 73t-19 83.5t-23.5 78.5l123 36q13 -34 25 -79.5t20.5 -93.5t8.5 -93q0 -68 -21.5 -110.5t-59.5 -65t-89 -31t-110 -8.5zM190 -89q-35 0 -59 24.5t-24 58.5q0 35 24 59t59 24t58.5 -24t23.5 -59q0 -34 -23.5 -58.5
t-58.5 -24.5zM190 -35q13 0 22 8t9 21q0 14 -9 22t-22 8t-22 -8.5t-9 -21.5t9 -21t22 -8z" />
    <glyph glyph-name="uni0620.medi" unicode="&#x620;" horiz-adv-x="371" 
d="M0 -5l10 128q33 0 54.5 7t35 29t23.5 66t20 117l125 -21q-2 -16 -5.5 -35.5t-6 -40t-2.5 -39.5q0 -20 6 -35.5t20 -26t39 -16t63 -5.5q31 0 46 -18t15 -43q0 -31 -18 -49t-53 -18q-52 0 -88.5 8.5t-59.5 26t-35.5 44.5t-15.5 64l44 -1q-17 -48 -41.5 -76.5t-53.5 -42.5
t-60 -18.5t-62 -4.5zM123 -99q-35 0 -59 24.5t-24 58.5q0 35 24 59t59 24t58.5 -24t23.5 -59q0 -34 -23.5 -58.5t-58.5 -24.5zM123 -45q13 0 22 8t9 21q0 14 -9 22t-22 8t-22 -8.5t-9 -21.5t9 -21t22 -8z" />
    <glyph glyph-name="uni0620.fina" unicode="&#x620;" horiz-adv-x="673" 
d="M327 -343q-35 0 -59 24.5t-24 58.5q0 35 24 59t59 24t58.5 -24t23.5 -59q0 -34 -23.5 -58.5t-58.5 -24.5zM327 -289q13 0 22 8t9 21q0 14 -9 22t-22 8t-22 -8.5t-9 -21.5t9 -21t22 -8zM32 12q0 22 4 55.5t16 77t35 94.5l117 -43q-14 -37 -22.5 -66.5t-12 -52.5t-3.5 -42
q0 -33 10 -58t30 -42.5t49 -27t67 -9.5q51 -1 89 10t62.5 27.5t36.5 34.5t12 31q0 7 -6 14.5t-20.5 16t-39 18t-61.5 20.5l37 124q44 -17 81 -30t68 -22t56.5 -14t46.5 -5q30 0 45.5 -18t15.5 -44q0 -30 -18 -48t-53 -18h-9.5t-10.5 0.5t-10 0.5q2 -7 3.5 -14t1.5 -15
q0 -32 -20 -66.5t-60.5 -64t-101 -48t-142.5 -18.5q-91 0 -156.5 26.5t-101 80.5t-35.5 135z" />
    <glyph glyph-name="uni063B.init" unicode="&#x63b;" horiz-adv-x="388" 
d="M227 725q-23 0 -38 15t-15 36q0 22 15 37.5t38 15.5q21 0 35.5 -15.5t14.5 -37.5q0 -21 -14.5 -36t-35.5 -15zM99 663q-22 0 -37 15t-15 36t15 37t37 16q21 0 36 -16t15 -37t-15 -36t-36 -15zM0 -5l10 128h81q24 0 39.5 7t24 18t12 23.5t3.5 23.5q0 35 -23 71.5t-51 69.5
q-14 17 -27.5 32.5t-24.5 29t-17.5 24.5t-6.5 19q0 14 2.5 33.5t7 37t10.5 24.5q15 16 39 35.5t59 43t83 52.5t111 63l64 -107q-56 -30 -100 -55t-78 -46t-59.5 -40.5t-45.5 -37.5l8 65q46 -52 82 -95.5t60.5 -81.5t37 -75t12.5 -76q0 -31 -10.5 -63.5t-36 -60.5t-69.5 -45
t-111 -17h-86z" />
    <glyph glyph-name="uni063B.medi" unicode="&#x63b;" horiz-adv-x="418" 
d="M232 724q-23 0 -38 15t-15 36q0 22 15 37.5t38 15.5q21 0 35.5 -15.5t14.5 -37.5q0 -21 -14.5 -36t-35.5 -15zM104 662q-22 0 -37 15t-15 36t15 37t37 16q21 0 36 -16t15 -37t-15 -36t-36 -15zM0 -5l9 128h82q30 0 47 10.5t24.5 27t7.5 34.5q0 17 -11 39.5t-28 47.5
t-36 49.5t-36 46t-28 37.5t-11 22q0 15 2.5 35.5t7 38.5t11.5 25q18 19 46.5 41t66 47t82 51.5t95.5 53.5l64 -106q-51 -27 -93 -51.5t-76 -46.5t-61 -41.5t-47 -37.5l-5 69q26 -30 51.5 -62t50.5 -67.5t48 -76t44 -88.5q20 -44 38 -65t38 -27t46 -6q31 0 46 -18t15 -44
q0 -28 -18 -47t-53 -19q-41 0 -73.5 11.5t-56.5 38t-40 72.5l42 -3q-10 -30 -27 -52.5t-42 -37.5t-60 -22t-80 -7h-82z" />
    <glyph glyph-name="uni063B.fina" unicode="&#x63b;" horiz-adv-x="840" 
d="M641 725q-23 0 -38 15t-15 36q0 22 15 37.5t38 15.5q21 0 35.5 -15.5t14.5 -37.5q0 -21 -14.5 -36t-35.5 -15zM513 663q-22 0 -37 15t-15 36t15 37t37 16q21 0 36 -16t15 -37t-15 -36t-36 -15zM357 -21l25 128q47 0 85.5 3t66.5 12t43 26.5t15 46.5q0 17 -11 39.5
t-28 47.5t-36 49.5t-36 46t-28 37.5t-11 23q0 15 2.5 35t7 37t10.5 24q25 26 68 57.5t99.5 66.5t123.5 72l64 -106q-68 -38 -121 -69.5t-92 -58.5t-66 -52l-3 72q28 -32 54.5 -65.5t51.5 -70t47.5 -76t41.5 -83.5q15 -33 27.5 -52.5t25.5 -29.5t29.5 -13t38.5 -3
q30 0 45.5 -18t15.5 -44q0 -28 -18 -47t-52 -19q-37 0 -71 12t-59 38.5t-37 71.5l38 9q-12 -46 -42 -75t-76 -45t-106 -21.5t-132 -5.5zM357 -21q-87 0 -148.5 15.5t-100.5 45t-57 71t-18 93.5q0 28 6 62t15 66.5t18 57.5l112 -30q-5 -19 -11 -40t-9.5 -43t-3.5 -44
q0 -35 16.5 -64t64.5 -45.5t141 -16.5l20 -97z" />
    <glyph glyph-name="uni063C.init" unicode="&#x63c;" horiz-adv-x="388" 
d="M0 -5l10 128h81q24 0 39.5 7t24 18t12 23.5t3.5 23.5q0 35 -23 71.5t-51 69.5q-14 17 -27.5 32.5t-24.5 29t-17.5 24.5t-6.5 19q0 14 2.5 33.5t7 37t10.5 24.5q15 16 39 35.5t59 43t83 52.5t111 63l64 -107q-56 -30 -100 -55t-78 -46t-59.5 -40.5t-45.5 -37.5l8 65
q46 -52 82 -95.5t60.5 -81.5t37 -75t12.5 -76q0 -31 -10.5 -63.5t-36 -60.5t-69.5 -45t-111 -17h-86zM174 -356q-25 0 -43 17.5t-18 42.5t18 43.5t43 18.5t42.5 -18.5t17.5 -43.5t-17.5 -42.5t-42.5 -17.5zM94 -214q-25 0 -43 17.5t-18 42.5t18 43.5t43 18.5t42.5 -18.5
t17.5 -43.5t-17.5 -42.5t-42.5 -17.5zM257 -214q-25 0 -43 17.5t-18 42.5t18 43.5t43 18.5t42.5 -18.5t17.5 -43.5t-17.5 -42.5t-42.5 -17.5z" />
    <glyph glyph-name="uni063C.medi" unicode="&#x63c;" horiz-adv-x="418" 
d="M0 -5l9 128h82q30 0 47 10.5t24.5 27t7.5 34.5q0 17 -11 39.5t-28 47.5t-36 49.5t-36 46t-28 37.5t-11 22q0 15 2.5 35.5t7 38.5t11.5 25q18 19 46.5 41t66 47t82 51.5t95.5 53.5l64 -106q-51 -27 -93 -51.5t-76 -46.5t-61 -41.5t-47 -37.5l-5 69q26 -30 51.5 -62
t50.5 -67.5t48 -76t44 -88.5q20 -44 38 -65t38 -27t46 -6q31 0 46 -18t15 -44q0 -28 -18 -47t-53 -19q-41 0 -73.5 11.5t-56.5 38t-40 72.5l42 -3q-10 -30 -27 -52.5t-42 -37.5t-60 -22t-80 -7h-82zM168 -356q-25 0 -43 17.5t-18 42.5t18 43.5t43 18.5t42.5 -18.5
t17.5 -43.5t-17.5 -42.5t-42.5 -17.5zM88 -214q-25 0 -43 17.5t-18 42.5t18 43.5t43 18.5t42.5 -18.5t17.5 -43.5t-17.5 -42.5t-42.5 -17.5zM251 -214q-25 0 -43 17.5t-18 42.5t18 43.5t43 18.5t42.5 -18.5t17.5 -43.5t-17.5 -42.5t-42.5 -17.5z" />
    <glyph glyph-name="uni063C.fina" unicode="&#x63c;" horiz-adv-x="840" 
d="M357 -21l25 128q47 0 85.5 3t66.5 12t43 26.5t15 46.5q0 17 -11 39.5t-28 47.5t-36 49.5t-36 46t-28 37.5t-11 23q0 15 2.5 35t7 37t10.5 24q25 26 68 57.5t99.5 66.5t123.5 72l64 -106q-68 -38 -121 -69.5t-92 -58.5t-66 -52l-3 72q28 -32 54.5 -65.5t51.5 -70t47.5 -76
t41.5 -83.5q15 -33 27.5 -52.5t25.5 -29.5t29.5 -13t38.5 -3q30 0 45.5 -18t15.5 -44q0 -28 -18 -47t-52 -19q-37 0 -71 12t-59 38.5t-37 71.5l38 9q-12 -46 -42 -75t-76 -45t-106 -21.5t-132 -5.5zM357 -21q-87 0 -148.5 15.5t-100.5 45t-57 71t-18 93.5q0 28 6 62t15 66.5
t18 57.5l112 -30q-5 -19 -11 -40t-9.5 -43t-3.5 -44q0 -35 16.5 -64t64.5 -45.5t141 -16.5l20 -97zM386 -377q-25 0 -43 17.5t-18 42.5t18 43.5t43 18.5t42.5 -18.5t17.5 -43.5t-17.5 -42.5t-42.5 -17.5zM306 -235q-25 0 -43 17.5t-18 42.5t18 43.5t43 18.5t42.5 -18.5
t17.5 -43.5t-17.5 -42.5t-42.5 -17.5zM469 -235q-25 0 -43 17.5t-18 42.5t18 43.5t43 18.5t42.5 -18.5t17.5 -43.5t-17.5 -42.5t-42.5 -17.5z" />
    <glyph glyph-name="uni063D.init" unicode="&#x63d;" horiz-adv-x="259" 
d="M0 -5l10 128q21 0 37 7.5t25.5 26t9.5 50.5q0 31 -7 71.5t-18.5 83t-23.5 78.5l123 36q13 -34 25 -79.5t20 -95t8 -97.5q0 -52 -13.5 -88t-35.5 -60t-49.5 -37t-56 -18.5t-54.5 -5.5zM90 729q7 -13 16.5 -38.5t20 -54.5t20 -54.5t16.5 -40.5l-52 -21q-4 9 -12 30.5
t-18 47t-19.5 49.5t-16.5 37l-20 40zM26 724l46 -20q-5 -15 -14.5 -43t-19 -58.5t-17 -54.5t-9.5 -31l-52 15l11.5 34.5t19.5 56.5t20.5 59t14.5 42zM189 -223q-28 0 -46.5 18.5t-18.5 44.5q0 27 18 46.5t47 19.5q26 0 44.5 -19.5t18.5 -45.5q0 -27 -19 -45.5t-44 -18.5z
M26 -223q-28 0 -46.5 18.5t-18.5 44.5q0 27 18 46.5t47 19.5q26 0 44.5 -19.5t18.5 -45.5q0 -27 -19 -45.5t-44 -18.5z" />
    <glyph glyph-name="uni063D.medi" unicode="&#x63d;" horiz-adv-x="299" 
d="M0 -5l10 128q21 0 36.5 7t27 29t21 65.5t19.5 116.5l125 -20q-2 -16 -5.5 -36t-6 -40t-2.5 -39q0 -26 9 -45t28 -28.5t48 -9.5q31 0 46 -18t15 -44q0 -30 -17.5 -48t-52.5 -18q-48 0 -81.5 15.5t-53.5 47t-25 79.5h47q-16 -50 -40.5 -79t-51.5 -42.5t-52.5 -17
t-43.5 -3.5zM174 672q7 -13 16.5 -38.5t20 -54.5t20 -54.5t16.5 -40.5l-52 -21q-4 9 -12 30.5t-18 47t-19.5 49.5t-16.5 37l-20 40zM110 667l46 -20q-5 -15 -14.5 -43t-19 -58.5t-17 -54.5t-9.5 -31l-52 15l11.5 34.5t19.5 56.5t20.5 59t14.5 42zM219 -223q-28 0 -46.5 18.5
t-18.5 44.5q0 27 18 46.5t47 19.5q26 0 44.5 -19.5t18.5 -45.5q0 -27 -19 -45.5t-44 -18.5zM56 -223q-28 0 -46.5 18.5t-18.5 44.5q0 27 18 46.5t47 19.5q26 0 44.5 -19.5t18.5 -45.5q0 -27 -19 -45.5t-44 -18.5z" />
    <glyph glyph-name="uni063D.fina" unicode="&#x63d;" horiz-adv-x="673" 
d="M32 12q0 22 4 55.5t16 77t35 94.5l117 -43q-14 -37 -22.5 -66.5t-12 -52.5t-3.5 -42q0 -33 10 -58t30 -42.5t49 -27t67 -9.5q51 -1 89 10t62.5 27.5t36.5 34.5t12 31q0 7 -6 14.5t-20.5 16t-39 18t-61.5 20.5l37 124q44 -17 81 -30t68 -22t56.5 -14t46.5 -5
q30 0 45.5 -18t15.5 -44q0 -30 -18 -48t-53 -18h-9.5t-10.5 0.5t-10 0.5q2 -7 3.5 -14t1.5 -15q0 -32 -20 -66.5t-60.5 -64t-101 -48t-142.5 -18.5q-91 0 -156.5 26.5t-101 80.5t-35.5 135zM225 525q7 -13 16.5 -38.5t20 -54.5t20 -54.5t16.5 -40.5l-52 -21q-4 9 -12 30.5
t-18 47t-19.5 49.5t-16.5 37l-20 40zM161 520l46 -20q-5 -15 -14.5 -43t-19 -58.5t-17 -54.5t-9.5 -31l-52 15l11.5 34.5t19.5 56.5t20.5 59t14.5 42z" />
    <glyph glyph-name="uni063E.init" unicode="&#x63e;" horiz-adv-x="335" 
d="M0 -5l10 128q56 0 87 7t43.5 25t12.5 50q0 33 -7.5 73.5t-19 83t-23.5 78.5l123 36q13 -34 25 -79.5t20.5 -93.5t8.5 -93q0 -68 -21.5 -110.5t-59.5 -65t-89 -31t-110 -8.5zM240 596q-28 0 -46.5 18.5t-18.5 44.5q0 27 18 46.5t47 19.5q26 0 44.5 -19.5t18.5 -45.5
q0 -27 -19 -45.5t-44 -18.5zM77 596q-28 0 -46.5 18.5t-18.5 44.5q0 27 18 46.5t47 19.5q26 0 44.5 -19.5t18.5 -45.5q0 -27 -19 -45.5t-44 -18.5zM227 -223q-28 0 -46.5 18.5t-18.5 44.5q0 27 18 46.5t47 19.5q26 0 44.5 -19.5t18.5 -45.5q0 -27 -19 -45.5t-44 -18.5z
M64 -223q-28 0 -46.5 18.5t-18.5 44.5q0 27 18 46.5t47 19.5q26 0 44.5 -19.5t18.5 -45.5q0 -27 -19 -45.5t-44 -18.5z" />
    <glyph glyph-name="uni063E.medi" unicode="&#x63e;" horiz-adv-x="371" 
d="M0 -5l10 128q33 0 54.5 7t35 29t23.5 66t20 117l125 -21q-2 -16 -5.5 -35.5t-6 -40t-2.5 -39.5q0 -20 6 -35.5t20 -26t39 -16t63 -5.5q31 0 46 -18t15 -43q0 -31 -18 -49t-53 -18q-52 0 -88.5 8.5t-59.5 26t-35.5 44.5t-15.5 64l44 -1q-17 -48 -41.5 -76.5t-53.5 -42.5
t-60 -18.5t-62 -4.5zM303 491q-28 0 -46.5 18.5t-18.5 44.5q0 27 18 46.5t47 19.5q26 0 44.5 -19.5t18.5 -45.5q0 -27 -19 -45.5t-44 -18.5zM140 491q-28 0 -46.5 18.5t-18.5 44.5q0 27 18 46.5t47 19.5q26 0 44.5 -19.5t18.5 -45.5q0 -27 -19 -45.5t-44 -18.5zM255 -223
q-28 0 -46.5 18.5t-18.5 44.5q0 27 18 46.5t47 19.5q26 0 44.5 -19.5t18.5 -45.5q0 -27 -19 -45.5t-44 -18.5zM92 -223q-28 0 -46.5 18.5t-18.5 44.5q0 27 18 46.5t47 19.5q26 0 44.5 -19.5t18.5 -45.5q0 -27 -19 -45.5t-44 -18.5z" />
    <glyph glyph-name="uni063E.fina" unicode="&#x63e;" horiz-adv-x="673" 
d="M32 12q0 22 4 55.5t16 77t35 94.5l117 -43q-14 -37 -22.5 -66.5t-12 -52.5t-3.5 -42q0 -33 10 -58t30 -42.5t49 -27t67 -9.5q51 -1 89 10t62.5 27.5t36.5 34.5t12 31q0 7 -6 14.5t-20.5 16t-39 18t-61.5 20.5l37 124q44 -17 81 -30t68 -22t56.5 -14t46.5 -5
q30 0 45.5 -18t15.5 -44q0 -30 -18 -48t-53 -18h-9.5t-10.5 0.5t-10 0.5q2 -7 3.5 -14t1.5 -15q0 -32 -20 -66.5t-60.5 -64t-101 -48t-142.5 -18.5q-91 0 -156.5 26.5t-101 80.5t-35.5 135zM299 359q-28 0 -46.5 18.5t-18.5 44.5q0 27 18 46.5t47 19.5q26 0 44.5 -19.5
t18.5 -45.5q0 -27 -19 -45.5t-44 -18.5zM136 359q-28 0 -46.5 18.5t-18.5 44.5q0 27 18 46.5t47 19.5q26 0 44.5 -19.5t18.5 -45.5q0 -27 -19 -45.5t-44 -18.5z" />
    <glyph glyph-name="uni063F.init" unicode="&#x63f;" horiz-adv-x="335" 
d="M0 -5l10 128q56 0 87 7t43.5 25t12.5 50q0 33 -7.5 73.5t-19 83t-23.5 78.5l123 36q13 -34 25 -79.5t20.5 -93.5t8.5 -93q0 -68 -21.5 -110.5t-59.5 -65t-89 -31t-110 -8.5zM165 710q-28 0 -46.5 18.5t-18.5 45.5t18.5 46t46.5 19q26 0 44.5 -19t18.5 -46t-18.5 -45.5
t-44.5 -18.5zM87 566q-27 0 -46 18.5t-19 44.5q0 27 19 46.5t46 19.5q26 0 45 -19.5t19 -46.5q0 -26 -19 -44.5t-45 -18.5zM253 566q-28 0 -46.5 18.5t-18.5 44.5q0 28 18.5 47t46.5 19q26 0 44.5 -19t18.5 -47q0 -26 -18.5 -44.5t-44.5 -18.5zM227 -223q-28 0 -46.5 18.5
t-18.5 44.5q0 27 18 46.5t47 19.5q26 0 44.5 -19.5t18.5 -45.5q0 -27 -19 -45.5t-44 -18.5zM64 -223q-28 0 -46.5 18.5t-18.5 44.5q0 27 18 46.5t47 19.5q26 0 44.5 -19.5t18.5 -45.5q0 -27 -19 -45.5t-44 -18.5z" />
    <glyph glyph-name="uni063F.medi" unicode="&#x63f;" horiz-adv-x="371" 
d="M0 -5l10 128q33 0 54.5 7t35 29t23.5 66t20 117l125 -21q-2 -16 -5.5 -35.5t-6 -40t-2.5 -39.5q0 -20 6 -35.5t20 -26t39 -16t63 -5.5q31 0 46 -18t15 -43q0 -31 -18 -49t-53 -18q-52 0 -88.5 8.5t-59.5 26t-35.5 44.5t-15.5 64l44 -1q-17 -48 -41.5 -76.5t-53.5 -42.5
t-60 -18.5t-62 -4.5zM193 605q-28 0 -46.5 18.5t-18.5 45.5t18.5 46t46.5 19q26 0 44.5 -19t18.5 -45q0 -28 -18.5 -46.5t-44.5 -18.5zM115 461q-27 0 -46 18.5t-19 44.5q0 27 19 46.5t46 19.5q26 0 45 -19.5t19 -45.5q0 -27 -19 -45.5t-45 -18.5zM281 461q-28 0 -46.5 18.5
t-18.5 44.5q0 28 18.5 47t46.5 19q26 0 44.5 -19t18.5 -46t-18.5 -45.5t-44.5 -18.5zM255 -223q-28 0 -46.5 18.5t-18.5 44.5q0 27 18.5 46.5t46.5 19.5q26 0 44.5 -19.5t18.5 -45.5q0 -27 -18.5 -45.5t-44.5 -18.5zM92 -223q-28 0 -46.5 18.5t-18.5 44.5q0 27 18.5 46.5
t46.5 19.5q26 0 44.5 -19.5t18.5 -45.5q0 -27 -18.5 -45.5t-44.5 -18.5z" />
    <glyph glyph-name="uni063F.fina" unicode="&#x63f;" horiz-adv-x="673" 
d="M32 12q0 22 4 55.5t16 77t35 94.5l117 -43q-14 -37 -22.5 -66.5t-12 -52.5t-3.5 -42q0 -33 10 -58t30 -42.5t49 -27t67 -9.5q51 -1 89 10t62.5 27.5t36.5 34.5t12 31q0 7 -6 14.5t-20.5 16t-39 18t-61.5 20.5l37 124q44 -17 81 -30t68 -22t56.5 -14t46.5 -5
q30 0 45.5 -18t15.5 -44q0 -30 -18 -48t-53 -18h-9.5t-10.5 0.5t-10 0.5q2 -7 3.5 -14t1.5 -15q0 -32 -20 -66.5t-60.5 -64t-101 -48t-142.5 -18.5q-91 0 -156.5 26.5t-101 80.5t-35.5 135zM212 503q-28 0 -46.5 18.5t-18.5 45.5t18.5 46t46.5 19q26 0 44.5 -19t18.5 -45
q0 -28 -18.5 -46.5t-44.5 -18.5zM134 359q-27 0 -46 18.5t-19 44.5q0 27 19 46.5t46 19.5q26 0 45 -19.5t19 -45.5q0 -27 -19 -45.5t-45 -18.5zM300 359q-28 0 -46.5 18.5t-18.5 44.5q0 28 18.5 47t46.5 19q26 0 44.5 -19t18.5 -46t-18.5 -45.5t-44.5 -18.5z" />
    <glyph glyph-name="uni066E.init" unicode="&#x66e;" horiz-adv-x="259" 
d="M0 -5l10 128q21 0 37 7.5t25.5 26t9.5 50.5q0 31 -7 71.5t-18.5 83t-23.5 78.5l123 36q13 -34 25 -79.5t20 -95t8 -97.5q0 -52 -13.5 -88t-35.5 -60t-49.5 -37t-56 -18.5t-54.5 -5.5z" />
    <glyph glyph-name="uni066E.medi" unicode="&#x66e;" horiz-adv-x="299" 
d="M0 -5l10 128q21 0 36.5 7t27 29t21 65.5t19.5 116.5l125 -20q-2 -16 -5.5 -36t-6 -40t-2.5 -39q0 -26 9 -45t28 -28.5t48 -9.5q31 0 46 -18t15 -44q0 -30 -17.5 -48t-52.5 -18q-48 0 -81.5 15.5t-53.5 47t-25 79.5h47q-16 -50 -40.5 -79t-51.5 -42.5t-52.5 -17
t-43.5 -3.5z" />
    <glyph glyph-name="uni066E.fina" unicode="&#x66e;" horiz-adv-x="930" 
d="M370 -21l27 128q53 0 102.5 9.5t95.5 30.5t88 56.5t81 86.5l100 -53q-6 -16 -9.5 -30.5t-3.5 -25.5q0 -17 10.5 -30t30.5 -20.5t48 -7.5q32 0 47 -18t15 -44q0 -30 -18 -48t-53 -18q-49 0 -93 17t-68 51t-14 84h34q-25 -41 -66 -72.5t-95 -52.5t-119.5 -32t-139.5 -11z
M372 -21q-87 0 -148.5 15.5t-100.5 45t-57 71t-18 93.5q0 28 6 62t15.5 66.5t17.5 57.5l112 -30q-5 -19 -11 -40t-9.5 -43t-3.5 -44q0 -35 16.5 -64t64.5 -45.5t141 -16.5l20 -97z" />
    <glyph glyph-name="uni066F.init" unicode="&#x66f;" horiz-adv-x="435" 
d="M0 -5l9 128q26 0 55 0.5t57 2t52.5 6t41.5 12.5q22 10 35.5 28.5t19.5 47.5t6 69q0 51 -7 86t-20.5 53.5t-31.5 18.5q-14 0 -26 -12t-19 -33t-7 -49q0 -20 8 -33t21.5 -18.5t28.5 -5.5q17 0 35.5 5t37.5 15l4 -92q-14 -12 -32 -20.5t-37.5 -12.5t-41.5 -4
q-43 0 -76.5 18.5t-52 52t-18.5 78.5q0 43 12.5 83t36.5 72t57.5 50.5t74.5 18.5q55 0 94.5 -35t61 -98.5t21.5 -148.5q0 -82 -24.5 -142.5t-80.5 -93.5q-27 -16 -61 -25.5t-72 -14t-79 -6t-83 -1.5z" />
    <glyph glyph-name="uni066F.medi" unicode="&#x66f;" horiz-adv-x="435" 
d="M0 -5l9 128q20 0 44.5 1.5t50.5 5t49.5 9.5t42.5 14q27 12 45.5 28t27.5 38t9 51q0 21 -7.5 40t-18.5 30.5t-24 11.5q-11 0 -23.5 -11t-20.5 -30t-8 -44q0 -23 8 -43.5t24.5 -38t40.5 -35.5l-114 -48q-24 23 -43 48t-30 55.5t-11 69.5q0 38 14 72.5t39 62t57.5 43.5
t69.5 16q51 0 90 -28t60.5 -71t21.5 -88q0 -46 -13.5 -83t-37 -65.5t-52 -50t-58.5 -38.5q-25 -14 -56.5 -24t-65 -15.5t-65 -8t-55.5 -2.5zM436 -5q-37 0 -82 6.5t-87.5 19t-72.5 29.5l66 96q28 -10 63 -15t68 -6.5t55 -1.5q30 0 45.5 -18t15.5 -44q0 -28 -18 -47t-53 -19z
" />
    <glyph glyph-name="uni066F.fina" unicode="&#x66f;" horiz-adv-x="750" 
d="M318 -272q-55 0 -107 14.5t-93.5 44.5t-66 78t-24.5 115q0 23 4 53.5t16 72t36 95.5l117 -46q-14 -37 -23 -62t-12.5 -46.5t-3.5 -46.5q0 -46 20.5 -78t60 -49t95.5 -17q31 0 60.5 5.5t55 15.5t46.5 24.5t36.5 32.5t24.5 40q12 26 16.5 61.5t4.5 81.5q0 44 -7 78.5
t-19.5 54t-30.5 19.5q-12 0 -21.5 -8.5t-16 -22t-10 -28.5t-3.5 -27q0 -21 6 -35t23.5 -21.5t50.5 -8.5t87 5h121q30 0 45.5 -18t15.5 -44q0 -29 -17.5 -47.5t-53.5 -18.5h-165q-54 0 -97.5 8t-75 26.5t-48 49.5t-16.5 77q0 43 13 83.5t37 72.5t58 51t76 19q51 0 90.5 -35
t61.5 -97t22 -144q0 -59 -14 -110t-35 -89q-24 -45 -59.5 -78.5t-80 -56t-95.5 -33.5t-105 -11z" />
    <glyph glyph-name="uni0672.fina" unicode="&#x672;" horiz-adv-x="273" 
d="M274 -5q-68 0 -109.5 19t-60.5 58.5t-22 102.5l-19 488h132l19 -419q3 -52 10 -78t21.5 -34.5t38.5 -8.5q31 0 46 -17.5t15 -43.5q0 -31 -18 -49t-53 -18zM-18 738l-49 33q11 25 31 36.5t36 11.5q20 0 38.5 -10t31.5 -10q11 0 21 0.5t17 4.5l-7 -19q-28 9 -48.5 33.5
t-20.5 56.5q0 40 29 63.5t72 23.5q11 0 24 -1.5t23 -5.5l-8 -56q-9 2 -17.5 4t-18.5 2q-21 0 -31.5 -8.5t-10.5 -23.5q0 -18 11.5 -31.5t27 -20.5t26.5 -8l-32 -4q25 6 42.5 13.5t34.5 14.5l19 -54q-7 -4 -25 -11t-40.5 -14.5t-43.5 -12.5t-36 -5q-22 0 -39 10t-28 10
q-9 0 -16.5 -7t-12.5 -15z" />
    <glyph glyph-name="uni0673.fina" unicode="&#x673;" horiz-adv-x="276" 
d="M277 -5q-68 0 -109.5 19t-61 58.5t-21.5 102.5l-22 563h132l20 -494q2 -52 10 -78t23 -34.5t39 -8.5q31 0 46 -17.5t15 -44.5q0 -30 -18 -48t-53 -18zM24 -302l-49 33q11 25 31 36.5t36 11.5q20 0 38.5 -10t31.5 -10q11 0 21 0.5t17 4.5l-7 -19q-28 9 -48.5 33.5
t-20.5 56.5q0 40 29 63.5t72 23.5q11 0 24 -1.5t23 -5.5l-8 -56q-9 2 -17.5 4t-18.5 2q-21 0 -31.5 -8.5t-10.5 -23.5q0 -18 11.5 -31.5t27 -20.5t26.5 -8l-32 -4q25 6 42.5 13.5t34.5 14.5l19 -54q-7 -4 -25 -11t-40.5 -14.5t-43.5 -12.5t-36 -5q-22 0 -39 10t-28 10
q-9 0 -16.5 -7t-12.5 -15z" />
    <glyph glyph-name="uni0675.fina" unicode="&#x675;" horiz-adv-x="496" 
d="M497 -5h-223q-67 0 -108 19t-60 59t-21 102l-22 563h132l20 -494q2 -50 9.5 -76.5t22 -35.5t36.5 -9h224q31 0 46 -17.5t15 -43.5q0 -31 -18 -49t-53 -18zM291 582l-15 64q35 5 52 9t37 9l-12 -26q-27 8 -50 34t-23 60q0 35 15.5 56.5t40 31.5t50.5 10q15 0 28.5 -2.5
t24.5 -6.5l-9 -59q-9 2 -19.5 4t-21.5 2q-20 0 -31.5 -9.5t-11.5 -24.5q0 -19 12 -32.5t28.5 -21.5t27.5 -9l-42 -4q26 7 49.5 14t43.5 15l19 -61q-25 -9 -57 -19t-67 -18.5t-69 -15.5z" />
    <glyph glyph-name="uni0676.fina" unicode="&#x676;" horiz-adv-x="459" 
d="M52 -230l-29 121q62 10 110.5 24t82.5 37.5t51.5 60.5t17.5 93q1 76 -14.5 121t-44.5 45q-15 0 -26 -14t-17 -35.5t-6 -44.5q0 -19 5 -32t19.5 -20t43.5 -7.5t76 4.5h148q29 0 45.5 -17.5t16.5 -44.5q0 -32 -17.5 -49t-53.5 -17h-190q-71 0 -119.5 19.5t-73 55.5
t-24.5 85q0 42 13 85.5t37 80.5t57.5 59t74.5 22q56 0 95 -36.5t59.5 -101t20.5 -147.5q0 -111 -46.5 -183t-127 -111t-184.5 -53zM269 431l-14 58q32 5 48 9t33 8l-11 -24q-23 8 -44.5 31t-21.5 59q0 28 12.5 46.5t34 28.5t48.5 10q11 0 25 -2t24 -6l-7 -53q-9 2 -18.5 3.5
t-17.5 1.5q-21 0 -30.5 -8.5t-9.5 -22.5q0 -17 11 -30t26 -20t25 -8l-39 -4q24 7 45 13.5t40 13.5l17 -55q-23 -8 -52.5 -17.5t-61 -17.5t-62.5 -14z" />
    <glyph glyph-name="uni0677.fina" unicode="&#x677;" horiz-adv-x="481" 
d="M74 -230l-29 121q62 10 110.5 24t82.5 37.5t51.5 60.5t17.5 93q1 76 -14.5 121t-44.5 45q-15 0 -26 -14t-17 -35.5t-6 -44.5q0 -19 5 -32t19.5 -20t43.5 -7.5t76 4.5h148q29 0 45.5 -17.5t16.5 -44.5q0 -32 -17.5 -49t-53.5 -17h-190q-71 0 -119.5 19.5t-73 55.5
t-24.5 85q0 42 13 85.5t37 80.5t57.5 59t74.5 22q56 0 95 -36.5t59.5 -101t20.5 -147.5q0 -111 -46.5 -183t-127 -111t-184.5 -53zM303 429l-14 58q32 5 48 9t33 8l-11 -24q-23 8 -44.5 31t-21.5 59q0 28 12.5 46.5t34 28.5t48.5 10q11 0 25 -2t24 -6l-7 -53q-9 2 -18.5 3.5
t-17.5 1.5q-21 0 -30.5 -8.5t-9.5 -22.5q0 -17 11 -30t26 -20t25 -8l-39 -4q24 7 45 13.5t40 13.5l17 -55q-23 -8 -52.5 -17.5t-61 -17.5t-62.5 -14zM33 419l-10 54q57 2 97 16.5t61 36t21 42.5q0 14 -7.5 24.5t-22.5 10.5q-13 0 -21.5 -9t-8.5 -23q0 -18 14.5 -31.5
t33.5 -21.5l-39 -34q-28 12 -48 34t-20 56q0 38 26 62t64 24q43 0 65 -27.5t22 -63.5q0 -41 -27 -73.5t-78 -52t-122 -24.5z" />
    <glyph glyph-name="uni0678.init" unicode="&#x678;" horiz-adv-x="350" 
d="M0 -5l10 128q21 0 37 7.5t25.5 26t9.5 50.5q0 31 -7 71.5t-18.5 83t-23.5 78.5l123 36q13 -34 25 -79.5t20 -95t8 -97.5q0 -52 -13.5 -88t-35.5 -60t-49.5 -37t-56 -18.5t-54.5 -5.5zM157 582l-15 64q35 5 52 9t37 9l-12 -26q-27 8 -50 34t-23 60q0 35 15.5 56.5t40 31.5
t50.5 10q15 0 28.5 -2.5t24.5 -6.5l-9 -59q-9 2 -19.5 4t-21.5 2q-20 0 -31.5 -9.5t-11.5 -24.5q0 -19 12 -32.5t28.5 -21.5t27.5 -9l-42 -4q26 7 49.5 14t43.5 15l19 -61q-25 -9 -57 -19t-67 -18.5t-69 -15.5z" />
    <glyph glyph-name="uni0678.medi" unicode="&#x678;" horiz-adv-x="302" 
d="M0 -5l10 128q21 0 36.5 7t27 29t21 65.5t19.5 116.5l125 -20q-2 -16 -5.5 -36t-6 -40t-2.5 -39q0 -26 9 -45t28 -28.5t48 -9.5q31 0 46 -18t15 -44q0 -30 -17.5 -48t-52.5 -18q-48 0 -81.5 15.5t-53.5 47t-25 79.5h47q-16 -50 -40.5 -79t-51.5 -42.5t-52.5 -17
t-43.5 -3.5zM133 413l-15 64q35 5 52 9t37 9l-12 -26q-27 8 -50 34t-23 60q0 35 15.5 56.5t40 31.5t50.5 10q15 0 28.5 -2.5t24.5 -6.5l-9 -59q-9 2 -19.5 4t-21.5 2q-20 0 -31.5 -9.5t-11.5 -24.5q0 -19 12 -32.5t28.5 -21.5t27.5 -9l-42 -4q26 7 49.5 14t43.5 15l19 -61
q-25 -9 -57 -19t-67 -18.5t-69 -15.5z" />
    <glyph glyph-name="uni0678.fina" unicode="&#x678;" horiz-adv-x="673" 
d="M32 12q0 22 4 55.5t16 77t35 94.5l117 -43q-14 -37 -22.5 -66.5t-12 -52.5t-3.5 -42q0 -33 10 -58t30 -42.5t49 -27t67 -9.5q51 -1 89 10t62.5 27.5t36.5 34.5t12 31q0 7 -6 14.5t-20.5 16t-39 18t-61.5 20.5l37 124q44 -17 81 -30t68 -22t56.5 -14t46.5 -5
q30 0 45.5 -18t15.5 -44q0 -30 -18 -48t-53 -18h-9.5t-10.5 0.5t-10 0.5q2 -7 3.5 -14t1.5 -15q0 -32 -20 -66.5t-60.5 -64t-101 -48t-142.5 -18.5q-91 0 -156.5 26.5t-101 80.5t-35.5 135zM429 233l-15 64q35 5 52 9t37 9l-12 -26q-27 8 -50 34t-23 60q0 35 15.5 56.5
t40 31.5t50.5 10q15 0 28.5 -2.5t24.5 -6.5l-9 -59q-9 2 -19.5 4t-21.5 2q-20 0 -31.5 -9.5t-11.5 -24.5q0 -19 12 -32.5t28.5 -21.5t27.5 -9l-42 -4q26 7 49.5 14t43.5 15l19 -61q-25 -9 -57 -19t-67 -18.5t-69 -15.5z" />
    <glyph glyph-name="uni067C.init" unicode="&#x67c;" horiz-adv-x="335" 
d="M0 -5l10 128q56 0 87 7t43.5 25t12.5 50q0 33 -7.5 73.5t-19 83t-23.5 78.5l123 36q13 -34 25 -79.5t20.5 -93.5t8.5 -93q0 -68 -21.5 -110.5t-59.5 -65t-89 -31t-110 -8.5zM168 -97q-35 0 -59 24.5t-24 58.5q0 35 24 59t59 24t58.5 -24t23.5 -59q0 -34 -23.5 -58.5
t-58.5 -24.5zM168 -43q13 0 22 8t9 21q0 14 -9 22t-22 8t-22 -8.5t-9 -21.5t9 -21t22 -8zM249 566q-28 0 -46.5 18.5t-18.5 44.5q0 27 18 46.5t47 19.5q26 0 44.5 -19.5t18.5 -46.5q0 -26 -18.5 -44.5t-44.5 -18.5zM86 566q-28 0 -46.5 18.5t-18.5 44.5q0 27 18 46.5
t47 19.5q26 0 44.5 -19.5t18.5 -46.5q0 -26 -18.5 -44.5t-44.5 -18.5z" />
    <glyph glyph-name="uni067C.medi" unicode="&#x67c;" horiz-adv-x="299" 
d="M95 -102q-35 0 -59 24.5t-24 58.5q0 35 24 59t59 24t58.5 -24t23.5 -59q0 -34 -23.5 -58.5t-58.5 -24.5zM95 -48q13 0 22 8t9 21q0 14 -9 22t-22 8t-22 -8.5t-9 -21.5t9 -21t22 -8zM0 -5l10 128q21 0 36.5 7t27 29t21 65.5t19.5 116.5l125 -20q-2 -16 -5.5 -36t-6 -40
t-2.5 -39q0 -26 9 -45t28 -28.5t48 -9.5q31 0 46 -18t15 -43q0 -31 -17.5 -49t-52.5 -18q-48 0 -81.5 15.5t-53.5 47t-25 79.5h47q-16 -50 -40.5 -79t-51.5 -42.5t-52.5 -17t-43.5 -3.5zM265 443q-28 0 -46.5 18.5t-18.5 44.5q0 27 18 46.5t47 19.5q26 0 44.5 -19.5
t18.5 -46.5q0 -26 -18.5 -44.5t-44.5 -18.5zM102 443q-28 0 -46.5 18.5t-18.5 44.5q0 27 18 46.5t47 19.5q26 0 44.5 -19.5t18.5 -46.5q0 -26 -18.5 -44.5t-44.5 -18.5z" />
    <glyph glyph-name="uni067C.fina" unicode="&#x67c;" horiz-adv-x="930" 
d="M483 -128q-35 0 -59 24.5t-24 58.5q0 35 24 59t59 24t58.5 -24t23.5 -59q0 -34 -23.5 -58.5t-58.5 -24.5zM483 -74q13 0 22 8t9 21q0 14 -9 22t-22 8t-22 -8.5t-9 -21.5t9 -21t22 -8zM370 -21l27 128q53 0 102.5 9.5t95.5 30.5t88 56.5t81 86.5l100 -53
q-6 -16 -9.5 -30.5t-3.5 -25.5q0 -17 10.5 -30t30.5 -20.5t48 -7.5q32 0 47 -18t15 -43q0 -31 -18 -49t-53 -18q-49 0 -93 17t-68 51t-14 84h34q-25 -41 -66 -72.5t-95 -52.5t-119.5 -32t-139.5 -11zM372 -21q-87 0 -148.5 15.5t-100.5 45t-57 71t-18 93.5q0 28 6 62
t15.5 66.5t17.5 57.5l112 -30q-5 -19 -11 -40t-9.5 -43t-3.5 -44q0 -35 16.5 -64t64.5 -45.5t141 -16.5l20 -97zM548 443q-28 0 -46.5 18.5t-18.5 44.5q0 27 18.5 46.5t46.5 19.5q26 0 44.5 -19.5t18.5 -45.5q0 -27 -18.5 -45.5t-44.5 -18.5zM385 443q-28 0 -46.5 18.5
t-18.5 44.5q0 27 18.5 46.5t46.5 19.5q26 0 44.5 -19.5t18.5 -45.5q0 -27 -18.5 -45.5t-44.5 -18.5z" />
    <glyph glyph-name="uni067D.init" unicode="&#x67d;" horiz-adv-x="335" 
d="M0 -5l10 128q56 0 87 7t43.5 25t12.5 50q0 33 -7.5 73.5t-19 83t-23.5 78.5l123 36q13 -34 25 -79.5t20.5 -93.5t8.5 -93q0 -68 -21.5 -110.5t-59.5 -65t-89 -31t-110 -8.5zM163 564q-25 0 -43 17.5t-18 42.5t18 43.5t43 18.5t42.5 -18.5t17.5 -43.5t-17.5 -42.5
t-42.5 -17.5zM83 706q-25 0 -43 17.5t-18 42.5t18 43.5t43 18.5t42.5 -18.5t17.5 -43.5t-17.5 -42.5t-42.5 -17.5zM246 706q-25 0 -43 17.5t-18 42.5t18 43.5t43 18.5t42.5 -18.5t17.5 -43.5t-17.5 -42.5t-42.5 -17.5z" />
    <glyph glyph-name="uni067D.medi" unicode="&#x67d;" horiz-adv-x="371" 
d="M0 -5l10 128q33 0 54.5 7t35 29t23.5 66t20 117l125 -21q-2 -16 -5.5 -35.5t-6 -40t-2.5 -39.5q0 -20 6 -35.5t20 -26t39 -16t63 -5.5q31 0 46 -18t15 -43q0 -31 -18 -49t-53 -18q-52 0 -88.5 8.5t-59.5 26t-35.5 44.5t-15.5 64l44 -1q-17 -48 -41.5 -76.5t-53.5 -42.5
t-60 -18.5t-62 -4.5zM191 459q-25 0 -43 17.5t-18 42.5t18 43.5t43 18.5t42.5 -18.5t17.5 -42.5q0 -26 -17.5 -43.5t-42.5 -17.5zM111 601q-25 0 -43 17.5t-18 42.5t18 43.5t43 18.5t42.5 -18.5t17.5 -42.5q0 -26 -17.5 -43.5t-42.5 -17.5zM274 601q-25 0 -43 17.5t-18 42.5
t18 43.5t43 18.5t42.5 -18.5t17.5 -42.5q0 -26 -17.5 -43.5t-42.5 -17.5z" />
    <glyph glyph-name="uni067D.fina" unicode="&#x67d;" horiz-adv-x="930" 
d="M370 -21l27 128q53 0 102.5 9.5t95.5 30.5t88 56.5t81 86.5l100 -53q-6 -16 -9.5 -30.5t-3.5 -25.5q0 -17 10.5 -30t30.5 -20.5t48 -7.5q32 0 47 -18t15 -44q0 -30 -18 -48t-53 -18q-49 0 -93 17t-68 51t-14 84h34q-25 -41 -66 -72.5t-95 -52.5t-119.5 -32t-139.5 -11z
M372 -21q-87 0 -148.5 15.5t-100.5 45t-57 71t-18 93.5q0 28 6 62t15.5 66.5t17.5 57.5l112 -30q-5 -19 -11 -40t-9.5 -43t-3.5 -44q0 -35 16.5 -64t64.5 -45.5t141 -16.5l20 -97zM462 441q-25 0 -43 17.5t-18 42.5t18 43.5t43 18.5t42.5 -18.5t17.5 -43.5t-17.5 -42.5
t-42.5 -17.5zM382 583q-25 0 -43 17.5t-18 42.5t18 43.5t43 18.5t42.5 -18.5t17.5 -43.5t-17.5 -42.5t-42.5 -17.5zM545 583q-25 0 -43 17.5t-18 42.5t18 43.5t43 18.5t42.5 -18.5t17.5 -43.5t-17.5 -42.5t-42.5 -17.5z" />
    <glyph glyph-name="uni0681.init" unicode="&#x681;" horiz-adv-x="537" 
d="M0 -5l9 128q42 0 84.5 7.5t85.5 22t85.5 36.5t84.5 51q-34 20 -66 32.5t-61.5 19t-59.5 6.5q-16 0 -30 -1t-28 -3t-30 -6l-24 130q26 8 51.5 11.5t53.5 3.5q54 0 96 -12t75 -29.5t60 -35t51 -29.5t48 -12h22l15 -117q-29 -3 -57.5 -19t-59.5 -39t-69 -48t-85.5 -47
t-109 -36t-141.5 -14zM102 507l-14 58q32 5 48 9t33 8l-11 -24q-23 8 -44.5 31t-21.5 59q0 28 12.5 46.5t34 28.5t48.5 10q11 0 25 -2t24 -6l-7 -53q-9 2 -18.5 3.5t-17.5 1.5q-21 0 -30.5 -8.5t-9.5 -22.5q0 -17 11 -30t26 -20t25 -8l-39 -4q24 7 45 13.5t40 13.5l17 -55
q-23 -8 -52.5 -17.5t-61 -17.5t-62.5 -14z" />
    <glyph glyph-name="uni0681.medi" unicode="&#x681;" horiz-adv-x="532" 
d="M533 -5q-27 0 -53.5 7.5t-50.5 25t-44 48.5t-33 77l76 55q13 -35 31 -53.5t39.5 -25t44.5 -6.5q31 0 46 -18t15 -44q0 -30 -18 -48t-53 -18zM0 -5l9 128q42 0 84.5 7.5t85.5 22t85.5 36.5t84.5 51q-34 20 -66 32.5t-61.5 19t-59.5 6.5q-16 0 -30 -1t-28 -3t-30 -6
l-24 130q26 8 51.5 11.5t53.5 3.5q54 0 96 -12t75 -29.5t60 -35t51 -29.5t48 -12h22l15 -117q-29 -3 -57.5 -19t-59.5 -39t-69 -48t-85.5 -47t-109 -36t-141.5 -14zM118 507l-14 58q32 5 48 9t33 8l-11 -24q-23 8 -44.5 31t-21.5 59q0 28 12.5 46.5t34 28.5t48.5 10
q11 0 25 -2t24 -6l-7 -53q-9 2 -18.5 3.5t-17.5 1.5q-21 0 -30.5 -8.5t-9.5 -22.5q0 -17 11 -30t26 -20t25 -8l-39 -4q24 7 45 13.5t40 13.5l17 -55q-23 -8 -52.5 -17.5t-61 -17.5t-62.5 -14z" />
    <glyph glyph-name="uni0681.fina" unicode="&#x681;" horiz-adv-x="577" 
d="M578 -5q-37 0 -73 9.5t-66.5 35t-52.5 72.5t-30 122l95 42q7 -49 20.5 -79.5t32 -46.5t40 -21.5t44.5 -5.5q30 0 45.5 -18t15.5 -44q0 -30 -18 -48t-53 -18zM344 -388q-63 0 -121.5 17.5t-104.5 54t-73 91.5t-27 130q0 64 21 121.5t57 106t83.5 88t101 69.5t107.5 49
l10 -38q-24 8 -52.5 19t-59.5 21t-63 16.5t-63 6.5q-22 0 -48 -4t-49 -10l-20 130q28 8 56 13.5t54 5.5q43 0 82 -10.5t75 -25.5t69 -30.5t62.5 -26t56.5 -10.5h17l14 -142q-43 -4 -87 -16.5t-86 -32.5t-79 -47t-64.5 -61t-43.5 -75.5t-16 -89.5q0 -49 17.5 -84.5t46.5 -58
t65 -33t72 -10.5q41 0 79.5 9t80.5 27l40 -117q-61 -31 -114 -42t-96 -11zM180 562l-14 58q32 5 48 9t33 8l-11 -24q-23 8 -44.5 31t-21.5 59q0 28 12.5 46.5t34 28.5t48.5 10q11 0 25 -2t24 -6l-7 -53q-9 2 -18.5 3.5t-17.5 1.5q-21 0 -30.5 -8.5t-9.5 -22.5q0 -17 11 -30
t26 -20t25 -8l-39 -4q24 7 45 13.5t40 13.5l17 -55q-23 -8 -52.5 -17.5t-61 -17.5t-62.5 -14z" />
    <glyph glyph-name="uni0682.init" unicode="&#x682;" horiz-adv-x="537" 
d="M0 -5l9 128q42 0 84.5 7.5t85.5 22t85.5 36.5t84.5 51q-34 20 -66 32.5t-61.5 19t-59.5 6.5q-16 0 -30 -1t-28 -3t-30 -6l-24 130q26 8 51.5 11.5t53.5 3.5q54 0 96 -12t75 -29.5t60 -35t51 -29.5t48 -12h22l15 -117q-29 -3 -57.5 -19t-59.5 -39t-69 -48t-85.5 -47
t-109 -36t-141.5 -14zM141 532q-26 0 -43.5 17t-17.5 42q0 26 17 44t43 18t43 -18t17 -43q0 -26 -17.5 -43t-41.5 -17zM141 688q-26 0 -43.5 17t-17.5 42q0 26 17 44t43 18t43 -18t17 -43q0 -26 -17.5 -43t-41.5 -17z" />
    <glyph glyph-name="uni0682.medi" unicode="&#x682;" horiz-adv-x="532" 
d="M533 -5q-27 0 -53.5 7.5t-50.5 25t-44 48.5t-33 77l76 55q13 -35 31 -53.5t39.5 -25t44.5 -6.5q31 0 46 -18t15 -44q0 -30 -18 -48t-53 -18zM0 -5l9 128q42 0 84.5 7.5t85.5 22t85.5 36.5t84.5 51q-34 20 -66 32.5t-61.5 19t-59.5 6.5q-16 0 -30 -1t-28 -3t-30 -6
l-24 130q26 8 51.5 11.5t53.5 3.5q54 0 96 -12t75 -29.5t60 -35t51 -29.5t48 -12h22l15 -117q-29 -3 -57.5 -19t-59.5 -39t-69 -48t-85.5 -47t-109 -36t-141.5 -14zM168 532q-26 0 -43.5 17t-17.5 42q0 26 17 44t43 18t43 -18t17 -43q0 -26 -17.5 -43t-41.5 -17zM168 688
q-26 0 -43.5 17t-17.5 42q0 26 17 44t43 18t43 -18t17 -43q0 -26 -17.5 -43t-41.5 -17z" />
    <glyph glyph-name="uni0682.fina" unicode="&#x682;" horiz-adv-x="577" 
d="M578 -5q-37 0 -73 9.5t-66.5 35t-52.5 72.5t-30 122l95 42q7 -49 20.5 -79.5t32 -46.5t40 -21.5t44.5 -5.5q30 0 45.5 -18t15.5 -44q0 -30 -18 -48t-53 -18zM344 -388q-63 0 -121.5 17.5t-104.5 54t-73 91.5t-27 130q0 64 21 121.5t57 106t83.5 88t101 69.5t107.5 49
l10 -38q-24 8 -52.5 19t-59.5 21t-63 16.5t-63 6.5q-22 0 -48 -4t-49 -10l-20 130q28 8 56 13.5t54 5.5q43 0 82 -10.5t75 -25.5t69 -30.5t62.5 -26t56.5 -10.5h17l14 -142q-43 -4 -87 -16.5t-86 -32.5t-79 -47t-64.5 -61t-43.5 -75.5t-16 -89.5q0 -49 17.5 -84.5t46.5 -58
t65 -33t72 -10.5q41 0 79.5 9t80.5 27l40 -117q-61 -31 -114 -42t-96 -11zM313 593q-26 0 -43.5 17t-17.5 42q0 26 17 44t43 18t43 -18t17 -43q0 -26 -17.5 -43t-41.5 -17zM313 749q-26 0 -43.5 17t-17.5 42q0 26 17 44t43 18t43 -18t17 -43q0 -26 -17.5 -43t-41.5 -17z" />
    <glyph glyph-name="uni0685.init" unicode="&#x685;" horiz-adv-x="537" 
d="M0 -5l9 128q42 0 84.5 7.5t85.5 22t85.5 36.5t84.5 51q-34 20 -66 32.5t-61.5 19t-59.5 6.5q-16 0 -30 -1t-28 -3t-30 -6l-24 130q26 8 51.5 11.5t53.5 3.5q54 0 96 -12t75 -29.5t60 -35t51 -29.5t48 -12h22l15 -117q-29 -3 -57.5 -19t-59.5 -39t-69 -48t-85.5 -47
t-109 -36t-141.5 -14zM140 675q-28 0 -46.5 18.5t-18.5 45.5t18.5 46t46.5 19q26 0 44.5 -19t18.5 -45q0 -28 -18.5 -46.5t-44.5 -18.5zM62 531q-27 0 -46 18.5t-19 44.5q0 27 19 46.5t46 19.5q26 0 45 -19.5t19 -45.5q0 -27 -19 -45.5t-45 -18.5zM228 531q-28 0 -46.5 18.5
t-18.5 44.5q0 28 18.5 47t46.5 19q26 0 44.5 -19t18.5 -46t-18.5 -45.5t-44.5 -18.5z" />
    <glyph glyph-name="uni0685.medi" unicode="&#x685;" horiz-adv-x="532" 
d="M533 -5q-27 0 -53.5 7.5t-50.5 25t-44 48.5t-33 77l76 55q13 -35 31 -53.5t39.5 -25t44.5 -6.5q31 0 46 -18t15 -44q0 -30 -18 -48t-53 -18zM0 -5l9 128q42 0 84.5 7.5t85.5 22t85.5 36.5t84.5 51q-34 20 -66 32.5t-61.5 19t-59.5 6.5q-16 0 -30 -1t-28 -3t-30 -6
l-24 130q26 8 51.5 11.5t53.5 3.5q54 0 96 -12t75 -29.5t60 -35t51 -29.5t48 -12h22l15 -117q-29 -3 -57.5 -19t-59.5 -39t-69 -48t-85.5 -47t-109 -36t-141.5 -14zM167 675q-28 0 -46.5 18.5t-18.5 45.5t18.5 46t46.5 19q26 0 44.5 -19t18.5 -45q0 -28 -18.5 -46.5
t-44.5 -18.5zM89 531q-27 0 -46 18.5t-19 44.5q0 27 19 46.5t46 19.5q26 0 45 -19.5t19 -45.5q0 -27 -19 -45.5t-45 -18.5zM255 531q-28 0 -46.5 18.5t-18.5 44.5q0 28 18.5 47t46.5 19q26 0 44.5 -19t18.5 -46t-18.5 -45.5t-44.5 -18.5z" />
    <glyph glyph-name="uni0685.fina" unicode="&#x685;" horiz-adv-x="577" 
d="M578 -5q-37 0 -73 9.5t-66.5 35t-52.5 72.5t-30 122l95 42q7 -49 20.5 -79.5t32 -46.5t40 -21.5t44.5 -5.5q30 0 45.5 -18t15.5 -44q0 -30 -18 -48t-53 -18zM344 -388q-63 0 -121.5 17.5t-104.5 54t-73 91.5t-27 130q0 64 21 121.5t57 106t83.5 88t101 69.5t107.5 49
l10 -38q-24 8 -52.5 19t-59.5 21t-63 16.5t-63 6.5q-22 0 -48 -4t-49 -10l-20 130q28 8 56 13.5t54 5.5q43 0 82 -10.5t75 -25.5t69 -30.5t62.5 -26t56.5 -10.5h17l14 -142q-43 -4 -87 -16.5t-86 -32.5t-79 -47t-64.5 -61t-43.5 -75.5t-16 -89.5q0 -49 17.5 -84.5t46.5 -58
t65 -33t72 -10.5q41 0 79.5 9t80.5 27l40 -117q-61 -31 -114 -42t-96 -11zM293 744q-28 0 -46.5 18.5t-18.5 45.5t18.5 46t46.5 19q26 0 44.5 -19t18.5 -45q0 -28 -18.5 -46.5t-44.5 -18.5zM215 600q-27 0 -46 18.5t-19 44.5q0 27 19 46.5t46 19.5q26 0 45 -19.5t19 -45.5
q0 -27 -19 -45.5t-45 -18.5zM381 600q-28 0 -46.5 18.5t-18.5 44.5q0 28 18.5 47t46.5 19q26 0 44.5 -19t18.5 -46t-18.5 -45.5t-44.5 -18.5z" />
    <glyph glyph-name="uni0689.fina" unicode="&#x689;" horiz-adv-x="485" 
d="M189 -119q-35 0 -59 24.5t-24 58.5q0 35 24 59t59 24t58.5 -24t23.5 -59q0 -34 -23.5 -58.5t-58.5 -24.5zM189 -65q13 0 22 8t9 21q0 14 -9 22t-22 8t-22 -8.5t-9 -21.5t9 -21t22 -8zM181 126q23 0 40.5 6t27.5 20t10 38q0 22 -7.5 48.5t-21.5 59t-35.5 72.5t-50.5 89
l126 70q35 -54 60.5 -107.5t42.5 -98.5t26 -74q14 -45 29.5 -73t32.5 -40.5t35 -12.5q31 0 46 -18t15 -44q0 -30 -18 -48t-53 -18q-31 0 -66 11.5t-63.5 37t-40.5 65.5l41 -6q-8 -31 -27.5 -55.5t-52.5 -39t-85 -14.5q-25 0 -55.5 3t-57.5 9.5t-44 14.5l22 123
q28 -8 63.5 -13t60.5 -5z" />
    <glyph glyph-name="uni068A.fina" unicode="&#x68a;" horiz-adv-x="485" 
d="M181 126q23 0 40.5 6t27.5 20t10 38q0 22 -7.5 48.5t-21.5 59t-35.5 72.5t-50.5 89l126 70q35 -54 60.5 -107.5t42.5 -98.5t26 -74q14 -45 29.5 -73t32.5 -40.5t35 -12.5q31 0 46 -18t15 -44q0 -30 -18 -48t-53 -18q-31 0 -66 11.5t-63.5 37t-40.5 65.5l41 -6
q-8 -31 -27.5 -55.5t-52.5 -39t-85 -14.5q-25 0 -55.5 3t-57.5 9.5t-44 14.5l22 123q28 -8 63.5 -13t60.5 -5zM157 -226q-28 0 -46.5 18.5t-18.5 44.5q0 27 18 46.5t47 19.5q26 0 44.5 -19.5t18.5 -46.5q0 -26 -19 -44.5t-44 -18.5z" />
    <glyph glyph-name="uni068B.fina" unicode="&#x68b;" horiz-adv-x="485" 
d="M181 126q23 0 40.5 6t27.5 20t10 38q0 22 -7.5 48.5t-21.5 59t-35.5 72.5t-50.5 89l126 70q35 -54 60.5 -107.5t42.5 -98.5t26 -74q14 -45 29.5 -73t32.5 -40.5t35 -12.5q31 0 46 -18t15 -44q0 -30 -18 -48t-53 -18q-31 0 -66 11.5t-63.5 37t-40.5 65.5l41 -6
q-8 -31 -27.5 -55.5t-52.5 -39t-85 -14.5q-25 0 -55.5 3t-57.5 9.5t-44 14.5l22 123q28 -8 63.5 -13t60.5 -5zM214 621q-17 0 -39.5 1.5t-42 3t-29.5 2.5l3 56q19 -2 48 -4.5t54 -2.5q37 0 57 6t28 15t8 19q0 11 -8 18.5t-21 7.5q-16 0 -33 -12t-30.5 -29t-21.5 -31l-55 9
q16 35 40.5 62t52.5 43t55 16q36 0 57.5 -23t21.5 -58q0 -21 -11.5 -44t-42.5 -39t-91 -16zM149 689l-6 176h56l7 -156zM157 -226q-28 0 -46.5 18.5t-18.5 44.5q0 27 18 46.5t47 19.5q26 0 44.5 -19.5t18.5 -46.5q0 -26 -19 -44.5t-44 -18.5z" />
    <glyph glyph-name="uni068F.fina" unicode="&#x68f;" horiz-adv-x="485" 
d="M181 126q23 0 40.5 6t27.5 20t10 38q0 22 -7.5 48.5t-21.5 59t-35.5 72.5t-50.5 89l126 70q35 -54 60.5 -107.5t42.5 -98.5t26 -74q14 -45 29.5 -73t32.5 -40.5t35 -12.5q31 0 46 -18t15 -44q0 -30 -18 -48t-53 -18q-31 0 -66 11.5t-63.5 37t-40.5 65.5l41 -6
q-8 -31 -27.5 -55.5t-52.5 -39t-85 -14.5q-25 0 -55.5 3t-57.5 9.5t-44 14.5l22 123q28 -8 63.5 -13t60.5 -5zM232 640q-25 0 -43 17.5t-18 42.5t18 43.5t43 18.5t42.5 -18.5t17.5 -43.5t-17.5 -42.5t-42.5 -17.5zM152 782q-25 0 -43 17.5t-18 42.5t18 43.5t43 18.5
t42.5 -18.5t17.5 -43.5t-17.5 -42.5t-42.5 -17.5zM315 782q-25 0 -43 17.5t-18 42.5t18 43.5t43 18.5t42.5 -18.5t17.5 -43.5t-17.5 -42.5t-42.5 -17.5z" />
    <glyph glyph-name="uni0690.fina" unicode="&#x690;" horiz-adv-x="485" 
d="M181 126q23 0 40.5 6t27.5 20t10 38q0 22 -7.5 48.5t-21.5 59t-35.5 72.5t-50.5 89l126 70q35 -54 60.5 -107.5t42.5 -98.5t26 -74q14 -45 29.5 -73t32.5 -40.5t35 -12.5q31 0 46 -18t15 -44q0 -30 -18 -48t-53 -18q-31 0 -66 11.5t-63.5 37t-40.5 65.5l41 -6
q-8 -31 -27.5 -55.5t-52.5 -39t-85 -14.5q-25 0 -55.5 3t-57.5 9.5t-44 14.5l22 123q28 -8 63.5 -13t60.5 -5zM111 737q-24 0 -40 16t-16 38q0 23 16 39.5t40 16.5q23 0 38.5 -16.5t15.5 -38.5q0 -23 -15.5 -39t-38.5 -16zM111 599q-24 0 -40 16t-16 38q0 23 16 39.5
t40 16.5q23 0 38.5 -16.5t15.5 -38.5q0 -23 -15.5 -39t-38.5 -16zM249 739q-24 0 -40 16t-16 38q0 23 16 39.5t40 16.5q23 0 38.5 -16.5t15.5 -38.5q0 -23 -15.5 -39t-38.5 -16zM249 599q-24 0 -40 16t-16 38q0 23 16 39.5t40 16.5q23 0 38.5 -16.5t15.5 -38.5
q0 -23 -15.5 -39t-38.5 -16z" />
    <glyph glyph-name="uni0692.fina" unicode="&#x692;" horiz-adv-x="348" 
d="M36 -230l-77 125q45 25 77 51t53 54t30.5 58.5t9.5 64.5q0 45 -18 93.5t-47 103.5l125 63q15 -30 27.5 -60t22.5 -58t16 -51q14 -52 40.5 -71.5t63.5 -19.5q30 0 45.5 -18t15.5 -44q0 -30 -18 -48t-53 -18q-32 0 -58.5 13t-44 36t-24.5 52l41 35q0 -54 -12 -104
t-39 -95.5t-70 -86t-106 -75.5zM70 498q-7 14 -16.5 39t-20 54t-20 54.5t-16.5 40.5l52 21q4 -9 12 -30.5t18 -47t19.5 -49t16.5 -37.5l20 -40zM134 503l-46 20q5 15 14.5 43t19 58.5t17 54.5t9.5 31l52 -15l-11.5 -34.5t-19.5 -56.5t-20.5 -59t-14.5 -42z" />
    <glyph glyph-name="uni0693.fina" unicode="&#x693;" horiz-adv-x="348" 
d="M194 -217q-35 0 -59 24.5t-24 58.5q0 35 24 59t59 24t58.5 -24t23.5 -59q0 -34 -23.5 -58.5t-58.5 -24.5zM194 -163q13 0 22 8t9 21q0 14 -9 22t-22 8t-22 -8.5t-9 -21.5t9 -21t22 -8zM36 -230l-77 125q45 25 77 51t53 54t30.5 58.5t9.5 64.5q0 45 -18 93.5t-47 103.5
l125 63q15 -30 27.5 -60t22.5 -58t16 -51q14 -52 40.5 -71.5t63.5 -19.5q30 0 45.5 -18t15.5 -44q0 -30 -18 -48t-53 -18q-32 0 -58.5 13t-44 36t-24.5 52l41 35q0 -54 -12 -104t-39 -95.5t-70 -86t-106 -75.5z" />
    <glyph glyph-name="uni0694.fina" unicode="&#x694;" horiz-adv-x="348" 
d="M36 -230l-77 125q45 25 77 51t53 54t30.5 58.5t9.5 64.5q0 45 -18 93.5t-47 103.5l125 63q15 -30 27.5 -60t22.5 -58t16 -51q14 -52 40.5 -71.5t63.5 -19.5q30 0 45.5 -18t15.5 -44q0 -30 -18 -48t-53 -18q-32 0 -58.5 13t-44 36t-24.5 52l41 35q0 -54 -12 -104
t-39 -95.5t-70 -86t-106 -75.5zM177 -418q-28 0 -46.5 18.5t-18.5 44.5q0 27 18 46.5t47 19.5q26 0 44.5 -19.5t18.5 -46.5q0 -26 -19 -44.5t-44 -18.5z" />
    <glyph glyph-name="uni0695.fina" unicode="&#x695;" horiz-adv-x="348" 
d="M-9 -42q-7 15 -18.5 39.5t-23.5 50l-20 42.5l42 22q4 -8 10.5 -23.5t14.5 -33t15.5 -34t13.5 -27.5l14 -32zM39 -38l-41 16q5 13 12.5 33.5t15.5 42t14.5 38.5t9.5 22l41 -17q-3 -7 -9.5 -24.5t-15 -38.5t-16 -40.5t-11.5 -31.5zM36 -230l-77 125q45 25 77 51t53 54
t30.5 58.5t9.5 64.5q0 45 -18 93.5t-47 103.5l125 63q15 -30 27.5 -60t22.5 -58t16 -51q14 -52 40.5 -71.5t63.5 -19.5q30 0 45.5 -18t15.5 -44q0 -30 -18 -48t-53 -18q-32 0 -58.5 13t-44 36t-24.5 52l41 35q0 -54 -12 -104t-39 -95.5t-70 -86t-106 -75.5z" />
    <glyph glyph-name="uni0696.fina" unicode="&#x696;" horiz-adv-x="348" 
d="M36 -230l-77 125q45 25 77 51t53 54t30.5 58.5t9.5 64.5q0 45 -18 93.5t-47 103.5l125 63q15 -30 27.5 -60t22.5 -58t16 -51q14 -52 40.5 -71.5t63.5 -19.5q30 0 45.5 -18t15.5 -44q0 -30 -18 -48t-53 -18q-32 0 -58.5 13t-44 36t-24.5 52l41 35q0 -54 -12 -104
t-39 -95.5t-70 -86t-106 -75.5zM35 18q-28 0 -46.5 18.5t-18.5 44.5q0 27 18.5 46.5t46.5 19.5q26 0 44.5 -19.5t18.5 -45.5q0 -27 -18.5 -45.5t-44.5 -18.5zM146 -418q-28 0 -46.5 18.5t-18.5 44.5q0 27 18 46.5t47 19.5q26 0 44.5 -19.5t18.5 -46.5q0 -26 -19 -44.5
t-44 -18.5z" />
    <glyph glyph-name="uni0697.fina" unicode="&#x697;" horiz-adv-x="348" 
d="M36 -230l-77 125q45 25 77 51t53 54t30.5 58.5t9.5 64.5q0 45 -18 93.5t-47 103.5l125 63q15 -30 27.5 -60t22.5 -58t16 -51q14 -52 40.5 -71.5t63.5 -19.5q30 0 45.5 -18t15.5 -44q0 -30 -18 -48t-53 -18q-32 0 -58.5 13t-44 36t-24.5 52l41 35q0 -54 -12 -104
t-39 -95.5t-70 -86t-106 -75.5zM245 495q-28 0 -46.5 18.5t-18.5 44.5q0 27 18 46.5t47 19.5q26 0 44.5 -19.5t18.5 -45.5q0 -27 -19 -45.5t-44 -18.5zM82 495q-28 0 -46.5 18.5t-18.5 44.5q0 27 18 46.5t47 19.5q26 0 44.5 -19.5t18.5 -45.5q0 -27 -19 -45.5t-44 -18.5z
" />
    <glyph glyph-name="uni0699.fina" unicode="&#x699;" horiz-adv-x="348" 
d="M36 -230l-77 125q45 25 77 51t53 54t30.5 58.5t9.5 64.5q0 45 -18 93.5t-47 103.5l125 63q15 -30 27.5 -60t22.5 -58t16 -51q14 -52 40.5 -71.5t63.5 -19.5q30 0 45.5 -18t15.5 -44q0 -30 -18 -48t-53 -18q-32 0 -58.5 13t-44 36t-24.5 52l41 35q0 -54 -12 -104
t-39 -95.5t-70 -86t-106 -75.5zM33 632q-24 0 -40 16t-16 38q0 23 16 39.5t40 16.5q23 0 38.5 -16.5t15.5 -38.5q0 -23 -15.5 -39t-38.5 -16zM33 494q-24 0 -40 16t-16 38q0 23 16 39.5t40 16.5q23 0 38.5 -16.5t15.5 -38.5q0 -23 -15.5 -39t-38.5 -16zM171 634
q-24 0 -40 16t-16 38q0 23 16 39.5t40 16.5q23 0 38.5 -16.5t15.5 -38.5q0 -23 -15.5 -39t-38.5 -16zM171 494q-24 0 -40 16t-16 38q0 23 16 39.5t40 16.5q23 0 38.5 -16.5t15.5 -38.5q0 -23 -15.5 -39t-38.5 -16z" />
    <glyph glyph-name="uni069A.init" unicode="&#x69a;" horiz-adv-x="814" 
d="M0 -5l10 128q24 0 39.5 6.5t26.5 27t21 63t23 114.5l123 -23q-3 -19 -7 -40t-7 -42t-3 -42q0 -30 13.5 -47t47.5 -17q22 0 36 6.5t24 27.5t19 65t20 119l126 -20q-4 -21 -8.5 -47.5t-7.5 -50.5t-3 -40q0 -17 7 -31t22 -21.5t38 -7.5q25 0 41.5 8t25 25.5t8.5 45.5
q0 44 -16 104t-39 127l126 40q16 -44 29 -93t21 -95t8 -83q0 -50 -15.5 -88.5t-43.5 -65t-63.5 -40t-76.5 -13.5q-39 0 -68 12.5t-47.5 40.5t-25.5 76h31q-19 -57 -44 -84.5t-55 -36t-66 -8.5q-27 0 -57 8.5t-54.5 36t-36.5 84.5l54 2q-21 -57 -52 -85t-68 -37t-76 -9z
M394 -226q-28 0 -46.5 18.5t-18.5 44.5q0 27 18 46.5t47 19.5q26 0 44.5 -19.5t18.5 -46.5q0 -26 -19 -44.5t-44 -18.5zM437 493q-28 0 -46.5 18.5t-18.5 44.5q0 27 18.5 46.5t46.5 19.5q26 0 44.5 -19.5t18.5 -45.5q0 -27 -18.5 -45.5t-44.5 -18.5z" />
    <glyph glyph-name="uni069A.medi" unicode="&#x69a;" horiz-adv-x="849" 
d="M0 -5l10 128q22 0 37 6.5t26 27t21 63t23 114.5l124 -23q-4 -22 -10.5 -56t-6.5 -60q0 -23 5 -39t19 -24t41 -8q20 0 33.5 6t24 27.5t20 65t19.5 118.5l126 -20q-4 -24 -8.5 -50t-7.5 -49t-3 -39q0 -19 6.5 -32.5t22 -20.5t42.5 -7q34 0 51 20.5t17 70.5q0 23 -1 50.5
t-4 61.5t-9 76l125 10q7 -91 15.5 -148t20.5 -87.5t31.5 -42t48.5 -11.5q31 0 46.5 -18t15.5 -44q0 -30 -18 -48t-53 -18q-18 0 -40.5 5.5t-45.5 20t-42.5 40t-32.5 65.5l22 -5q-12 -45 -34 -72.5t-52 -40.5t-68 -13q-34 0 -64 12.5t-49 41t-19 75.5h29q-18 -55 -40.5 -82.5
t-52.5 -37t-72 -9.5q-28 0 -58.5 9.5t-55.5 37t-36 82.5l55 2q-25 -60 -53.5 -88t-62.5 -35.5t-78 -7.5zM386 -226q-28 0 -46.5 18.5t-18.5 44.5q0 27 18 46.5t47 19.5q26 0 44.5 -19.5t18.5 -46.5q0 -26 -19 -44.5t-44 -18.5zM434 493q-28 0 -46.5 18.5t-18.5 44.5
q0 27 18.5 46.5t46.5 19.5q26 0 44.5 -19.5t18.5 -45.5q0 -27 -18.5 -45.5t-44.5 -18.5z" />
    <glyph glyph-name="uni069A.fina" unicode="&#x69a;" horiz-adv-x="1177" 
d="M286 -232q-48 0 -93.5 15t-82 45t-57.5 76t-21 109q0 24 3.5 54t15.5 70.5t37 94.5l116 -45q-14 -36 -22.5 -63t-12 -50.5t-3.5 -49.5q0 -43 17.5 -71.5t47 -42.5t65.5 -14t62 10.5t42 30.5t23.5 49t7.5 66t-7 77t-19 85t-28 95l134 35q14 -58 23 -90t13 -49
q10 -33 20 -51t23 -24t32 -6q17 0 30 6t23.5 27t19.5 65t18 120l127 -21q-4 -25 -8.5 -51t-7.5 -49t-3 -39t6.5 -29.5t22.5 -21.5t42 -8q33 0 50.5 22.5t17.5 68.5q0 23 -1 50.5t-4 61.5t-8 76l127 10q8 -98 17 -156t21.5 -86.5t31 -37.5t44.5 -9q31 0 46 -18t15 -44
q0 -30 -17.5 -48t-52.5 -18q-26 0 -58.5 11t-61 39t-43.5 80l21 -5q-13 -48 -38 -75.5t-54 -38.5t-54 -11q-40 0 -71 14.5t-48.5 44t-19.5 72.5h31q-17 -54 -40 -82t-49.5 -38.5t-57.5 -10.5q-15 0 -33 5t-34.5 16t-28.5 30.5t-16 48.5l38 -52q-1 -65 -22 -116t-59 -86.5
t-87.5 -54t-107.5 -18.5zM767 -220q-28 0 -46.5 18.5t-18.5 44.5q0 27 18 46.5t47 19.5q26 0 44.5 -19.5t18.5 -46.5q0 -26 -19 -44.5t-44 -18.5zM716 493q-28 0 -46.5 18.5t-18.5 44.5q0 27 18.5 46.5t46.5 19.5q26 0 44.5 -19.5t18.5 -45.5q0 -27 -18.5 -45.5t-44.5 -18.5
z" />
    <glyph glyph-name="uni069B.init" unicode="&#x69b;" horiz-adv-x="814" 
d="M0 -5l10 128q24 0 39.5 6.5t26.5 27t21 63t23 114.5l123 -23q-3 -19 -7 -40t-7 -42t-3 -42q0 -30 13.5 -47t47.5 -17q22 0 36 6.5t24 27.5t19 65t20 119l126 -20q-4 -21 -8.5 -47.5t-7.5 -50.5t-3 -40q0 -17 7 -31t22 -21.5t38 -7.5q25 0 41.5 8t25 25.5t8.5 45.5
q0 44 -16 104t-39 127l126 40q16 -44 29 -93t21 -95t8 -83q0 -50 -15.5 -88.5t-43.5 -65t-63.5 -40t-76.5 -13.5q-39 0 -68 12.5t-47.5 40.5t-25.5 76h31q-19 -57 -44 -84.5t-55 -36t-66 -8.5q-27 0 -57 8.5t-54.5 36t-36.5 84.5l54 2q-21 -57 -52 -85t-68 -37t-76 -9z
M396 -361q-25 0 -43 17.5t-18 42.5t18 43.5t43 18.5t42.5 -18.5t17.5 -43.5t-17.5 -42.5t-42.5 -17.5zM316 -219q-25 0 -43 17.5t-18 42.5t18 43.5t43 18.5t42.5 -18.5t17.5 -43.5t-17.5 -42.5t-42.5 -17.5zM479 -219q-25 0 -43 17.5t-18 42.5t18 43.5t43 18.5t42.5 -18.5
t17.5 -43.5t-17.5 -42.5t-42.5 -17.5z" />
    <glyph glyph-name="uni069B.medi" unicode="&#x69b;" horiz-adv-x="849" 
d="M0 -5l10 128q22 0 37 6.5t26 27t21 63t23 114.5l124 -23q-4 -22 -10.5 -56t-6.5 -60q0 -23 5 -39t19 -24t41 -8q20 0 33.5 6t24 27.5t20 65t19.5 118.5l126 -20q-4 -24 -8.5 -50t-7.5 -49t-3 -39q0 -19 6.5 -32.5t22 -20.5t42.5 -7q34 0 51 20.5t17 70.5q0 23 -1 50.5
t-4 61.5t-9 76l125 10q7 -91 15.5 -148t20.5 -87.5t31.5 -42t48.5 -11.5q31 0 46.5 -18t15.5 -44q0 -30 -18 -48t-53 -18q-18 0 -40.5 5.5t-45.5 20t-42.5 40t-32.5 65.5l22 -5q-12 -45 -34 -72.5t-52 -40.5t-68 -13q-34 0 -64 12.5t-49 41t-19 75.5h29q-18 -55 -40.5 -82.5
t-52.5 -37t-72 -9.5q-28 0 -58.5 9.5t-55.5 37t-36 82.5l55 2q-25 -60 -53.5 -88t-62.5 -35.5t-78 -7.5zM388 -361q-25 0 -43 17.5t-18 42.5t18 43.5t43 18.5t42.5 -18.5t17.5 -43.5t-17.5 -42.5t-42.5 -17.5zM308 -219q-25 0 -43 17.5t-18 42.5t18 43.5t43 18.5t42.5 -18.5
t17.5 -43.5t-17.5 -42.5t-42.5 -17.5zM471 -219q-25 0 -43 17.5t-18 42.5t18 43.5t43 18.5t42.5 -18.5t17.5 -43.5t-17.5 -42.5t-42.5 -17.5z" />
    <glyph glyph-name="uni069B.fina" unicode="&#x69b;" horiz-adv-x="1177" 
d="M286 -232q-48 0 -93.5 15t-82 45t-57.5 76t-21 109q0 24 3.5 54t15.5 70.5t37 94.5l116 -45q-14 -36 -22.5 -63t-12 -50.5t-3.5 -49.5q0 -43 17.5 -71.5t47 -42.5t65.5 -14t62 10.5t42 30.5t23.5 49t7.5 66t-7 77t-19 85t-28 95l134 35q14 -58 23 -90t13 -49
q10 -33 20 -51t23 -24t32 -6q17 0 30 6t23.5 27t19.5 65t18 120l127 -21q-4 -25 -8.5 -51t-7.5 -49t-3 -39t6.5 -29.5t22.5 -21.5t42 -8q33 0 50.5 22.5t17.5 68.5q0 23 -1 50.5t-4 61.5t-8 76l127 10q8 -98 17 -156t21.5 -86.5t31 -37.5t44.5 -9q31 0 46 -18t15 -44
q0 -30 -17.5 -48t-52.5 -18q-26 0 -58.5 11t-61 39t-43.5 80l21 -5q-13 -48 -38 -75.5t-54 -38.5t-54 -11q-40 0 -71 14.5t-48.5 44t-19.5 72.5h31q-17 -54 -40 -82t-49.5 -38.5t-57.5 -10.5q-15 0 -33 5t-34.5 16t-28.5 30.5t-16 48.5l38 -52q-1 -65 -22 -116t-59 -86.5
t-87.5 -54t-107.5 -18.5zM769 -355q-25 0 -43 17.5t-18 42.5t18 43.5t43 18.5t42.5 -18.5t17.5 -43.5t-17.5 -42.5t-42.5 -17.5zM689 -213q-25 0 -43 17.5t-18 42.5t18 43.5t43 18.5t42.5 -18.5t17.5 -43.5t-17.5 -42.5t-42.5 -17.5zM852 -213q-25 0 -43 17.5t-18 42.5
t18 43.5t43 18.5t42.5 -18.5t17.5 -43.5t-17.5 -42.5t-42.5 -17.5z" />
    <glyph glyph-name="uni069D.init" unicode="&#x69d;" horiz-adv-x="847" 
d="M457 -16q-78 0 -131.5 8t-89 22.5t-57.5 35.5t-36 47l29 7q-23 -45 -52.5 -68.5t-60 -32t-59.5 -8.5l10 128q24 0 37.5 10t22.5 33.5t18.5 64.5t25.5 102l123 -32q-7 -26 -11.5 -46.5t-7 -35t-2.5 -24.5q0 -21 8 -36.5t31.5 -25.5t68 -15t116.5 -5q69 0 115.5 8
t73.5 22.5t39 35.5t12 46q0 20 -8.5 36t-23.5 26t-37 10q-29 0 -58 -16.5t-57.5 -45t-55 -63t-50.5 -70.5l-131 17q38 65 81 121.5t89.5 99.5t95.5 67.5t99 24.5q56 0 98 -25.5t66 -70.5t24 -104q0 -74 -39 -130t-118 -87t-198 -31zM536 -234q-28 0 -46.5 18.5t-18.5 44.5
q0 27 18 46.5t47 19.5q26 0 44.5 -19.5t18.5 -45.5q0 -27 -19 -45.5t-44 -18.5zM373 -234q-28 0 -46.5 18.5t-18.5 44.5q0 27 18 46.5t47 19.5q26 0 44.5 -19.5t18.5 -45.5q0 -27 -19 -45.5t-44 -18.5z" />
    <glyph glyph-name="uni069D.medi" unicode="&#x69d;" horiz-adv-x="875" 
d="M876 -5q-34 0 -69 10.5t-64.5 27.5t-49.5 35l82 85q25 -16 54.5 -23t55.5 -7q31 0 46.5 -18t15.5 -44q0 -30 -18.5 -48t-52.5 -18zM457 -16q-78 0 -131.5 8t-89 22.5t-57.5 35.5t-36 47l29 7q-23 -45 -52.5 -68.5t-60 -32t-59.5 -8.5l10 128q24 0 37.5 10t22.5 33.5
t18.5 64.5t25.5 102l123 -32q-7 -26 -11.5 -46.5t-7 -35t-2.5 -24.5q0 -21 8 -36.5t31.5 -25.5t68 -15t116.5 -5q69 0 115.5 8t73.5 22.5t39 35.5t12 46q0 20 -8.5 36t-23.5 26t-37 10q-29 0 -58 -16.5t-57.5 -45t-55 -63t-50.5 -70.5l-131 17q38 65 81 121.5t89.5 99.5
t95.5 67.5t99 24.5q56 0 98 -25.5t66 -70.5t24 -104q0 -74 -39 -130t-118 -87t-198 -31zM536 -234q-28 0 -46.5 18.5t-18.5 44.5q0 27 18 46.5t47 19.5q26 0 44.5 -19.5t18.5 -45.5q0 -27 -19 -45.5t-44 -18.5zM373 -234q-28 0 -46.5 18.5t-18.5 44.5q0 27 18 46.5t47 19.5
q26 0 44.5 -19.5t18.5 -45.5q0 -27 -19 -45.5t-44 -18.5z" />
    <glyph glyph-name="uni069D.fina" unicode="&#x69d;" horiz-adv-x="1226" 
d="M1227 -5q-34 0 -69 10.5t-64.5 27.5t-49.5 35l82 85q25 -16 54.5 -23t55.5 -7q31 0 46.5 -18t15.5 -44q0 -30 -18.5 -48t-52.5 -18zM283 -232q-48 0 -93 15t-80.5 45.5t-56.5 77.5t-21 110q0 24 4 53.5t16 69.5t36 94l116 -45q-14 -36 -22.5 -63.5t-12 -51t-3.5 -49.5
q0 -42 17 -70.5t46 -43t66 -14.5q36 0 61.5 11t42 31.5t24.5 49.5t8 65q0 58 -15.5 122t-36.5 134l134 36q10 -38 16.5 -65.5t11.5 -45t8 -28.5q8 -21 21 -37.5t39 -28.5t72 -18t118 -6q49 0 87 5t65 14.5t44.5 23t26 30.5t8.5 38q0 20 -8.5 36.5t-24 26.5t-37.5 10
q-27 0 -54.5 -15.5t-56 -42.5t-55.5 -62t-53 -73l-131 18q26 44 57 88.5t67 84.5t75 71t80.5 49t83.5 18q55 0 97.5 -26.5t67 -71.5t24.5 -103q0 -56 -22.5 -102t-66.5 -78.5t-108.5 -50t-148.5 -17.5q-49 0 -98.5 6.5t-91.5 19t-69.5 30.5t-34.5 41l41 -40
q-1 -59 -20.5 -109t-56 -87.5t-87.5 -58.5t-116 -21zM891 -231q-28 0 -46.5 18.5t-18.5 44.5q0 27 18 46.5t47 19.5q26 0 44.5 -19.5t18.5 -45.5q0 -27 -19 -45.5t-44 -18.5zM728 -231q-28 0 -46.5 18.5t-18.5 44.5q0 27 18 46.5t47 19.5q26 0 44.5 -19.5t18.5 -45.5
q0 -27 -19 -45.5t-44 -18.5z" />
    <glyph glyph-name="uni069E.init" unicode="&#x69e;" horiz-adv-x="847" 
d="M457 -16q-78 0 -131.5 8t-89 22.5t-57.5 35.5t-36 47l29 7q-23 -45 -52.5 -68.5t-60 -32t-59.5 -8.5l10 128q24 0 37.5 10t22.5 33.5t18.5 64.5t25.5 102l123 -32q-7 -26 -11.5 -46.5t-7 -35t-2.5 -24.5q0 -21 8 -36.5t31.5 -25.5t68 -15t116.5 -5q69 0 115.5 8
t73.5 22.5t39 35.5t12 46q0 20 -8.5 36t-23.5 26t-37 10q-29 0 -58 -16.5t-57.5 -45t-55 -63t-50.5 -70.5l-131 17q38 65 81 121.5t89.5 99.5t95.5 67.5t99 24.5q56 0 98 -25.5t66 -70.5t24 -104q0 -74 -39 -130t-118 -87t-198 -31zM594 676q-28 0 -46.5 18.5t-18.5 45.5
t18.5 46t46.5 19q26 0 44.5 -19t18.5 -45q0 -28 -18.5 -46.5t-44.5 -18.5zM516 532q-27 0 -46 18.5t-19 44.5q0 27 19 46.5t46 19.5q26 0 45 -19.5t19 -45.5q0 -27 -19 -45.5t-45 -18.5zM682 532q-28 0 -46.5 18.5t-18.5 44.5q0 28 18.5 47t46.5 19q26 0 44.5 -19t18.5 -46
t-18.5 -45.5t-44.5 -18.5z" />
    <glyph glyph-name="uni069E.medi" unicode="&#x69e;" horiz-adv-x="875" 
d="M876 -5q-34 0 -69 10.5t-64.5 27.5t-49.5 35l82 85q25 -16 54.5 -23t55.5 -7q31 0 46.5 -18t15.5 -44q0 -30 -18.5 -48t-52.5 -18zM457 -16q-78 0 -131.5 8t-89 22.5t-57.5 35.5t-36 47l29 7q-23 -45 -52.5 -68.5t-60 -32t-59.5 -8.5l10 128q24 0 37.5 10t22.5 33.5
t18.5 64.5t25.5 102l123 -32q-7 -26 -11.5 -46.5t-7 -35t-2.5 -24.5q0 -21 8 -36.5t31.5 -25.5t68 -15t116.5 -5q69 0 115.5 8t73.5 22.5t39 35.5t12 46q0 20 -8.5 36t-23.5 26t-37 10q-29 0 -58 -16.5t-57.5 -45t-55 -63t-50.5 -70.5l-131 17q38 65 81 121.5t89.5 99.5
t95.5 67.5t99 24.5q56 0 98 -25.5t66 -70.5t24 -104q0 -74 -39 -130t-118 -87t-198 -31zM594 676q-28 0 -46.5 18.5t-18.5 45.5t18.5 46t46.5 19q26 0 44.5 -19t18.5 -45q0 -28 -18.5 -46.5t-44.5 -18.5zM516 532q-27 0 -46 18.5t-19 44.5q0 27 19 46.5t46 19.5
q26 0 45 -19.5t19 -45.5q0 -27 -19 -45.5t-45 -18.5zM682 532q-28 0 -46.5 18.5t-18.5 44.5q0 28 18.5 47t46.5 19q26 0 44.5 -19t18.5 -46t-18.5 -45.5t-44.5 -18.5z" />
    <glyph glyph-name="uni069E.fina" unicode="&#x69e;" horiz-adv-x="1226" 
d="M1227 -5q-34 0 -69 10.5t-64.5 27.5t-49.5 35l82 85q25 -16 54.5 -23t55.5 -7q31 0 46.5 -18t15.5 -44q0 -30 -18.5 -48t-52.5 -18zM283 -232q-48 0 -93 15t-80.5 45.5t-56.5 77.5t-21 110q0 24 4 53.5t16 69.5t36 94l116 -45q-14 -36 -22.5 -63.5t-12 -51t-3.5 -49.5
q0 -42 17 -70.5t46 -43t66 -14.5q36 0 61.5 11t42 31.5t24.5 49.5t8 65q0 58 -15.5 122t-36.5 134l134 36q10 -38 16.5 -65.5t11.5 -45t8 -28.5q8 -21 21 -37.5t39 -28.5t72 -18t118 -6q49 0 87 5t65 14.5t44.5 23t26 30.5t8.5 38q0 20 -8.5 36.5t-24 26.5t-37.5 10
q-27 0 -54.5 -15.5t-56 -42.5t-55.5 -62t-53 -73l-131 18q26 44 57 88.5t67 84.5t75 71t80.5 49t83.5 18q55 0 97.5 -26.5t67 -71.5t24.5 -103q0 -56 -22.5 -102t-66.5 -78.5t-108.5 -50t-148.5 -17.5q-49 0 -98.5 6.5t-91.5 19t-69.5 30.5t-34.5 41l41 -40
q-1 -59 -20.5 -109t-56 -87.5t-87.5 -58.5t-116 -21zM943 680q-28 0 -46.5 18.5t-18.5 45.5t18.5 46t46.5 19q26 0 44.5 -19t18.5 -45q0 -28 -18.5 -46.5t-44.5 -18.5zM865 536q-27 0 -46 18.5t-19 44.5q0 27 19 46.5t46 19.5q26 0 45 -19.5t19 -45.5q0 -27 -19 -45.5
t-45 -18.5zM1031 536q-28 0 -46.5 18.5t-18.5 44.5q0 28 18.5 47t46.5 19q26 0 44.5 -19t18.5 -46t-18.5 -45.5t-44.5 -18.5z" />
    <glyph glyph-name="uni069F.init" unicode="&#x69f;" horiz-adv-x="646" 
d="M0 -5l9 128h216q69 0 117.5 7t78.5 20.5t44 35t14 49.5q0 20 -8 36t-23 25.5t-37 9.5q-31 0 -60.5 -16t-57.5 -43t-56 -62.5t-55 -74.5l-136 9q41 69 85 127.5t91 102t97 68t103 24.5q57 0 99.5 -26.5t66 -71t23.5 -100.5q0 -72 -36.5 -124t-102.5 -83q-27 -12 -64 -21
t-81 -14t-93 -5zM104 98l-20 640h135l17 -482zM419 665q-28 0 -46.5 18.5t-18.5 45.5t18.5 46t46.5 19q26 0 44.5 -19t18.5 -45q0 -28 -18.5 -46.5t-44.5 -18.5zM341 521q-27 0 -46 18.5t-19 44.5q0 27 19 46.5t46 19.5q26 0 45 -19.5t19 -45.5q0 -27 -19 -45.5t-45 -18.5z
M507 521q-28 0 -46.5 18.5t-18.5 44.5q0 28 18.5 47t46.5 19q26 0 44.5 -19t18.5 -46t-18.5 -45.5t-44.5 -18.5z" />
    <glyph glyph-name="uni069F.medi" unicode="&#x69f;" horiz-adv-x="656" 
d="M657 -5q-34 0 -69 10.5t-64.5 27.5t-49.5 35l82 85q25 -16 54.5 -23t55.5 -7q31 0 46.5 -18t15.5 -44q0 -30 -18.5 -48t-52.5 -18zM0 -5l9 128h216q69 0 117.5 7t78.5 20.5t44 35t14 49.5q0 20 -8 36t-23 25.5t-37 9.5q-31 0 -60.5 -16t-57.5 -43t-56 -62.5t-55 -74.5
l-136 9q41 69 85 127.5t91 102t97 68t103 24.5q57 0 99.5 -26.5t66 -71t23.5 -100.5q0 -72 -36.5 -124t-102.5 -83q-27 -12 -64 -21t-81 -14t-93 -5zM104 98l-20 640h135l17 -482zM419 665q-28 0 -46.5 18.5t-18.5 45.5t18.5 46t46.5 19q26 0 44.5 -19t18.5 -45
q0 -28 -18.5 -46.5t-44.5 -18.5zM341 521q-27 0 -46 18.5t-19 44.5q0 27 19 46.5t46 19.5q26 0 45 -19.5t19 -45.5q0 -27 -19 -45.5t-45 -18.5zM507 521q-28 0 -46.5 18.5t-18.5 44.5q0 28 18.5 47t46.5 19q26 0 44.5 -19t18.5 -46t-18.5 -45.5t-44.5 -18.5z" />
    <glyph glyph-name="uni069F.fina" unicode="&#x69f;" horiz-adv-x="733" 
d="M734 -5q-34 0 -69 10.5t-64.5 27.5t-49.5 35l82 85q25 -16 54.5 -23t55.5 -7q31 0 46.5 -18t15.5 -44q0 -30 -18.5 -48t-52.5 -18zM336 -13q-40 0 -83.5 1t-86.5 3.5t-81 6t-68 8.5l16 130q44 -6 81 -9.5t70.5 -6t66.5 -3.5t69 -1q64 0 108.5 7.5t72 21.5t40 34.5
t12.5 45.5q0 21 -9 38t-25 27t-38 10q-25 0 -54 -16.5t-58.5 -45t-57.5 -63t-51 -70.5l-134 15q38 66 82 123t92 100t97.5 67.5t98.5 24.5q53 0 96 -25t68 -69.5t25 -105.5q0 -75 -40 -131t-118 -86.5t-191 -30.5zM177 97l-20 641h135l17 -483zM499 659q-28 0 -46.5 18.5
t-18.5 45.5t18.5 46t46.5 19q26 0 44.5 -19t18.5 -45q0 -28 -18.5 -46.5t-44.5 -18.5zM421 515q-27 0 -46 18.5t-19 44.5q0 27 19 46.5t46 19.5q26 0 45 -19.5t19 -45.5q0 -27 -19 -45.5t-45 -18.5zM587 515q-28 0 -46.5 18.5t-18.5 44.5q0 28 18.5 47t46.5 19
q26 0 44.5 -19t18.5 -46t-18.5 -45.5t-44.5 -18.5z" />
    <glyph glyph-name="uni06A0.init" unicode="&#x6a0;" horiz-adv-x="467" 
d="M0 -5l10 128q26 0 45.5 1t38.5 3.5t42 6.5q-15 11 -33.5 33t-32 56.5t-13.5 80.5q0 61 27.5 104t73.5 66t101 23q22 0 44 -3t48 -11l-20 -117q-18 5 -30.5 6.5t-28.5 1.5q-23 0 -41 -10t-28.5 -28.5t-10.5 -44.5q0 -21 7 -39.5t18.5 -33.5t25 -26t27 -18.5t23.5 -9.5
q10 3 16.5 5t15.5 5t24 9t41 17l40 -106q-75 -36 -147.5 -58t-142.5 -31.5t-140 -9.5zM225 741q-28 0 -46.5 18.5t-18.5 45.5t18.5 46t46.5 19q26 0 44.5 -19t18.5 -45q0 -28 -18.5 -46.5t-44.5 -18.5zM147 597q-27 0 -46 18.5t-19 44.5q0 27 19 46.5t46 19.5q26 0 45 -19.5
t19 -45.5q0 -27 -19 -45.5t-45 -18.5zM313 597q-28 0 -46.5 18.5t-18.5 44.5q0 28 18.5 47t46.5 19q26 0 44.5 -19t18.5 -46t-18.5 -45.5t-44.5 -18.5z" />
    <glyph glyph-name="uni06A0.medi" unicode="&#x6a0;" horiz-adv-x="493" 
d="M0 -5l10 128q58 0 107 11.5t87.5 31.5t64.5 44.5t40 50.5t14 50q0 16 -9 26t-24 15t-33 5t-36.5 -4t-36 -12t-31.5 -20q25 -24 44 -46.5t36 -44.5t35 -46q20 -15 46.5 -26.5t58 -19t65.5 -11.5t67 -4q29 0 44.5 -18t15.5 -45q0 -30 -19 -47.5t-51 -17.5q-52 0 -101 7
t-96 26t-96 54q-32 37 -56.5 66t-45.5 54t-45 50q-2 3 -6 16.5t-7 28t-3 20.5q0 24 19 51t51 50.5t72 38.5t82 15q53 0 94 -15.5t64.5 -46.5t23.5 -80q0 -53 -23.5 -103t-65 -92t-97.5 -73.5t-122 -49t-137 -17.5zM252 716q-28 0 -46.5 18.5t-18.5 45.5t18.5 46t46.5 19
q26 0 44.5 -19t18.5 -45q0 -28 -18.5 -46.5t-44.5 -18.5zM174 572q-27 0 -46 18.5t-19 44.5q0 27 19 46.5t46 19.5q26 0 45 -19.5t19 -45.5q0 -27 -19 -45.5t-45 -18.5zM340 572q-28 0 -46.5 18.5t-18.5 44.5q0 28 18.5 47t46.5 19q26 0 44.5 -19t18.5 -46t-18.5 -45.5
t-44.5 -18.5z" />
    <glyph glyph-name="uni06A0.fina" unicode="&#x6a0;" horiz-adv-x="498" 
d="M286 -388q-57 0 -107.5 14t-89.5 42.5t-61.5 72t-22.5 103.5t23.5 108.5t60 89t78.5 75t79.5 66t62 62t26.5 63.5q1 15 -8 26t-24.5 17t-36.5 6q-17 0 -35 -4.5t-35 -12.5t-31 -19q19 -19 41 -42t45 -49.5t46 -57.5q21 -15 46.5 -24.5t53.5 -15t56 -7.5t54 -2
q29 0 45.5 -18t16.5 -44q0 -31 -19 -48.5t-52 -17.5q-54 0 -108 10t-105 34.5t-97 68.5q-21 28 -43 54t-42 49t-35 40q-3 4 -7 17t-7 28t-3 21q0 24 19 51t51 50.5t72 38.5t83 15q83 0 131 -39t50 -106q2 -54 -20.5 -97.5t-58.5 -81t-77 -71t-77.5 -67.5t-59.5 -71.5
t-23 -81.5q0 -34 13 -56.5t34 -36t47 -19t53 -5.5q24 0 50 3.5t55.5 12t61.5 22.5l42 -109q-32 -19 -69 -31.5t-73.5 -19t-68.5 -6.5zM264 716q-28 0 -46.5 18.5t-18.5 45.5t18.5 46t46.5 19q26 0 44.5 -19t18.5 -45q0 -28 -18.5 -46.5t-44.5 -18.5zM186 572q-27 0 -46 18.5
t-19 44.5q0 27 19 46.5t46 19.5q26 0 45 -19.5t19 -45.5q0 -27 -19 -45.5t-45 -18.5zM352 572q-28 0 -46.5 18.5t-18.5 44.5q0 28 18.5 47t46.5 19q26 0 44.5 -19t18.5 -46t-18.5 -45.5t-44.5 -18.5z" />
    <glyph glyph-name="uni06A1.init" unicode="&#x6a1;" horiz-adv-x="435" 
d="M0 -5l9 128q26 0 55 0.5t57 2t52.5 6t41.5 12.5q22 10 35.5 28.5t19.5 47.5t6 69q0 51 -7 86t-20.5 53.5t-31.5 18.5q-14 0 -26 -12t-19 -33t-7 -49q0 -20 8 -33t21.5 -18.5t28.5 -5.5q17 0 35.5 5t37.5 15l4 -92q-14 -12 -32 -20.5t-37.5 -12.5t-41.5 -4
q-43 0 -76.5 18.5t-52 52t-18.5 78.5q0 43 12.5 83t36.5 72t57.5 50.5t74.5 18.5q55 0 94.5 -35t61 -98.5t21.5 -148.5q0 -82 -24.5 -142.5t-80.5 -93.5q-27 -16 -61 -25.5t-72 -14t-79 -6t-83 -1.5z" />
    <glyph glyph-name="uni06A1.medi" unicode="&#x6a1;" horiz-adv-x="435" 
d="M0 -5l9 128q20 0 44.5 1.5t50.5 5t49.5 9.5t42.5 14q27 12 45.5 28t27.5 38t9 51q0 21 -7.5 40t-18.5 30.5t-24 11.5q-11 0 -23.5 -11t-20.5 -30t-8 -44q0 -23 8 -43.5t24.5 -38t40.5 -35.5l-114 -48q-24 23 -43 48t-30 55.5t-11 69.5q0 38 14 72.5t39 62t57.5 43.5
t69.5 16q51 0 90 -28t60.5 -71t21.5 -88q0 -46 -13.5 -83t-37 -65.5t-52 -50t-58.5 -38.5q-25 -14 -56.5 -24t-65 -15.5t-65 -8t-55.5 -2.5zM436 -5q-37 0 -82 6.5t-87.5 19t-72.5 29.5l66 96q28 -10 63 -15t68 -6.5t55 -1.5q30 0 45.5 -18t15.5 -44q0 -28 -18 -47t-53 -19z
" />
    <glyph glyph-name="uni06A1.fina" unicode="&#x6a1;" horiz-adv-x="965" 
d="M357 -21l25 128q47 0 96 3t95.5 9t84.5 14t62 18q33 14 52.5 31.5t28 38t8.5 43.5q0 15 -3.5 30t-10.5 28.5t-16 21.5t-20 8q-14 0 -27 -12.5t-20.5 -33.5t-7.5 -46q0 -20 8.5 -39t25 -36.5t39.5 -33.5l-116 -49q-21 23 -40 47t-31 53.5t-12 66.5q0 40 14.5 76t39.5 64
t58.5 44t70.5 16q52 0 91 -28t61 -72t22 -93q0 -41 -14.5 -76t-38 -63.5t-52.5 -50.5t-58 -38q-31 -17 -79 -30t-104.5 -21.5t-116.5 -13t-115 -4.5zM966 -5q-40 0 -85 6t-86 18.5t-71 29.5l66 97q27 -8 60.5 -13.5t66.5 -7.5t58 -2q31 0 46.5 -18t15.5 -44q0 -28 -18.5 -47
t-52.5 -19zM357 -21q-87 0 -148.5 15.5t-100.5 45t-57 71t-18 93.5q0 28 6 62t15 66.5t18 57.5l112 -30q-5 -19 -11 -40t-9.5 -43t-3.5 -44q0 -35 16.5 -64t64.5 -45.5t141 -16.5l20 -97z" />
    <glyph glyph-name="fehDotMovedbelowar.init" unicode="&#x6a2;" horiz-adv-x="435" 
d="M0 -5l9 128q26 0 55 0.5t57 2t52.5 6t41.5 12.5q22 10 35.5 28.5t19.5 47.5t6 69q0 51 -7 86t-20.5 53.5t-31.5 18.5q-14 0 -26 -12t-19 -33t-7 -49q0 -20 8 -33t21.5 -18.5t28.5 -5.5q17 0 35.5 5t37.5 15l4 -92q-14 -12 -32 -20.5t-37.5 -12.5t-41.5 -4
q-43 0 -76.5 18.5t-52 52t-18.5 78.5q0 43 12.5 83t36.5 72t57.5 50.5t74.5 18.5q55 0 94.5 -35t61 -98.5t21.5 -148.5q0 -82 -24.5 -142.5t-80.5 -93.5q-27 -16 -61 -25.5t-72 -14t-79 -6t-83 -1.5zM175 -240q-28 0 -46.5 18.5t-18.5 44.5q0 27 18 46.5t47 19.5
q26 0 44.5 -19.5t18.5 -46.5q0 -26 -19 -44.5t-44 -18.5z" />
    <glyph glyph-name="fehDotMovedbelowar.medi" unicode="&#x6a2;" horiz-adv-x="435" 
d="M0 -5l9 128q20 0 44.5 1.5t50.5 5t49.5 9.5t42.5 14q27 12 45.5 28t27.5 38t9 51q0 21 -7.5 40t-18.5 30.5t-24 11.5q-11 0 -23.5 -11t-20.5 -30t-8 -44q0 -23 8 -43.5t24.5 -38t40.5 -35.5l-114 -48q-24 23 -43 48t-30 55.5t-11 69.5q0 38 14 72.5t39 62t57.5 43.5
t69.5 16q51 0 90 -28t60.5 -71t21.5 -88q0 -46 -13.5 -83t-37 -65.5t-52 -50t-58.5 -38.5q-25 -14 -56.5 -24t-65 -15.5t-65 -8t-55.5 -2.5zM436 -5q-37 0 -82 6.5t-87.5 19t-72.5 29.5l66 96q28 -10 63 -15t68 -6.5t55 -1.5q30 0 45.5 -18t15.5 -44q0 -28 -18 -47t-53 -19z
M223 -240q-28 0 -46.5 18.5t-18.5 44.5q0 27 18 46.5t47 19.5q26 0 44.5 -19.5t18.5 -46.5q0 -26 -19 -44.5t-44 -18.5z" />
    <glyph glyph-name="fehDotMovedbelowar.fina" unicode="&#x6a2;" horiz-adv-x="965" 
d="M357 -21l25 128q47 0 96 3t95.5 9t84.5 14t62 18q33 14 52.5 31.5t28 38t8.5 43.5q0 15 -3.5 30t-10.5 28.5t-16 21.5t-20 8q-14 0 -27 -12.5t-20.5 -33.5t-7.5 -46q0 -20 8.5 -39t25 -36.5t39.5 -33.5l-116 -49q-21 23 -40 47t-31 53.5t-12 66.5q0 40 14.5 76t39.5 64
t58.5 44t70.5 16q52 0 91 -28t61 -72t22 -93q0 -41 -14.5 -76t-38 -63.5t-52.5 -50.5t-58 -38q-31 -17 -79 -30t-104.5 -21.5t-116.5 -13t-115 -4.5zM966 -5q-40 0 -85 6t-86 18.5t-71 29.5l66 97q27 -8 60.5 -13.5t66.5 -7.5t58 -2q31 0 46.5 -18t15.5 -44q0 -28 -18.5 -47
t-52.5 -19zM357 -21q-87 0 -148.5 15.5t-100.5 45t-57 71t-18 93.5q0 28 6 62t15 66.5t18 57.5l112 -30q-5 -19 -11 -40t-9.5 -43t-3.5 -44q0 -35 16.5 -64t64.5 -45.5t141 -16.5l20 -97zM423 -246q-28 0 -46.5 18.5t-18.5 44.5q0 27 18 46.5t47 19.5q26 0 44.5 -19.5
t18.5 -46.5q0 -26 -19 -44.5t-44 -18.5z" />
    <glyph glyph-name="uni06A3.init" unicode="&#x6a3;" horiz-adv-x="435" 
d="M0 -5l9 128q26 0 55 0.5t57 2t52.5 6t41.5 12.5q22 10 35.5 28.5t19.5 47.5t6 69q0 51 -7 86t-20.5 53.5t-31.5 18.5q-14 0 -26 -12t-19 -33t-7 -49q0 -20 8 -33t21.5 -18.5t28.5 -5.5q17 0 35.5 5t37.5 15l4 -92q-14 -12 -32 -20.5t-37.5 -12.5t-41.5 -4
q-43 0 -76.5 18.5t-52 52t-18.5 78.5q0 43 12.5 83t36.5 72t57.5 50.5t74.5 18.5q55 0 94.5 -35t61 -98.5t21.5 -148.5q0 -82 -24.5 -142.5t-80.5 -93.5q-27 -16 -61 -25.5t-72 -14t-79 -6t-83 -1.5zM220 660q-28 0 -46.5 18.5t-18.5 44.5q0 27 18.5 46.5t46.5 19.5
q26 0 44.5 -19.5t18.5 -45.5q0 -27 -18.5 -45.5t-44.5 -18.5zM175 -240q-28 0 -46.5 18.5t-18.5 44.5q0 27 18 46.5t47 19.5q26 0 44.5 -19.5t18.5 -46.5q0 -26 -19 -44.5t-44 -18.5z" />
    <glyph glyph-name="uni06A3.medi" unicode="&#x6a3;" horiz-adv-x="435" 
d="M0 -5l9 128q20 0 44.5 1.5t50.5 5t49.5 9.5t42.5 14q27 12 45.5 28t27.5 38t9 51q0 21 -7.5 40t-18.5 30.5t-24 11.5q-11 0 -23.5 -11t-20.5 -30t-8 -44q0 -23 8 -43.5t24.5 -38t40.5 -35.5l-114 -48q-24 23 -43 48t-30 55.5t-11 69.5q0 38 14 72.5t39 62t57.5 43.5
t69.5 16q51 0 90 -28t60.5 -71t21.5 -88q0 -46 -13.5 -83t-37 -65.5t-52 -50t-58.5 -38.5q-25 -14 -56.5 -24t-65 -15.5t-65 -8t-55.5 -2.5zM436 -5q-37 0 -82 6.5t-87.5 19t-72.5 29.5l66 96q28 -10 63 -15t68 -6.5t55 -1.5q30 0 45.5 -18t15.5 -44q0 -28 -18 -47t-53 -19z
M231 569q-28 0 -46.5 18.5t-18.5 44.5q0 27 18.5 46.5t46.5 19.5q26 0 44.5 -19.5t18.5 -45.5q0 -27 -18.5 -45.5t-44.5 -18.5zM223 -240q-28 0 -46.5 18.5t-18.5 44.5q0 27 18 46.5t47 19.5q26 0 44.5 -19.5t18.5 -46.5q0 -26 -19 -44.5t-44 -18.5z" />
    <glyph glyph-name="uni06A3.fina" unicode="&#x6a3;" horiz-adv-x="965" 
d="M357 -21l25 128q47 0 96 3t95.5 9t84.5 14t62 18q33 14 52.5 31.5t28 38t8.5 43.5q0 15 -3.5 30t-10.5 28.5t-16 21.5t-20 8q-14 0 -27 -12.5t-20.5 -33.5t-7.5 -46q0 -20 8.5 -39t25 -36.5t39.5 -33.5l-116 -49q-21 23 -40 47t-31 53.5t-12 66.5q0 40 14.5 76t39.5 64
t58.5 44t70.5 16q52 0 91 -28t61 -72t22 -93q0 -41 -14.5 -76t-38 -63.5t-52.5 -50.5t-58 -38q-31 -17 -79 -30t-104.5 -21.5t-116.5 -13t-115 -4.5zM966 -5q-40 0 -85 6t-86 18.5t-71 29.5l66 97q27 -8 60.5 -13.5t66.5 -7.5t58 -2q31 0 46.5 -18t15.5 -44q0 -28 -18.5 -47
t-52.5 -19zM357 -21q-87 0 -148.5 15.5t-100.5 45t-57 71t-18 93.5q0 28 6 62t15 66.5t18 57.5l112 -30q-5 -19 -11 -40t-9.5 -43t-3.5 -44q0 -35 16.5 -64t64.5 -45.5t141 -16.5l20 -97zM760 569q-28 0 -46.5 18.5t-18.5 44.5q0 27 18.5 46.5t46.5 19.5q26 0 44.5 -19.5
t18.5 -45.5q0 -27 -18.5 -45.5t-44.5 -18.5zM423 -246q-28 0 -46.5 18.5t-18.5 44.5q0 27 18 46.5t47 19.5q26 0 44.5 -19.5t18.5 -46.5q0 -26 -19 -44.5t-44 -18.5z" />
    <glyph glyph-name="uni06A5.init" unicode="&#x6a5;" horiz-adv-x="435" 
d="M0 -5l9 128q26 0 55 0.5t57 2t52.5 6t41.5 12.5q22 10 35.5 28.5t19.5 47.5t6 69q0 51 -7 86t-20.5 53.5t-31.5 18.5q-14 0 -26 -12t-19 -33t-7 -49q0 -20 8 -33t21.5 -18.5t28.5 -5.5q17 0 35.5 5t37.5 15l4 -92q-14 -12 -32 -20.5t-37.5 -12.5t-41.5 -4
q-43 0 -76.5 18.5t-52 52t-18.5 78.5q0 43 12.5 83t36.5 72t57.5 50.5t74.5 18.5q55 0 94.5 -35t61 -98.5t21.5 -148.5q0 -82 -24.5 -142.5t-80.5 -93.5q-27 -16 -61 -25.5t-72 -14t-79 -6t-83 -1.5zM177 -375q-25 0 -43 17.5t-18 42.5t18 43.5t43 18.5t42.5 -18.5
t17.5 -43.5t-17.5 -42.5t-42.5 -17.5zM97 -233q-25 0 -43 17.5t-18 42.5t18 43.5t43 18.5t42.5 -18.5t17.5 -43.5t-17.5 -42.5t-42.5 -17.5zM260 -233q-25 0 -43 17.5t-18 42.5t18 43.5t43 18.5t42.5 -18.5t17.5 -43.5t-17.5 -42.5t-42.5 -17.5z" />
    <glyph glyph-name="uni06A5.medi" unicode="&#x6a5;" horiz-adv-x="435" 
d="M0 -5l9 128q20 0 44.5 1.5t50.5 5t49.5 9.5t42.5 14q27 12 45.5 28t27.5 38t9 51q0 21 -7.5 40t-18.5 30.5t-24 11.5q-11 0 -23.5 -11t-20.5 -30t-8 -44q0 -23 8 -43.5t24.5 -38t40.5 -35.5l-114 -48q-24 23 -43 48t-30 55.5t-11 69.5q0 38 14 72.5t39 62t57.5 43.5
t69.5 16q51 0 90 -28t60.5 -71t21.5 -88q0 -46 -13.5 -83t-37 -65.5t-52 -50t-58.5 -38.5q-25 -14 -56.5 -24t-65 -15.5t-65 -8t-55.5 -2.5zM436 -5q-37 0 -82 6.5t-87.5 19t-72.5 29.5l66 96q28 -10 63 -15t68 -6.5t55 -1.5q30 0 45.5 -18t15.5 -44q0 -28 -18 -47t-53 -19z
M225 -375q-25 0 -43 17.5t-18 42.5t18 43.5t43 18.5t42.5 -18.5t17.5 -43.5t-17.5 -42.5t-42.5 -17.5zM145 -233q-25 0 -43 17.5t-18 42.5t18 43.5t43 18.5t42.5 -18.5t17.5 -43.5t-17.5 -42.5t-42.5 -17.5zM308 -233q-25 0 -43 17.5t-18 42.5t18 43.5t43 18.5t42.5 -18.5
t17.5 -43.5t-17.5 -42.5t-42.5 -17.5z" />
    <glyph glyph-name="uni06A5.fina" unicode="&#x6a5;" horiz-adv-x="965" 
d="M357 -21l25 128q47 0 96 3t95.5 9t84.5 14t62 18q33 14 52.5 31.5t28 38t8.5 43.5q0 15 -3.5 30t-10.5 28.5t-16 21.5t-20 8q-14 0 -27 -12.5t-20.5 -33.5t-7.5 -46q0 -20 8.5 -39t25 -36.5t39.5 -33.5l-116 -49q-21 23 -40 47t-31 53.5t-12 66.5q0 40 14.5 76t39.5 64
t58.5 44t70.5 16q52 0 91 -28t61 -72t22 -93q0 -41 -14.5 -76t-38 -63.5t-52.5 -50.5t-58 -38q-31 -17 -79 -30t-104.5 -21.5t-116.5 -13t-115 -4.5zM966 -5q-40 0 -85 6t-86 18.5t-71 29.5l66 97q27 -8 60.5 -13.5t66.5 -7.5t58 -2q31 0 46.5 -18t15.5 -44q0 -28 -18.5 -47
t-52.5 -19zM357 -21q-87 0 -148.5 15.5t-100.5 45t-57 71t-18 93.5q0 28 6 62t15 66.5t18 57.5l112 -30q-5 -19 -11 -40t-9.5 -43t-3.5 -44q0 -35 16.5 -64t64.5 -45.5t141 -16.5l20 -97zM425 -381q-25 0 -43 17.5t-18 42.5t18 43.5t43 18.5t42.5 -18.5t17.5 -43.5
t-17.5 -42.5t-42.5 -17.5zM345 -239q-25 0 -43 17.5t-18 42.5t18 43.5t43 18.5t42.5 -18.5t17.5 -43.5t-17.5 -42.5t-42.5 -17.5zM508 -239q-25 0 -43 17.5t-18 42.5t18 43.5t43 18.5t42.5 -18.5t17.5 -43.5t-17.5 -42.5t-42.5 -17.5z" />
    <glyph glyph-name="uni06A7.fina" unicode="&#x6a7;" horiz-adv-x="750" 
d="M318 -272q-55 0 -107 14.5t-93.5 44.5t-66 78t-24.5 115q0 23 4 53.5t16 72t36 95.5l117 -46q-14 -37 -23 -62t-12.5 -46.5t-3.5 -46.5q0 -46 20.5 -78t60 -49t95.5 -17q31 0 60.5 5.5t55 15.5t46.5 24.5t36.5 32.5t24.5 40q12 26 16.5 61.5t4.5 81.5q0 44 -7 78.5
t-19.5 54t-30.5 19.5q-12 0 -21.5 -8.5t-16 -22t-10 -28.5t-3.5 -27q0 -21 6 -35t23.5 -21.5t50.5 -8.5t87 5h121q30 0 45.5 -18t15.5 -44q0 -29 -17.5 -47.5t-53.5 -18.5h-165q-54 0 -97.5 8t-75 26.5t-48 49.5t-16.5 77q0 43 13 83.5t37 72.5t58 51t76 19q51 0 90.5 -35
t61.5 -97t22 -144q0 -59 -14 -110t-35 -89q-24 -45 -59.5 -78.5t-80 -56t-95.5 -33.5t-105 -11zM532 482q-28 0 -46.5 18.5t-18.5 44.5q0 27 18.5 46.5t46.5 19.5q26 0 44.5 -19.5t18.5 -45.5q0 -27 -18.5 -45.5t-44.5 -18.5z" />
    <glyph glyph-name="uni06A8.init" unicode="&#x6a8;" horiz-adv-x="435" 
d="M0 -5l9 128q26 0 55 0.5t57 2t52.5 6t41.5 12.5q22 10 35.5 28.5t19.5 47.5t6 69q0 51 -7 86t-20.5 53.5t-31.5 18.5q-14 0 -26 -12t-19 -33t-7 -49q0 -20 8 -33t21.5 -18.5t28.5 -5.5q17 0 35.5 5t37.5 15l4 -92q-14 -12 -32 -20.5t-37.5 -12.5t-41.5 -4
q-43 0 -76.5 18.5t-52 52t-18.5 78.5q0 43 12.5 83t36.5 72t57.5 50.5t74.5 18.5q55 0 94.5 -35t61 -98.5t21.5 -148.5q0 -82 -24.5 -142.5t-80.5 -93.5q-27 -16 -61 -25.5t-72 -14t-79 -6t-83 -1.5zM219 804q-28 0 -46.5 18.5t-18.5 45.5t18.5 46t46.5 19q26 0 44.5 -19
t18.5 -45q0 -28 -18.5 -46.5t-44.5 -18.5zM141 660q-27 0 -46 18.5t-19 44.5q0 27 19 46.5t46 19.5q26 0 45 -19.5t19 -45.5q0 -27 -19 -45.5t-45 -18.5zM307 660q-28 0 -46.5 18.5t-18.5 44.5q0 28 18.5 47t46.5 19q26 0 44.5 -19t18.5 -46t-18.5 -45.5t-44.5 -18.5z" />
    <glyph glyph-name="uni06A8.medi" unicode="&#x6a8;" horiz-adv-x="435" 
d="M0 -5l9 128q20 0 44.5 1.5t50.5 5t49.5 9.5t42.5 14q27 12 45.5 28t27.5 38t9 51q0 21 -7.5 40t-18.5 30.5t-24 11.5q-11 0 -23.5 -11t-20.5 -30t-8 -44q0 -23 8 -43.5t24.5 -38t40.5 -35.5l-114 -48q-24 23 -43 48t-30 55.5t-11 69.5q0 38 14 72.5t39 62t57.5 43.5
t69.5 16q51 0 90 -28t60.5 -71t21.5 -88q0 -46 -13.5 -83t-37 -65.5t-52 -50t-58.5 -38.5q-25 -14 -56.5 -24t-65 -15.5t-65 -8t-55.5 -2.5zM436 -5q-37 0 -82 6.5t-87.5 19t-72.5 29.5l66 96q28 -10 63 -15t68 -6.5t55 -1.5q30 0 45.5 -18t15.5 -44q0 -28 -18 -47t-53 -19z
M230 713q-28 0 -46.5 18.5t-18.5 45.5t18.5 46t46.5 19q26 0 44.5 -19t18.5 -45q0 -28 -18.5 -46.5t-44.5 -18.5zM152 569q-27 0 -46 18.5t-19 44.5q0 27 19 46.5t46 19.5q26 0 45 -19.5t19 -45.5q0 -27 -19 -45.5t-45 -18.5zM318 569q-28 0 -46.5 18.5t-18.5 44.5
q0 28 18.5 47t46.5 19q26 0 44.5 -19t18.5 -46t-18.5 -45.5t-44.5 -18.5z" />
    <glyph glyph-name="uni06A8.fina" unicode="&#x6a8;" horiz-adv-x="750" 
d="M318 -272q-55 0 -107 14.5t-93.5 44.5t-66 78t-24.5 115q0 23 4 53.5t16 72t36 95.5l117 -46q-14 -37 -23 -62t-12.5 -46.5t-3.5 -46.5q0 -46 20.5 -78t60 -49t95.5 -17q31 0 60.5 5.5t55 15.5t46.5 24.5t36.5 32.5t24.5 40q12 26 16.5 61.5t4.5 81.5q0 44 -7 78.5
t-19.5 54t-30.5 19.5q-12 0 -21.5 -8.5t-16 -22t-10 -28.5t-3.5 -27q0 -21 6 -35t23.5 -21.5t50.5 -8.5t87 5h121q30 0 45.5 -18t15.5 -44q0 -29 -17.5 -47.5t-53.5 -18.5h-165q-54 0 -97.5 8t-75 26.5t-48 49.5t-16.5 77q0 43 13 83.5t37 72.5t58 51t76 19q51 0 90.5 -35
t61.5 -97t22 -144q0 -59 -14 -110t-35 -89q-24 -45 -59.5 -78.5t-80 -56t-95.5 -33.5t-105 -11zM531 626q-28 0 -46.5 18.5t-18.5 45.5t18.5 46t46.5 19q26 0 44.5 -19t18.5 -45q0 -28 -18.5 -46.5t-44.5 -18.5zM453 482q-27 0 -46 18.5t-19 44.5q0 27 19 46.5t46 19.5
q26 0 45 -19.5t19 -45.5q0 -27 -19 -45.5t-45 -18.5zM619 482q-28 0 -46.5 18.5t-18.5 44.5q0 28 18.5 47t46.5 19q26 0 44.5 -19t18.5 -46t-18.5 -45.5t-44.5 -18.5z" />
    <glyph glyph-name="uni06AA.init" unicode="&#x6aa;" horiz-adv-x="759" 
d="M0 -5l10 128h287q81 0 138 1.5t92.5 6t52 13.5t16.5 24q0 11 -8.5 20t-29 16.5t-55.5 14.5t-87 13q-101 13 -160 31t-84 45t-25 68q0 50 27 90t72.5 71t104 54.5t121.5 40.5l28 -112q-69 -20 -118.5 -40.5t-76 -40.5t-26.5 -38q0 -13 12.5 -21t48 -15t103.5 -17
q77 -11 129 -26.5t83.5 -37.5t45.5 -52t14 -69q0 -48 -24.5 -80t-76 -51t-130 -27.5t-186.5 -8.5z" />
    <glyph glyph-name="uni06AA.medi" unicode="&#x6aa;" horiz-adv-x="779" 
d="M780 -5q-34 0 -69 10.5t-64.5 27.5t-49.5 35l82 85q25 -16 54.5 -23t55.5 -7q31 0 46.5 -18t15.5 -44q0 -30 -18.5 -48t-52.5 -18zM0 -5l10 128h287q81 0 138 1.5t92.5 6t52 13.5t16.5 24q0 11 -8.5 20t-29 16.5t-55.5 14.5t-87 13q-101 13 -160 31t-84 45t-25 68
q0 50 27 90t72.5 71t104 54.5t121.5 40.5l28 -112q-69 -20 -118.5 -40.5t-76 -40.5t-26.5 -38q0 -13 12.5 -21t48 -15t103.5 -17q77 -11 129 -26.5t83.5 -37.5t45.5 -52t14 -69q0 -48 -24.5 -80t-76 -51t-130 -27.5t-186.5 -8.5z" />
    <glyph glyph-name="uni06AA.fina" unicode="&#x6aa;" horiz-adv-x="964" 
d="M965 -5q-34 0 -69 10.5t-64.5 27.5t-49.5 35l82 85q25 -16 54.5 -23t55.5 -7q31 0 46.5 -18t15.5 -44q0 -30 -18.5 -48t-52.5 -18zM483 -15q-33 0 -86.5 1t-116 3t-123.5 6t-108 9l6 122q50 -3 105.5 -6t112 -5.5t110 -4t99.5 -1.5q81 0 138 3t92.5 9.5t52 17t16.5 25.5
q0 12 -8.5 22t-29 18t-55.5 15t-87 13q-102 13 -161 31t-83.5 45t-24.5 68q0 50 27 90t72.5 71t104 54.5t121.5 40.5l28 -112q-69 -20 -119 -41t-76.5 -40.5t-26.5 -37.5q0 -13 12.5 -21t48 -15t104.5 -17q77 -11 129 -26.5t83.5 -37.5t45.5 -52t14 -69q0 -48 -24.5 -81.5
t-76 -55t-130 -31.5t-186.5 -10z" />
    <glyph glyph-name="uni06AB.init" unicode="&#x6ab;" horiz-adv-x="388" 
d="M293 446q-35 0 -59 24.5t-24 58.5q0 35 24 59t59 24t58.5 -24t23.5 -59q0 -34 -23.5 -58.5t-58.5 -24.5zM293 500q13 0 22 8t9 21q0 14 -9 22t-22 8t-22 -8.5t-9 -21.5t9 -21t22 -8zM0 -5l10 128h81q24 0 39.5 7t24 18t12 23.5t3.5 23.5q0 35 -23 71.5t-51 69.5
q-14 17 -27.5 32.5t-24.5 29t-17.5 24.5t-6.5 19q0 14 2.5 33.5t7 37t10.5 24.5q15 16 39 35.5t59 43t83 52.5t111 63l64 -107q-56 -30 -100 -55t-78 -46t-59.5 -40.5t-45.5 -37.5l8 65q46 -52 82 -95.5t60.5 -81.5t37 -75t12.5 -76q0 -31 -10.5 -63.5t-36 -60.5t-69.5 -45
t-111 -17h-86z" />
    <glyph glyph-name="uni06AB.medi" unicode="&#x6ab;" horiz-adv-x="418" 
d="M291 445q-35 0 -59 24.5t-24 58.5q0 35 24 59t59 24t58.5 -24t23.5 -59q0 -34 -23.5 -58.5t-58.5 -24.5zM291 499q13 0 22 8t9 21q0 14 -9 22t-22 8t-22 -8.5t-9 -21.5t9 -21t22 -8zM0 -5l9 128h82q30 0 47 10.5t24.5 27t7.5 34.5q0 17 -11 39.5t-28 47.5t-36 49.5
t-36 46t-28 37.5t-11 22q0 15 2.5 35.5t7 38.5t11.5 25q18 19 46.5 41t66 47t82 51.5t95.5 53.5l64 -106q-51 -27 -93 -51.5t-76 -46.5t-61 -41.5t-47 -37.5l-5 69q26 -30 51.5 -62t50.5 -67.5t48 -76t44 -88.5q20 -44 38 -65t38 -27t46 -6q31 0 46 -18t15 -44
q0 -28 -18 -47t-53 -19q-41 0 -73.5 11.5t-56.5 38t-40 72.5l42 -3q-10 -30 -27 -52.5t-42 -37.5t-60 -22t-80 -7h-82z" />
    <glyph glyph-name="uni06AB.fina" unicode="&#x6ab;" horiz-adv-x="840" 
d="M714 444q-35 0 -59 24.5t-24 58.5q0 35 24 59t59 24t58.5 -24t23.5 -59q0 -34 -23.5 -58.5t-58.5 -24.5zM714 498q13 0 22 8t9 21q0 14 -9 22t-22 8t-22 -8.5t-9 -21.5t9 -21t22 -8zM357 -21l25 128q47 0 85.5 3t66.5 12t43 26.5t15 46.5q0 17 -11 39.5t-28 47.5
t-36 49.5t-36 46t-28 37.5t-11 23q0 15 2.5 35t7 37t10.5 24q25 26 68 57.5t99.5 66.5t123.5 72l64 -106q-68 -38 -121 -69.5t-92 -58.5t-66 -52l-3 72q28 -32 54.5 -65.5t51.5 -70t47.5 -76t41.5 -83.5q15 -33 27.5 -52.5t25.5 -29.5t29.5 -13t38.5 -3q30 0 45.5 -18
t15.5 -44q0 -28 -18 -47t-52 -19q-37 0 -71 12t-59 38.5t-37 71.5l38 9q-12 -46 -42 -75t-76 -45t-106 -21.5t-132 -5.5zM357 -21q-87 0 -148.5 15.5t-100.5 45t-57 71t-18 93.5q0 28 6 62t15 66.5t18 57.5l112 -30q-5 -19 -11 -40t-9.5 -43t-3.5 -44q0 -35 16.5 -64
t64.5 -45.5t141 -16.5l20 -97z" />
    <glyph glyph-name="uni06AC.init" unicode="&#x6ac;" horiz-adv-x="388" 
d="M0 -5l10 128h81q24 0 39.5 7t24 18t12 23.5t3.5 23.5q0 35 -23 71.5t-51 69.5q-14 17 -27.5 32.5t-24.5 29t-17.5 24.5t-6.5 19q0 14 2.5 33.5t7 37t10.5 24.5q15 16 39 35.5t59 43t83 52.5t111 63l64 -107q-56 -30 -100 -55t-78 -46t-59.5 -40.5t-45.5 -37.5l8 65
q46 -52 82 -95.5t60.5 -81.5t37 -75t12.5 -76q0 -31 -10.5 -63.5t-36 -60.5t-69.5 -45t-111 -17h-86zM147 741q-28 0 -46.5 18.5t-18.5 44.5q0 27 18.5 46.5t46.5 19.5q26 0 44.5 -19.5t18.5 -45.5q0 -27 -18.5 -45.5t-44.5 -18.5z" />
    <glyph glyph-name="uni06AC.medi" unicode="&#x6ac;" horiz-adv-x="418" 
d="M0 -5l9 128h82q30 0 47 10.5t24.5 27t7.5 34.5q0 17 -11 39.5t-28 47.5t-36 49.5t-36 46t-28 37.5t-11 22q0 15 2.5 35.5t7 38.5t11.5 25q18 19 46.5 41t66 47t82 51.5t95.5 53.5l64 -106q-51 -27 -93 -51.5t-76 -46.5t-61 -41.5t-47 -37.5l-5 69q26 -30 51.5 -62
t50.5 -67.5t48 -76t44 -88.5q20 -44 38 -65t38 -27t46 -6q31 0 46 -18t15 -44q0 -28 -18 -47t-53 -19q-41 0 -73.5 11.5t-56.5 38t-40 72.5l42 -3q-10 -30 -27 -52.5t-42 -37.5t-60 -22t-80 -7h-82zM146 741q-28 0 -46.5 18.5t-18.5 44.5q0 27 18.5 46.5t46.5 19.5
q26 0 44.5 -19.5t18.5 -45.5q0 -27 -18.5 -45.5t-44.5 -18.5z" />
    <glyph glyph-name="uni06AC.fina" unicode="&#x6ac;" horiz-adv-x="882" 
d="M357 -21l25 128q87 -1 143 6t87.5 27t43 57t8.5 95l-24 446h132l22 -454q3 -63 15 -98t32.5 -49t50.5 -14q31 0 46.5 -18t15.5 -43q0 -29 -18.5 -48t-52.5 -19q-37 0 -70 13t-56 41t-31 73h48q-23 -47 -63 -76t-94.5 -44t-120 -19.5t-139.5 -3.5zM333 221l-25 92
q37 9 60 16t34 15t11 17t-9.5 19.5t-22.5 23.5t-22.5 29t-9.5 36q0 25 13.5 47.5t42.5 43t77 40.5l42 -83q-40 -16 -57.5 -30t-17.5 -28q0 -10 10 -22t23 -26t23 -30t10 -36q0 -16 -6 -32.5t-24.5 -32.5t-55 -30.5t-96.5 -28.5zM357 -21q-87 0 -148.5 15.5t-100.5 45t-57 71
t-18 93.5q0 28 6 62t15 66.5t18 57.5l112 -30q-5 -19 -11 -40t-9.5 -43t-3.5 -44q0 -35 16.5 -64t64.5 -45.5t141 -16.5l20 -97zM440 656q-28 0 -46.5 18.5t-18.5 44.5q0 27 18.5 46.5t46.5 19.5q26 0 44.5 -19.5t18.5 -45.5q0 -27 -18.5 -45.5t-44.5 -18.5z" />
    <glyph glyph-name="uni06AE.init" unicode="&#x6ae;" horiz-adv-x="388" 
d="M0 -5l10 128h81q24 0 39.5 7t24 18t12 23.5t3.5 23.5q0 35 -23 71.5t-51 69.5q-14 17 -27.5 32.5t-24.5 29t-17.5 24.5t-6.5 19q0 14 2.5 33.5t7 37t10.5 24.5q15 16 39 35.5t59 43t83 52.5t111 63l64 -107q-56 -30 -100 -55t-78 -46t-59.5 -40.5t-45.5 -37.5l8 65
q46 -52 82 -95.5t60.5 -81.5t37 -75t12.5 -76q0 -31 -10.5 -63.5t-36 -60.5t-69.5 -45t-111 -17h-86zM174 -356q-25 0 -43 17.5t-18 42.5t18 43.5t43 18.5t42.5 -18.5t17.5 -43.5t-17.5 -42.5t-42.5 -17.5zM94 -214q-25 0 -43 17.5t-18 42.5t18 43.5t43 18.5t42.5 -18.5
t17.5 -43.5t-17.5 -42.5t-42.5 -17.5zM257 -214q-25 0 -43 17.5t-18 42.5t18 43.5t43 18.5t42.5 -18.5t17.5 -43.5t-17.5 -42.5t-42.5 -17.5z" />
    <glyph glyph-name="uni06AE.medi" unicode="&#x6ae;" horiz-adv-x="418" 
d="M0 -5l9 128h82q30 0 47 10.5t24.5 27t7.5 34.5q0 17 -11 39.5t-28 47.5t-36 49.5t-36 46t-28 37.5t-11 22q0 15 2.5 35.5t7 38.5t11.5 25q18 19 46.5 41t66 47t82 51.5t95.5 53.5l64 -106q-51 -27 -93 -51.5t-76 -46.5t-61 -41.5t-47 -37.5l-5 69q26 -30 51.5 -62
t50.5 -67.5t48 -76t44 -88.5q20 -44 38 -65t38 -27t46 -6q31 0 46 -18t15 -44q0 -28 -18 -47t-53 -19q-41 0 -73.5 11.5t-56.5 38t-40 72.5l42 -3q-10 -30 -27 -52.5t-42 -37.5t-60 -22t-80 -7h-82zM168 -356q-25 0 -43 17.5t-18 42.5t18 43.5t43 18.5t42.5 -18.5
t17.5 -43.5t-17.5 -42.5t-42.5 -17.5zM88 -214q-25 0 -43 17.5t-18 42.5t18 43.5t43 18.5t42.5 -18.5t17.5 -43.5t-17.5 -42.5t-42.5 -17.5zM251 -214q-25 0 -43 17.5t-18 42.5t18 43.5t43 18.5t42.5 -18.5t17.5 -43.5t-17.5 -42.5t-42.5 -17.5z" />
    <glyph glyph-name="uni06AE.fina" unicode="&#x6ae;" horiz-adv-x="882" 
d="M357 -21l25 128q87 -1 143 6t87.5 27t43 57t8.5 95l-24 446h132l22 -454q3 -63 15 -98t32.5 -49t50.5 -14q31 0 46.5 -18t15.5 -43q0 -29 -18.5 -48t-52.5 -19q-37 0 -70 13t-56 41t-31 73h48q-23 -47 -63 -76t-94.5 -44t-120 -19.5t-139.5 -3.5zM333 221l-25 92
q37 9 60 16t34 15t11 17t-9.5 19.5t-22.5 23.5t-22.5 29t-9.5 36q0 25 13.5 47.5t42.5 43t77 40.5l42 -83q-40 -16 -57.5 -30t-17.5 -28q0 -10 10 -22t23 -26t23 -30t10 -36q0 -16 -6 -32.5t-24.5 -32.5t-55 -30.5t-96.5 -28.5zM357 -21q-87 0 -148.5 15.5t-100.5 45t-57 71
t-18 93.5q0 28 6 62t15 66.5t18 57.5l112 -30q-5 -19 -11 -40t-9.5 -43t-3.5 -44q0 -35 16.5 -64t64.5 -45.5t141 -16.5l20 -97zM396 -377q-25 0 -43 17.5t-18 42.5t18 43.5t43 18.5t42.5 -18.5t17.5 -43.5t-17.5 -42.5t-42.5 -17.5zM316 -235q-25 0 -43 17.5t-18 42.5
t18 43.5t43 18.5t42.5 -18.5t17.5 -43.5t-17.5 -42.5t-42.5 -17.5zM479 -235q-25 0 -43 17.5t-18 42.5t18 43.5t43 18.5t42.5 -18.5t17.5 -43.5t-17.5 -42.5t-42.5 -17.5z" />
    <glyph glyph-name="uni06B0.init" unicode="&#x6b0;" horiz-adv-x="388" 
d="M294 446q-35 0 -59 24.5t-24 58.5q0 35 24 59t59 24t58.5 -24t23.5 -59q0 -34 -23.5 -58.5t-58.5 -24.5zM294 500q13 0 22 8t9 21q0 14 -9 22t-22 8t-22 -8.5t-9 -21.5t9 -21t22 -8zM30 619l-55 88q37 24 78.5 50t90 56t103.5 63l55 -91q-55 -31 -103.5 -60.5t-90.5 -56
t-78 -49.5zM0 -5l10 128h81q24 0 39.5 7t24 18t12 23.5t3.5 23.5q0 35 -23 71.5t-51 69.5q-14 17 -27.5 32.5t-24.5 29t-17.5 24.5t-6.5 19q0 14 2.5 33.5t7 37t10.5 24.5q15 16 39 35.5t59 43t83 52.5t111 63l64 -107q-56 -30 -100 -55t-78 -46t-59.5 -40.5t-45.5 -37.5
l8 65q46 -52 82 -95.5t60.5 -81.5t37 -75t12.5 -76q0 -31 -10.5 -63.5t-36 -60.5t-69.5 -45t-111 -17h-86z" />
    <glyph glyph-name="uni06B0.medi" unicode="&#x6b0;" horiz-adv-x="418" 
d="M296 447q-35 0 -59 24.5t-24 58.5q0 35 24 59t59 24t58.5 -24t23.5 -59q0 -34 -23.5 -58.5t-58.5 -24.5zM296 501q13 0 22 8t9 21q0 14 -9 22t-22 8t-22 -8.5t-9 -21.5t9 -21t22 -8zM28 619l-55 88q37 24 78.5 50t90 56t103.5 63l55 -91q-55 -31 -103.5 -60.5t-90.5 -56
t-78 -49.5zM0 -5l9 128h82q30 0 47 10.5t24.5 27t7.5 34.5q0 17 -11 39.5t-28 47.5t-36 49.5t-36 46t-28 37.5t-11 22q0 15 2.5 35.5t7 38.5t11.5 25q18 19 46.5 41t66 47t82 51.5t95.5 53.5l64 -106q-51 -27 -93 -51.5t-76 -46.5t-61 -41.5t-47 -37.5l-5 69
q26 -30 51.5 -62t50.5 -67.5t48 -76t44 -88.5q20 -44 38 -65t38 -27t46 -6q31 0 46 -18t15 -44q0 -28 -18 -47t-53 -19q-41 0 -73.5 11.5t-56.5 38t-40 72.5l42 -3q-10 -30 -27 -52.5t-42 -37.5t-60 -22t-80 -7h-82z" />
    <glyph glyph-name="uni06B0.fina" unicode="&#x6b0;" horiz-adv-x="841" 
d="M717 446q-35 0 -59 24.5t-24 58.5q0 35 24 59t59 24t58.5 -24t23.5 -59q0 -34 -23.5 -58.5t-58.5 -24.5zM717 500q13 0 22 8t9 21q0 14 -9 22t-22 8t-22 -8.5t-9 -21.5t9 -21t22 -8zM456 619l-55 88q37 24 78.5 50t90 56t103.5 63l55 -91q-55 -31 -103.5 -60.5t-90.5 -56
t-78 -49.5zM357 -21l25 128q47 0 85.5 3t66.5 12t43 26.5t15 46.5q0 17 -11 39.5t-28 47.5t-36 49.5t-36 46t-28 37.5t-11 23q0 15 2.5 35t7 37t10.5 24q25 26 68 57.5t99.5 66.5t123.5 72l64 -106q-68 -38 -121 -69.5t-92 -58.5t-66 -52l-3 72q28 -32 54.5 -65.5t51.5 -70
t47.5 -76t41.5 -83.5q15 -33 27.5 -52.5t25.5 -29.5t29.5 -13t38.5 -3q30 0 45.5 -18t15.5 -44q0 -28 -18 -47t-52 -19q-37 0 -71 12t-59 38.5t-37 71.5l38 9q-12 -46 -42 -75t-76 -45t-106 -21.5t-132 -5.5zM357 -21q-87 0 -148.5 15.5t-100.5 45t-57 71t-18 93.5
q0 28 6 62t15 66.5t18 57.5l112 -30q-5 -19 -11 -40t-9.5 -43t-3.5 -44q0 -35 16.5 -64t64.5 -45.5t141 -16.5l20 -97z" />
    <glyph glyph-name="uni06B2.init" unicode="&#x6b2;" horiz-adv-x="388" 
d="M30 619l-55 88q37 24 78.5 50t90 56t103.5 63l55 -91q-55 -31 -103.5 -60.5t-90.5 -56t-78 -49.5zM0 -5l10 128h81q24 0 39.5 7t24 18t12 23.5t3.5 23.5q0 35 -23 71.5t-51 69.5q-14 17 -27.5 32.5t-24.5 29t-17.5 24.5t-6.5 19q0 14 2.5 33.5t7 37t10.5 24.5
q15 16 39 35.5t59 43t83 52.5t111 63l64 -107q-56 -30 -100 -55t-78 -46t-59.5 -40.5t-45.5 -37.5l8 65q46 -52 82 -95.5t60.5 -81.5t37 -75t12.5 -76q0 -31 -10.5 -63.5t-36 -60.5t-69.5 -45t-111 -17h-86zM251 -218q-28 0 -46.5 18.5t-18.5 44.5q0 27 18 46.5t47 19.5
q26 0 44.5 -19.5t18.5 -45.5q0 -27 -19 -45.5t-44 -18.5zM88 -218q-28 0 -46.5 18.5t-18.5 44.5q0 27 18 46.5t47 19.5q26 0 44.5 -19.5t18.5 -45.5q0 -27 -19 -45.5t-44 -18.5z" />
    <glyph glyph-name="uni06B2.medi" unicode="&#x6b2;" horiz-adv-x="418" 
d="M28 619l-55 88q37 24 78.5 50t90 56t103.5 63l55 -91q-55 -31 -103.5 -60.5t-90.5 -56t-78 -49.5zM0 -5l9 128h82q30 0 47 10.5t24.5 27t7.5 34.5q0 17 -11 39.5t-28 47.5t-36 49.5t-36 46t-28 37.5t-11 22q0 15 2.5 35.5t7 38.5t11.5 25q18 19 46.5 41t66 47t82 51.5
t95.5 53.5l64 -106q-51 -27 -93 -51.5t-76 -46.5t-61 -41.5t-47 -37.5l-5 69q26 -30 51.5 -62t50.5 -67.5t48 -76t44 -88.5q20 -44 38 -65t38 -27t46 -6q31 0 46 -18t15 -44q0 -28 -18 -47t-53 -19q-41 0 -73.5 11.5t-56.5 38t-40 72.5l42 -3q-10 -30 -27 -52.5t-42 -37.5
t-60 -22t-80 -7h-82zM251 -218q-28 0 -46.5 18.5t-18.5 44.5q0 27 18 46.5t47 19.5q26 0 44.5 -19.5t18.5 -45.5q0 -27 -19 -45.5t-44 -18.5zM88 -218q-28 0 -46.5 18.5t-18.5 44.5q0 27 18 46.5t47 19.5q26 0 44.5 -19.5t18.5 -45.5q0 -27 -19 -45.5t-44 -18.5z" />
    <glyph glyph-name="uni06B2.fina" unicode="&#x6b2;" horiz-adv-x="841" 
d="M456 619l-55 88q37 24 78.5 50t90 56t103.5 63l55 -91q-55 -31 -103.5 -60.5t-90.5 -56t-78 -49.5zM357 -21l25 128q47 0 85.5 3t66.5 12t43 26.5t15 46.5q0 17 -11 39.5t-28 47.5t-36 49.5t-36 46t-28 37.5t-11 23q0 15 2.5 35t7 37t10.5 24q25 26 68 57.5t99.5 66.5
t123.5 72l64 -106q-68 -38 -121 -69.5t-92 -58.5t-66 -52l-3 72q28 -32 54.5 -65.5t51.5 -70t47.5 -76t41.5 -83.5q15 -33 27.5 -52.5t25.5 -29.5t29.5 -13t38.5 -3q30 0 45.5 -18t15.5 -44q0 -28 -18 -47t-52 -19q-37 0 -71 12t-59 38.5t-37 71.5l38 9q-12 -46 -42 -75
t-76 -45t-106 -21.5t-132 -5.5zM357 -21q-87 0 -148.5 15.5t-100.5 45t-57 71t-18 93.5q0 28 6 62t15 66.5t18 57.5l112 -30q-5 -19 -11 -40t-9.5 -43t-3.5 -44q0 -35 16.5 -64t64.5 -45.5t141 -16.5l20 -97zM467 -239q-28 0 -46.5 18.5t-18.5 44.5q0 27 18 46.5t47 19.5
q26 0 44.5 -19.5t18.5 -45.5q0 -27 -19 -45.5t-44 -18.5zM304 -239q-28 0 -46.5 18.5t-18.5 44.5q0 27 18 46.5t47 19.5q26 0 44.5 -19.5t18.5 -45.5q0 -27 -19 -45.5t-44 -18.5z" />
    <glyph glyph-name="uni06B4.init" unicode="&#x6b4;" horiz-adv-x="388" 
d="M27 940q-23 0 -38 15t-15 36q0 22 15 37.5t38 15.5q21 0 35.5 -15.5t14.5 -37.5q0 -21 -14.5 -36t-35.5 -15zM12 810q-22 0 -37 15t-15 36q0 22 15 37.5t37 15.5q21 0 36 -15.5t15 -37.5q0 -21 -15 -36t-36 -15zM133 863q-22 0 -37 14.5t-15 36.5q0 21 15 37t37 16
q21 0 36 -16t15 -37q0 -22 -15 -36.5t-36 -14.5zM30 619l-55 88q37 24 78.5 50t90 56t103.5 63l55 -91q-55 -31 -103.5 -60.5t-90.5 -56t-78 -49.5zM0 -5l10 128h81q24 0 39.5 7t24 18t12 23.5t3.5 23.5q0 35 -23 71.5t-51 69.5q-14 17 -27.5 32.5t-24.5 29t-17.5 24.5
t-6.5 19q0 14 2.5 33.5t7 37t10.5 24.5q15 16 39 35.5t59 43t83 52.5t111 63l64 -107q-56 -30 -100 -55t-78 -46t-59.5 -40.5t-45.5 -37.5l8 65q46 -52 82 -95.5t60.5 -81.5t37 -75t12.5 -76q0 -31 -10.5 -63.5t-36 -60.5t-69.5 -45t-111 -17h-86z" />
    <glyph glyph-name="uni06B4.medi" unicode="&#x6b4;" horiz-adv-x="418" 
d="M15 940q-23 0 -38 15t-15 36q0 22 15 37.5t38 15.5q21 0 35.5 -15.5t14.5 -37.5q0 -21 -14.5 -36t-35.5 -15zM0 810q-22 0 -37 15t-15 36q0 22 15 37.5t37 15.5q21 0 36 -15.5t15 -37.5q0 -21 -15 -36t-36 -15zM121 863q-22 0 -37 14.5t-15 36.5q0 21 15 37t37 16
q21 0 36 -16t15 -37q0 -22 -15 -36.5t-36 -14.5zM28 619l-55 88q37 24 78.5 50t90 56t103.5 63l55 -91q-55 -31 -103.5 -60.5t-90.5 -56t-78 -49.5zM0 -5l9 128h82q30 0 47 10.5t24.5 27t7.5 34.5q0 17 -11 39.5t-28 47.5t-36 49.5t-36 46t-28 37.5t-11 22q0 15 2.5 35.5
t7 38.5t11.5 25q18 19 46.5 41t66 47t82 51.5t95.5 53.5l64 -106q-51 -27 -93 -51.5t-76 -46.5t-61 -41.5t-47 -37.5l-5 69q26 -30 51.5 -62t50.5 -67.5t48 -76t44 -88.5q20 -44 38 -65t38 -27t46 -6q31 0 46 -18t15 -44q0 -28 -18 -47t-53 -19q-41 0 -73.5 11.5t-56.5 38
t-40 72.5l42 -3q-10 -30 -27 -52.5t-42 -37.5t-60 -22t-80 -7h-82z" />
    <glyph glyph-name="uni06B4.fina" unicode="&#x6b4;" horiz-adv-x="841" 
d="M451 941q-23 0 -38 15t-15 36q0 22 15 37.5t38 15.5q21 0 35.5 -15.5t14.5 -37.5q0 -21 -14.5 -36t-35.5 -15zM436 811q-22 0 -37 15t-15 36q0 22 15 37.5t37 15.5q21 0 36 -15.5t15 -37.5q0 -21 -15 -36t-36 -15zM557 864q-22 0 -37 14.5t-15 36.5q0 21 15 37t37 16
q21 0 36 -16t15 -37q0 -22 -15 -36.5t-36 -14.5zM456 619l-55 88q37 24 78.5 50t90 56t103.5 63l55 -91q-55 -31 -103.5 -60.5t-90.5 -56t-78 -49.5zM357 -21l25 128q47 0 85.5 3t66.5 12t43 26.5t15 46.5q0 17 -11 39.5t-28 47.5t-36 49.5t-36 46t-28 37.5t-11 23
q0 15 2.5 35t7 37t10.5 24q25 26 68 57.5t99.5 66.5t123.5 72l64 -106q-68 -38 -121 -69.5t-92 -58.5t-66 -52l-3 72q28 -32 54.5 -65.5t51.5 -70t47.5 -76t41.5 -83.5q15 -33 27.5 -52.5t25.5 -29.5t29.5 -13t38.5 -3q30 0 45.5 -18t15.5 -44q0 -28 -18 -47t-52 -19
q-37 0 -71 12t-59 38.5t-37 71.5l38 9q-12 -46 -42 -75t-76 -45t-106 -21.5t-132 -5.5zM357 -21q-87 0 -148.5 15.5t-100.5 45t-57 71t-18 93.5q0 28 6 62t15 66.5t18 57.5l112 -30q-5 -19 -11 -40t-9.5 -43t-3.5 -44q0 -35 16.5 -64t64.5 -45.5t141 -16.5l20 -97z" />
    <glyph glyph-name="uni06B5.init" unicode="&#x6b5;" horiz-adv-x="268" 
d="M0 -5l9 128q33 0 48 10.5t19 40.5t2 86l-19 478h135l20 -490q3 -58 -3.5 -104.5t-28.5 -79.5t-65.5 -51t-116.5 -18zM99 810q-7 14 -16.5 39t-20 54t-20 54.5t-16.5 40.5l52 21q4 -9 12 -30.5t18 -47t19.5 -49t16.5 -37.5l20 -40zM163 815l-46 20q5 15 14.5 43t19 58.5
t17 54.5t9.5 31l52 -15l-11.5 -34.5t-19.5 -56.5t-20.5 -59t-14.5 -42z" />
    <glyph glyph-name="uni06B5.medi" unicode="&#x6b5;" horiz-adv-x="286" 
d="M0 -5l10 128q28 0 42.5 11.5t19 41.5t2.5 85l-16 477h135l18 -475q2 -57 9.5 -87.5t25.5 -41.5t51 -11q31 0 46 -18t15 -44q0 -30 -18 -48t-52 -18q-32 0 -65.5 11.5t-58.5 39t-32 75.5h46q-17 -45 -42 -73t-58.5 -40.5t-77.5 -12.5zM109 841q-7 14 -16.5 39t-20 54
t-20 54.5t-16.5 40.5l52 21q4 -9 12 -30.5t18 -47t19.5 -49t16.5 -37.5l20 -40zM173 846l-46 20q5 15 14.5 43t19 58.5t17 54.5t9.5 31l52 -15l-11.5 -34.5t-19.5 -56.5t-20.5 -59t-14.5 -42z" />
    <glyph glyph-name="uni06B5.fina" unicode="&#x6b5;" horiz-adv-x="672" 
d="M32 17q0 24 4 53.5t15.5 69.5t35.5 94l116 -45q-14 -36 -22 -61.5t-11.5 -48t-3.5 -48.5q0 -43 16 -73t45.5 -45t68.5 -15q62 0 95.5 29t45.5 90t8 157l-20 564h136l15 -480q2 -55 14 -84.5t35 -40t58 -10.5q30 0 45.5 -18t15.5 -44q0 -31 -18 -48.5t-52 -17.5
q-19 0 -42 5t-44.5 17.5t-37.5 35t-23 57.5l48 -1q-1 -71 -18.5 -132.5t-52.5 -108t-88 -72.5t-124 -26q-49 0 -95.5 14.5t-83.5 44.5t-59 76.5t-22 111.5zM180 560q-7 14 -16.5 39t-20 54t-20 54.5t-16.5 40.5l52 21q4 -9 12 -30.5t18 -47t19.5 -49t16.5 -37.5l20 -40z
M244 565l-46 20q5 15 14.5 43t19 58.5t17 54.5t9.5 31l52 -15l-11.5 -34.5t-19.5 -56.5t-20.5 -59t-14.5 -42z" />
    <glyph glyph-name="uni06B6.init" unicode="&#x6b6;" horiz-adv-x="268" 
d="M0 -5l9 128q33 0 48 10.5t19 40.5t2 86l-19 478h135l20 -490q3 -58 -3.5 -104.5t-28.5 -79.5t-65.5 -51t-116.5 -18zM130 807q-28 0 -46.5 18.5t-18.5 44.5q0 27 18.5 46.5t46.5 19.5q26 0 44.5 -19.5t18.5 -45.5q0 -27 -18.5 -45.5t-44.5 -18.5z" />
    <glyph glyph-name="uni06B6.medi" unicode="&#x6b6;" horiz-adv-x="286" 
d="M0 -5l10 128q28 0 42.5 11.5t19 41.5t2.5 85l-16 477h135l18 -475q2 -57 9.5 -87.5t25.5 -41.5t51 -11q31 0 46 -18t15 -44q0 -30 -18 -48t-52 -18q-32 0 -65.5 11.5t-58.5 39t-32 75.5h46q-17 -45 -42 -73t-58.5 -40.5t-77.5 -12.5zM136 808q-28 0 -46.5 18.5
t-18.5 44.5q0 27 18.5 46.5t46.5 19.5q26 0 44.5 -19.5t18.5 -45.5q0 -27 -18.5 -45.5t-44.5 -18.5z" />
    </font>
</defs>
</svg>
