<?xml version="1.0" standalone="no"?>
<!DOCTYPE svg PUBLIC "-//W3C//DTD SVG 1.1//EN" "http://www.w3.org/Graphics/SVG/1.1/DTD/svg11.dtd" >
<svg xmlns="http://www.w3.org/2000/svg" xmlns:xlink="http://www.w3.org/1999/xlink" version="1.1">
<metadata>
Created by FontForge 20170731 at Thu Nov 12 05:28:44 2020
 By Aleksey,,,
Copyright 2015-2020 Google LLC. All Rights Reserved.
</metadata>
<defs>
<font id="NotoSansArabicExtraCondensed-ExtraBold" horiz-adv-x="0" >
  <font-face 
    font-family="Noto Sans Arabic ExtraCondensed ExtraBold"
    font-weight="800"
    font-stretch="extra-condensed"
    units-per-em="1000"
    panose-1="0 0 0 0 0 0 0 0 0 0"
    ascent="800"
    descent="-200"
    bbox="-220 -702 2256 1134"
    underline-thickness="50"
    underline-position="-175"
    unicode-range="U+000D-FEFC"
  />
<missing-glyph horiz-adv-x="600" 
d="M94 0v714h411v-714h-411zM145 51h309v612h-309v-612z" />
    <glyph glyph-name="uniFC43" unicode="&#xfedf;&#xfef0;" horiz-adv-x="971" arabic-form="isolated" 
d="M688 -5l9 144q33 0 47.5 9.5t18.5 39t1 87.5l-19 473h153l20 -490q3 -59 -3.5 -107.5t-30 -83t-70.5 -53.5t-126 -19zM28 17q0 24 4 57t16 77t35 98l133 -46q-14 -38 -22.5 -67t-11.5 -51t-3 -40q0 -33 12 -57t33.5 -40.5t51 -25t66.5 -8.5q48 -1 82.5 9.5t56 26
t31.5 32.5t10 28q0 7 -6 14t-20 15t-37.5 17.5t-59.5 21.5l39 134q40 -15 77.5 -28.5t71 -23.5t61.5 -15.5t51 -5.5q33 0 50 -20.5t17 -49.5q0 -34 -20 -54t-57 -20h-10t-10 0.5t-10 0.5q2 -8 3 -14.5t1 -15.5q0 -32 -21 -66.5t-62 -63.5t-102 -47.5t-143 -18.5
q-89 0 -158 27.5t-109 82.5t-40 137z" />
    <glyph glyph-name="uniFC86" unicode="&#xfee0;&#xfef0;" horiz-adv-x="990" arabic-form="final" 
d="M688 -5l10 144q28 0 42 10.5t19 40t3 85.5l-16 473h153l17 -471q2 -58 9 -88t24.5 -40t51.5 -10q33 0 50 -20.5t17 -49.5q0 -34 -20.5 -54t-56.5 -20q-32 0 -68 11.5t-63 40.5t-35 81h52q-19 -48 -45.5 -78t-62 -42.5t-81.5 -12.5zM28 17q0 24 4 57t16 77t35 98l133 -46
q-14 -38 -22.5 -67t-11.5 -51t-3 -40q0 -33 12 -57t33.5 -40.5t51 -25t66.5 -8.5q48 -1 82.5 9.5t56 26t31.5 32.5t10 28q0 7 -6 14t-20 15t-37.5 17.5t-59.5 21.5l39 134q40 -15 77.5 -28.5t71 -23.5t61.5 -15.5t51 -5.5q33 0 50 -20.5t17 -49.5q0 -34 -20 -54t-57 -20h-10
t-10 0.5t-10 0.5q2 -8 3 -14.5t1 -15.5q0 -32 -21 -66.5t-62 -63.5t-102 -47.5t-143 -18.5q-89 0 -158 27.5t-109 82.5t-40 137z" />
    <glyph glyph-name="uniFD82" unicode="&#xfee0;&#xfea4;&#xfef0;" horiz-adv-x="1550" arabic-form="final" 
d="M1248 -5l10 144q28 0 42 10.5t19 40t3 85.5l-16 473h153l17 -471q2 -58 9 -88t24.5 -40t51.5 -10q33 0 50 -20.5t17 -49.5q0 -34 -20.5 -54t-56.5 -20q-32 0 -68 11.5t-63 40.5t-35 81h52q-19 -48 -45.5 -78t-62 -42.5t-81.5 -12.5zM1248 -5q-27 0 -54 8t-52 26t-46 49.5
t-35 78.5l83 63q13 -33 32 -50.5t40.5 -24t41.5 -6.5q34 0 51 -20.5t17 -49.5q0 -34 -20.5 -54t-57.5 -20zM688 -5l9 144q41 0 85.5 7t90 20.5t90 35.5t85.5 51q-34 18 -65.5 28.5t-61.5 16t-62 5.5q-16 0 -31 -1t-30 -3t-32 -6l-26 148q28 8 54.5 11.5t56.5 3.5
q56 0 99.5 -12t77.5 -29t62 -34.5t53 -29.5t49 -12h26l18 -131q-31 -4 -61 -21t-62 -41t-71 -50t-89 -49t-114.5 -37.5t-150.5 -14.5zM28 17q0 24 4 57t16 77t35 98l133 -46q-14 -38 -22.5 -67t-11.5 -51t-3 -40q0 -33 12 -57t33.5 -40.5t51 -25t66.5 -8.5q48 -1 82.5 9.5
t56 26t31.5 32.5t10 28q0 7 -6 14t-20 15t-37.5 17.5t-59.5 21.5l39 134q40 -15 77.5 -28.5t71 -23.5t61.5 -15.5t51 -5.5q33 0 50 -20.5t17 -49.5q0 -34 -20 -54t-57 -20h-10t-10 0.5t-10 0.5q2 -8 3 -14.5t1 -15.5q0 -32 -21 -66.5t-62 -63.5t-102 -47.5t-143 -18.5
q-89 0 -158 27.5t-109 82.5t-40 137z" />
    <glyph glyph-name="uniFDF2" unicode="&#x627;&#xfedf;&#xfee0;&#xfeea;" horiz-adv-x="1354" arabic-form="isolated" 
d="M510 -5q-41 0 -75.5 9t-61.5 29.5t-44 53.5q-56 -10 -110.5 -5.5t-98.5 25.5t-70 60t-26 98q0 70 35.5 122.5t95 89t132.5 56.5l-4 78h148l17 -371q2 -41 8.5 -63t21.5 -30t42 -8q23 0 36 10.5t17 40t2 85.5l-11 357h152l14 -355q2 -58 8.5 -88t24 -40t48.5 -10
q29 0 43 9.5t17.5 39t1.5 87.5l-19 473h152l21 -490q3 -59 -4 -107.5t-29.5 -83t-69 -53.5t-123.5 -19q-24 0 -50.5 6.5t-50.5 22.5t-41 44q-27 -39 -64.5 -56t-84.5 -17zM301 222l-7 164q-35 -8 -62.5 -24t-44 -37.5t-16.5 -47.5q0 -18 11 -30.5t29.5 -19.5t42 -8t47.5 3z
M1147 0l-21 748h151l21 -748h-151zM536 710q-41 0 -53.5 26.5t-12.5 64.5q0 11 1.5 21.5t3.5 25.5l61 13q-2 -16 -3.5 -29t-1.5 -23q0 -18 4 -25t12 -7q12 0 18 14t7 54v29l51 16v-56q0 -15 4.5 -22.5t15.5 -7.5q12 0 16 9.5t4 24.5q0 16 -4 31.5t-9 31.5l56 13
q9 -18 15 -40t6 -40q0 -40 -17.5 -67t-60.5 -27q-22 0 -41 17t-19 49l20 -8q0 -43 -22.5 -65.5t-50.5 -22.5zM552 947l-5 156h86l5 -156h-86z" />
    <glyph glyph-name="uniFEF5" unicode="&#xfedf;&#xfe82;" horiz-adv-x="700" arabic-form="isolated" 
d="M356 547q0 26 -3.5 59t-8.5 64t-9 52l143 20q4 -20 8 -52t7 -67t3 -68q0 -48 -6 -94.5t-21 -87.5t-45 -73l-22 -25q-29 -35 -67 -71t-78 -68h81q28 0 44 5.5t22 14.5t6 21q0 21 -28.5 56t-80.5 80.5t-120.5 96t-147.5 101.5l71 118q114 -73 192.5 -134t128.5 -111t77 -91
t37.5 -75t10.5 -64q0 -27 -9.5 -54t-30.5 -49.5t-54.5 -36.5t-82.5 -14h-272v158q92 72 148 136t81.5 125.5t25.5 127.5zM205 692q-29 0 -53 9.5t-43 19t-36 9.5t-31.5 -8.5t-29.5 -23.5l-45 50q26 33 52 48.5t53 15.5q25 0 45.5 -9t42 -18.5t45.5 -9.5q14 0 28 5t33 17
l34 -60q-34 -29 -57.5 -37t-37.5 -8z" />
    <glyph glyph-name="uniFEF6" unicode="&#xfee0;&#xfe82;" horiz-adv-x="638" arabic-form="final" 
d="M636 -5q-60 0 -104.5 15t-74.5 43.5t-45 67t-17 84.5l-20 543h146l22 -492q2 -49 13 -74.5t32 -34t52 -8.5q36 0 56 -18t20 -50q0 -33 -20.5 -54.5t-59.5 -21.5zM142 -5q-33 0 -58.5 4t-43.5 7l19 152q69 -10 129 -5.5t105 30t70 79t25 142.5l58 -170q-9 -47 -26.5 -85
t-44 -67t-61.5 -48t-78 -29t-94 -10zM315 135q-15 29 -38 67t-56 85t-79.5 102.5t-108.5 117.5l99 103q63 -72 110 -130t79.5 -103.5t53 -81.5t31.5 -64zM205 692q-29 0 -53 9.5t-43 19t-36 9.5t-31.5 -8.5t-29.5 -23.5l-45 50q26 33 52 48.5t53 15.5q25 0 45.5 -9t42 -18.5
t45.5 -9.5q14 0 28 5t33 17l34 -60q-34 -29 -57.5 -37t-37.5 -8z" />
    <glyph glyph-name="uniFEF7" unicode="&#xfedf;&#xfe84;" horiz-adv-x="620" arabic-form="isolated" 
d="M356 547q0 26 -3.5 59t-8.5 64t-9 52l143 20q4 -20 8 -52t7 -67t3 -68q0 -48 -6 -94.5t-21 -87.5t-45 -73l-22 -25q-29 -35 -67 -71t-78 -68h81q28 0 44 5.5t22 14.5t6 21q0 21 -28.5 56t-80.5 80.5t-120.5 96t-147.5 101.5l71 118q114 -73 192.5 -134t128.5 -111t77 -91
t37.5 -75t10.5 -64q0 -27 -9.5 -54t-30.5 -49.5t-54.5 -36.5t-82.5 -14h-272v158q92 72 148 136t81.5 125.5t25.5 127.5zM34 678l-15 62q34 6 50.5 9.5t34.5 8.5l-14 -27q-24 8 -45 32t-21 58q0 32 14 51.5t36.5 29t48.5 9.5q13 0 26.5 -2t23.5 -5l-7 -58q-9 2 -18.5 3.5
t-19.5 1.5q-19 0 -28.5 -8t-9.5 -22q0 -17 11 -29.5t25.5 -19.5t24.5 -8l-40 -4q24 7 45.5 13.5t41.5 13.5l18 -60q-24 -8 -54 -17.5t-62.5 -17.5t-65.5 -14z" />
    <glyph glyph-name="uniFEF8" unicode="&#xfee0;&#xfe84;" horiz-adv-x="650" arabic-form="final" 
d="M636 -5q-60 0 -104.5 15t-74.5 43.5t-45 67t-17 84.5l-20 543h146l22 -492q2 -49 13 -74.5t32 -34t52 -8.5q36 0 56 -18t20 -50q0 -33 -20.5 -54.5t-59.5 -21.5zM142 -5q-33 0 -58.5 4t-43.5 7l19 152q69 -10 129 -5.5t105 30t70 79t25 142.5l58 -170q-9 -47 -26.5 -85
t-44 -67t-61.5 -48t-78 -29t-94 -10zM315 135q-15 29 -38 67t-56 85t-79.5 102.5t-108.5 117.5l99 103q63 -72 110 -130t79.5 -103.5t53 -81.5t31.5 -64zM50 678l-15 62q34 6 50.5 9.5t34.5 8.5l-14 -27q-24 8 -45 32t-21 58q0 32 14 51.5t36.5 29t48.5 9.5q13 0 26.5 -2
t23.5 -5l-7 -58q-9 2 -18.5 3.5t-19.5 1.5q-19 0 -28.5 -8t-9.5 -22q0 -17 11 -29.5t25.5 -19.5t24.5 -8l-40 -4q24 7 45.5 13.5t41.5 13.5l18 -60q-24 -8 -54 -17.5t-62.5 -17.5t-65.5 -14z" />
    <glyph glyph-name="uniFEF9" unicode="&#xfedf;&#xfe88;" horiz-adv-x="606" arabic-form="isolated" 
d="M356 547q0 26 -3.5 59t-8.5 64t-9 52l143 20q4 -20 8 -52t7 -67t3 -68q0 -48 -6 -94.5t-21 -87.5t-45 -73l-22 -25q-29 -35 -67 -71t-78 -68h81q28 0 44 5.5t22 14.5t6 21q0 21 -28.5 56t-80.5 80.5t-120.5 96t-147.5 101.5l71 118q114 -73 192.5 -134t128.5 -111t77 -91
t37.5 -75t10.5 -64q0 -27 -9.5 -54t-30.5 -49.5t-54.5 -36.5t-82.5 -14h-272v158q92 72 148 136t81.5 125.5t25.5 127.5zM94 -299l-15 62q34 6 50.5 9.5t34.5 8.5l-14 -27q-24 8 -45 32t-21 58q0 32 14 51.5t36.5 29t48.5 9.5q13 0 26.5 -2t23.5 -5l-7 -58q-9 2 -18.5 3.5
t-19.5 1.5q-19 0 -28.5 -8t-9.5 -22q0 -17 11 -29.5t25.5 -19.5t24.5 -8l-40 -4q24 7 45.5 13.5t41.5 13.5l18 -60q-24 -8 -54 -17.5t-62.5 -17.5t-65.5 -14z" />
    <glyph glyph-name="uniFEFA" unicode="&#xfee0;&#xfe88;" horiz-adv-x="638" arabic-form="final" 
d="M636 -5q-60 0 -104.5 15t-74.5 43.5t-45 67t-17 84.5l-20 543h146l22 -492q2 -49 13 -74.5t32 -34t52 -8.5q36 0 56 -18t20 -50q0 -33 -20.5 -54.5t-59.5 -21.5zM142 -5q-33 0 -58.5 4t-43.5 7l19 152q69 -10 129 -5.5t105 30t70 79t25 142.5l58 -170q-9 -47 -26.5 -85
t-44 -67t-61.5 -48t-78 -29t-94 -10zM315 135q-15 29 -38 67t-56 85t-79.5 102.5t-108.5 117.5l99 103q63 -72 110 -130t79.5 -103.5t53 -81.5t31.5 -64zM94 -299l-15 62q34 6 50.5 9.5t34.5 8.5l-14 -27q-24 8 -45 32t-21 58q0 32 14 51.5t36.5 29t48.5 9.5q13 0 26.5 -2
t23.5 -5l-7 -58q-9 2 -18.5 3.5t-19.5 1.5q-19 0 -28.5 -8t-9.5 -22q0 -17 11 -29.5t25.5 -19.5t24.5 -8l-40 -4q24 7 45.5 13.5t41.5 13.5l18 -60q-24 -8 -54 -17.5t-62.5 -17.5t-65.5 -14z" />
    <glyph glyph-name="uniFEFB" unicode="&#xfedf;&#xfe8e;" horiz-adv-x="606" arabic-form="isolated" 
d="M356 547q0 26 -3.5 59t-8.5 64t-9 52l143 20q4 -20 8 -52t7 -67t3 -68q0 -48 -6 -94.5t-21 -87.5t-45 -73l-22 -25q-29 -35 -67 -71t-78 -68h81q28 0 44 5.5t22 14.5t6 21q0 21 -28.5 56t-80.5 80.5t-120.5 96t-147.5 101.5l71 118q114 -73 192.5 -134t128.5 -111t77 -91
t37.5 -75t10.5 -64q0 -27 -9.5 -54t-30.5 -49.5t-54.5 -36.5t-82.5 -14h-272v158q92 72 148 136t81.5 125.5t25.5 127.5z" />
    <glyph glyph-name="uniFEFC" unicode="&#xfee0;&#xfe8e;" horiz-adv-x="638" arabic-form="final" 
d="M636 -5q-60 0 -104.5 15t-74.5 43.5t-45 67t-17 84.5l-20 543h146l22 -492q2 -49 13 -74.5t32 -34t52 -8.5q36 0 56 -18t20 -50q0 -33 -20.5 -54.5t-59.5 -21.5zM142 -5q-33 0 -58.5 4t-43.5 7l19 152q69 -10 129 -5.5t105 30t70 79t25 142.5l58 -170q-9 -47 -26.5 -85
t-44 -67t-61.5 -48t-78 -29t-94 -10zM315 135q-15 29 -38 67t-56 85t-79.5 102.5t-108.5 117.5l99 103q63 -72 110 -130t79.5 -103.5t53 -81.5t31.5 -64z" />
    <glyph glyph-name="lam_alefMaksura_meemar" unicode="&#xfedf;&#xfbe9;&#xfee2;" horiz-adv-x="1151" 
d="M868 -5l9 144q33 0 47.5 9.5t18.5 39t1 87.5l-19 473h153l20 -490q3 -59 -3.5 -107.5t-30 -83t-70.5 -53.5t-126 -19zM597 -5l10 144q20 0 35 7t23.5 25t8.5 48q0 33 -7 75t-18 85t-22 78l138 39q12 -34 24.5 -80.5t20.5 -98t8 -102.5q0 -57 -15 -96t-39 -63.5t-54 -37.5
t-59 -18t-54 -5zM81 -390q-23 80 -38 154.5t-22 131.5t-7 85q0 101 26.5 177t68 129.5t89 87.5t92 50t74.5 16q41 0 64.5 -23t39 -60t33.5 -81q21 -53 39 -83t34.5 -42.5t33.5 -12.5q33 0 50 -20.5t17 -49.5q0 -32 -20.5 -53t-56.5 -21q-37 0 -70 17t-64 55l25 16
q-9 -28 -26 -51t-42.5 -36.5t-61.5 -13.5q-20 0 -46 5t-55.5 20.5t-60 47.5t-58.5 85l40 -7q-16 -35 -22.5 -74.5t-6.5 -72.5q0 -32 5.5 -73.5t14 -87t19.5 -90.5t22 -86zM366 120q18 0 26.5 7.5t9.5 18t-3 20.5q-18 46 -29 73.5t-17.5 40.5t-10.5 17.5t-10 4.5
q-9 0 -25.5 -10t-34 -24.5t-30.5 -30t-16 -26.5l-7 42q16 -31 40 -62t52 -51t55 -20z" />
    <glyph glyph-name="lam_alefWaslaar" unicode="&#xfedf;&#xfb51;" horiz-adv-x="569" 
d="M136 695q-21 0 -48 1.5t-51.5 4.5t-36.5 5l6 63q13 -1 35.5 -3.5t48 -4.5t46.5 -2q48 0 63.5 11.5t15.5 25.5q0 16 -9 24t-21 8q-11 0 -24.5 -8.5t-27 -25.5t-23.5 -42l-74 1q11 30 31.5 62t50.5 55t69 23q40 0 66.5 -25.5t26.5 -67.5q0 -29 -12 -53t-43 -38t-89 -14z
M356 547q0 26 -3.5 59t-8.5 64t-9 52l143 20q4 -20 8 -52t7 -67t3 -68q0 -49 -6 -95t-21 -87t-45 -73l-22 -25q-29 -35 -67 -71t-78 -68h81q28 0 43.5 5.5t22 14.5t6.5 21q0 20 -28.5 55.5t-80.5 80.5t-120.5 96t-147.5 102l71 118q114 -73 192.5 -134t128.5 -111t77 -91
t37.5 -75t10.5 -64q0 -27 -9.5 -54t-30.5 -49.5t-54.5 -36.5t-82.5 -14h-272v158q92 72 148 136t81.5 125.5t25.5 127.5z" />
    <glyph glyph-name="lam_alefWaslaar.fina" unicode="&#xfee0;&#xfb51;" horiz-adv-x="735" 
d="M135 695q-20 0 -47 2t-51.5 4.5t-36.5 4.5l6 63q13 -1 35.5 -3.5t48 -4.5t45.5 -2q49 0 64.5 11t15.5 26q0 16 -9 24t-21 8q-11 0 -24.5 -8.5t-27 -25t-23.5 -42.5l-74 1q11 30 31.5 62t50.5 55t69 23q40 0 66.5 -25.5t26.5 -67.5q0 -29 -12 -53t-43 -38t-90 -14zM636 -5
q-60 0 -104.5 15t-74.5 43.5t-45 67t-17 84.5l-20 543h146l22 -492q2 -49 13 -74.5t32 -34t52 -8.5q36 0 56 -18t20 -50q0 -33 -20.5 -54.5t-59.5 -21.5zM142 -5q-33 0 -58.5 4t-43.5 7l19 152q69 -10 129 -5.5t105 30t70 79t25 142.5l58 -170q-9 -47 -26.5 -85t-44 -67
t-61.5 -48t-78 -29t-94 -10zM315 135q-15 29 -38 67t-56 85t-79.5 102.5t-108.5 117.5l99 103q63 -72 110 -130t79.5 -103.5t53 -81.5t31.5 -64z" />
    <glyph glyph-name="uni0620.init" unicode="&#x620;" horiz-adv-x="351" 
d="M0 -5l10 144q55 0 85.5 8t42.5 25t12 45q0 34 -7.5 76t-18.5 85.5t-22 78.5l137 39q13 -34 25 -80.5t20.5 -97t8.5 -98.5q0 -73 -23 -118t-64 -68t-94 -31t-112 -8zM206 -85q-36 0 -60.5 25t-24.5 61q0 35 24.5 60t60.5 25t60.5 -25t24.5 -60q0 -36 -24.5 -61t-60.5 -25z
M206 -27q13 0 21.5 7.5t8.5 19.5q0 13 -8.5 21t-21.5 8q-12 0 -20.5 -8t-8.5 -20q0 -13 8.5 -20.5t20.5 -7.5z" />
    <glyph glyph-name="uni0620.medi" unicode="&#x620;" horiz-adv-x="387" 
d="M0 -5l10 144q33 0 54 7t34.5 28.5t23.5 65.5t19 118l141 -24q-2 -15 -5 -33.5t-5 -39t-2 -39.5q0 -21 6 -36.5t20.5 -26t39 -15.5t61.5 -5q34 0 51 -20.5t17 -49.5q0 -34 -20.5 -54t-57.5 -20q-54 0 -92 9t-62.5 27.5t-38 47t-16.5 68.5l51 -1q-18 -51 -44.5 -82
t-57.5 -45.5t-63.5 -19t-63.5 -4.5zM130 -98q-36 0 -60.5 25t-24.5 60q0 36 24.5 61t60.5 25t60.5 -25t24.5 -61q0 -35 -24.5 -60t-60.5 -25zM130 -40q12 0 21 7.5t9 19.5q0 13 -9 21t-21 8t-21 -8t-9 -21q0 -12 9 -19.5t21 -7.5z" />
    <glyph glyph-name="uni0620.fina" unicode="&#x620;" horiz-adv-x="688" 
d="M337 -344q-36 0 -61 25t-25 60q0 36 25 61t61 25t60 -25t24 -61q0 -35 -24 -60t-60 -25zM337 -286q12 0 20.5 7.5t8.5 19.5q0 13 -8.5 21t-20.5 8t-21 -8.5t-9 -20.5t9 -19.5t21 -7.5zM28 17q0 24 4 57t16 77t35 98l133 -46q-14 -38 -22.5 -67t-11.5 -51t-3 -40
q0 -33 12 -57t33.5 -40.5t51 -25t66.5 -8.5q48 -1 82.5 9.5t56 26t31.5 32.5t10 28q0 7 -6 14t-20 15t-37.5 17.5t-59.5 21.5l39 134q40 -15 77.5 -28.5t71 -23.5t61.5 -15.5t51 -5.5q33 0 50 -20.5t17 -49.5q0 -34 -20 -54t-57 -20h-10t-10 0.5t-10 0.5q2 -8 3 -14.5
t1 -15.5q0 -32 -21 -66.5t-62 -63.5t-102 -47.5t-143 -18.5q-89 0 -158 27.5t-109 82.5t-40 137z" />
    <glyph glyph-name="uni063B.init" unicode="&#x63b;" horiz-adv-x="396" 
d="M227 726q-23 0 -38 15t-15 36q0 23 15 38.5t38 15.5q21 0 36 -15.5t15 -38.5q0 -21 -15 -36t-36 -15zM99 663q-22 0 -37 15t-15 37t15 38t37 16t37 -16t15 -38t-15 -37t-37 -15zM0 -5l10 144h92q21 0 34.5 4.5t21 12.5t11 18t3.5 20q0 32 -20.5 66.5t-45.5 65.5
q-18 23 -33 40.5t-25 31t-16 24t-6 18.5q0 14 2.5 34.5t7 39.5t11.5 26q16 17 39.5 36.5t57.5 43t80 51.5t108 61l72 -119q-55 -30 -97.5 -54.5t-74.5 -45t-56 -39t-42 -36.5l8 76q43 -47 77.5 -90t59.5 -82.5t38 -77.5t13 -77q0 -32 -11.5 -65.5t-38.5 -62.5t-72.5 -46.5
t-114.5 -17.5h-93z" />
    <glyph glyph-name="uni063B.medi" unicode="&#x63b;" horiz-adv-x="429" 
d="M230 725q-23 0 -38 15t-15 37t15 38t38 16q21 0 36 -16t15 -38t-15 -37t-36 -15zM102 663q-22 0 -37 15t-15 36q0 22 15 38t37 16t37 -16t15 -38q0 -21 -15 -36t-37 -15zM0 -5l9 144h92q28 0 43.5 7.5t21.5 20t6 27.5q0 19 -11 42t-27.5 48t-35 49t-35 45t-27.5 37
t-11 22q0 15 2.5 36.5t7 40.5t11.5 26q18 18 44 39t61.5 45.5t80 51t99.5 56.5l73 -119q-54 -29 -96 -53.5t-74.5 -46t-57.5 -40.5t-44 -37l5 81q23 -28 47 -59t48.5 -65.5t47 -74t41.5 -86.5q18 -43 35 -63t37.5 -25t46.5 -5q33 0 50 -20.5t17 -49.5q0 -32 -20.5 -53
t-56.5 -21q-43 0 -76.5 11.5t-57 38t-36.5 72.5l49 -2q-12 -29 -31 -52t-46.5 -38t-63.5 -22.5t-82 -7.5h-86z" />
    <glyph glyph-name="uni063B.fina" unicode="&#x63b;" horiz-adv-x="863" 
d="M639 726q-23 0 -38 15t-15 36q0 23 15 38.5t38 15.5q22 0 36.5 -15.5t14.5 -38.5q0 -21 -14.5 -36t-36.5 -15zM512 663q-22 0 -37.5 15t-15.5 37t15.5 38t37.5 16q21 0 36.5 -16t15.5 -38t-15.5 -37t-36.5 -15zM374 -21l26 144q45 0 81.5 3t62 11.5t39 23.5t13.5 38
q0 17 -10.5 39t-27 46t-35.5 48t-35.5 45t-27 36.5t-10.5 23.5q0 15 2.5 35.5t7 39t10.5 25.5q23 25 62 55t94.5 65.5t127.5 74.5l73 -119q-70 -39 -121 -69.5t-86.5 -56.5t-60.5 -50l4 81q25 -29 51 -61t50.5 -67.5t46 -74.5t39.5 -83q12 -31 25 -49t28.5 -28t32.5 -13
t37 -3q33 0 50.5 -20.5t17.5 -49.5q0 -32 -20.5 -53t-56.5 -21q-40 0 -74.5 12t-59 38.5t-35.5 71.5l38 5q-16 -43 -47.5 -71.5t-77.5 -44t-104.5 -21.5t-129.5 -6zM374 -21q-94 0 -159.5 17.5t-105.5 49t-58 74t-18 91.5q0 33 6.5 69t16 68.5t18.5 57.5l126 -34
q-5 -19 -11 -39.5t-9.5 -42t-3.5 -42.5q0 -35 17 -64t65 -45t142 -16l20 -113z" />
    <glyph glyph-name="uni063C.init" unicode="&#x63c;" horiz-adv-x="396" 
d="M0 -5l10 144h92q21 0 34.5 4.5t21 12.5t11 18t3.5 20q0 32 -20.5 66.5t-45.5 65.5q-18 23 -33 40.5t-25 31t-16 24t-6 18.5q0 14 2.5 34.5t7 39.5t11.5 26q16 17 39.5 36.5t57.5 43t80 51.5t108 61l72 -119q-55 -30 -97.5 -54.5t-74.5 -45t-56 -39t-42 -36.5l8 76
q43 -47 77.5 -90t59.5 -82.5t38 -77.5t13 -77q0 -32 -11.5 -65.5t-38.5 -62.5t-72.5 -46.5t-114.5 -17.5h-93zM179 -372q-27 0 -46.5 19t-19.5 47q0 27 19 47.5t47 20.5q27 0 46.5 -20.5t19.5 -47.5q0 -28 -19.5 -47t-46.5 -19zM96 -224q-28 0 -47 19.5t-19 46.5q0 28 19 48
t47 20t47 -20t19 -48q0 -27 -19 -46.5t-47 -19.5zM266 -224q-28 0 -47.5 19.5t-19.5 46.5q0 28 19.5 48t47.5 20t47 -20t19 -48q0 -27 -19 -46.5t-47 -19.5z" />
    <glyph glyph-name="uni063C.medi" unicode="&#x63c;" horiz-adv-x="429" 
d="M0 -5l9 144h92q28 0 43.5 7.5t21.5 20t6 27.5q0 19 -11 42t-27.5 48t-35 49t-35 45t-27.5 37t-11 22q0 15 2.5 36.5t7 40.5t11.5 26q18 18 44 39t61.5 45.5t80 51t99.5 56.5l73 -119q-54 -29 -96 -53.5t-74.5 -46t-57.5 -40.5t-44 -37l5 81q23 -28 47 -59t48.5 -65.5
t47 -74t41.5 -86.5q18 -43 35 -63t37.5 -25t46.5 -5q33 0 50 -20.5t17 -49.5q0 -32 -20.5 -53t-56.5 -21q-43 0 -76.5 11.5t-57 38t-36.5 72.5l49 -2q-12 -29 -31 -52t-46.5 -38t-63.5 -22.5t-82 -7.5h-86zM171 -372q-27 0 -46.5 19t-19.5 47q0 27 19 47.5t47 20.5
q27 0 46.5 -20.5t19.5 -47.5q0 -28 -19.5 -47t-46.5 -19zM88 -224q-28 0 -47 19.5t-19 46.5q0 28 19 48t47 20t47 -20t19 -48q0 -27 -19 -46.5t-47 -19.5zM258 -224q-28 0 -47.5 19.5t-19.5 46.5q0 28 19.5 48t47.5 20t47 -20t19 -48q0 -27 -19 -46.5t-47 -19.5z" />
    <glyph glyph-name="uni063C.fina" unicode="&#x63c;" horiz-adv-x="863" 
d="M374 -21l26 144q45 0 81.5 3t62 11.5t39 23.5t13.5 38q0 17 -10.5 39t-27 46t-35.5 48t-35.5 45t-27 36.5t-10.5 23.5q0 15 2.5 35.5t7 39t10.5 25.5q23 25 62 55t94.5 65.5t127.5 74.5l73 -119q-70 -39 -121 -69.5t-86.5 -56.5t-60.5 -50l4 81q25 -29 51 -61t50.5 -67.5
t46 -74.5t39.5 -83q12 -31 25 -49t28.5 -28t32.5 -13t37 -3q33 0 50.5 -20.5t17.5 -49.5q0 -32 -20.5 -53t-56.5 -21q-40 0 -74.5 12t-59 38.5t-35.5 71.5l38 5q-16 -43 -47.5 -71.5t-77.5 -44t-104.5 -21.5t-129.5 -6zM374 -21q-94 0 -159.5 17.5t-105.5 49t-58 74
t-18 91.5q0 33 6.5 69t16 68.5t18.5 57.5l126 -34q-5 -19 -11 -39.5t-9.5 -42t-3.5 -42.5q0 -35 17 -64t65 -45t142 -16l20 -113zM395 -393q-27 0 -46.5 19t-19.5 47q0 27 19 47.5t47 20.5q27 0 46.5 -20.5t19.5 -47.5q0 -28 -19.5 -47t-46.5 -19zM312 -245q-28 0 -47 19.5
t-19 46.5q0 28 19 48t47 20t47 -20t19 -48q0 -27 -19 -46.5t-47 -19.5zM482 -245q-28 0 -47.5 19.5t-19.5 46.5q0 28 19.5 48t47.5 20t47 -20t19 -48q0 -27 -19 -46.5t-47 -19.5z" />
    <glyph glyph-name="uni063D.init" unicode="&#x63d;" horiz-adv-x="271" 
d="M0 -5l10 144q20 0 35 7t23.5 25t8.5 48q0 33 -7 75t-18 85t-22 78l138 39q12 -34 24.5 -80.5t20.5 -98t8 -102.5q0 -57 -15 -96t-39 -63.5t-54 -37.5t-59 -18t-54 -5zM113 769q7 -15 16 -39.5t19.5 -52.5t20 -53.5t17.5 -41.5l-56 -22q-4 11 -12 32.5t-18 46.5t-19 48
t-17 36l-19 41zM45 764l48 -20q-4 -15 -12.5 -42t-17.5 -57t-16.5 -54.5t-10.5 -33.5l-56 16q4 11 12.5 36.5t19 56t20 57t13.5 41.5zM195 -229q-29 0 -48.5 19.5t-19.5 47.5q0 29 19 49t49 20q28 0 48.5 -20t20.5 -48q0 -29 -20.5 -48.5t-48.5 -19.5zM25 -229
q-29 0 -49 19.5t-20 47.5q0 29 20 49t49 20q28 0 48 -20t20 -48q0 -29 -20 -48.5t-48 -19.5z" />
    <glyph glyph-name="uni063D.medi" unicode="&#x63d;" horiz-adv-x="311" 
d="M0 -5l10 144q21 0 36 7t26.5 28.5t20.5 65.5t18 117l141 -23q-2 -15 -5 -34t-5 -39t-2 -39q0 -27 9 -46t27.5 -28t45.5 -9q33 0 50 -20.5t17 -49.5q0 -34 -20 -54t-57 -20q-49 0 -84 16t-55.5 50t-26.5 85h53q-17 -53 -43 -83.5t-55 -45t-56 -18.5t-45 -4zM185 698
q7 -15 16 -39.5t19.5 -52.5t20 -53.5t17.5 -41.5l-56 -22q-4 11 -12 32.5t-18 46.5t-19 48t-17 36l-19 41zM117 693l48 -20q-4 -15 -12.5 -42t-17.5 -57t-16.5 -54.5t-10.5 -33.5l-56 16q4 11 12.5 36.5t19 56t20 57t13.5 41.5zM228 -229q-29 0 -48.5 19.5t-19.5 47.5
q0 29 19 49t49 20q28 0 48.5 -20t20.5 -48q0 -29 -20.5 -48.5t-48.5 -19.5zM58 -229q-29 0 -49 19.5t-20 47.5q0 29 20 49t49 20q28 0 48 -20t20 -48q0 -29 -20 -48.5t-48 -19.5z" />
    <glyph glyph-name="uni063D.fina" unicode="&#x63d;" horiz-adv-x="688" 
d="M28 17q0 24 4 57t16 77t35 98l133 -46q-14 -38 -22.5 -67t-11.5 -51t-3 -40q0 -33 12 -57t33.5 -40.5t51 -25t66.5 -8.5q48 -1 82.5 9.5t56 26t31.5 32.5t10 28q0 7 -6 14t-20 15t-37.5 17.5t-59.5 21.5l39 134q40 -15 77.5 -28.5t71 -23.5t61.5 -15.5t51 -5.5
q33 0 50 -20.5t17 -49.5q0 -34 -20 -54t-57 -20h-10t-10 0.5t-10 0.5q2 -8 3 -14.5t1 -15.5q0 -32 -21 -66.5t-62 -63.5t-102 -47.5t-143 -18.5q-89 0 -158 27.5t-109 82.5t-40 137zM231 523q7 -15 16 -39.5t19.5 -52.5t20 -53.5t17.5 -41.5l-56 -22q-4 11 -12 32.5
t-18 46.5t-19 48t-17 36l-19 41zM163 518l48 -20q-4 -15 -12.5 -42t-17.5 -57t-16.5 -54.5t-10.5 -33.5l-56 16q4 11 12.5 36.5t19 56t20 57t13.5 41.5z" />
    <glyph glyph-name="uni063E.init" unicode="&#x63e;" horiz-adv-x="351" 
d="M0 -5l10 144q55 0 85.5 8t42.5 25t12 45q0 34 -7.5 76t-18.5 85.5t-22 78.5l137 39q13 -34 25 -80.5t20.5 -97t8.5 -98.5q0 -73 -23 -118t-64 -68t-94 -31t-112 -8zM253 604q-29 0 -48.5 20t-19.5 48q0 29 19 49t49 20q28 0 48 -20t20 -49q0 -28 -20 -48t-48 -20zM83 604
q-29 0 -49 20t-20 48q0 29 19.5 49t49.5 20q28 0 48 -20t20 -49q0 -28 -20 -48t-48 -20zM246 -229q-29 0 -48.5 19.5t-19.5 47.5q0 29 19.5 49t48.5 20t49 -20t20 -48q0 -29 -20.5 -48.5t-48.5 -19.5zM76 -229q-29 0 -48.5 19.5t-19.5 47.5q0 29 19.5 49t48.5 20
q28 0 48.5 -20t20.5 -48q0 -29 -20.5 -48.5t-48.5 -19.5z" />
    <glyph glyph-name="uni063E.medi" unicode="&#x63e;" horiz-adv-x="387" 
d="M0 -5l10 144q33 0 54 7t34.5 28.5t23.5 65.5t19 118l141 -24q-2 -15 -5 -33.5t-5 -39t-2 -39.5q0 -21 6 -36.5t20.5 -26t39 -15.5t61.5 -5q34 0 51 -20.5t17 -49.5q0 -34 -20.5 -54t-57.5 -20q-54 0 -92 9t-62.5 27.5t-38 47t-16.5 68.5l51 -1q-18 -51 -44.5 -82
t-57.5 -45.5t-63.5 -19t-63.5 -4.5zM316 497q-29 0 -48.5 20t-19.5 48q0 29 19 49t49 20q28 0 48 -20t20 -49q0 -28 -20 -48t-48 -20zM146 497q-29 0 -49 20t-20 48q0 29 19.5 49t49.5 20q28 0 48 -20t20 -49q0 -28 -20 -48t-48 -20zM266 -229q-29 0 -48.5 19.5t-19.5 47.5
q0 29 19 49t49 20q28 0 48.5 -20t20.5 -48q0 -29 -20.5 -48.5t-48.5 -19.5zM96 -229q-29 0 -49 19.5t-20 47.5q0 29 19.5 49t49.5 20q28 0 48 -20t20 -48q0 -29 -20 -48.5t-48 -19.5z" />
    <glyph glyph-name="uni063E.fina" unicode="&#x63e;" horiz-adv-x="688" 
d="M28 17q0 24 4 57t16 77t35 98l133 -46q-14 -38 -22.5 -67t-11.5 -51t-3 -40q0 -33 12 -57t33.5 -40.5t51 -25t66.5 -8.5q48 -1 82.5 9.5t56 26t31.5 32.5t10 28q0 7 -6 14t-20 15t-37.5 17.5t-59.5 21.5l39 134q40 -15 77.5 -28.5t71 -23.5t61.5 -15.5t51 -5.5
q33 0 50 -20.5t17 -49.5q0 -34 -20 -54t-57 -20h-10t-10 0.5t-10 0.5q2 -8 3 -14.5t1 -15.5q0 -32 -21 -66.5t-62 -63.5t-102 -47.5t-143 -18.5q-89 0 -158 27.5t-109 82.5t-40 137zM313 377q-29 0 -48.5 20t-19.5 48q0 29 19.5 49t48.5 20t49 -20t20 -48q0 -29 -20.5 -49
t-48.5 -20zM144 377q-30 0 -49.5 20t-19.5 48q0 29 19.5 49t48.5 20q28 0 48.5 -20t20.5 -48q0 -29 -20.5 -49t-47.5 -20z" />
    <glyph glyph-name="uni063F.init" unicode="&#x63f;" horiz-adv-x="351" 
d="M0 -5l10 144q55 0 85.5 8t42.5 25t12 45q0 34 -7.5 76t-18.5 85.5t-22 78.5l137 39q13 -34 25 -80.5t20.5 -97t8.5 -98.5q0 -73 -23 -118t-64 -68t-94 -31t-112 -8zM175 733q-30 0 -49.5 20t-19.5 48q0 29 19.5 49t49.5 20q28 0 48 -20t20 -49q0 -28 -20 -48t-48 -20z
M94 583q-29 0 -49.5 20.5t-20.5 48.5t20.5 49t49.5 21q27 0 47.5 -21t20.5 -49t-20.5 -48.5t-47.5 -20.5zM263 583q-29 0 -48 20.5t-19 48.5q0 29 19 49.5t48 20.5q28 0 48.5 -20.5t20.5 -49.5q0 -28 -20.5 -48.5t-48.5 -20.5zM246 -229q-29 0 -48.5 19.5t-19.5 47.5
q0 29 19.5 49t48.5 20t49 -20t20 -48q0 -29 -20.5 -48.5t-48.5 -19.5zM77 -229q-30 0 -49.5 19.5t-19.5 47.5q0 29 19.5 49t48.5 20q28 0 48.5 -20t20.5 -48q0 -29 -20.5 -48.5t-47.5 -19.5z" />
    <glyph glyph-name="uni063F.medi" unicode="&#x63f;" horiz-adv-x="387" 
d="M0 -5l10 144q33 0 54 7t34.5 28.5t23.5 65.5t19 118l141 -24q-2 -15 -5 -33.5t-5 -39t-2 -39.5q0 -21 6 -36.5t20.5 -26t39 -15.5t61.5 -5q34 0 51 -20.5t17 -49.5q0 -34 -20.5 -54t-57.5 -20q-54 0 -92 9t-62.5 27.5t-38 47t-16.5 68.5l51 -1q-18 -51 -44.5 -82
t-57.5 -45.5t-63.5 -19t-63.5 -4.5zM209 631q-30 0 -49.5 20t-19.5 48t19.5 48.5t49.5 20.5q28 0 48 -20.5t20 -48.5t-20 -48t-48 -20zM127 481q-28 0 -49 20.5t-21 48.5t20.5 49t49.5 21q28 0 48 -21t20 -49t-20 -48.5t-48 -20.5zM297 481q-29 0 -48.5 20.5t-19.5 48.5
t19.5 49t48.5 21q28 0 48 -21t20 -49t-20 -48.5t-48 -20.5zM266 -229q-29 0 -48.5 19.5t-19.5 47.5q0 29 19.5 49t48.5 20q28 0 48.5 -20t20.5 -49q0 -28 -20.5 -47.5t-48.5 -19.5zM96 -229q-29 0 -49 19.5t-20 47.5q0 29 20 49t49 20q28 0 48 -20t20 -49q0 -28 -20 -47.5
t-48 -19.5z" />
    <glyph glyph-name="uni063F.fina" unicode="&#x63f;" horiz-adv-x="688" 
d="M28 17q0 24 4 57t16 77t35 98l133 -46q-14 -38 -22.5 -67t-11.5 -51t-3 -40q0 -33 12 -57t33.5 -40.5t51 -25t66.5 -8.5q48 -1 82.5 9.5t56 26t31.5 32.5t10 28q0 7 -6 14t-20 15t-37.5 17.5t-59.5 21.5l39 134q40 -15 77.5 -28.5t71 -23.5t61.5 -15.5t51 -5.5
q33 0 50 -20.5t17 -49.5q0 -34 -20 -54t-57 -20h-10t-10 0.5t-10 0.5q2 -8 3 -14.5t1 -15.5q0 -32 -21 -66.5t-62 -63.5t-102 -47.5t-143 -18.5q-89 0 -158 27.5t-109 82.5t-40 137zM223 527q-30 0 -50 20t-20 48q0 29 20 49t50 20q28 0 48 -20t20 -49q0 -28 -20 -48
t-48 -20zM141 377q-29 0 -49.5 20.5t-20.5 48.5t20.5 49t49.5 21q28 0 48 -21t20 -49t-20 -48.5t-48 -20.5zM310 377q-28 0 -47.5 20.5t-19.5 48.5t19 49t48 21t49 -21t20 -49t-20.5 -48.5t-48.5 -20.5z" />
    <glyph glyph-name="uni066E.init" unicode="&#x66e;" horiz-adv-x="271" 
d="M0 -5l10 144q20 0 35 7t23.5 25t8.5 48q0 33 -7 75t-18 85t-22 78l138 39q12 -34 24.5 -80.5t20.5 -98t8 -102.5q0 -57 -15 -96t-39 -63.5t-54 -37.5t-59 -18t-54 -5z" />
    <glyph glyph-name="uni066E.medi" unicode="&#x66e;" horiz-adv-x="311" 
d="M0 -5l10 144q21 0 36 7t26.5 28.5t20.5 65.5t18 117l141 -23q-2 -15 -5 -34t-5 -39t-2 -39q0 -27 9 -46t27.5 -28t45.5 -9q33 0 50 -20.5t17 -49.5q0 -34 -20 -54t-57 -20q-49 0 -84 16t-55.5 50t-26.5 85h53q-17 -53 -43 -83.5t-55 -45t-56 -18.5t-45 -4z" />
    <glyph glyph-name="uni066E.fina" unicode="&#x66e;" horiz-adv-x="974" 
d="M392 -21l27 144q64 0 118.5 11t101 34.5t85 60t71.5 86.5l118 -59q-8 -20 -12.5 -35t-4.5 -26q0 -18 11.5 -30.5t31.5 -19t45 -6.5q35 0 51.5 -20.5t16.5 -49.5q0 -34 -20 -54t-57 -20q-51 0 -96.5 16.5t-71 51.5t-19.5 90l43 -1q-29 -43 -70.5 -75.5t-96.5 -54
t-123 -32.5t-149 -11zM393 -21q-94 0 -159.5 17.5t-105.5 49t-57.5 74t-17.5 91.5q0 33 6.5 69t16 68.5t17.5 57.5l126 -34q-5 -19 -11 -39.5t-9.5 -42t-3.5 -42.5q0 -35 17 -64t65 -45t142 -16l20 -113z" />
    <glyph glyph-name="uni066F.init" unicode="&#x66f;" horiz-adv-x="451" 
d="M0 -5l9 144h58t59 2t53.5 6t41.5 12q22 10 34 27.5t16.5 45.5t4.5 65q0 54 -6 88.5t-17.5 51.5t-28.5 17q-13 0 -23 -11t-16 -30.5t-6 -45.5q0 -18 7 -30t18 -17.5t25 -5.5q16 0 33.5 5t37.5 16l4 -101q-15 -13 -33 -22t-38.5 -13.5t-44.5 -4.5q-41 0 -74.5 18.5
t-52.5 53t-19 82.5q0 44 13 85t38 73t60 51t77 19q56 0 97.5 -36t65 -101t23.5 -154q0 -86 -24.5 -147t-81.5 -94q-28 -17 -64 -27t-76.5 -14.5t-83.5 -6t-86 -1.5z" />
    <glyph glyph-name="uni066F.medi" unicode="&#x66f;" horiz-adv-x="448" 
d="M0 -5l9 144q20 0 45 1t52 4t51.5 8.5t43.5 12.5q27 12 44.5 28.5t26 38t8.5 46.5q0 20 -7 37t-17 27.5t-22 10.5q-11 0 -22 -9.5t-18.5 -27.5t-7.5 -41q0 -20 7 -39.5t22 -37t39 -33.5l-125 -52q-25 24 -43.5 49.5t-28.5 55.5t-10 66q0 41 15.5 77t42 63.5t61 43.5
t71.5 16q53 0 94 -28.5t64.5 -72.5t23.5 -91q0 -49 -15 -87.5t-40 -68t-55.5 -52t-61.5 -39.5q-25 -14 -58 -24t-67.5 -15.5t-66.5 -8t-55 -2.5zM449 -5q-38 0 -84.5 7t-91 19.5t-75.5 30.5l68 111q28 -11 65 -16.5t71 -6.5t57 -1q33 0 50 -20.5t17 -49.5q0 -32 -20.5 -53
t-56.5 -21z" />
    <glyph glyph-name="uni066F.fina" unicode="&#x66f;" horiz-adv-x="764" 
d="M323 -272q-56 0 -109.5 14.5t-95.5 46t-67 80.5t-25 117q0 26 4 56.5t16 71.5t36 98l131 -51q-14 -37 -22 -62t-11 -45t-3 -44q0 -43 19.5 -73.5t57.5 -47.5t91 -17q31 0 60 6t54 16.5t45.5 25t35.5 32.5t23 38q10 25 14 59t4 80q0 47 -6.5 79.5t-18.5 49t-28 16.5
q-11 0 -19 -7.5t-13.5 -19t-8 -25t-2.5 -25.5q0 -21 5.5 -35.5t23 -22t54 -8t97.5 7.5h109q34 0 51 -20.5t17 -49.5q0 -32 -19.5 -53t-58.5 -21h-164q-54 0 -100 8t-80.5 27t-54 52t-19.5 83q0 45 13.5 86.5t38.5 74t60 51.5t79 19q53 0 95 -35.5t66 -98.5t24 -148
q0 -58 -15 -110t-36 -90q-24 -45 -60.5 -79.5t-82 -58.5t-98 -36t-107.5 -12z" />
    <glyph glyph-name="uni0672.fina" unicode="&#x672;" horiz-adv-x="281" 
d="M281 -5q-73 0 -116.5 19.5t-63.5 59.5t-23 104l-19 490h149l19 -412q3 -52 10 -77t20 -32.5t34 -7.5q34 0 51 -20.5t17 -49.5q0 -34 -20.5 -54t-57.5 -20zM-4 743l-53 36q11 25 31 36.5t36 11.5q20 0 37.5 -10t29.5 -10t23 0.5t18 4.5l-10 -21q-28 10 -47 34.5t-19 55.5
q0 41 29 65.5t73 24.5q13 0 26 -1.5t23 -5.5l-8 -60q-9 2 -17 4t-18 2q-21 0 -31.5 -8t-10.5 -23q0 -17 11.5 -30.5t27 -20.5t26.5 -7l-33 -4q25 6 42.5 13.5t34.5 14.5l20 -57q-7 -4 -25.5 -11t-41 -15t-43 -12.5t-34.5 -4.5q-25 0 -41.5 10t-26.5 10q-8 0 -15.5 -6.5
t-13.5 -15.5z" />
    <glyph glyph-name="uni0673.fina" unicode="&#x673;" horiz-adv-x="284" 
d="M285 -5q-73 0 -117 19.5t-64 59.5t-22 104l-23 570h149l22 -492q2 -52 9.5 -77t21 -32.5t34.5 -7.5q34 0 50.5 -20.5t16.5 -49.5q0 -34 -20 -54t-57 -20zM32 -305l-53 36q11 25 31 36.5t36 11.5q20 0 37.5 -10t29.5 -10t22.5 0.5t18.5 4.5l-10 -20q-28 9 -47 33.5
t-19 55.5q0 41 29 65.5t73 24.5q13 0 26 -1.5t23 -5.5l-8 -60q-9 2 -17 4t-18 2q-21 0 -31.5 -8t-10.5 -23q0 -17 11.5 -30t27 -20t26.5 -8l-33 -4q25 7 42.5 14t34.5 14l20 -57q-8 -4 -26 -11t-40.5 -14.5t-43 -12.5t-34.5 -5q-25 0 -41.5 10t-26.5 10q-8 0 -15.5 -6
t-13.5 -16z" />
    <glyph glyph-name="uni0675.fina" unicode="&#x675;" horiz-adv-x="514" 
d="M514 -5h-233q-71 0 -114 19.5t-63 60t-22 103.5l-23 570h149l22 -492q2 -49 9 -74.5t19.5 -34t31.5 -8.5h234q34 0 51 -20.5t17 -49.5q0 -34 -20.5 -54t-57.5 -20zM296 580l-16 69q37 5 55 9t38 9l-15 -28q-27 8 -50 34.5t-23 61.5q0 37 16 59t41.5 32t51.5 10
q16 0 30 -2t25 -6l-9 -64q-9 2 -19.5 4t-22.5 2q-19 0 -30.5 -9.5t-11.5 -23.5q0 -19 12 -32.5t28.5 -21.5t27.5 -9l-44 -4q27 7 50.5 14.5t44.5 15.5l21 -66q-26 -9 -59 -19t-69 -19t-72 -16z" />
    <glyph glyph-name="uni0676.fina" unicode="&#x676;" horiz-adv-x="473" 
d="M47 -230l-32 133q62 7 111.5 21.5t84.5 39t54 61.5t19 90q0 76 -13 120.5t-41 44.5q-13 0 -23.5 -13t-16 -33.5t-5.5 -43.5q0 -18 5.5 -30t19 -18.5t39 -7t66.5 4.5h168q33 0 50.5 -20.5t17.5 -49.5q0 -35 -18.5 -54.5t-58.5 -19.5h-198q-77 0 -128 21t-76 58.5t-25 89.5
q0 44 13.5 88.5t39 82.5t60.5 61t78 23q59 0 100 -39t62.5 -105t21.5 -147q0 -109 -48 -183t-133 -116.5t-194 -58.5zM305 439l-15 62q34 6 50.5 9.5t34.5 8.5l-14 -27q-24 8 -45 32t-21 58q0 32 14 51.5t36.5 29t48.5 9.5q13 0 26.5 -2t23.5 -5l-7 -58q-9 2 -18.5 3.5
t-19.5 1.5q-19 0 -28.5 -8t-9.5 -22q0 -17 11 -29.5t25.5 -19.5t24.5 -8l-40 -4q24 7 45.5 13.5t41.5 13.5l18 -60q-24 -8 -54 -17.5t-62.5 -17.5t-65.5 -14z" />
    <glyph glyph-name="uni0677.fina" unicode="&#x677;" horiz-adv-x="487" 
d="M60 -230l-32 133q62 7 111.5 21.5t84.5 39t54 61.5t19 90q0 76 -13 120.5t-41 44.5q-13 0 -23.5 -13t-16 -33.5t-5.5 -43.5q0 -18 5.5 -30t19 -18.5t39 -7t66.5 4.5h168q33 0 50.5 -20.5t17.5 -49.5q0 -35 -18.5 -54.5t-58.5 -19.5h-198q-77 0 -128 21t-76 58.5t-25 89.5
q0 44 13.5 88.5t39 82.5t60.5 61t78 23q59 0 100 -39t62.5 -105t21.5 -147q0 -109 -48 -183t-133 -116.5t-194 -58.5zM302 438l-15 62q34 6 50.5 9.5t34.5 8.5l-14 -27q-24 8 -45 32t-21 58q0 32 14 51.5t36.5 29t48.5 9.5q13 0 26.5 -2t23.5 -5l-7 -58q-9 2 -18.5 3.5
t-19.5 1.5q-19 0 -28.5 -8t-9.5 -22q0 -17 11 -29.5t25.5 -19.5t24.5 -8l-40 -4q24 7 45.5 13.5t41.5 13.5l18 -60q-24 -8 -54 -17.5t-62.5 -17.5t-65.5 -14zM26 429l-11 58q57 2 98 16.5t62.5 35.5t21.5 42q0 13 -7.5 23t-21.5 10q-13 0 -21.5 -8.5t-8.5 -22.5
q0 -18 14 -30.5t32 -21.5l-42 -36q-27 13 -47 35.5t-20 56.5q0 39 27 63.5t67 24.5q45 0 67.5 -28t22.5 -65q0 -41 -27.5 -74t-79.5 -53.5t-126 -25.5z" />
    <glyph glyph-name="uni0678.init" unicode="&#x678;" horiz-adv-x="368" 
d="M0 -5l10 144q20 0 35 7t23.5 25t8.5 48q0 33 -7 75t-18 85t-22 78l138 39q12 -34 24.5 -80.5t20.5 -98t8 -102.5q0 -57 -15 -96t-39 -63.5t-54 -37.5t-59 -18t-54 -5zM169 580l-16 69q37 5 55 9t38 9l-15 -28q-27 8 -50 34.5t-23 61.5q0 37 16 59t41.5 32t51.5 10
q16 0 30 -2t25 -6l-9 -64q-9 2 -19.5 4t-22.5 2q-19 0 -30.5 -9.5t-11.5 -23.5q0 -19 12 -32.5t28.5 -21.5t27.5 -9l-44 -4q27 7 50.5 14.5t44.5 15.5l21 -66q-26 -9 -59 -19t-69 -19t-72 -16z" />
    <glyph glyph-name="uni0678.medi" unicode="&#x678;" horiz-adv-x="313" 
d="M0 -5l10 144q21 0 36 7t26.5 28.5t20.5 65.5t18 117l141 -23q-2 -15 -5 -34t-5 -39t-2 -39q0 -27 9 -46t27.5 -28t45.5 -9q33 0 50 -20.5t17 -49.5q0 -34 -20 -54t-57 -20q-49 0 -84 16t-55.5 50t-26.5 85h53q-17 -53 -43 -83.5t-55 -45t-56 -18.5t-45 -4zM137 411
l-16 69q37 5 55 9t38 9l-15 -28q-27 8 -50 34.5t-23 61.5q0 37 16 59t41.5 32t51.5 10q16 0 30 -2t25 -6l-9 -64q-9 2 -19.5 4t-22.5 2q-19 0 -30.5 -9.5t-11.5 -23.5q0 -19 12 -32.5t28.5 -21.5t27.5 -9l-44 -4q27 7 50.5 14.5t44.5 15.5l21 -66q-26 -9 -59 -19t-69 -19
t-72 -16z" />
    <glyph glyph-name="uni0678.fina" unicode="&#x678;" horiz-adv-x="688" 
d="M28 17q0 24 4 57t16 77t35 98l133 -46q-14 -38 -22.5 -67t-11.5 -51t-3 -40q0 -33 12 -57t33.5 -40.5t51 -25t66.5 -8.5q48 -1 82.5 9.5t56 26t31.5 32.5t10 28q0 7 -6 14t-20 15t-37.5 17.5t-59.5 21.5l39 134q40 -15 77.5 -28.5t71 -23.5t61.5 -15.5t51 -5.5
q33 0 50 -20.5t17 -49.5q0 -34 -20 -54t-57 -20h-10t-10 0.5t-10 0.5q2 -8 3 -14.5t1 -15.5q0 -32 -21 -66.5t-62 -63.5t-102 -47.5t-143 -18.5q-89 0 -158 27.5t-109 82.5t-40 137zM454 243l-16 69q37 5 55 9t38 9l-15 -28q-27 8 -50 34.5t-23 61.5q0 37 16 59t41.5 32
t51.5 10q16 0 30 -2t25 -6l-9 -64q-9 2 -19.5 4t-22.5 2q-19 0 -30.5 -9.5t-11.5 -23.5q0 -19 12 -32.5t28.5 -21.5t27.5 -9l-44 -4q27 7 50.5 14.5t44.5 15.5l21 -66q-26 -9 -59 -19t-69 -19t-72 -16z" />
    <glyph glyph-name="uni067C.init" unicode="&#x67c;" horiz-adv-x="351" 
d="M0 -5l10 144q55 0 85.5 8t42.5 25t12 45q0 34 -7.5 76t-18.5 85.5t-22 78.5l137 39q13 -34 25 -80.5t20.5 -97t8.5 -98.5q0 -73 -23 -118t-64 -68t-94 -31t-112 -8zM186 -96q-36 0 -60.5 25t-24.5 60q0 36 24.5 61t60.5 25t60.5 -25t24.5 -61q0 -35 -24.5 -60t-60.5 -25z
M187 -38q12 0 20.5 7.5t8.5 19.5q0 13 -8.5 21t-21.5 8q-12 0 -20.5 -8.5t-8.5 -20.5t9 -19.5t21 -7.5zM260 584q-30 0 -49.5 20t-19.5 47q0 29 19.5 49t49.5 20q28 0 48 -20t20 -49q0 -28 -20 -47.5t-48 -19.5zM90 584q-30 0 -49.5 20t-19.5 47q0 29 19.5 49t49.5 20
q28 0 48 -20t20 -49q0 -28 -20 -47.5t-48 -19.5z" />
    <glyph glyph-name="uni067C.medi" unicode="&#x67c;" horiz-adv-x="311" 
d="M98 -102q-35 0 -60 25.5t-25 60.5q0 36 25 60.5t60 24.5q36 0 60.5 -25t24.5 -60q0 -36 -24 -61t-61 -25zM99 -44q12 0 20.5 7.5t8.5 20.5t-8.5 20.5t-20.5 7.5t-21 -8t-9 -20t9 -20t21 -8zM0 -5l10 144q21 0 36 7t26.5 28.5t20.5 65.5t18 117l141 -23q-2 -15 -5 -34
t-5 -39t-2 -39q0 -27 9 -46t27.5 -28t45.5 -9q33 0 50 -20.5t17 -49.5q0 -34 -20 -54t-57 -20q-49 0 -84 16t-55.5 50t-26.5 85h53q-17 -53 -43 -83.5t-55 -45t-56 -18.5t-45 -4zM270 472q-29 0 -48.5 20t-19.5 47q0 29 19 49t49 20q28 0 48.5 -20t20.5 -49
q0 -28 -20.5 -47.5t-48.5 -19.5zM100 472q-29 0 -49 20t-20 47q0 29 19.5 49t49.5 20q28 0 48 -20t20 -49q0 -28 -20 -47.5t-48 -19.5z" />
    <glyph glyph-name="uni067C.fina" unicode="&#x67c;" horiz-adv-x="974" 
d="M513 -129q-36 0 -60.5 25t-24.5 61q0 35 24.5 60t60.5 25t60.5 -25t24.5 -61q0 -35 -24.5 -60t-60.5 -25zM513 -71q12 0 21 7.5t9 19.5q0 13 -9 21t-21 8t-21 -8t-9 -20q0 -13 9 -20.5t21 -7.5zM392 -21l27 144q64 0 118.5 11t101 34.5t85 60t71.5 86.5l118 -59
q-8 -20 -12.5 -35t-4.5 -26q0 -18 11.5 -30.5t31.5 -19t45 -6.5q35 0 51.5 -20.5t16.5 -49.5q0 -34 -20 -54t-57 -20q-51 0 -96.5 16.5t-71 51.5t-19.5 90l43 -1q-29 -43 -70.5 -75.5t-96.5 -54t-123 -32.5t-149 -11zM393 -21q-94 0 -159.5 17.5t-105.5 49t-57.5 74
t-17.5 91.5q0 33 6.5 69t16 68.5t17.5 57.5l126 -34q-5 -19 -11 -39.5t-9.5 -42t-3.5 -42.5q0 -35 17 -64t65 -45t142 -16l20 -113zM576 451q-29 0 -48.5 20t-19.5 48q0 29 19.5 49t48.5 20t49 -20t20 -49q0 -28 -20 -48t-49 -20zM406 451q-29 0 -48.5 20t-19.5 48
q0 29 19.5 49t49.5 20q28 0 48 -20t20 -49q0 -28 -20.5 -48t-48.5 -20z" />
    <glyph glyph-name="uni067D.init" unicode="&#x67d;" horiz-adv-x="351" 
d="M0 -5l10 144q55 0 85.5 8t42.5 25t12 45q0 34 -7.5 76t-18.5 85.5t-22 78.5l137 39q13 -34 25 -80.5t20.5 -97t8.5 -98.5q0 -73 -23 -118t-64 -68t-94 -31t-112 -8zM173 582q-28 0 -47.5 19.5t-19.5 46.5q0 28 19.5 48t47.5 20q27 0 46.5 -20t19.5 -48q0 -27 -19.5 -46.5
t-46.5 -19.5zM90 730q-28 0 -47.5 19.5t-19.5 46.5q0 28 19.5 48t47.5 20q27 0 46 -20t19 -48q0 -27 -19 -46.5t-46 -19.5zM259 730q-27 0 -46.5 19.5t-19.5 46.5q0 28 19.5 48t47.5 20q27 0 46 -20t19 -48q0 -27 -19 -46.5t-47 -19.5z" />
    <glyph glyph-name="uni067D.medi" unicode="&#x67d;" horiz-adv-x="387" 
d="M0 -5l10 144q33 0 54 7t34.5 28.5t23.5 65.5t19 118l141 -24q-2 -15 -5 -33.5t-5 -39t-2 -39.5q0 -21 6 -36.5t20.5 -26t39 -15.5t61.5 -5q34 0 51 -20.5t17 -49.5q0 -34 -20.5 -54t-57.5 -20q-54 0 -92 9t-62.5 27.5t-38 47t-16.5 68.5l51 -1q-18 -51 -44.5 -82
t-57.5 -45.5t-63.5 -19t-63.5 -4.5zM206 480q-28 0 -47 19.5t-19 46.5q0 28 19 48t47 20t47 -20t19 -48t-19.5 -47t-46.5 -19zM123 628q-27 0 -46.5 19.5t-19.5 46.5q0 28 19.5 48t46.5 20q28 0 47 -20t19 -48t-19 -47t-47 -19zM293 628q-27 0 -46.5 19.5t-19.5 46.5
q0 28 19 48t47 20t47 -20t19 -48t-19 -47t-47 -19z" />
    <glyph glyph-name="uni067D.fina" unicode="&#x67d;" horiz-adv-x="974" 
d="M392 -21l27 144q64 0 118.5 11t101 34.5t85 60t71.5 86.5l118 -59q-8 -20 -12.5 -35t-4.5 -26q0 -18 11.5 -30.5t31.5 -19t45 -6.5q35 0 51.5 -20.5t16.5 -49.5q0 -34 -20 -54t-57 -20q-51 0 -96.5 16.5t-71 51.5t-19.5 90l43 -1q-29 -43 -70.5 -75.5t-96.5 -54
t-123 -32.5t-149 -11zM393 -21q-94 0 -159.5 17.5t-105.5 49t-57.5 74t-17.5 91.5q0 33 6.5 69t16 68.5t17.5 57.5l126 -34q-5 -19 -11 -39.5t-9.5 -42t-3.5 -42.5q0 -35 17 -64t65 -45t142 -16l20 -113zM490 450q-28 0 -47 19.5t-19 46.5q0 28 19 48t47 20q27 0 46.5 -20.5
t19.5 -47.5t-19.5 -46.5t-46.5 -19.5zM408 598q-28 0 -47.5 19.5t-19.5 46.5q0 28 19.5 48t46.5 20t46.5 -20t19.5 -48q0 -27 -19.5 -46.5t-45.5 -19.5zM577 598q-28 0 -47 19.5t-19 46.5q0 28 19 48t47 20t47 -20t19 -48q0 -27 -19 -46.5t-47 -19.5z" />
    <glyph glyph-name="uni0681.init" unicode="&#x681;" horiz-adv-x="563" 
d="M0 -5l9 144q41 0 85.5 7t90 20.5t90 35.5t85.5 51q-34 18 -65.5 28.5t-61.5 16t-62 5.5q-16 0 -31 -1t-30 -3t-32 -6l-26 148q28 8 54.5 11.5t56.5 3.5q56 0 99.5 -12t77.5 -29t62 -34.5t53 -29.5t49 -12h26l18 -131q-31 -4 -61 -21t-62 -41t-71 -50t-89 -49
t-114.5 -37.5t-150.5 -14.5zM130 533l-15 62q34 6 50.5 9.5t34.5 8.5l-14 -27q-24 8 -45 32t-21 58q0 32 14 51.5t36.5 29t48.5 9.5q13 0 26.5 -2t23.5 -5l-7 -58q-9 2 -18.5 3.5t-19.5 1.5q-19 0 -28.5 -8t-9.5 -22q0 -17 11 -29.5t25.5 -19.5t24.5 -8l-40 -4
q24 7 45.5 13.5t41.5 13.5l18 -60q-24 -8 -54 -17.5t-62.5 -17.5t-65.5 -14z" />
    <glyph glyph-name="uni0681.medi" unicode="&#x681;" horiz-adv-x="560" 
d="M560 -5q-27 0 -54 8t-52 26t-46 49.5t-35 78.5l83 63q13 -33 32 -50.5t40.5 -24t41.5 -6.5q34 0 51 -20.5t17 -49.5q0 -34 -20.5 -54t-57.5 -20zM0 -5l9 144q41 0 85.5 7t90 20.5t90 35.5t85.5 51q-34 18 -65.5 28.5t-61.5 16t-62 5.5q-16 0 -31 -1t-30 -3t-32 -6
l-26 148q28 8 54.5 11.5t56.5 3.5q56 0 99.5 -12t77.5 -29t62 -34.5t53 -29.5t49 -12h26l18 -131q-31 -4 -61 -21t-62 -41t-71 -50t-89 -49t-114.5 -37.5t-150.5 -14.5zM122 533l-15 62q34 6 50.5 9.5t34.5 8.5l-14 -27q-24 8 -45 32t-21 58q0 32 14 51.5t36.5 29t48.5 9.5
q13 0 26.5 -2t23.5 -5l-7 -58q-9 2 -18.5 3.5t-19.5 1.5q-19 0 -28.5 -8t-9.5 -22q0 -17 11 -29.5t25.5 -19.5t24.5 -8l-40 -4q24 7 45.5 13.5t41.5 13.5l18 -60q-24 -8 -54 -17.5t-62.5 -17.5t-65.5 -14z" />
    <glyph glyph-name="uni0681.fina" unicode="&#x681;" horiz-adv-x="589" 
d="M589 -5q-36 0 -71.5 9.5t-66.5 35t-53 72t-32 120.5l105 47q7 -46 20.5 -74t31 -42.5t37.5 -19t39 -4.5q33 0 50.5 -20.5t17.5 -49.5q0 -34 -20.5 -54t-57.5 -20zM350 -391q-65 0 -125 18.5t-106 55.5t-73 93.5t-27 132.5q0 70 22.5 130t60.5 109t87 88.5t103.5 68.5
t107.5 48l10 -43q-23 8 -52 18.5t-61 19.5t-64.5 15.5t-63.5 6.5q-22 0 -49.5 -4t-52.5 -11l-22 148q30 9 59 14.5t54 5.5q44 0 85.5 -10.5t79 -26t71.5 -31.5t62.5 -26.5t51.5 -10.5h19l17 -162q-42 -5 -85.5 -17t-85.5 -31.5t-78.5 -45.5t-64 -59.5t-43.5 -74t-16 -88.5
q0 -47 16.5 -81t44 -56t62 -32.5t69.5 -10.5t73.5 7.5t89.5 26.5l44 -133q-71 -33 -124.5 -42.5t-95.5 -9.5zM180 585l-15 62q34 6 50.5 9.5t34.5 8.5l-14 -27q-24 8 -45 32t-21 58q0 32 14 51.5t36.5 29t48.5 9.5q13 0 26.5 -2t23.5 -5l-7 -58q-9 2 -18.5 3.5t-19.5 1.5
q-19 0 -28.5 -8t-9.5 -22q0 -17 11 -29.5t25.5 -19.5t24.5 -8l-40 -4q24 7 45.5 13.5t41.5 13.5l18 -60q-24 -8 -54 -17.5t-62.5 -17.5t-65.5 -14z" />
    <glyph glyph-name="uni0682.init" unicode="&#x682;" horiz-adv-x="563" 
d="M0 -5l9 144q41 0 85.5 7t90 20.5t90 35.5t85.5 51q-34 18 -65.5 28.5t-61.5 16t-62 5.5q-16 0 -31 -1t-30 -3t-32 -6l-26 148q28 8 54.5 11.5t56.5 3.5q56 0 99.5 -12t77.5 -29t62 -34.5t53 -29.5t49 -12h26l18 -131q-31 -4 -61 -21t-62 -41t-71 -50t-89 -49
t-114.5 -37.5t-150.5 -14.5zM160 564q-28 0 -46.5 19t-18.5 46q0 28 18.5 47.5t46.5 19.5q27 0 46 -20t19 -47t-19.5 -46t-45.5 -19zM160 730q-28 0 -46.5 18.5t-18.5 45.5t18.5 47t46.5 20q27 0 46 -20t19 -46q0 -28 -19.5 -46.5t-45.5 -18.5z" />
    <glyph glyph-name="uni0682.medi" unicode="&#x682;" horiz-adv-x="560" 
d="M560 -5q-27 0 -54 8t-52 26t-46 49.5t-35 78.5l83 63q13 -33 32 -50.5t40.5 -24t41.5 -6.5q34 0 51 -20.5t17 -49.5q0 -34 -20.5 -54t-57.5 -20zM0 -5l9 144q41 0 85.5 7t90 20.5t90 35.5t85.5 51q-34 18 -65.5 28.5t-61.5 16t-62 5.5q-16 0 -31 -1t-30 -3t-32 -6
l-26 148q28 8 54.5 11.5t56.5 3.5q56 0 99.5 -12t77.5 -29t62 -34.5t53 -29.5t49 -12h26l18 -131q-31 -4 -61 -21t-62 -41t-71 -50t-89 -49t-114.5 -37.5t-150.5 -14.5zM174 564q-28 0 -46.5 19t-18.5 46q0 28 18.5 47.5t46.5 19.5q27 0 46 -20t19 -47t-19.5 -46t-45.5 -19z
M174 730q-28 0 -46.5 18.5t-18.5 45.5t18.5 47t46.5 20q27 0 46 -20t19 -46q0 -28 -19.5 -46.5t-45.5 -18.5z" />
    <glyph glyph-name="uni0682.fina" unicode="&#x682;" horiz-adv-x="589" 
d="M589 -5q-36 0 -71.5 9.5t-66.5 35t-53 72t-32 120.5l105 47q7 -46 20.5 -74t31 -42.5t37.5 -19t39 -4.5q33 0 50.5 -20.5t17.5 -49.5q0 -34 -20.5 -54t-57.5 -20zM350 -391q-65 0 -125 18.5t-106 55.5t-73 93.5t-27 132.5q0 70 22.5 130t60.5 109t87 88.5t103.5 68.5
t107.5 48l10 -43q-23 8 -52 18.5t-61 19.5t-64.5 15.5t-63.5 6.5q-22 0 -49.5 -4t-52.5 -11l-22 148q30 9 59 14.5t54 5.5q44 0 85.5 -10.5t79 -26t71.5 -31.5t62.5 -26.5t51.5 -10.5h19l17 -162q-42 -5 -85.5 -17t-85.5 -31.5t-78.5 -45.5t-64 -59.5t-43.5 -74t-16 -88.5
q0 -47 16.5 -81t44 -56t62 -32.5t69.5 -10.5t73.5 7.5t89.5 26.5l44 -133q-71 -33 -124.5 -42.5t-95.5 -9.5zM303 618q-28 0 -46.5 19t-18.5 46q0 28 18.5 47.5t46.5 19.5q27 0 46 -20t19 -47t-19.5 -46t-45.5 -19zM303 784q-28 0 -46.5 18.5t-18.5 45.5t18.5 47t46.5 20
q27 0 46 -20t19 -46q0 -28 -19.5 -46.5t-45.5 -18.5z" />
    <glyph glyph-name="uni0685.init" unicode="&#x685;" horiz-adv-x="563" 
d="M0 -5l9 144q41 0 85.5 7t90 20.5t90 35.5t85.5 51q-34 18 -65.5 28.5t-61.5 16t-62 5.5q-16 0 -31 -1t-30 -3t-32 -6l-26 148q28 8 54.5 11.5t56.5 3.5q56 0 99.5 -12t77.5 -29t62 -34.5t53 -29.5t49 -12h26l18 -131q-31 -4 -61 -21t-62 -41t-71 -50t-89 -49
t-114.5 -37.5t-150.5 -14.5zM159 711q-30 0 -50 20t-20 48q0 29 20 49t50 20q28 0 48 -20t20 -49q0 -28 -20 -48t-48 -20zM77 561q-29 0 -49.5 20.5t-20.5 48.5t20.5 49t49.5 21q28 0 48 -21t20 -49t-20 -48.5t-48 -20.5zM246 561q-28 0 -47.5 20.5t-19.5 48.5t19 49t48 21
t49 -21t20 -49t-20.5 -48.5t-48.5 -20.5z" />
    <glyph glyph-name="uni0685.medi" unicode="&#x685;" horiz-adv-x="560" 
d="M560 -5q-27 0 -54 8t-52 26t-46 49.5t-35 78.5l83 63q13 -33 32 -50.5t40.5 -24t41.5 -6.5q34 0 51 -20.5t17 -49.5q0 -34 -20.5 -54t-57.5 -20zM0 -5l9 144q41 0 85.5 7t90 20.5t90 35.5t85.5 51q-34 18 -65.5 28.5t-61.5 16t-62 5.5q-16 0 -31 -1t-30 -3t-32 -6
l-26 148q28 8 54.5 11.5t56.5 3.5q56 0 99.5 -12t77.5 -29t62 -34.5t53 -29.5t49 -12h26l18 -131q-31 -4 -61 -21t-62 -41t-71 -50t-89 -49t-114.5 -37.5t-150.5 -14.5zM173 711q-30 0 -50 20t-20 48q0 29 20 49t50 20q28 0 48 -20t20 -49q0 -28 -20 -48t-48 -20zM91 561
q-29 0 -49.5 20.5t-20.5 48.5t20.5 49t49.5 21q28 0 48 -21t20 -49t-20 -48.5t-48 -20.5zM260 561q-28 0 -47.5 20.5t-19.5 48.5t19 49t48 21t49 -21t20 -49t-20.5 -48.5t-48.5 -20.5z" />
    <glyph glyph-name="uni0685.fina" unicode="&#x685;" horiz-adv-x="589" 
d="M589 -5q-36 0 -71.5 9.5t-66.5 35t-53 72t-32 120.5l105 47q7 -46 20.5 -74t31 -42.5t37.5 -19t39 -4.5q33 0 50.5 -20.5t17.5 -49.5q0 -34 -20.5 -54t-57.5 -20zM350 -391q-65 0 -125 18.5t-106 55.5t-73 93.5t-27 132.5q0 70 22.5 130t60.5 109t87 88.5t103.5 68.5
t107.5 48l10 -43q-23 8 -52 18.5t-61 19.5t-64.5 15.5t-63.5 6.5q-22 0 -49.5 -4t-52.5 -11l-22 148q30 9 59 14.5t54 5.5q44 0 85.5 -10.5t79 -26t71.5 -31.5t62.5 -26.5t51.5 -10.5h19l17 -162q-42 -5 -85.5 -17t-85.5 -31.5t-78.5 -45.5t-64 -59.5t-43.5 -74t-16 -88.5
q0 -47 16.5 -81t44 -56t62 -32.5t69.5 -10.5t73.5 7.5t89.5 26.5l44 -133q-71 -33 -124.5 -42.5t-95.5 -9.5zM292 770q-30 0 -50 20t-20 48q0 29 20 49t50 20q28 0 48 -20t20 -49q0 -28 -20 -48t-48 -20zM210 620q-29 0 -49.5 20.5t-20.5 48.5t20.5 49t49.5 21q28 0 48 -21
t20 -49t-20 -48.5t-48 -20.5zM379 620q-28 0 -47.5 20.5t-19.5 48.5t19 49t48 21t49 -21t20 -49t-20.5 -48.5t-48.5 -20.5z" />
    <glyph glyph-name="uni0689.fina" unicode="&#x689;" horiz-adv-x="491" 
d="M192 -119q-36 0 -60.5 24.5t-24.5 60.5t24.5 60.5t60.5 24.5t60.5 -24.5t24.5 -60.5t-24.5 -60.5t-60.5 -24.5zM192 -62q12 0 21 8t9 20q0 13 -9 20.5t-21 7.5t-20.5 -8t-8.5 -20t8.5 -20t20.5 -8zM175 143q24 0 40.5 6t25.5 19t9 36q0 17 -6 40.5t-19 54.5t-35 72.5
t-55 94.5l140 79q36 -52 62.5 -104.5t44.5 -99t28 -81.5q13 -46 27 -72.5t30.5 -37.5t34.5 -11q34 0 50.5 -20.5t16.5 -49.5q0 -34 -20 -54t-57 -20q-35 0 -71 11.5t-65.5 37.5t-45.5 67l58 4q-8 -35 -28.5 -62t-56.5 -43t-94 -16q-23 0 -52.5 3t-57.5 9t-49 15l24 139
q29 -8 62.5 -12.5t58.5 -4.5z" />
    <glyph glyph-name="uni068A.fina" unicode="&#x68a;" horiz-adv-x="491" 
d="M175 143q24 0 40.5 6t25.5 19t9 36q0 17 -6 40.5t-19 54.5t-35 72.5t-55 94.5l140 79q36 -52 62.5 -104.5t44.5 -99t28 -81.5q13 -46 27 -72.5t30.5 -37.5t34.5 -11q34 0 50.5 -20.5t16.5 -49.5q0 -34 -20 -54t-57 -20q-35 0 -71 11.5t-65.5 37.5t-45.5 67l58 4
q-8 -35 -28.5 -62t-56.5 -43t-94 -16q-23 0 -52.5 3t-57.5 9t-49 15l24 139q29 -8 62.5 -12.5t58.5 -4.5zM183 -237q-31 0 -51 20.5t-20 49.5q0 30 20 51.5t51 21.5q29 0 49.5 -21.5t20.5 -51.5q0 -29 -20.5 -49.5t-49.5 -20.5z" />
    <glyph glyph-name="uni068B.fina" unicode="&#x68b;" horiz-adv-x="491" 
d="M175 143q24 0 40.5 6t25.5 19t9 36q0 17 -6 40.5t-19 54.5t-35 72.5t-55 94.5l140 79q36 -52 62.5 -104.5t44.5 -99t28 -81.5q13 -46 27 -72.5t30.5 -37.5t34.5 -11q34 0 50.5 -20.5t16.5 -49.5q0 -34 -20 -54t-57 -20q-35 0 -71 11.5t-65.5 37.5t-45.5 67l58 4
q-8 -35 -28.5 -62t-56.5 -43t-94 -16q-23 0 -52.5 3t-57.5 9t-49 15l24 139q29 -8 62.5 -12.5t58.5 -4.5zM226 639q-17 0 -40 1.5t-42.5 3t-29.5 2.5l3 61q19 -2 48.5 -4.5t54.5 -2.5q37 0 57 6t27.5 15t7.5 18q0 10 -7.5 17.5t-18.5 7.5q-16 0 -32.5 -12t-29.5 -28.5
t-21 -30.5l-60 10q16 36 41 64t54 43.5t56 15.5q37 0 59.5 -24t22.5 -60q0 -22 -11.5 -45.5t-43.5 -40.5t-95 -17zM159 711l-6 175h61l7 -156zM169 -237q-31 0 -51 20.5t-20 49.5q0 30 20 51.5t51 21.5q29 0 49.5 -21.5t20.5 -51.5q0 -29 -20.5 -49.5t-49.5 -20.5z" />
    <glyph glyph-name="uni068F.fina" unicode="&#x68f;" horiz-adv-x="491" 
d="M175 143q24 0 40.5 6t25.5 19t9 36q0 17 -6 40.5t-19 54.5t-35 72.5t-55 94.5l140 79q36 -52 62.5 -104.5t44.5 -99t28 -81.5q13 -46 27 -72.5t30.5 -37.5t34.5 -11q34 0 50.5 -20.5t16.5 -49.5q0 -34 -20 -54t-57 -20q-35 0 -71 11.5t-65.5 37.5t-45.5 67l58 4
q-8 -35 -28.5 -62t-56.5 -43t-94 -16q-23 0 -52.5 3t-57.5 9t-49 15l24 139q29 -8 62.5 -12.5t58.5 -4.5zM242 656q-28 0 -47 19.5t-19 46.5q0 28 19 48t47 20q27 0 46.5 -20.5t19.5 -47.5t-19.5 -46.5t-46.5 -19.5zM160 804q-28 0 -47.5 19.5t-19.5 46.5q0 28 19.5 48
t46.5 20t46.5 -20t19.5 -48q0 -27 -19.5 -46.5t-45.5 -19.5zM329 804q-28 0 -47 19.5t-19 46.5q0 28 19 48t47 20t47 -20t19 -48q0 -27 -19 -46.5t-47 -19.5z" />
    <glyph glyph-name="uni0690.fina" unicode="&#x690;" horiz-adv-x="491" 
d="M175 143q24 0 40.5 6t25.5 19t9 36q0 17 -6 40.5t-19 54.5t-35 72.5t-55 94.5l140 79q36 -52 62.5 -104.5t44.5 -99t28 -81.5q13 -46 27 -72.5t30.5 -37.5t34.5 -11q34 0 50.5 -20.5t16.5 -49.5q0 -34 -20 -54t-57 -20q-35 0 -71 11.5t-65.5 37.5t-45.5 67l58 4
q-8 -35 -28.5 -62t-56.5 -43t-94 -16q-23 0 -52.5 3t-57.5 9t-49 15l24 139q29 -8 62.5 -12.5t58.5 -4.5zM101 760q-26 0 -43 17.5t-17 41.5q0 25 17 43t43 18q24 0 41.5 -18t17.5 -43t-17.5 -42t-41.5 -17zM101 616q-25 0 -42.5 17.5t-17.5 41.5q0 25 17.5 43t42.5 18
t42 -18t17 -43t-17 -42t-42 -17zM246 761q-25 0 -42.5 17.5t-17.5 41.5q0 25 17 43t43 18q25 0 42 -18t17 -43t-17 -42t-42 -17zM245 616q-26 0 -43 17.5t-17 41.5q0 25 17 43t43 18q24 0 41.5 -18t17.5 -43t-17.5 -42t-41.5 -17z" />
    <glyph glyph-name="uni0692.fina" unicode="&#x692;" horiz-adv-x="366" 
d="M40 -230l-76 133q46 23 78.5 49.5t53 55.5t30 59.5t9.5 60.5q0 45 -20 94.5t-52 107.5l138 69q16 -30 30 -61t25 -59.5t17 -51.5q14 -49 40.5 -68.5t63.5 -19.5q33 0 50 -20.5t17 -49.5q0 -34 -20.5 -54t-56.5 -20q-32 0 -59 12.5t-45.5 35.5t-24.5 53l46 38
q0 -51 -13.5 -102t-42.5 -99.5t-75 -90t-113 -72.5zM82 509q-7 15 -16.5 39t-20 52t-20 53.5t-16.5 41.5l56 22q4 -11 12 -32.5t18 -46.5t19.5 -47.5t16.5 -36.5l19 -40zM150 514l-49 19q5 16 13.5 43t17.5 56.5t16.5 54t10.5 34.5l56 -16l-12.5 -37.5t-19 -55.5t-19.5 -57
t-14 -41z" />
    <glyph glyph-name="uni0693.fina" unicode="&#x693;" horiz-adv-x="366" 
d="M213 -217q-36 0 -60.5 25t-24.5 60q0 36 24.5 61t60.5 25t60.5 -25t24.5 -61q0 -35 -24.5 -60t-60.5 -25zM213 -159q12 0 21 7.5t9 19.5q0 13 -9 21t-21 8t-20.5 -8.5t-8.5 -20.5t8.5 -19.5t20.5 -7.5zM40 -230l-76 133q46 23 78.5 49.5t53 55.5t30 59.5t9.5 60.5
q0 45 -20 94.5t-52 107.5l138 69q16 -30 30 -61t25 -59.5t17 -51.5q14 -49 40.5 -68.5t63.5 -19.5q33 0 50 -20.5t17 -49.5q0 -34 -20.5 -54t-56.5 -20q-32 0 -59 12.5t-45.5 35.5t-24.5 53l46 38q0 -51 -13.5 -102t-42.5 -99.5t-75 -90t-113 -72.5z" />
    <glyph glyph-name="uni0694.fina" unicode="&#x694;" horiz-adv-x="366" 
d="M40 -230l-76 133q46 23 78.5 49.5t53 55.5t30 59.5t9.5 60.5q0 45 -20 94.5t-52 107.5l138 69q16 -30 30 -61t25 -59.5t17 -51.5q14 -49 40.5 -68.5t63.5 -19.5q33 0 50 -20.5t17 -49.5q0 -34 -20.5 -54t-56.5 -20q-32 0 -59 12.5t-45.5 35.5t-24.5 53l46 38
q0 -51 -13.5 -102t-42.5 -99.5t-75 -90t-113 -72.5zM197 -437q-31 0 -51 20.5t-20 49.5q0 30 20 51.5t51 21.5q29 0 49.5 -21.5t20.5 -51.5q0 -29 -20.5 -49.5t-49.5 -20.5z" />
    <glyph glyph-name="uni0695.fina" unicode="&#x695;" horiz-adv-x="366" 
d="M-3 -23q-7 15 -18.5 40t-23.5 50.5t-21 41.5l45 23q4 -7 10.5 -22t14 -32.5t15 -34t13.5 -27.5l15 -35zM47 -19l-44 18q5 13 12.5 33.5t15.5 42t14.5 38t8.5 22.5l44 -19q-3 -7 -9.5 -24.5t-14.5 -38.5t-15.5 -40.5t-11.5 -31.5zM40 -230l-76 133q46 23 78.5 49.5
t53 55.5t30 59.5t9.5 60.5q0 45 -20 94.5t-52 107.5l138 69q16 -30 30 -61t25 -59.5t17 -51.5q14 -49 40.5 -68.5t63.5 -19.5q33 0 50 -20.5t17 -49.5q0 -34 -20.5 -54t-56.5 -20q-32 0 -59 12.5t-45.5 35.5t-24.5 53l46 38q0 -51 -13.5 -102t-42.5 -99.5t-75 -90
t-113 -72.5z" />
    <glyph glyph-name="uni0696.fina" unicode="&#x696;" horiz-adv-x="366" 
d="M40 -230l-76 133q46 23 78.5 49.5t53 55.5t30 59.5t9.5 60.5q0 45 -20 94.5t-52 107.5l138 69q16 -30 30 -61t25 -59.5t17 -51.5q14 -49 40.5 -68.5t63.5 -19.5q33 0 50 -20.5t17 -49.5q0 -34 -20.5 -54t-56.5 -20q-32 0 -59 12.5t-45.5 35.5t-24.5 53l46 38
q0 -51 -13.5 -102t-42.5 -99.5t-75 -90t-113 -72.5zM41 22q-30 0 -50.5 21t-20.5 49q0 31 20 52.5t51 21.5q30 0 50 -21.5t20 -51.5q0 -29 -20.5 -50t-49.5 -21zM166 -437q-31 0 -51 20.5t-20 49.5q0 30 20 51.5t51 21.5q29 0 49.5 -21.5t20.5 -51.5q0 -29 -20.5 -49.5
t-49.5 -20.5z" />
    <glyph glyph-name="uni0697.fina" unicode="&#x697;" horiz-adv-x="366" 
d="M40 -230l-76 133q46 23 78.5 49.5t53 55.5t30 59.5t9.5 60.5q0 45 -20 94.5t-52 107.5l138 69q16 -30 30 -61t25 -59.5t17 -51.5q14 -49 40.5 -68.5t63.5 -19.5q33 0 50 -20.5t17 -49.5q0 -34 -20.5 -54t-56.5 -20q-32 0 -59 12.5t-45.5 35.5t-24.5 53l46 38
q0 -51 -13.5 -102t-42.5 -99.5t-75 -90t-113 -72.5zM257 503q-29 0 -48.5 20t-19.5 48q0 29 19.5 49t48.5 20t49 -20t20 -48q0 -29 -20.5 -49t-48.5 -20zM88 503q-30 0 -49.5 20t-19.5 48q0 29 19.5 49t48.5 20q28 0 48.5 -20t20.5 -48q0 -29 -20.5 -49t-47.5 -20z" />
    <glyph glyph-name="uni0699.fina" unicode="&#x699;" horiz-adv-x="366" 
d="M40 -230l-76 133q46 23 78.5 49.5t53 55.5t30 59.5t9.5 60.5q0 45 -20 94.5t-52 107.5l138 69q16 -30 30 -61t25 -59.5t17 -51.5q14 -49 40.5 -68.5t63.5 -19.5q33 0 50 -20.5t17 -49.5q0 -34 -20.5 -54t-56.5 -20q-32 0 -59 12.5t-45.5 35.5t-24.5 53l46 38
q0 -51 -13.5 -102t-42.5 -99.5t-75 -90t-113 -72.5zM45 648q-26 0 -43 17.5t-17 41.5q0 25 17 43t43 18q24 0 41.5 -18t17.5 -43t-17.5 -42t-41.5 -17zM45 504q-25 0 -42.5 17.5t-17.5 41.5q0 25 17.5 43t42.5 18t42 -18t17 -43t-17 -42t-42 -17zM190 649q-25 0 -42.5 17.5
t-17.5 41.5q0 25 17 43t43 18q25 0 42 -18t17 -43t-17 -42t-42 -17zM189 504q-26 0 -43 17.5t-17 41.5q0 25 17 43t43 18q24 0 41.5 -18t17.5 -43t-17.5 -42t-41.5 -17z" />
    <glyph glyph-name="uni069A.init" unicode="&#x69a;" horiz-adv-x="853" 
d="M0 -5l10 144q22 0 36.5 6.5t25.5 27t20.5 63t21.5 114.5l140 -25q-3 -16 -6.5 -37t-6.5 -43t-3 -43q0 -29 13.5 -46t45.5 -17q22 0 36 6.5t24 27.5t19 65t20 119l142 -23q-4 -21 -8.5 -47.5t-7.5 -50t-3 -39.5q0 -17 7.5 -30t22 -20.5t36.5 -7.5q24 0 40.5 7.5t24.5 24
t8 43.5q0 43 -15.5 104t-39.5 131l141 44q17 -47 30.5 -98t21 -98.5t7.5 -83.5q0 -53 -17 -93t-46 -68t-67 -42.5t-81 -14.5q-41 0 -71 12.5t-50 42.5t-28 82h33q-20 -62 -47 -91t-58.5 -37.5t-67.5 -8.5q-27 0 -58 8.5t-58 37.5t-43 89l62 1q-23 -58 -56.5 -87.5t-72.5 -39
t-77 -9.5zM412 -237q-31 0 -51 20.5t-20 49.5q0 30 20 51.5t51 21.5q29 0 49.5 -21.5t20.5 -51.5q0 -29 -20.5 -49.5t-49.5 -20.5zM455 506q-30 0 -50.5 21t-20.5 49q0 31 20 52.5t51 21.5q30 0 50 -21.5t20 -51.5q0 -29 -20.5 -50t-49.5 -21z" />
    <glyph glyph-name="uni069A.medi" unicode="&#x69a;" horiz-adv-x="896" 
d="M0 -5l10 144q21 0 35.5 6.5t25 27t20 63t21.5 114.5l141 -25q-4 -21 -10 -54t-6 -58q0 -24 5.5 -40.5t20 -24.5t39.5 -8q20 0 33.5 6t24 27.5t19.5 65t19 118.5l142 -23q-4 -25 -8.5 -51t-7.5 -48.5t-3 -37.5q0 -18 7 -31t23 -20t42 -7q34 0 49.5 20.5t15.5 68.5
q0 23 -1 51t-4 62.5t-9 77.5l141 11q7 -93 16 -150.5t21.5 -88t33 -41.5t50.5 -11q33 0 50.5 -20.5t17.5 -49.5q0 -34 -20.5 -54t-57.5 -20q-14 0 -37 5t-48 19t-48 40.5t-38 70.5l21 -6q-14 -45 -36.5 -73.5t-53.5 -42t-72 -13.5q-33 0 -65 13t-52.5 43.5t-20.5 80.5h32
q-20 -59 -44 -88.5t-55 -39t-75 -9.5q-28 0 -60 10t-59.5 39t-41.5 86l62 1q-27 -62 -57.5 -91.5t-66.5 -37t-81 -7.5zM402 -237q-31 0 -51 20.5t-20 49.5q0 30 20 51.5t51 21.5q29 0 49.5 -21.5t20.5 -51.5q0 -29 -20.5 -49.5t-49.5 -20.5zM452 506q-30 0 -50.5 21
t-20.5 49q0 31 20 52.5t51 21.5q30 0 50 -21.5t20 -51.5q0 -29 -20.5 -50t-49.5 -21z" />
    <glyph glyph-name="uni069A.fina" unicode="&#x69a;" horiz-adv-x="1230" 
d="M293 -232q-49 0 -96 15t-85.5 46t-61 79t-22.5 114q0 26 4 56.5t15.5 71t36.5 96.5l132 -49q-14 -37 -22.5 -64.5t-11.5 -50.5t-3 -49q0 -41 17 -68t46 -40t64 -13q32 0 56.5 9.5t40.5 28.5t24 47t8 64t-7.5 76.5t-20 87t-29.5 96.5l152 40q14 -59 23.5 -93t13.5 -50
q10 -32 19.5 -49.5t22.5 -23t32 -5.5q17 0 29.5 6t23 27t19.5 65t18 120l143 -24q-4 -26 -8.5 -51.5t-7.5 -48t-3 -38.5t7 -29t23 -20.5t42 -7.5q33 0 49 21.5t16 67.5q0 23 -1 51t-4 62.5t-8 77.5l143 11q8 -102 18 -161t23.5 -86.5t32.5 -35.5t45 -8q33 0 50 -20.5
t17 -49.5q0 -34 -20 -54t-57 -20q-25 0 -59 11t-65 40t-48 83l20 -5q-14 -50 -40.5 -78t-57 -39.5t-55.5 -11.5q-43 0 -75.5 15.5t-51 46.5t-19.5 76h32q-18 -58 -42.5 -87.5t-52.5 -40t-59 -10.5q-13 0 -31 4t-36 14t-31.5 29.5t-17.5 49.5l41 -49q-2 -65 -25 -116.5
t-63 -86.5t-91.5 -53.5t-110.5 -18.5zM792 -232q-31 0 -51 20.5t-20 49.5q0 30 20 51.5t51 21.5q29 0 49.5 -21.5t20.5 -51.5q0 -29 -20.5 -49.5t-49.5 -20.5zM736 506q-30 0 -50.5 21t-20.5 49q0 31 20 52.5t51 21.5q30 0 50 -21.5t20 -51.5q0 -29 -20.5 -50t-49.5 -21z
" />
    <glyph glyph-name="uni069B.init" unicode="&#x69b;" horiz-adv-x="853" 
d="M0 -5l10 144q22 0 36.5 6.5t25.5 27t20.5 63t21.5 114.5l140 -25q-3 -16 -6.5 -37t-6.5 -43t-3 -43q0 -29 13.5 -46t45.5 -17q22 0 36 6.5t24 27.5t19 65t20 119l142 -23q-4 -21 -8.5 -47.5t-7.5 -50t-3 -39.5q0 -17 7.5 -30t22 -20.5t36.5 -7.5q24 0 40.5 7.5t24.5 24
t8 43.5q0 43 -15.5 104t-39.5 131l141 44q17 -47 30.5 -98t21 -98.5t7.5 -83.5q0 -53 -17 -93t-46 -68t-67 -42.5t-81 -14.5q-41 0 -71 12.5t-50 42.5t-28 82h33q-20 -62 -47 -91t-58.5 -37.5t-67.5 -8.5q-27 0 -58 8.5t-58 37.5t-43 89l62 1q-23 -58 -56.5 -87.5t-72.5 -39
t-77 -9.5zM412 -377q-27 0 -46.5 19t-19.5 47q0 27 19 47.5t47 20.5q27 0 46.5 -20.5t19.5 -47.5q0 -28 -19.5 -47t-46.5 -19zM329 -229q-28 0 -47 19.5t-19 46.5q0 28 19 48t47 20t47 -20t19 -48q0 -27 -19 -46.5t-47 -19.5zM499 -229q-28 0 -47.5 19.5t-19.5 46.5
q0 28 19.5 48t47.5 20t47 -20t19 -48q0 -27 -19 -46.5t-47 -19.5z" />
    <glyph glyph-name="uni069B.medi" unicode="&#x69b;" horiz-adv-x="896" 
d="M0 -5l10 144q21 0 35.5 6.5t25 27t20 63t21.5 114.5l141 -25q-4 -21 -10 -54t-6 -58q0 -24 5.5 -40.5t20 -24.5t39.5 -8q20 0 33.5 6t24 27.5t19.5 65t19 118.5l142 -23q-4 -25 -8.5 -51t-7.5 -48.5t-3 -37.5q0 -18 7 -31t23 -20t42 -7q34 0 49.5 20.5t15.5 68.5
q0 23 -1 51t-4 62.5t-9 77.5l141 11q7 -93 16 -150.5t21.5 -88t33 -41.5t50.5 -11q33 0 50.5 -20.5t17.5 -49.5q0 -34 -20.5 -54t-57.5 -20q-14 0 -37 5t-48 19t-48 40.5t-38 70.5l21 -6q-14 -45 -36.5 -73.5t-53.5 -42t-72 -13.5q-33 0 -65 13t-52.5 43.5t-20.5 80.5h32
q-20 -59 -44 -88.5t-55 -39t-75 -9.5q-28 0 -60 10t-59.5 39t-41.5 86l62 1q-27 -62 -57.5 -91.5t-66.5 -37t-81 -7.5zM402 -377q-27 0 -46.5 19t-19.5 47q0 27 19 47.5t47 20.5q27 0 46.5 -20.5t19.5 -47.5q0 -28 -19.5 -47t-46.5 -19zM319 -229q-28 0 -47 19.5t-19 46.5
q0 28 19 48t47 20t47 -20t19 -48q0 -27 -19 -46.5t-47 -19.5zM489 -229q-28 0 -47.5 19.5t-19.5 46.5q0 28 19.5 48t47.5 20t47 -20t19 -48q0 -27 -19 -46.5t-47 -19.5z" />
    <glyph glyph-name="uni069B.fina" unicode="&#x69b;" horiz-adv-x="1230" 
d="M293 -232q-49 0 -96 15t-85.5 46t-61 79t-22.5 114q0 26 4 56.5t15.5 71t36.5 96.5l132 -49q-14 -37 -22.5 -64.5t-11.5 -50.5t-3 -49q0 -41 17 -68t46 -40t64 -13q32 0 56.5 9.5t40.5 28.5t24 47t8 64t-7.5 76.5t-20 87t-29.5 96.5l152 40q14 -59 23.5 -93t13.5 -50
q10 -32 19.5 -49.5t22.5 -23t32 -5.5q17 0 29.5 6t23 27t19.5 65t18 120l143 -24q-4 -26 -8.5 -51.5t-7.5 -48t-3 -38.5t7 -29t23 -20.5t42 -7.5q33 0 49 21.5t16 67.5q0 23 -1 51t-4 62.5t-8 77.5l143 11q8 -102 18 -161t23.5 -86.5t32.5 -35.5t45 -8q33 0 50 -20.5
t17 -49.5q0 -34 -20 -54t-57 -20q-25 0 -59 11t-65 40t-48 83l20 -5q-14 -50 -40.5 -78t-57 -39.5t-55.5 -11.5q-43 0 -75.5 15.5t-51 46.5t-19.5 76h32q-18 -58 -42.5 -87.5t-52.5 -40t-59 -10.5q-13 0 -31 4t-36 14t-31.5 29.5t-17.5 49.5l41 -49q-2 -65 -25 -116.5
t-63 -86.5t-91.5 -53.5t-110.5 -18.5zM792 -371q-27 0 -46.5 19t-19.5 47q0 27 19 47.5t47 20.5q27 0 46.5 -20.5t19.5 -47.5q0 -28 -19.5 -47t-46.5 -19zM709 -223q-28 0 -47 19.5t-19 46.5q0 28 19 48t47 20t47 -20t19 -48q0 -27 -19 -46.5t-47 -19.5zM879 -223
q-28 0 -47.5 19.5t-19.5 46.5q0 28 19.5 48t47.5 20t47 -20t19 -48q0 -27 -19 -46.5t-47 -19.5z" />
    <glyph glyph-name="uni069D.init" unicode="&#x69d;" horiz-adv-x="877" 
d="M477 -17q-81 0 -137 8.5t-92.5 24t-60 36.5t-39.5 46l30 7q-23 -46 -54.5 -69.5t-63 -32t-60.5 -8.5l10 144q24 0 37 10.5t21.5 34.5t17.5 65t25 101l138 -36q-7 -27 -11.5 -47.5t-7 -34.5t-2.5 -23q0 -20 8 -35.5t31 -25.5t68 -15t118 -5q71 0 118 7.5t73 21.5t37 33.5
t11 42.5q0 18 -7.5 32.5t-21.5 24t-34 9.5q-27 0 -53.5 -14.5t-52.5 -41t-52 -59.5t-51 -70l-151 22q41 66 85.5 123.5t92 100.5t97.5 67t100 24q59 0 103.5 -27t69.5 -74t25 -109q0 -78 -40.5 -136t-121.5 -90t-203 -32zM563 -241q-29 0 -48.5 19.5t-19.5 47.5q0 29 19 49
t49 20q28 0 48.5 -20t20.5 -48q0 -29 -20.5 -48.5t-48.5 -19.5zM393 -241q-29 0 -49 19.5t-20 47.5q0 29 20 49t49 20q28 0 48 -20t20 -48q0 -29 -20 -48.5t-48 -19.5z" />
    <glyph glyph-name="uni069D.medi" unicode="&#x69d;" horiz-adv-x="906" 
d="M907 -5q-35 0 -71.5 11.5t-67.5 29t-51 34.5l88 100q26 -17 57 -24t54 -7q34 0 51 -20.5t17 -49.5q0 -34 -20.5 -54t-56.5 -20zM477 -17q-81 0 -137 8.5t-92.5 24t-60 36.5t-39.5 46l30 7q-23 -46 -54.5 -69.5t-63 -32t-60.5 -8.5l10 144q24 0 37 10.5t21.5 34.5t17.5 65
t25 101l138 -36q-7 -27 -11.5 -47.5t-7 -34.5t-2.5 -23q0 -20 8 -35.5t31 -25.5t68 -15t118 -5q71 0 118 7.5t73 21.5t37 33.5t11 42.5q0 18 -7.5 32.5t-21.5 24t-34 9.5q-27 0 -53.5 -14.5t-52.5 -41t-52 -59.5t-51 -70l-151 22q41 66 85.5 123.5t92 100.5t97.5 67t100 24
q59 0 103.5 -27t69.5 -74t25 -109q0 -78 -40.5 -136t-121.5 -90t-203 -32zM563 -241q-29 0 -48.5 19.5t-19.5 47.5q0 29 19 49t49 20q28 0 48.5 -20t20.5 -48q0 -29 -20.5 -48.5t-48.5 -19.5zM393 -241q-29 0 -49 19.5t-20 47.5q0 29 20 49t49 20q28 0 48 -20t20 -48
q0 -29 -20 -48.5t-48 -19.5z" />
    <glyph glyph-name="uni069D.fina" unicode="&#x69d;" horiz-adv-x="1266" 
d="M1267 -5q-35 0 -71.5 11.5t-67.5 29t-52 34.5l88 100q27 -17 57.5 -24t54.5 -7q34 0 51 -20.5t17 -49.5q0 -34 -20.5 -54t-56.5 -20zM291 -232q-49 0 -95.5 15t-84.5 46t-60.5 80t-22.5 118q0 25 4 54.5t16 69.5t36 96l132 -49q-14 -37 -22.5 -64t-11.5 -50.5t-3 -49.5
q0 -41 17 -68t45 -40.5t63 -13.5q34 0 58.5 10t41 29t24 46.5t7.5 62.5q0 56 -16 122t-38 139l151 40q10 -38 17 -66.5t12 -47t8 -28.5q8 -21 20 -37t38 -27.5t73.5 -17t123.5 -5.5q51 0 88.5 4.5t64 13.5t43 22t24.5 28.5t8 34.5q0 18 -8 33.5t-22 25t-35 9.5
q-25 0 -51 -15t-52.5 -41t-52.5 -58.5t-51 -68.5l-150 22q29 47 61.5 93t69.5 85.5t77 70t81.5 47.5t83.5 17q58 0 102.5 -27.5t70 -75t25.5 -107.5q0 -59 -23 -106.5t-68 -81.5t-110.5 -52t-151.5 -18q-45 0 -96 5.5t-97.5 17t-79.5 30t-44 44.5l52 -40q-2 -63 -24 -113.5
t-61 -87t-91.5 -56t-115.5 -19.5zM922 -237q-29 0 -48.5 19.5t-19.5 47.5q0 29 19 49t49 20q28 0 48.5 -20t20.5 -48q0 -29 -20.5 -48.5t-48.5 -19.5zM752 -237q-29 0 -49 19.5t-20 47.5q0 29 20 49t49 20q28 0 48 -20t20 -48q0 -29 -20 -48.5t-48 -19.5z" />
    <glyph glyph-name="uni069E.init" unicode="&#x69e;" horiz-adv-x="877" 
d="M477 -17q-81 0 -137 8.5t-92.5 24t-60 36.5t-39.5 46l30 7q-23 -46 -54.5 -69.5t-63 -32t-60.5 -8.5l10 144q24 0 37 10.5t21.5 34.5t17.5 65t25 101l138 -36q-7 -27 -11.5 -47.5t-7 -34.5t-2.5 -23q0 -20 8 -35.5t31 -25.5t68 -15t118 -5q71 0 118 7.5t73 21.5t37 33.5
t11 42.5q0 18 -7.5 32.5t-21.5 24t-34 9.5q-27 0 -53.5 -14.5t-52.5 -41t-52 -59.5t-51 -70l-151 22q41 66 85.5 123.5t92 100.5t97.5 67t100 24q59 0 103.5 -27t69.5 -74t25 -109q0 -78 -40.5 -136t-121.5 -90t-203 -32zM615 698q-30 0 -50 20t-20 48q0 29 20 49t50 20
q28 0 48 -20t20 -49q0 -28 -20 -48t-48 -20zM533 548q-29 0 -49.5 20.5t-20.5 48.5t20.5 49t49.5 21q28 0 48 -21t20 -49t-20 -48.5t-48 -20.5zM702 548q-28 0 -47.5 20.5t-19.5 48.5t19 49t48 21t49 -21t20 -49t-20.5 -48.5t-48.5 -20.5z" />
    <glyph glyph-name="uni069E.medi" unicode="&#x69e;" horiz-adv-x="906" 
d="M907 -5q-35 0 -71.5 11.5t-67.5 29t-51 34.5l88 100q26 -17 57 -24t54 -7q34 0 51 -20.5t17 -49.5q0 -34 -20.5 -54t-56.5 -20zM477 -17q-81 0 -137 8.5t-92.5 24t-60 36.5t-39.5 46l30 7q-23 -46 -54.5 -69.5t-63 -32t-60.5 -8.5l10 144q24 0 37 10.5t21.5 34.5t17.5 65
t25 101l138 -36q-7 -27 -11.5 -47.5t-7 -34.5t-2.5 -23q0 -20 8 -35.5t31 -25.5t68 -15t118 -5q71 0 118 7.5t73 21.5t37 33.5t11 42.5q0 18 -7.5 32.5t-21.5 24t-34 9.5q-27 0 -53.5 -14.5t-52.5 -41t-52 -59.5t-51 -70l-151 22q41 66 85.5 123.5t92 100.5t97.5 67t100 24
q59 0 103.5 -27t69.5 -74t25 -109q0 -78 -40.5 -136t-121.5 -90t-203 -32zM615 698q-30 0 -50 20t-20 48q0 29 20 49t50 20q28 0 48 -20t20 -49q0 -28 -20 -48t-48 -20zM533 548q-29 0 -49.5 20.5t-20.5 48.5t20.5 49t49.5 21q28 0 48 -21t20 -49t-20 -48.5t-48 -20.5z
M702 548q-28 0 -47.5 20.5t-19.5 48.5t19 49t48 21t49 -21t20 -49t-20.5 -48.5t-48.5 -20.5z" />
    <glyph glyph-name="uni069E.fina" unicode="&#x69e;" horiz-adv-x="1266" 
d="M1267 -5q-35 0 -71.5 11.5t-67.5 29t-52 34.5l88 100q27 -17 57.5 -24t54.5 -7q34 0 51 -20.5t17 -49.5q0 -34 -20.5 -54t-56.5 -20zM291 -232q-49 0 -95.5 15t-84.5 46t-60.5 80t-22.5 118q0 25 4 54.5t16 69.5t36 96l132 -49q-14 -37 -22.5 -64t-11.5 -50.5t-3 -49.5
q0 -41 17 -68t45 -40.5t63 -13.5q34 0 58.5 10t41 29t24 46.5t7.5 62.5q0 56 -16 122t-38 139l151 40q10 -38 17 -66.5t12 -47t8 -28.5q8 -21 20 -37t38 -27.5t73.5 -17t123.5 -5.5q51 0 88.5 4.5t64 13.5t43 22t24.5 28.5t8 34.5q0 18 -8 33.5t-22 25t-35 9.5
q-25 0 -51 -15t-52.5 -41t-52.5 -58.5t-51 -68.5l-150 22q29 47 61.5 93t69.5 85.5t77 70t81.5 47.5t83.5 17q58 0 102.5 -27.5t70 -75t25.5 -107.5q0 -59 -23 -106.5t-68 -81.5t-110.5 -52t-151.5 -18q-45 0 -96 5.5t-97.5 17t-79.5 30t-44 44.5l52 -40q-2 -63 -24 -113.5
t-61 -87t-91.5 -56t-115.5 -19.5zM974 703q-30 0 -50 20t-20 48q0 29 20 49t50 20q28 0 48 -20t20 -49q0 -28 -20 -48t-48 -20zM892 553q-29 0 -49.5 20.5t-20.5 48.5t20.5 49t49.5 21q28 0 48 -21t20 -49t-20 -48.5t-48 -20.5zM1061 553q-28 0 -47.5 20.5t-19.5 48.5t19 49
t48 21t49 -21t20 -49t-20.5 -48.5t-48.5 -20.5z" />
    <glyph glyph-name="uni069F.init" unicode="&#x69f;" horiz-adv-x="668" 
d="M0 -5l9 144h224q71 0 119.5 6.5t77 20t41.5 33.5t13 46q0 19 -8 33.5t-22 23t-32 8.5q-29 0 -56.5 -14t-54.5 -39t-54.5 -58.5t-56.5 -73.5l-155 11q45 71 91 131t94 103.5t99.5 67.5t105.5 24q61 0 105 -28t68.5 -75t24.5 -105q0 -76 -38 -131t-106 -87q-26 -12 -63 -21
t-81 -14t-94 -5zM107 98l-20 650h152l16 -468zM441 684q-30 0 -50 20t-20 48q0 29 20 49t50 20q28 0 48 -20t20 -49q0 -28 -20 -48t-48 -20zM359 534q-29 0 -49.5 20.5t-20.5 48.5t20.5 49t49.5 21q28 0 48 -21t20 -49t-20 -48.5t-48 -20.5zM528 534q-28 0 -47.5 20.5
t-19.5 48.5t19 49t48 21t49 -21t20 -49t-20.5 -48.5t-48.5 -20.5z" />
    <glyph glyph-name="uni069F.medi" unicode="&#x69f;" horiz-adv-x="678" 
d="M678 -5q-34 0 -70.5 11.5t-68 29t-51.5 34.5l88 100q27 -17 57.5 -24t53.5 -7q34 0 51.5 -20.5t17.5 -49.5q0 -34 -21 -54t-57 -20zM0 -5l9 144h224q71 0 119.5 6.5t77 20t41.5 33.5t13 46q0 19 -8 33.5t-22 23t-32 8.5q-29 0 -56.5 -14t-54.5 -39t-54.5 -58.5
t-56.5 -73.5l-155 11q45 71 91 131t94 103.5t99.5 67.5t105.5 24q61 0 105 -28t68.5 -75t24.5 -105q0 -76 -38 -131t-106 -87q-26 -12 -63 -21t-81 -14t-94 -5zM107 98l-20 650h152l16 -468zM441 684q-30 0 -50 20t-20 48q0 29 20 49t50 20q28 0 48 -20t20 -49
q0 -28 -20 -48t-48 -20zM359 534q-29 0 -49.5 20.5t-20.5 48.5t20.5 49t49.5 21q28 0 48 -21t20 -49t-20 -48.5t-48 -20.5zM528 534q-28 0 -47.5 20.5t-19.5 48.5t19 49t48 21t49 -21t20 -49t-20.5 -48.5t-48.5 -20.5z" />
    <glyph glyph-name="uni069F.fina" unicode="&#x69f;" horiz-adv-x="755" 
d="M755 -5q-34 0 -70.5 11.5t-68 29t-51.5 34.5l88 100q27 -17 57.5 -24t53.5 -7q34 0 51.5 -20.5t17.5 -49.5q0 -34 -21 -54t-57 -20zM351 -13q-43 0 -88 1t-89.5 3.5t-84 6t-71.5 8.5l18 147q47 -7 86.5 -11t73.5 -6.5t66 -3.5t66 -1q65 0 109.5 7.5t71 21t38.5 32.5
t12 41q0 20 -9 35.5t-24 24.5t-34 9q-22 0 -49 -14.5t-55.5 -40.5t-56.5 -59.5t-52 -69.5l-153 19q41 68 87 125.5t96 100.5t100.5 67t100.5 24q56 0 100.5 -26t71 -73t26.5 -111q0 -78 -41 -136t-120.5 -89.5t-195.5 -31.5zM181 98l-20 650h152l16 -469zM523 677
q-30 0 -50 20t-20 48q0 29 20 49t50 20q28 0 48 -20t20 -49q0 -28 -20 -48t-48 -20zM441 527q-29 0 -49.5 20.5t-20.5 48.5t20.5 49t49.5 21q28 0 48 -21t20 -49t-20 -48.5t-48 -20.5zM610 527q-28 0 -47.5 20.5t-19.5 48.5t19 49t48 21t49 -21t20 -49t-20.5 -48.5
t-48.5 -20.5z" />
    <glyph glyph-name="uni06A0.init" unicode="&#x6a0;" horiz-adv-x="478" 
d="M0 -5l10 144q22 0 38.5 0.5t35 3t43.5 6.5q-12 11 -27.5 32t-28 55t-12.5 80q0 62 29 106t76.5 68t104.5 24q22 0 45.5 -3.5t50.5 -11.5l-22 -132q-18 5 -30.5 6.5t-28.5 1.5q-21 0 -37 -9t-25.5 -26t-9.5 -40q0 -18 5.5 -34.5t14.5 -30.5t20.5 -24.5t23 -18.5t21.5 -11
q10 4 18 6t18 6t26 10.5t42 17.5l45 -123q-81 -38 -158.5 -61t-149.5 -32.5t-138 -9.5zM231 761q-30 0 -50 20t-20 48q0 29 20 49t50 20q28 0 48 -20t20 -49q0 -28 -20 -48t-48 -20zM149 611q-29 0 -49.5 20.5t-20.5 48.5t20.5 49t49.5 21q28 0 48 -21t20 -49t-20 -48.5
t-48 -20.5zM318 611q-28 0 -47.5 20.5t-19.5 48.5t19 49t48 21t49 -21t20 -49t-20.5 -48.5t-48.5 -20.5z" />
    <glyph glyph-name="uni06A0.medi" unicode="&#x6a0;" horiz-adv-x="511" 
d="M0 -5l10 144q62 0 112 11t89 29.5t65 42t39.5 48.5t13.5 48q0 14 -8 24t-22 15t-33 5q-18 0 -36 -4t-34.5 -11.5t-29.5 -19.5q22 -22 39.5 -43t34.5 -42.5t34 -46.5q22 -14 46 -24.5t53.5 -17.5t66.5 -10.5t83 -3.5q31 0 48.5 -20.5t17.5 -51.5q0 -32 -21.5 -52
t-54.5 -20q-61 0 -116.5 8.5t-107 30t-103.5 59.5q-28 36 -50.5 63.5t-41.5 50.5t-39 46q-4 5 -8.5 20t-7.5 31t-3 21q0 24 20.5 52.5t54.5 53.5t76.5 41t87.5 16q58 0 100.5 -17.5t66 -50.5t23.5 -81q0 -55 -24.5 -106.5t-68 -94.5t-102 -75.5t-127.5 -50t-143 -17.5z
M261 735q-30 0 -50 20t-20 48q0 29 20 49t50 20q28 0 48 -20t20 -49q0 -28 -20 -48t-48 -20zM179 585q-29 0 -49.5 20.5t-20.5 48.5t20.5 49t49.5 21q28 0 48 -21t20 -49t-20 -48.5t-48 -20.5zM348 585q-28 0 -47.5 20.5t-19.5 48.5t19 49t48 21t49 -21t20 -49t-20.5 -48.5
t-48.5 -20.5z" />
    <glyph glyph-name="uni06A0.fina" unicode="&#x6a0;" horiz-adv-x="516" 
d="M296 -391q-61 0 -113.5 15.5t-92 45.5t-61.5 74.5t-22 103.5q0 61 24 109.5t61.5 89.5t80 75.5t80.5 66t63 62t27 63.5q1 15 -7.5 25.5t-23 16.5t-34.5 6q-17 0 -34.5 -4t-34 -11.5t-29.5 -19.5q21 -21 40 -42t39.5 -45.5t45.5 -57.5q22 -15 50.5 -23.5t59 -13t59.5 -5.5
t52 -1q32 0 50 -21t18 -49q0 -34 -21 -54t-57 -20q-56 0 -114 9.5t-113 34.5t-106 71q-20 28 -39.5 52t-38 46.5t-36.5 43.5q-3 5 -7.5 20t-8 31t-3.5 22q0 24 20 52.5t54 53.5t77 41t89 16q85 0 136.5 -40.5t52.5 -112.5q1 -57 -21.5 -102.5t-59 -83.5t-77.5 -71.5
t-77.5 -66.5t-59.5 -69t-23 -80q0 -31 12 -52t32 -33.5t44 -18t50 -5.5q24 0 50.5 4t56.5 13t61 23l47 -124q-33 -19 -71 -32.5t-76 -20.5t-71 -7zM275 735q-30 0 -50 20t-20 48q0 29 20 49t50 20q28 0 48 -20t20 -49q0 -28 -20 -48t-48 -20zM193 585q-29 0 -49.5 20.5
t-20.5 48.5t20.5 49t49.5 21q28 0 48 -21t20 -49t-20 -48.5t-48 -20.5zM362 585q-28 0 -47.5 20.5t-19.5 48.5t19 49t48 21t49 -21t20 -49t-20.5 -48.5t-48.5 -20.5z" />
    <glyph glyph-name="uni06A1.init" unicode="&#x6a1;" horiz-adv-x="451" 
d="M0 -5l9 144h58t59 2t53.5 6t41.5 12q22 10 34 27.5t16.5 45.5t4.5 65q0 54 -6 88.5t-17.5 51.5t-28.5 17q-13 0 -23 -11t-16 -30.5t-6 -45.5q0 -18 7 -30t18 -17.5t25 -5.5q16 0 33.5 5t37.5 16l4 -101q-15 -13 -33 -22t-38.5 -13.5t-44.5 -4.5q-41 0 -74.5 18.5
t-52.5 53t-19 82.5q0 44 13 85t38 73t60 51t77 19q56 0 97.5 -36t65 -101t23.5 -154q0 -86 -24.5 -147t-81.5 -94q-28 -17 -64 -27t-76.5 -14.5t-83.5 -6t-86 -1.5z" />
    <glyph glyph-name="uni06A1.medi" unicode="&#x6a1;" horiz-adv-x="448" 
d="M0 -5l9 144q20 0 45 1t52 4t51.5 8.5t43.5 12.5q27 12 44.5 28.5t26 38t8.5 46.5q0 20 -7 37t-17 27.5t-22 10.5q-11 0 -22 -9.5t-18.5 -27.5t-7.5 -41q0 -20 7 -39.5t22 -37t39 -33.5l-125 -52q-25 24 -43.5 49.5t-28.5 55.5t-10 66q0 41 15.5 77t42 63.5t61 43.5
t71.5 16q53 0 94 -28.5t64.5 -72.5t23.5 -91q0 -49 -15 -87.5t-40 -68t-55.5 -52t-61.5 -39.5q-25 -14 -58 -24t-67.5 -15.5t-66.5 -8t-55 -2.5zM449 -5q-38 0 -84.5 7t-91 19.5t-75.5 30.5l68 111q28 -11 65 -16.5t71 -6.5t57 -1q33 0 50 -20.5t17 -49.5q0 -32 -20.5 -53
t-56.5 -21z" />
    <glyph glyph-name="uni06A1.fina" unicode="&#x6a1;" horiz-adv-x="989" 
d="M374 -21l26 144q47 0 96 3t95.5 9t84.5 13.5t59 16.5q33 13 51.5 31.5t26.5 39t8 40.5q0 13 -3.5 26.5t-9.5 25.5t-14 18.5t-18 6.5q-12 0 -24 -10.5t-19 -29t-7 -42.5q0 -17 7 -34.5t21.5 -35.5t36.5 -35l-128 -53q-21 24 -38.5 49.5t-28.5 54.5t-11 63q0 42 16 79
t43.5 65t62 44t71.5 16q54 0 95 -29t64.5 -73.5t23.5 -94.5q0 -45 -16 -82.5t-41.5 -67.5t-56.5 -52.5t-60 -37.5q-29 -16 -77.5 -28.5t-106.5 -21.5t-117.5 -13.5t-111.5 -4.5zM990 -5q-42 0 -89 6.5t-90 19t-73 29.5l67 113q29 -9 63.5 -14.5t69.5 -7.5t61 -2
q34 0 51 -20.5t17 -49.5q0 -32 -20.5 -53t-56.5 -21zM374 -21q-94 0 -159.5 17.5t-105.5 49t-58 74t-18 91.5q0 33 6.5 69t16 68.5t18.5 57.5l126 -34q-5 -19 -11 -39.5t-9.5 -42t-3.5 -42.5q0 -35 17 -64t65 -45t142 -16l20 -113z" />
    <glyph glyph-name="fehDotMovedbelowar.init" unicode="&#x6a2;" horiz-adv-x="451" 
d="M0 -5l9 144h58t59 2t53.5 6t41.5 12q22 10 34 27.5t16.5 45.5t4.5 65q0 54 -6 88.5t-17.5 51.5t-28.5 17q-13 0 -23 -11t-16 -30.5t-6 -45.5q0 -18 7 -30t18 -17.5t25 -5.5q16 0 33.5 5t37.5 16l4 -101q-15 -13 -33 -22t-38.5 -13.5t-44.5 -4.5q-41 0 -74.5 18.5
t-52.5 53t-19 82.5q0 44 13 85t38 73t60 51t77 19q56 0 97.5 -36t65 -101t23.5 -154q0 -86 -24.5 -147t-81.5 -94q-28 -17 -64 -27t-76.5 -14.5t-83.5 -6t-86 -1.5zM178 -254q-31 0 -51 20.5t-20 49.5q0 30 20 51.5t51 21.5q29 0 49.5 -21.5t20.5 -51.5q0 -29 -20.5 -49.5
t-49.5 -20.5z" />
    <glyph glyph-name="fehDotMovedbelowar.medi" unicode="&#x6a2;" horiz-adv-x="448" 
d="M0 -5l9 144q20 0 45 1t52 4t51.5 8.5t43.5 12.5q27 12 44.5 28.5t26 38t8.5 46.5q0 20 -7 37t-17 27.5t-22 10.5q-11 0 -22 -9.5t-18.5 -27.5t-7.5 -41q0 -20 7 -39.5t22 -37t39 -33.5l-125 -52q-25 24 -43.5 49.5t-28.5 55.5t-10 66q0 41 15.5 77t42 63.5t61 43.5
t71.5 16q53 0 94 -28.5t64.5 -72.5t23.5 -91q0 -49 -15 -87.5t-40 -68t-55.5 -52t-61.5 -39.5q-25 -14 -58 -24t-67.5 -15.5t-66.5 -8t-55 -2.5zM449 -5q-38 0 -84.5 7t-91 19.5t-75.5 30.5l68 111q28 -11 65 -16.5t71 -6.5t57 -1q33 0 50 -20.5t17 -49.5q0 -32 -20.5 -53
t-56.5 -21zM231 -254q-31 0 -51 20.5t-20 49.5q0 30 20 51.5t51 21.5q29 0 49.5 -21.5t20.5 -51.5q0 -29 -20.5 -49.5t-49.5 -20.5z" />
    <glyph glyph-name="fehDotMovedbelowar.fina" unicode="&#x6a2;" horiz-adv-x="989" 
d="M374 -21l26 144q47 0 96 3t95.5 9t84.5 13.5t59 16.5q33 13 51.5 31.5t26.5 39t8 40.5q0 13 -3.5 26.5t-9.5 25.5t-14 18.5t-18 6.5q-12 0 -24 -10.5t-19 -29t-7 -42.5q0 -17 7 -34.5t21.5 -35.5t36.5 -35l-128 -53q-21 24 -38.5 49.5t-28.5 54.5t-11 63q0 42 16 79
t43.5 65t62 44t71.5 16q54 0 95 -29t64.5 -73.5t23.5 -94.5q0 -45 -16 -82.5t-41.5 -67.5t-56.5 -52.5t-60 -37.5q-29 -16 -77.5 -28.5t-106.5 -21.5t-117.5 -13.5t-111.5 -4.5zM990 -5q-42 0 -89 6.5t-90 19t-73 29.5l67 113q29 -9 63.5 -14.5t69.5 -7.5t61 -2
q34 0 51 -20.5t17 -49.5q0 -32 -20.5 -53t-56.5 -21zM374 -21q-94 0 -159.5 17.5t-105.5 49t-58 74t-18 91.5q0 33 6.5 69t16 68.5t18.5 57.5l126 -34q-5 -19 -11 -39.5t-9.5 -42t-3.5 -42.5q0 -35 17 -64t65 -45t142 -16l20 -113zM452 -254q-31 0 -51 20.5t-20 49.5
q0 30 20 51.5t51 21.5q29 0 49.5 -21.5t20.5 -51.5q0 -29 -20.5 -49.5t-49.5 -20.5z" />
    <glyph glyph-name="uni06A3.init" unicode="&#x6a3;" horiz-adv-x="451" 
d="M0 -5l9 144h58t59 2t53.5 6t41.5 12q22 10 34 27.5t16.5 45.5t4.5 65q0 54 -6 88.5t-17.5 51.5t-28.5 17q-13 0 -23 -11t-16 -30.5t-6 -45.5q0 -18 7 -30t18 -17.5t25 -5.5q16 0 33.5 5t37.5 16l4 -101q-15 -13 -33 -22t-38.5 -13.5t-44.5 -4.5q-41 0 -74.5 18.5
t-52.5 53t-19 82.5q0 44 13 85t38 73t60 51t77 19q56 0 97.5 -36t65 -101t23.5 -154q0 -86 -24.5 -147t-81.5 -94q-28 -17 -64 -27t-76.5 -14.5t-83.5 -6t-86 -1.5zM219 674q-30 0 -50.5 21t-20.5 49q0 31 20 52.5t51 21.5q30 0 50 -21.5t20 -51.5q0 -29 -20.5 -50
t-49.5 -21zM178 -254q-31 0 -51 20.5t-20 49.5q0 30 20 51.5t51 21.5q29 0 49.5 -21.5t20.5 -51.5q0 -29 -20.5 -49.5t-49.5 -20.5z" />
    <glyph glyph-name="uni06A3.medi" unicode="&#x6a3;" horiz-adv-x="448" 
d="M0 -5l9 144q20 0 45 1t52 4t51.5 8.5t43.5 12.5q27 12 44.5 28.5t26 38t8.5 46.5q0 20 -7 37t-17 27.5t-22 10.5q-11 0 -22 -9.5t-18.5 -27.5t-7.5 -41q0 -20 7 -39.5t22 -37t39 -33.5l-125 -52q-25 24 -43.5 49.5t-28.5 55.5t-10 66q0 41 15.5 77t42 63.5t61 43.5
t71.5 16q53 0 94 -28.5t64.5 -72.5t23.5 -91q0 -49 -15 -87.5t-40 -68t-55.5 -52t-61.5 -39.5q-25 -14 -58 -24t-67.5 -15.5t-66.5 -8t-55 -2.5zM449 -5q-38 0 -84.5 7t-91 19.5t-75.5 30.5l68 111q28 -11 65 -16.5t71 -6.5t57 -1q33 0 50 -20.5t17 -49.5q0 -32 -20.5 -53
t-56.5 -21zM238 582q-30 0 -50.5 21t-20.5 49q0 31 20 52.5t51 21.5q30 0 50 -21.5t20 -51.5q0 -29 -20.5 -50t-49.5 -21zM231 -254q-31 0 -51 20.5t-20 49.5q0 30 20 51.5t51 21.5q29 0 49.5 -21.5t20.5 -51.5q0 -29 -20.5 -49.5t-49.5 -20.5z" />
    <glyph glyph-name="uni06A3.fina" unicode="&#x6a3;" horiz-adv-x="989" 
d="M374 -21l26 144q47 0 96 3t95.5 9t84.5 13.5t59 16.5q33 13 51.5 31.5t26.5 39t8 40.5q0 13 -3.5 26.5t-9.5 25.5t-14 18.5t-18 6.5q-12 0 -24 -10.5t-19 -29t-7 -42.5q0 -17 7 -34.5t21.5 -35.5t36.5 -35l-128 -53q-21 24 -38.5 49.5t-28.5 54.5t-11 63q0 42 16 79
t43.5 65t62 44t71.5 16q54 0 95 -29t64.5 -73.5t23.5 -94.5q0 -45 -16 -82.5t-41.5 -67.5t-56.5 -52.5t-60 -37.5q-29 -16 -77.5 -28.5t-106.5 -21.5t-117.5 -13.5t-111.5 -4.5zM990 -5q-42 0 -89 6.5t-90 19t-73 29.5l67 113q29 -9 63.5 -14.5t69.5 -7.5t61 -2
q34 0 51 -20.5t17 -49.5q0 -32 -20.5 -53t-56.5 -21zM374 -21q-94 0 -159.5 17.5t-105.5 49t-58 74t-18 91.5q0 33 6.5 69t16 68.5t18.5 57.5l126 -34q-5 -19 -11 -39.5t-9.5 -42t-3.5 -42.5q0 -35 17 -64t65 -45t142 -16l20 -113zM778 582q-30 0 -50.5 21t-20.5 49
q0 31 20 52.5t51 21.5q30 0 50 -21.5t20 -51.5q0 -29 -20.5 -50t-49.5 -21zM452 -254q-31 0 -51 20.5t-20 49.5q0 30 20 51.5t51 21.5q29 0 49.5 -21.5t20.5 -51.5q0 -29 -20.5 -49.5t-49.5 -20.5z" />
    <glyph glyph-name="uni06A5.init" unicode="&#x6a5;" horiz-adv-x="451" 
d="M0 -5l9 144h58t59 2t53.5 6t41.5 12q22 10 34 27.5t16.5 45.5t4.5 65q0 54 -6 88.5t-17.5 51.5t-28.5 17q-13 0 -23 -11t-16 -30.5t-6 -45.5q0 -18 7 -30t18 -17.5t25 -5.5q16 0 33.5 5t37.5 16l4 -101q-15 -13 -33 -22t-38.5 -13.5t-44.5 -4.5q-41 0 -74.5 18.5
t-52.5 53t-19 82.5q0 44 13 85t38 73t60 51t77 19q56 0 97.5 -36t65 -101t23.5 -154q0 -86 -24.5 -147t-81.5 -94q-28 -17 -64 -27t-76.5 -14.5t-83.5 -6t-86 -1.5zM178 -393q-27 0 -46.5 19t-19.5 47q0 27 19 47.5t47 20.5q27 0 46.5 -20.5t19.5 -47.5q0 -28 -19.5 -47
t-46.5 -19zM95 -245q-28 0 -47 19.5t-19 46.5q0 28 19 48t47 20t47 -20t19 -48q0 -27 -19 -46.5t-47 -19.5zM265 -245q-28 0 -47.5 19.5t-19.5 46.5q0 28 19.5 48t47.5 20t47 -20t19 -48q0 -27 -19 -46.5t-47 -19.5z" />
    <glyph glyph-name="uni06A5.medi" unicode="&#x6a5;" horiz-adv-x="448" 
d="M0 -5l9 144q20 0 45 1t52 4t51.5 8.5t43.5 12.5q27 12 44.5 28.5t26 38t8.5 46.5q0 20 -7 37t-17 27.5t-22 10.5q-11 0 -22 -9.5t-18.5 -27.5t-7.5 -41q0 -20 7 -39.5t22 -37t39 -33.5l-125 -52q-25 24 -43.5 49.5t-28.5 55.5t-10 66q0 41 15.5 77t42 63.5t61 43.5
t71.5 16q53 0 94 -28.5t64.5 -72.5t23.5 -91q0 -49 -15 -87.5t-40 -68t-55.5 -52t-61.5 -39.5q-25 -14 -58 -24t-67.5 -15.5t-66.5 -8t-55 -2.5zM449 -5q-38 0 -84.5 7t-91 19.5t-75.5 30.5l68 111q28 -11 65 -16.5t71 -6.5t57 -1q33 0 50 -20.5t17 -49.5q0 -32 -20.5 -53
t-56.5 -21zM231 -394q-27 0 -46.5 19t-19.5 47q0 27 19 47.5t47 20.5q27 0 46.5 -20.5t19.5 -47.5q0 -28 -19.5 -47t-46.5 -19zM148 -246q-28 0 -47 19.5t-19 46.5q0 28 19 48t47 20t47 -20t19 -48q0 -27 -19 -46.5t-47 -19.5zM318 -246q-28 0 -47.5 19.5t-19.5 46.5
q0 28 19.5 48t47.5 20t47 -20t19 -48q0 -27 -19 -46.5t-47 -19.5z" />
    <glyph glyph-name="uni06A5.fina" unicode="&#x6a5;" horiz-adv-x="989" 
d="M374 -21l26 144q47 0 96 3t95.5 9t84.5 13.5t59 16.5q33 13 51.5 31.5t26.5 39t8 40.5q0 13 -3.5 26.5t-9.5 25.5t-14 18.5t-18 6.5q-12 0 -24 -10.5t-19 -29t-7 -42.5q0 -17 7 -34.5t21.5 -35.5t36.5 -35l-128 -53q-21 24 -38.5 49.5t-28.5 54.5t-11 63q0 42 16 79
t43.5 65t62 44t71.5 16q54 0 95 -29t64.5 -73.5t23.5 -94.5q0 -45 -16 -82.5t-41.5 -67.5t-56.5 -52.5t-60 -37.5q-29 -16 -77.5 -28.5t-106.5 -21.5t-117.5 -13.5t-111.5 -4.5zM990 -5q-42 0 -89 6.5t-90 19t-73 29.5l67 113q29 -9 63.5 -14.5t69.5 -7.5t61 -2
q34 0 51 -20.5t17 -49.5q0 -32 -20.5 -53t-56.5 -21zM374 -21q-94 0 -159.5 17.5t-105.5 49t-58 74t-18 91.5q0 33 6.5 69t16 68.5t18.5 57.5l126 -34q-5 -19 -11 -39.5t-9.5 -42t-3.5 -42.5q0 -35 17 -64t65 -45t142 -16l20 -113zM452 -393q-27 0 -46.5 19t-19.5 47
q0 27 19 47.5t47 20.5q27 0 46.5 -20.5t19.5 -47.5q0 -28 -19.5 -47t-46.5 -19zM369 -245q-28 0 -47 19.5t-19 46.5q0 28 19 48t47 20t47 -20t19 -48q0 -27 -19 -46.5t-47 -19.5zM539 -245q-28 0 -47.5 19.5t-19.5 46.5q0 28 19.5 48t47.5 20t47 -20t19 -48q0 -27 -19 -46.5
t-47 -19.5z" />
    <glyph glyph-name="uni06A7.fina" unicode="&#x6a7;" horiz-adv-x="764" 
d="M323 -272q-56 0 -109.5 14.5t-95.5 46t-67 80.5t-25 117q0 26 4 56.5t16 71.5t36 98l131 -51q-14 -37 -22 -62t-11 -45t-3 -44q0 -43 19.5 -73.5t57.5 -47.5t91 -17q31 0 60 6t54 16.5t45.5 25t35.5 32.5t23 38q10 25 14 59t4 80q0 47 -6.5 79.5t-18.5 49t-28 16.5
q-11 0 -19 -7.5t-13.5 -19t-8 -25t-2.5 -25.5q0 -21 5.5 -35.5t23 -22t54 -8t97.5 7.5h109q34 0 51 -20.5t17 -49.5q0 -32 -19.5 -53t-58.5 -21h-164q-54 0 -100 8t-80.5 27t-54 52t-19.5 83q0 45 13.5 86.5t38.5 74t60 51.5t79 19q53 0 95 -35.5t66 -98.5t24 -148
q0 -58 -15 -110t-36 -90q-24 -45 -60.5 -79.5t-82 -58.5t-98 -36t-107.5 -12zM537 494q-30 0 -50.5 21t-20.5 49q0 31 20 52.5t51 21.5q30 0 50 -21.5t20 -51.5q0 -29 -20.5 -50t-49.5 -21z" />
    <glyph glyph-name="uni06A8.init" unicode="&#x6a8;" horiz-adv-x="451" 
d="M0 -5l9 144h58t59 2t53.5 6t41.5 12q22 10 34 27.5t16.5 45.5t4.5 65q0 54 -6 88.5t-17.5 51.5t-28.5 17q-13 0 -23 -11t-16 -30.5t-6 -45.5q0 -18 7 -30t18 -17.5t25 -5.5q16 0 33.5 5t37.5 16l4 -101q-15 -13 -33 -22t-38.5 -13.5t-44.5 -4.5q-41 0 -74.5 18.5
t-52.5 53t-19 82.5q0 44 13 85t38 73t60 51t77 19q56 0 97.5 -36t65 -101t23.5 -154q0 -86 -24.5 -147t-81.5 -94q-28 -17 -64 -27t-76.5 -14.5t-83.5 -6t-86 -1.5zM219 823q-30 0 -50 20t-20 48q0 29 20 49t50 20q28 0 48 -20t20 -49q0 -28 -20 -48t-48 -20zM137 673
q-29 0 -49.5 20.5t-20.5 48.5t20.5 49t49.5 21q28 0 48 -21t20 -49t-20 -48.5t-48 -20.5zM306 673q-28 0 -47.5 20.5t-19.5 48.5t19 49t48 21t49 -21t20 -49t-20.5 -48.5t-48.5 -20.5z" />
    <glyph glyph-name="uni06A8.medi" unicode="&#x6a8;" horiz-adv-x="448" 
d="M0 -5l9 144q20 0 45 1t52 4t51.5 8.5t43.5 12.5q27 12 44.5 28.5t26 38t8.5 46.5q0 20 -7 37t-17 27.5t-22 10.5q-11 0 -22 -9.5t-18.5 -27.5t-7.5 -41q0 -20 7 -39.5t22 -37t39 -33.5l-125 -52q-25 24 -43.5 49.5t-28.5 55.5t-10 66q0 41 15.5 77t42 63.5t61 43.5
t71.5 16q53 0 94 -28.5t64.5 -72.5t23.5 -91q0 -49 -15 -87.5t-40 -68t-55.5 -52t-61.5 -39.5q-25 -14 -58 -24t-67.5 -15.5t-66.5 -8t-55 -2.5zM449 -5q-38 0 -84.5 7t-91 19.5t-75.5 30.5l68 111q28 -11 65 -16.5t71 -6.5t57 -1q33 0 50 -20.5t17 -49.5q0 -32 -20.5 -53
t-56.5 -21zM238 731q-30 0 -50 20t-20 48q0 29 20 49t50 20q28 0 48 -20t20 -49q0 -28 -20 -48t-48 -20zM156 581q-29 0 -49.5 20.5t-20.5 48.5t20.5 49t49.5 21q28 0 48 -21t20 -49t-20 -48.5t-48 -20.5zM325 581q-28 0 -47.5 20.5t-19.5 48.5t19 49t48 21t49 -21t20 -49
t-20.5 -48.5t-48.5 -20.5z" />
    <glyph glyph-name="uni06A8.fina" unicode="&#x6a8;" horiz-adv-x="764" 
d="M323 -272q-56 0 -109.5 14.5t-95.5 46t-67 80.5t-25 117q0 26 4 56.5t16 71.5t36 98l131 -51q-14 -37 -22 -62t-11 -45t-3 -44q0 -43 19.5 -73.5t57.5 -47.5t91 -17q31 0 60 6t54 16.5t45.5 25t35.5 32.5t23 38q10 25 14 59t4 80q0 47 -6.5 79.5t-18.5 49t-28 16.5
q-11 0 -19 -7.5t-13.5 -19t-8 -25t-2.5 -25.5q0 -21 5.5 -35.5t23 -22t54 -8t97.5 7.5h109q34 0 51 -20.5t17 -49.5q0 -32 -19.5 -53t-58.5 -21h-164q-54 0 -100 8t-80.5 27t-54 52t-19.5 83q0 45 13.5 86.5t38.5 74t60 51.5t79 19q53 0 95 -35.5t66 -98.5t24 -148
q0 -58 -15 -110t-36 -90q-24 -45 -60.5 -79.5t-82 -58.5t-98 -36t-107.5 -12zM536 643q-30 0 -50 20t-20 48q0 29 20 49t50 20q28 0 48 -20t20 -49q0 -28 -20 -48t-48 -20zM454 493q-29 0 -49.5 20.5t-20.5 48.5t20.5 49t49.5 21q28 0 48 -21t20 -49t-20 -48.5t-48 -20.5z
M623 493q-28 0 -47.5 20.5t-19.5 48.5t19 49t48 21t49 -21t20 -49t-20.5 -48.5t-48.5 -20.5z" />
    <glyph glyph-name="uni06AA.init" unicode="&#x6aa;" horiz-adv-x="768" 
d="M0 -5l10 144h287q83 0 140 1t91 4.5t49.5 11t15.5 20.5q0 10 -8.5 17.5t-27.5 14t-52.5 13t-83.5 12.5q-106 14 -167 33.5t-87 48t-26 71.5q0 53 28 94.5t75.5 73t107 54.5t123.5 39l31 -125q-64 -17 -113 -35.5t-76 -37t-27 -35.5q0 -12 12.5 -20t48 -15t104.5 -18
q77 -11 129 -27t83.5 -39t45 -54.5t13.5 -71.5q0 -49 -24.5 -82.5t-77 -53.5t-133.5 -28.5t-193 -8.5z" />
    <glyph glyph-name="uni06AA.medi" unicode="&#x6aa;" horiz-adv-x="787" 
d="M788 -5q-35 0 -71.5 11.5t-67.5 29t-52 34.5l88 100q27 -17 58 -24t54 -7q34 0 51 -20.5t17 -49.5q0 -34 -20.5 -54t-56.5 -20zM0 -5l10 144h287q83 0 140 1t91 4.5t49.5 11t15.5 20.5q0 10 -8.5 17.5t-27.5 14t-52.5 13t-83.5 12.5q-106 14 -167 33.5t-87 48t-26 71.5
q0 53 28 94.5t75.5 73t107 54.5t123.5 39l31 -125q-64 -17 -113 -35.5t-76 -37t-27 -35.5q0 -12 12.5 -20t48 -15t104.5 -18q77 -11 129 -27t83.5 -39t45 -54.5t13.5 -71.5q0 -49 -24.5 -82.5t-77 -53.5t-133.5 -28.5t-193 -8.5z" />
    <glyph glyph-name="uni06AA.fina" unicode="&#x6aa;" horiz-adv-x="970" 
d="M970 -5q-34 0 -71 11.5t-68 29t-51 34.5l88 100q27 -17 57.5 -24t53.5 -7q34 0 51.5 -20.5t17.5 -49.5q0 -34 -21 -54t-57 -20zM480 -15q-33 0 -86.5 1t-115.5 3t-123 6t-108 9l6 137q50 -3 105 -6t111 -5.5t109.5 -4t100.5 -1.5q84 0 140.5 2.5t90.5 8t49.5 14.5
t15.5 22q0 11 -8.5 20t-27.5 16t-52.5 13.5t-83.5 12.5q-106 14 -167 33.5t-86.5 48t-25.5 71.5q0 53 28 94.5t75 73t106.5 54.5t123.5 39l31 -125q-64 -17 -113 -36t-76.5 -37t-27.5 -35q0 -12 12.5 -20t48.5 -15t105 -18q77 -11 129 -27t83.5 -39t45 -54.5t13.5 -71.5
q0 -49 -24.5 -84t-77 -57t-133.5 -32.5t-193 -10.5z" />
    <glyph glyph-name="uni06AB.init" unicode="&#x6ab;" horiz-adv-x="396" 
d="M305 438q-35 0 -60 25t-25 60q0 36 25 60.5t60 24.5q36 0 60.5 -24.5t24.5 -60.5q0 -35 -24.5 -60t-60.5 -25zM305 495q13 0 21.5 8t8.5 20q0 13 -8.5 21t-21.5 8q-12 0 -20.5 -8.5t-8.5 -20.5t8.5 -20t20.5 -8zM0 -5l10 144h92q21 0 34.5 4.5t21 12.5t11 18t3.5 20
q0 32 -20.5 66.5t-45.5 65.5q-18 23 -33 40.5t-25 31t-16 24t-6 18.5q0 14 2.5 34.5t7 39.5t11.5 26q16 17 39.5 36.5t57.5 43t80 51.5t108 61l72 -119q-55 -30 -97.5 -54.5t-74.5 -45t-56 -39t-42 -36.5l8 76q43 -47 77.5 -90t59.5 -82.5t38 -77.5t13 -77
q0 -32 -11.5 -65.5t-38.5 -62.5t-72.5 -46.5t-114.5 -17.5h-93z" />
    <glyph glyph-name="uni06AB.medi" unicode="&#x6ab;" horiz-adv-x="429" 
d="M304 437q-36 0 -60.5 25t-24.5 60q0 36 24.5 61t60.5 25t60.5 -25t24.5 -61q0 -35 -24.5 -60t-60.5 -25zM304 495q12 0 21 7.5t9 19.5q0 14 -9 21.5t-21 7.5t-20.5 -8t-8.5 -21q0 -12 8.5 -19.5t20.5 -7.5zM0 -5l9 144h92q28 0 43.5 7.5t21.5 20t6 27.5q0 19 -11 42
t-27.5 48t-35 49t-35 45t-27.5 37t-11 22q0 15 2.5 36.5t7 40.5t11.5 26q18 18 44 39t61.5 45.5t80 51t99.5 56.5l73 -119q-54 -29 -96 -53.5t-74.5 -46t-57.5 -40.5t-44 -37l5 81q23 -28 47 -59t48.5 -65.5t47 -74t41.5 -86.5q18 -43 35 -63t37.5 -25t46.5 -5
q33 0 50 -20.5t17 -49.5q0 -32 -20.5 -53t-56.5 -21q-43 0 -76.5 11.5t-57 38t-36.5 72.5l49 -2q-12 -29 -31 -52t-46.5 -38t-63.5 -22.5t-82 -7.5h-86z" />
    <glyph glyph-name="uni06AB.fina" unicode="&#x6ab;" horiz-adv-x="863" 
d="M728 437q-36 0 -60.5 25t-24.5 60q0 36 24.5 60.5t60.5 24.5t60.5 -24.5t24.5 -60.5q0 -35 -24.5 -60t-60.5 -25zM728 494q12 0 21 8t9 20q0 13 -9 21t-21 8t-20.5 -8.5t-8.5 -20.5t8.5 -20t20.5 -8zM374 -21l26 144q45 0 81.5 3t62 11.5t39 23.5t13.5 38q0 17 -10.5 39
t-27 46t-35.5 48t-35.5 45t-27 36.5t-10.5 23.5q0 15 2.5 35.5t7 39t10.5 25.5q23 25 62 55t94.5 65.5t127.5 74.5l73 -119q-70 -39 -121 -69.5t-86.5 -56.5t-60.5 -50l4 81q25 -29 51 -61t50.5 -67.5t46 -74.5t39.5 -83q12 -31 25 -49t28.5 -28t32.5 -13t37 -3
q33 0 50.5 -20.5t17.5 -49.5q0 -32 -20.5 -53t-56.5 -21q-40 0 -74.5 12t-59 38.5t-35.5 71.5l38 5q-16 -43 -47.5 -71.5t-77.5 -44t-104.5 -21.5t-129.5 -6zM374 -21q-94 0 -159.5 17.5t-105.5 49t-58 74t-18 91.5q0 33 6.5 69t16 68.5t18.5 57.5l126 -34q-5 -19 -11 -39.5
t-9.5 -42t-3.5 -42.5q0 -35 17 -64t65 -45t142 -16l20 -113z" />
    <glyph glyph-name="uni06AC.init" unicode="&#x6ac;" horiz-adv-x="396" 
d="M0 -5l10 144h92q21 0 34.5 4.5t21 12.5t11 18t3.5 20q0 32 -20.5 66.5t-45.5 65.5q-18 23 -33 40.5t-25 31t-16 24t-6 18.5q0 14 2.5 34.5t7 39.5t11.5 26q16 17 39.5 36.5t57.5 43t80 51.5t108 61l72 -119q-55 -30 -97.5 -54.5t-74.5 -45t-56 -39t-42 -36.5l8 76
q43 -47 77.5 -90t59.5 -82.5t38 -77.5t13 -77q0 -32 -11.5 -65.5t-38.5 -62.5t-72.5 -46.5t-114.5 -17.5h-93zM148 736q-30 0 -50.5 21t-20.5 49q0 31 20 52.5t51 21.5q30 0 50 -21.5t20 -51.5q0 -29 -20.5 -50t-49.5 -21z" />
    <glyph glyph-name="uni06AC.medi" unicode="&#x6ac;" horiz-adv-x="429" 
d="M0 -5l9 144h92q28 0 43.5 7.5t21.5 20t6 27.5q0 19 -11 42t-27.5 48t-35 49t-35 45t-27.5 37t-11 22q0 15 2.5 36.5t7 40.5t11.5 26q18 18 44 39t61.5 45.5t80 51t99.5 56.5l73 -119q-54 -29 -96 -53.5t-74.5 -46t-57.5 -40.5t-44 -37l5 81q23 -28 47 -59t48.5 -65.5
t47 -74t41.5 -86.5q18 -43 35 -63t37.5 -25t46.5 -5q33 0 50 -20.5t17 -49.5q0 -32 -20.5 -53t-56.5 -21q-43 0 -76.5 11.5t-57 38t-36.5 72.5l49 -2q-12 -29 -31 -52t-46.5 -38t-63.5 -22.5t-82 -7.5h-86zM148 736q-30 0 -50.5 21t-20.5 49q0 31 20 52.5t51 21.5
q30 0 50 -21.5t20 -51.5q0 -29 -20.5 -50t-49.5 -21z" />
    <glyph glyph-name="uni06AC.fina" unicode="&#x6ac;" horiz-adv-x="910" 
d="M374 -21l26 144q88 -2 144.5 5t87 28t40.5 60.5t7 101.5l-25 430h148l23 -442q4 -67 15 -103.5t30.5 -50t49.5 -13.5q33 0 50.5 -20.5t17.5 -49.5q0 -32 -21 -53t-57 -21q-35 0 -69.5 13t-59 42.5t-33.5 78.5h53q-24 -51 -66.5 -81.5t-99 -45.5t-123 -19.5t-138.5 -3.5z
M344 222l-27 103q36 8 59 15t34 14.5t11 17.5q0 8 -9.5 19t-22 24.5t-21.5 30t-9 37.5q0 27 14.5 50.5t45 44.5t78.5 40l46 -92q-39 -15 -55.5 -28.5t-16.5 -27.5q0 -10 9.5 -22.5t22 -27t22.5 -31.5t10 -37q0 -17 -6 -34t-25.5 -34t-57 -32.5t-102.5 -29.5zM374 -21
q-94 0 -159.5 17.5t-105.5 49t-58 74t-18 91.5q0 33 6.5 69t16 68.5t18.5 57.5l126 -34q-5 -19 -11 -39.5t-9.5 -42t-3.5 -42.5q0 -35 17 -64t65 -45t142 -16l20 -113zM461 661q-30 0 -50.5 21t-20.5 49q0 31 20 52.5t51 21.5q30 0 50 -21.5t20 -51.5q0 -29 -20.5 -50
t-49.5 -21z" />
    <glyph glyph-name="uni06AE.init" unicode="&#x6ae;" horiz-adv-x="396" 
d="M0 -5l10 144h92q21 0 34.5 4.5t21 12.5t11 18t3.5 20q0 32 -20.5 66.5t-45.5 65.5q-18 23 -33 40.5t-25 31t-16 24t-6 18.5q0 14 2.5 34.5t7 39.5t11.5 26q16 17 39.5 36.5t57.5 43t80 51.5t108 61l72 -119q-55 -30 -97.5 -54.5t-74.5 -45t-56 -39t-42 -36.5l8 76
q43 -47 77.5 -90t59.5 -82.5t38 -77.5t13 -77q0 -32 -11.5 -65.5t-38.5 -62.5t-72.5 -46.5t-114.5 -17.5h-93zM179 -372q-27 0 -46.5 19t-19.5 47q0 27 19 47.5t47 20.5q27 0 46.5 -20.5t19.5 -47.5q0 -28 -19.5 -47t-46.5 -19zM96 -224q-28 0 -47 19.5t-19 46.5q0 28 19 48
t47 20t47 -20t19 -48q0 -27 -19 -46.5t-47 -19.5zM266 -224q-28 0 -47.5 19.5t-19.5 46.5q0 28 19.5 48t47.5 20t47 -20t19 -48q0 -27 -19 -46.5t-47 -19.5z" />
    <glyph glyph-name="uni06AE.medi" unicode="&#x6ae;" horiz-adv-x="429" 
d="M0 -5l9 144h92q28 0 43.5 7.5t21.5 20t6 27.5q0 19 -11 42t-27.5 48t-35 49t-35 45t-27.5 37t-11 22q0 15 2.5 36.5t7 40.5t11.5 26q18 18 44 39t61.5 45.5t80 51t99.5 56.5l73 -119q-54 -29 -96 -53.5t-74.5 -46t-57.5 -40.5t-44 -37l5 81q23 -28 47 -59t48.5 -65.5
t47 -74t41.5 -86.5q18 -43 35 -63t37.5 -25t46.5 -5q33 0 50 -20.5t17 -49.5q0 -32 -20.5 -53t-56.5 -21q-43 0 -76.5 11.5t-57 38t-36.5 72.5l49 -2q-12 -29 -31 -52t-46.5 -38t-63.5 -22.5t-82 -7.5h-86zM171 -372q-27 0 -46.5 19t-19.5 47q0 27 19 47.5t47 20.5
q27 0 46.5 -20.5t19.5 -47.5q0 -28 -19.5 -47t-46.5 -19zM88 -224q-28 0 -47 19.5t-19 46.5q0 28 19 48t47 20t47 -20t19 -48q0 -27 -19 -46.5t-47 -19.5zM258 -224q-28 0 -47.5 19.5t-19.5 46.5q0 28 19.5 48t47.5 20t47 -20t19 -48q0 -27 -19 -46.5t-47 -19.5z" />
    <glyph glyph-name="uni06AE.fina" unicode="&#x6ae;" horiz-adv-x="910" 
d="M374 -21l26 144q88 -2 144.5 5t87 28t40.5 60.5t7 101.5l-25 430h148l23 -442q4 -67 15 -103.5t30.5 -50t49.5 -13.5q33 0 50.5 -20.5t17.5 -49.5q0 -32 -21 -53t-57 -21q-35 0 -69.5 13t-59 42.5t-33.5 78.5h53q-24 -51 -66.5 -81.5t-99 -45.5t-123 -19.5t-138.5 -3.5z
M344 222l-27 103q36 8 59 15t34 14.5t11 17.5q0 8 -9.5 19t-22 24.5t-21.5 30t-9 37.5q0 27 14.5 50.5t45 44.5t78.5 40l46 -92q-39 -15 -55.5 -28.5t-16.5 -27.5q0 -10 9.5 -22.5t22 -27t22.5 -31.5t10 -37q0 -17 -6 -34t-25.5 -34t-57 -32.5t-102.5 -29.5zM374 -21
q-94 0 -159.5 17.5t-105.5 49t-58 74t-18 91.5q0 33 6.5 69t16 68.5t18.5 57.5l126 -34q-5 -19 -11 -39.5t-9.5 -42t-3.5 -42.5q0 -35 17 -64t65 -45t142 -16l20 -113zM415 -393q-27 0 -46.5 19t-19.5 47q0 27 19 47.5t47 20.5q27 0 46.5 -20.5t19.5 -47.5q0 -28 -19.5 -47
t-46.5 -19zM332 -245q-28 0 -47 19.5t-19 46.5q0 28 19 48t47 20t47 -20t19 -48q0 -27 -19 -46.5t-47 -19.5zM502 -245q-28 0 -47.5 19.5t-19.5 46.5q0 28 19.5 48t47.5 20t47 -20t19 -48q0 -27 -19 -46.5t-47 -19.5z" />
    <glyph glyph-name="uni06B0.init" unicode="&#x6b0;" horiz-adv-x="396" 
d="M306 438q-35 0 -60 25t-25 60q0 36 25 61t60 25q36 0 60.5 -25t24.5 -61q0 -35 -24.5 -60t-60.5 -25zM306 496q13 0 21.5 7.5t8.5 19.5q0 14 -8.5 21.5t-21.5 7.5q-12 0 -20.5 -8t-8.5 -21q0 -12 8.5 -19.5t20.5 -7.5zM33 618l-61 101q36 24 76 49.5t88.5 55.5t105.5 65
l62 -104q-57 -32 -105.5 -62t-89.5 -56t-76 -49zM0 -5l10 144h92q21 0 34.5 4.5t21 12.5t11 18t3.5 20q0 32 -20.5 66.5t-45.5 65.5q-18 23 -33 40.5t-25 31t-16 24t-6 18.5q0 14 2.5 34.5t7 39.5t11.5 26q16 17 39.5 36.5t57.5 43t80 51.5t108 61l72 -119
q-55 -30 -97.5 -54.5t-74.5 -45t-56 -39t-42 -36.5l8 76q43 -47 77.5 -90t59.5 -82.5t38 -77.5t13 -77q0 -32 -11.5 -65.5t-38.5 -62.5t-72.5 -46.5t-114.5 -17.5h-93z" />
    <glyph glyph-name="uni06B0.medi" unicode="&#x6b0;" horiz-adv-x="429" 
d="M308 439q-36 0 -61 25t-25 60q0 36 25 60.5t61 24.5q35 0 59.5 -24.5t24.5 -60.5q0 -35 -24.5 -60t-59.5 -25zM308 496q12 0 20.5 8t8.5 20q0 13 -8.5 21t-20.5 8q-13 0 -21.5 -8.5t-8.5 -20.5t8.5 -20t21.5 -8zM32 618l-61 101q36 24 76 49.5t88.5 55.5t105.5 65
l62 -104q-57 -32 -105.5 -62t-89.5 -56t-76 -49zM0 -5l9 144h92q28 0 43.5 7.5t21.5 20t6 27.5q0 19 -11 42t-27.5 48t-35 49t-35 45t-27.5 37t-11 22q0 15 2.5 36.5t7 40.5t11.5 26q18 18 44 39t61.5 45.5t80 51t99.5 56.5l73 -119q-54 -29 -96 -53.5t-74.5 -46
t-57.5 -40.5t-44 -37l5 81q23 -28 47 -59t48.5 -65.5t47 -74t41.5 -86.5q18 -43 35 -63t37.5 -25t46.5 -5q33 0 50 -20.5t17 -49.5q0 -32 -20.5 -53t-56.5 -21q-43 0 -76.5 11.5t-57 38t-36.5 72.5l49 -2q-12 -29 -31 -52t-46.5 -38t-63.5 -22.5t-82 -7.5h-86z" />
    <glyph glyph-name="uni06B0.fina" unicode="&#x6b0;" horiz-adv-x="854" 
d="M731 438q-36 0 -60.5 25t-24.5 60q0 36 24.5 61t60.5 25t60.5 -25t24.5 -61q0 -35 -24.5 -60t-60.5 -25zM731 496q12 0 21 7.5t9 19.5q0 14 -9 21.5t-21 7.5t-20.5 -8t-8.5 -21q0 -12 8.5 -19.5t20.5 -7.5zM459 617l-62 101q36 24 76.5 49.5t88.5 55.5t105 65l63 -104
q-57 -32 -105.5 -62t-89.5 -56t-76 -49zM374 -21l26 144q45 0 81.5 3t62 11.5t39 23.5t13.5 38q0 17 -10.5 39t-27 46t-35.5 48t-35.5 45t-27 36.5t-10.5 23.5q0 15 2.5 35.5t7 39t10.5 25.5q23 25 62 55t94.5 65.5t127.5 74.5l73 -119q-70 -39 -121 -69.5t-86.5 -56.5
t-60.5 -50l4 81q25 -29 51 -61t50.5 -67.5t46 -74.5t39.5 -83q12 -31 25 -49t28.5 -28t32.5 -13t37 -3q33 0 50.5 -20.5t17.5 -49.5q0 -32 -20.5 -53t-56.5 -21q-40 0 -74.5 12t-59 38.5t-35.5 71.5l38 5q-16 -43 -47.5 -71.5t-77.5 -44t-104.5 -21.5t-129.5 -6zM374 -21
q-94 0 -159.5 17.5t-105.5 49t-58 74t-18 91.5q0 33 6.5 69t16 68.5t18.5 57.5l126 -34q-5 -19 -11 -39.5t-9.5 -42t-3.5 -42.5q0 -35 17 -64t65 -45t142 -16l20 -113z" />
    <glyph glyph-name="uni06B2.init" unicode="&#x6b2;" horiz-adv-x="396" 
d="M33 618l-61 101q36 24 76 49.5t88.5 55.5t105.5 65l62 -104q-57 -32 -105.5 -62t-89.5 -56t-76 -49zM0 -5l10 144h92q21 0 34.5 4.5t21 12.5t11 18t3.5 20q0 32 -20.5 66.5t-45.5 65.5q-18 23 -33 40.5t-25 31t-16 24t-6 18.5q0 14 2.5 34.5t7 39.5t11.5 26
q16 17 39.5 36.5t57.5 43t80 51.5t108 61l72 -119q-55 -30 -97.5 -54.5t-74.5 -45t-56 -39t-42 -36.5l8 76q43 -47 77.5 -90t59.5 -82.5t38 -77.5t13 -77q0 -32 -11.5 -65.5t-38.5 -62.5t-72.5 -46.5t-114.5 -17.5h-93zM264 -224q-29 0 -48.5 19.5t-19.5 47.5q0 29 19 49
t49 20q28 0 48.5 -20t20.5 -48q0 -29 -20.5 -48.5t-48.5 -19.5zM94 -224q-29 0 -49 19.5t-20 47.5q0 29 20 49t49 20q28 0 48 -20t20 -48q0 -29 -20 -48.5t-48 -19.5z" />
    <glyph glyph-name="uni06B2.medi" unicode="&#x6b2;" horiz-adv-x="429" 
d="M32 618l-61 101q36 24 76 49.5t88.5 55.5t105.5 65l62 -104q-57 -32 -105.5 -62t-89.5 -56t-76 -49zM0 -5l9 144h92q28 0 43.5 7.5t21.5 20t6 27.5q0 19 -11 42t-27.5 48t-35 49t-35 45t-27.5 37t-11 22q0 15 2.5 36.5t7 40.5t11.5 26q18 18 44 39t61.5 45.5t80 51
t99.5 56.5l73 -119q-54 -29 -96 -53.5t-74.5 -46t-57.5 -40.5t-44 -37l5 81q23 -28 47 -59t48.5 -65.5t47 -74t41.5 -86.5q18 -43 35 -63t37.5 -25t46.5 -5q33 0 50 -20.5t17 -49.5q0 -32 -20.5 -53t-56.5 -21q-43 0 -76.5 11.5t-57 38t-36.5 72.5l49 -2q-12 -29 -31 -52
t-46.5 -38t-63.5 -22.5t-82 -7.5h-86zM265 -224q-29 0 -48.5 19.5t-19.5 47.5q0 29 19 49t49 20q28 0 48.5 -20t20.5 -48q0 -29 -20.5 -48.5t-48.5 -19.5zM95 -224q-29 0 -49 19.5t-20 47.5q0 29 20 49t49 20q28 0 48 -20t20 -48q0 -29 -20 -48.5t-48 -19.5z" />
    <glyph glyph-name="uni06B2.fina" unicode="&#x6b2;" horiz-adv-x="854" 
d="M459 617l-62 101q36 24 76.5 49.5t88.5 55.5t105 65l63 -104q-57 -32 -105.5 -62t-89.5 -56t-76 -49zM374 -21l26 144q45 0 81.5 3t62 11.5t39 23.5t13.5 38q0 17 -10.5 39t-27 46t-35.5 48t-35.5 45t-27 36.5t-10.5 23.5q0 15 2.5 35.5t7 39t10.5 25.5q23 25 62 55
t94.5 65.5t127.5 74.5l73 -119q-70 -39 -121 -69.5t-86.5 -56.5t-60.5 -50l4 81q25 -29 51 -61t50.5 -67.5t46 -74.5t39.5 -83q12 -31 25 -49t28.5 -28t32.5 -13t37 -3q33 0 50.5 -20.5t17.5 -49.5q0 -32 -20.5 -53t-56.5 -21q-40 0 -74.5 12t-59 38.5t-35.5 71.5l38 5
q-16 -43 -47.5 -71.5t-77.5 -44t-104.5 -21.5t-129.5 -6zM374 -21q-94 0 -159.5 17.5t-105.5 49t-58 74t-18 91.5q0 33 6.5 69t16 68.5t18.5 57.5l126 -34q-5 -19 -11 -39.5t-9.5 -42t-3.5 -42.5q0 -35 17 -64t65 -45t142 -16l20 -113zM484 -245q-29 0 -48.5 19.5
t-19.5 47.5q0 29 19 49t49 20q28 0 48.5 -20t20.5 -48q0 -29 -20.5 -48.5t-48.5 -19.5zM314 -245q-29 0 -49 19.5t-20 47.5q0 29 20 49t49 20q28 0 48 -20t20 -48q0 -29 -20 -48.5t-48 -19.5z" />
    <glyph glyph-name="uni06B4.init" unicode="&#x6b4;" horiz-adv-x="396" 
d="M11 948q-23 0 -38.5 15.5t-15.5 36.5q0 22 15.5 38t38.5 16q21 0 36 -16t15 -38q0 -21 -15 -36.5t-36 -15.5zM-2 814q-22 0 -37.5 15t-15.5 37t15.5 38t37.5 16q21 0 36.5 -16t15.5 -38t-15.5 -37t-36.5 -15zM121 871q-22 0 -37 15t-15 37t15 38t37 16t37 -16t15 -38
t-15 -37t-37 -15zM33 618l-61 101q36 24 76 49.5t88.5 55.5t105.5 65l62 -104q-57 -32 -105.5 -62t-89.5 -56t-76 -49zM0 -5l10 144h92q21 0 34.5 4.5t21 12.5t11 18t3.5 20q0 32 -20.5 66.5t-45.5 65.5q-18 23 -33 40.5t-25 31t-16 24t-6 18.5q0 14 2.5 34.5t7 39.5
t11.5 26q16 17 39.5 36.5t57.5 43t80 51.5t108 61l72 -119q-55 -30 -97.5 -54.5t-74.5 -45t-56 -39t-42 -36.5l8 76q43 -47 77.5 -90t59.5 -82.5t38 -77.5t13 -77q0 -32 -11.5 -65.5t-38.5 -62.5t-72.5 -46.5t-114.5 -17.5h-93z" />
    <glyph glyph-name="uni06B4.medi" unicode="&#x6b4;" horiz-adv-x="429" 
d="M4 948q-23 0 -38 15.5t-15 36.5q0 22 15 38t38 16q22 0 36.5 -16t14.5 -38q0 -21 -14.5 -36.5t-36.5 -15.5zM-9 814q-22 0 -37 15t-15 37t15 38t37 16t37 -16t15 -38t-15 -37t-37 -15zM115 871q-22 0 -37 15t-15 37t15 38t37 16q21 0 36 -16t15 -38t-15 -37t-36 -15z
M32 618l-61 101q36 24 76 49.5t88.5 55.5t105.5 65l62 -104q-57 -32 -105.5 -62t-89.5 -56t-76 -49zM0 -5l9 144h92q28 0 43.5 7.5t21.5 20t6 27.5q0 19 -11 42t-27.5 48t-35 49t-35 45t-27.5 37t-11 22q0 15 2.5 36.5t7 40.5t11.5 26q18 18 44 39t61.5 45.5t80 51
t99.5 56.5l73 -119q-54 -29 -96 -53.5t-74.5 -46t-57.5 -40.5t-44 -37l5 81q23 -28 47 -59t48.5 -65.5t47 -74t41.5 -86.5q18 -43 35 -63t37.5 -25t46.5 -5q33 0 50 -20.5t17 -49.5q0 -32 -20.5 -53t-56.5 -21q-43 0 -76.5 11.5t-57 38t-36.5 72.5l49 -2q-12 -29 -31 -52
t-46.5 -38t-63.5 -22.5t-82 -7.5h-86z" />
    <glyph glyph-name="uni06B4.fina" unicode="&#x6b4;" horiz-adv-x="854" 
d="M438 949q-23 0 -38.5 15t-15.5 37t15.5 37.5t38.5 15.5q21 0 36 -15.5t15 -37.5t-15 -37t-36 -15zM424 815q-22 0 -37 15t-15 36q0 23 15 38.5t37 15.5t37 -15.5t15 -38.5q0 -21 -15 -36t-37 -15zM548 872q-22 0 -37 14.5t-15 36.5t15 38t37 16t37 -16t15 -38t-15 -36.5
t-37 -14.5zM459 617l-62 101q36 24 76.5 49.5t88.5 55.5t105 65l63 -104q-57 -32 -105.5 -62t-89.5 -56t-76 -49zM374 -21l26 144q45 0 81.5 3t62 11.5t39 23.5t13.5 38q0 17 -10.5 39t-27 46t-35.5 48t-35.5 45t-27 36.5t-10.5 23.5q0 15 2.5 35.5t7 39t10.5 25.5
q23 25 62 55t94.5 65.5t127.5 74.5l73 -119q-70 -39 -121 -69.5t-86.5 -56.5t-60.5 -50l4 81q25 -29 51 -61t50.5 -67.5t46 -74.5t39.5 -83q12 -31 25 -49t28.5 -28t32.5 -13t37 -3q33 0 50.5 -20.5t17.5 -49.5q0 -32 -20.5 -53t-56.5 -21q-40 0 -74.5 12t-59 38.5
t-35.5 71.5l38 5q-16 -43 -47.5 -71.5t-77.5 -44t-104.5 -21.5t-129.5 -6zM374 -21q-94 0 -159.5 17.5t-105.5 49t-58 74t-18 91.5q0 33 6.5 69t16 68.5t18.5 57.5l126 -34q-5 -19 -11 -39.5t-9.5 -42t-3.5 -42.5q0 -35 17 -64t65 -45t142 -16l20 -113z" />
    <glyph glyph-name="uni06B5.init" unicode="&#x6b5;" horiz-adv-x="283" 
d="M0 -5l9 144q33 0 47.5 9.5t18.5 39t1 87.5l-19 473h153l20 -490q3 -59 -3.5 -107.5t-30 -83t-70.5 -53.5t-126 -19zM105 825q-7 15 -16.5 39t-20 52t-20 53.5t-16.5 41.5l56 22q4 -11 12 -32.5t18 -46.5t19.5 -47.5t16.5 -36.5l19 -40zM173 830l-49 19q5 16 13.5 43
t17.5 56.5t16.5 54t10.5 34.5l56 -16l-12.5 -37.5t-19 -55.5t-19.5 -57t-14 -41z" />
    <glyph glyph-name="uni06B5.medi" unicode="&#x6b5;" horiz-adv-x="302" 
d="M0 -5l10 144q28 0 42 10.5t19 40t3 85.5l-16 473h153l17 -471q2 -58 9 -88t24.5 -40t51.5 -10q33 0 50 -20.5t17 -49.5q0 -34 -20.5 -54t-56.5 -20q-32 0 -68 11.5t-63 40.5t-35 81h52q-19 -48 -45.5 -78t-62 -42.5t-81.5 -12.5zM111 841q-7 15 -16.5 39t-20 52t-20 53.5
t-16.5 41.5l56 22q4 -11 12 -32.5t18 -46.5t19.5 -47.5t16.5 -36.5l19 -40zM179 846l-49 19q5 16 13.5 43t17.5 56.5t16.5 54t10.5 34.5l56 -16l-12.5 -37.5t-19 -55.5t-19.5 -57t-14 -41z" />
    <glyph glyph-name="uni06B5.fina" unicode="&#x6b5;" horiz-adv-x="690" 
d="M28 25q0 26 4 56.5t15.5 70.5t35.5 96l132 -49q-14 -37 -22 -62.5t-11 -47t-3 -48.5q0 -41 15.5 -69.5t43.5 -43t66 -14.5q58 0 89.5 27.5t43 86t8.5 150.5l-20 570h153l15 -474q2 -56 13 -85.5t34 -39.5t60 -10q33 0 50.5 -20.5t17.5 -49.5q0 -35 -21 -54.5t-56 -19.5
q-19 0 -42.5 4.5t-47 17t-41 36t-25.5 61.5l57 -21q-4 -70 -23 -129.5t-55 -103t-89.5 -67t-124.5 -23.5q-50 0 -98.5 14.5t-87.5 45.5t-62.5 79.5t-23.5 115.5zM168 559q-7 15 -16.5 39t-20 52t-20 53.5t-16.5 41.5l56 22q4 -11 12 -32.5t18 -46.5t19.5 -47.5t16.5 -36.5
l19 -40zM236 564l-49 19q5 16 13.5 43t17.5 56.5t16.5 54t10.5 34.5l56 -16l-12.5 -37.5t-19 -55.5t-19.5 -57t-14 -41z" />
    <glyph glyph-name="uni06B6.init" unicode="&#x6b6;" horiz-adv-x="283" 
d="M0 -5l9 144q33 0 47.5 9.5t18.5 39t1 87.5l-19 473h153l20 -490q3 -59 -3.5 -107.5t-30 -83t-70.5 -53.5t-126 -19zM137 820q-30 0 -50.5 21t-20.5 49q0 31 20 52.5t51 21.5q30 0 50 -21.5t20 -51.5q0 -29 -20.5 -50t-49.5 -21z" />
    <glyph glyph-name="uni06B6.medi" unicode="&#x6b6;" horiz-adv-x="302" 
d="M0 -5l10 144q28 0 42 10.5t19 40t3 85.5l-16 473h153l17 -471q2 -58 9 -88t24.5 -40t51.5 -10q33 0 50 -20.5t17 -49.5q0 -34 -20.5 -54t-56.5 -20q-32 0 -68 11.5t-63 40.5t-35 81h52q-19 -48 -45.5 -78t-62 -42.5t-81.5 -12.5zM141 820q-30 0 -50.5 21t-20.5 49
q0 31 20 52.5t51 21.5q30 0 50 -21.5t20 -51.5q0 -29 -20.5 -50t-49.5 -21z" />
    <glyph glyph-name="uni06B6.fina" unicode="&#x6b6;" horiz-adv-x="690" 
d="M28 25q0 26 4 56.5t15.5 70.5t35.5 96l132 -49q-14 -37 -22 -62.5t-11 -47t-3 -48.5q0 -41 15.5 -69.5t43.5 -43t66 -14.5q58 0 89.5 27.5t43 86t8.5 150.5l-20 570h153l15 -474q2 -56 13 -85.5t34 -39.5t60 -10q33 0 50.5 -20.5t17.5 -49.5q0 -35 -21 -54.5t-56 -19.5
q-19 0 -42.5 4.5t-47 17t-41 36t-25.5 61.5l57 -21q-4 -70 -23 -129.5t-55 -103t-89.5 -67t-124.5 -23.5q-50 0 -98.5 14.5t-87.5 45.5t-62.5 79.5t-23.5 115.5zM200 555q-30 0 -50.5 21t-20.5 49q0 31 20 52.5t51 21.5q30 0 50 -21.5t20 -51.5q0 -29 -20.5 -50t-49.5 -21z
" />
    <glyph glyph-name="uni06B7.init" unicode="&#x6b7;" horiz-adv-x="283" 
d="M0 -5l9 144q33 0 47.5 9.5t18.5 39t1 87.5l-19 473h153l20 -490q3 -59 -3.5 -107.5t-30 -83t-70.5 -53.5t-126 -19zM136 969q-30 0 -50 20t-20 48q0 29 20 49t50 20q28 0 48 -20t20 -49q0 -28 -20 -48t-48 -20zM54 819q-29 0 -49.5 20.5t-20.5 48.5t20.5 49t49.5 21
q28 0 48 -21t20 -49t-20 -48.5t-48 -20.5zM223 819q-28 0 -47.5 20.5t-19.5 48.5t19 49t48 21t49 -21t20 -49t-20.5 -48.5t-48.5 -20.5z" />
    </font>
</defs>
</svg>
