<?xml version="1.0" standalone="no"?>
<!DOCTYPE svg PUBLIC "-//W3C//DTD SVG 1.1//EN" "http://www.w3.org/Graphics/SVG/1.1/DTD/svg11.dtd" >
<svg xmlns="http://www.w3.org/2000/svg" xmlns:xlink="http://www.w3.org/1999/xlink" version="1.1">
<metadata>
Created by FontForge 20170731 at Thu Nov 12 05:28:44 2020
 By Aleksey,,,
Copyright 2015-2020 Google LLC. All Rights Reserved.
</metadata>
<defs>
<font id="NotoSansArabicExtraCondensed-Light" horiz-adv-x="0" >
  <font-face 
    font-family="Noto Sans Arabic ExtraCondensed Light"
    font-weight="300"
    font-stretch="extra-condensed"
    units-per-em="1000"
    panose-1="0 0 0 0 0 0 0 0 0 0"
    ascent="800"
    descent="-200"
    bbox="-217 -573 1898 1060"
    underline-thickness="50"
    underline-position="-175"
    unicode-range="U+000D-FEFC"
  />
<missing-glyph horiz-adv-x="600" 
d="M101 0v714h398v-714h-398zM138 38h323v639h-323v-639z" />
    <glyph glyph-name="uniFC43" unicode="&#xfedf;&#xfef0;" horiz-adv-x="811" arabic-form="isolated" 
d="M619 -5l7 48q39 0 57.5 14.5t23 46.5t2.5 86l-19 514h48l20 -508q2 -52 -2.5 -89.5t-19 -62.5t-43 -37t-74.5 -12zM44 -17q0 24 4.5 54t17 67.5t34.5 79.5l42 -20q-16 -32 -27 -61.5t-16.5 -58t-5.5 -55.5q0 -47 16 -79.5t44.5 -52.5t65 -29t76.5 -9q60 0 104 15.5
t73.5 39.5t43.5 49.5t14 46.5q0 16 -9.5 28.5t-29 23.5t-48 22t-66.5 23l12 47q47 -18 83.5 -31t64.5 -21.5t50 -13t39 -5.5q14 0 21 -5.5t7 -17.5q0 -11 -7.5 -18t-27.5 -7q-6 0 -14.5 1t-17.5 2.5t-18 4.5q6 -8 8.5 -19.5t2.5 -20.5q0 -28 -18.5 -61.5t-55 -63t-90.5 -49
t-125 -19.5q-78 0 -133.5 26t-84 73.5t-29.5 113.5z" />
    <glyph glyph-name="uniFC86" unicode="&#xfee0;&#xfef0;" horiz-adv-x="840" arabic-form="final" 
d="M619 -5l7 48q36 0 53.5 17.5t22.5 53.5t3 91l-17 499h49l17 -497q3 -64 13.5 -100t30.5 -50t49 -14q14 0 21 -5.5t7 -17.5q0 -11 -7.5 -18t-26.5 -7q-28 0 -51.5 13.5t-39 37t-19.5 52.5l18 -1q-8 -32 -25 -54.5t-42.5 -35t-62.5 -12.5zM44 -17q0 24 4.5 54t17 67.5
t34.5 79.5l42 -20q-16 -32 -27 -61.5t-16.5 -58t-5.5 -55.5q0 -47 16 -79.5t44.5 -52.5t65 -29t76.5 -9q60 0 104 15.5t73.5 39.5t43.5 49.5t14 46.5q0 16 -9.5 28.5t-29 23.5t-48 22t-66.5 23l12 47q47 -18 83.5 -31t64.5 -21.5t50 -13t39 -5.5q14 0 21 -5.5t7 -17.5
q0 -11 -7.5 -18t-27.5 -7q-6 0 -14.5 1t-17.5 2.5t-18 4.5q6 -8 8.5 -19.5t2.5 -20.5q0 -28 -18.5 -61.5t-55 -63t-90.5 -49t-125 -19.5q-78 0 -133.5 26t-84 73.5t-29.5 113.5z" />
    <glyph glyph-name="uniFD82" unicode="&#xfee0;&#xfea4;&#xfef0;" horiz-adv-x="1307" arabic-form="final" 
d="M1086 -5l7 48q36 0 53.5 17.5t22.5 53.5t3 91l-17 499h49l17 -497q3 -64 13.5 -100t30.5 -50t49 -14q14 0 21 -5.5t7 -17.5q0 -11 -7.5 -18t-26.5 -7q-28 0 -51.5 13.5t-39 37t-19.5 52.5l18 -1q-8 -32 -25 -54.5t-42.5 -35t-62.5 -12.5zM1086 -5q-24 0 -47 4.5t-44 19
t-37.5 43t-26.5 76.5l36 17q14 -51 31 -74.5t40.5 -30.5t54.5 -7q16 0 22 -6t6 -17q0 -10 -7.5 -17.5t-27.5 -7.5zM619 -5l7 48q44 0 80 8.5t71 25t74.5 41.5t89.5 58q-41 29 -72 53t-60.5 38.5t-66.5 14.5q-13 0 -24.5 -1t-21.5 -2.5t-23 -5.5l-10 43q19 6 39.5 9t39.5 3
q42 0 74 -13t58.5 -31.5t49.5 -37.5t45 -32t46 -13h14l5 -48q-31 0 -58 -12t-53.5 -29.5t-56.5 -38t-65.5 -38t-80 -29t-101.5 -11.5zM44 -17q0 24 4.5 54t17 67.5t34.5 79.5l42 -20q-16 -32 -27 -61.5t-16.5 -58t-5.5 -55.5q0 -47 16 -79.5t44.5 -52.5t65 -29t76.5 -9
q60 0 104 15.5t73.5 39.5t43.5 49.5t14 46.5q0 16 -9.5 28.5t-29 23.5t-48 22t-66.5 23l12 47q47 -18 83.5 -31t64.5 -21.5t50 -13t39 -5.5q14 0 21 -5.5t7 -17.5q0 -11 -7.5 -18t-27.5 -7q-6 0 -14.5 1t-17.5 2.5t-18 4.5q6 -8 8.5 -19.5t2.5 -20.5q0 -28 -18.5 -61.5
t-55 -63t-90.5 -49t-125 -19.5q-78 0 -133.5 26t-84 73.5t-29.5 113.5z" />
    <glyph glyph-name="uniFDF2" unicode="&#x627;&#xfedf;&#xfee0;&#xfeea;" horiz-adv-x="1021" arabic-form="isolated" 
d="M394 -5q-29 0 -55 8.5t-44.5 31.5t-26.5 65q-45 -8 -87 -5t-76 17t-54.5 40t-20.5 64q0 48 27.5 92t76.5 78.5t114 51.5l-4 78h49l17 -348q3 -49 11 -76.5t27 -38t53 -10.5q36 0 53.5 17.5t23 53.5t2.5 91l-14 363h49l14 -361q3 -64 13.5 -100t30.5 -50t49 -14
q39 0 57.5 14.5t23 46.5t2.5 86l-19 514h48l20 -508q2 -52 -2.5 -89.5t-19 -62.5t-43 -37t-73.5 -12q-24 0 -44 10t-35 26.5t-24 38.5q-15 -35 -43.5 -55t-75.5 -20zM262 147l-12 238q-52 -12 -90 -38.5t-59 -58.5t-21 -63q0 -29 17 -46.5t44 -26t58.5 -9.5t62.5 4zM902 0
l-19 704h48l20 -704h-49zM415 612q-33 0 -46 23t-13 55q0 11 1.5 23.5t3.5 27.5l34 10q-3 -18 -4.5 -32t-1.5 -24q0 -21 7 -34t23 -13q14 0 25.5 16t11.5 59v45l33 12v-68q0 -13 8 -23t24 -10q18 0 25.5 12.5t7.5 34.5q0 19 -4 36.5t-11 34.5l31 10q8 -16 13.5 -39.5
t5.5 -43.5q0 -32 -16 -56t-49 -24q-25 0 -41.5 14.5t-16.5 36.5l17 -4q0 -32 -19 -55.5t-49 -23.5zM453 839l-5 152h35l6 -152h-36z" />
    <glyph glyph-name="uniFEF5" unicode="&#xfedf;&#xfe82;" horiz-adv-x="610" arabic-form="isolated" 
d="M332 532q0 27 -3 60.5t-7.5 64.5t-8.5 52l50 8q4 -20 8 -52.5t6.5 -67.5t2.5 -62q0 -42 -5.5 -82.5t-16 -79.5t-26.5 -76l-7 -17q-28 -63 -68 -120.5t-88 -106.5h125q40 0 61.5 11.5t29.5 29t8 36.5q0 35 -27.5 77t-76 91t-113 107.5t-138.5 126.5l29 40
q77 -70 137.5 -125.5t105 -100.5t74 -82.5t43.5 -71t14 -66.5q0 -20 -6.5 -42t-23 -41t-47 -31t-78.5 -12h-183v59q76 72 127 148t76.5 157.5t25.5 167.5zM167 622q-25 0 -47 10t-40 19.5t-34 9.5q-15 0 -29 -9t-29 -24l-25 22q19 22 39.5 35.5t44.5 13.5q22 0 41 -9.5
t39 -19t42 -9.5q16 0 32 7t37 22l19 -27q-27 -25 -49.5 -33t-40.5 -8z" />
    <glyph glyph-name="uniFEF6" unicode="&#xfee0;&#xfe82;" horiz-adv-x="496" arabic-form="final" 
d="M499 -5q-39 0 -67 10t-46.5 31.5t-28 56.5t-11.5 86l-15 535h48l19 -507q2 -59 8 -95t27.5 -52.5t71.5 -16.5q13 0 19.5 -6t6.5 -15q0 -10 -9 -18.5t-23 -8.5zM137 -8q-27 0 -54.5 4.5t-38.5 6.5l7 52q61 -13 114.5 -5.5t93.5 40.5t63 95.5t23 157.5l28 -72
q-4 -69 -21 -118t-43 -80.5t-56.5 -49t-60.5 -24.5t-55 -7zM313 143q-19 36 -46 81.5t-61 96t-73 102t-82 99.5l38 36q48 -55 87 -107.5t70.5 -101.5t57 -91.5t46.5 -78.5zM167 622q-25 0 -47 10t-40 19.5t-34 9.5q-15 0 -29 -9t-29 -24l-25 22q19 22 39.5 35.5t44.5 13.5
q22 0 41 -9.5t39 -19t42 -9.5q16 0 32 7t37 22l19 -27q-27 -25 -49.5 -33t-40.5 -8z" />
    <glyph glyph-name="uniFEF7" unicode="&#xfedf;&#xfe84;" horiz-adv-x="525" arabic-form="isolated" 
d="M332 532q0 27 -3 60.5t-7.5 64.5t-8.5 52l50 8q4 -20 8 -52.5t6.5 -67.5t2.5 -62q0 -42 -5.5 -82.5t-16 -79.5t-26.5 -76l-7 -17q-28 -63 -68 -120.5t-88 -106.5h125q40 0 61.5 11.5t29.5 29t8 36.5q0 35 -27.5 77t-76 91t-113 107.5t-138.5 126.5l29 40
q77 -70 137.5 -125.5t105 -100.5t74 -82.5t43.5 -71t14 -66.5q0 -20 -6.5 -42t-23 -41t-47 -31t-78.5 -12h-183v59q76 72 127 148t76.5 157.5t25.5 167.5zM22 620l-8 33q22 5 38.5 10t32.5 9l11 -10q-31 7 -54.5 30.5t-23.5 54.5q0 25 12 42.5t31 27t39 9.5q11 0 22 -2
t21 -6l-6 -30q-9 3 -18 4.5t-19 1.5q-23 0 -35.5 -14t-12.5 -32q0 -19 12 -34t29 -23t33 -11l-36 -6q24 6 44 12.5t38 13.5l10 -31q-22 -8 -49.5 -17.5t-56.5 -17.5t-54 -14z" />
    <glyph glyph-name="uniFEF8" unicode="&#xfee0;&#xfe84;" horiz-adv-x="508" arabic-form="final" 
d="M499 -5q-39 0 -67 10t-46.5 31.5t-28 56.5t-11.5 86l-15 535h48l19 -507q2 -59 8 -95t27.5 -52.5t71.5 -16.5q13 0 19.5 -6t6.5 -15q0 -10 -9 -18.5t-23 -8.5zM137 -8q-27 0 -54.5 4.5t-38.5 6.5l7 52q61 -13 114.5 -5.5t93.5 40.5t63 95.5t23 157.5l28 -72
q-4 -69 -21 -118t-43 -80.5t-56.5 -49t-60.5 -24.5t-55 -7zM313 143q-19 36 -46 81.5t-61 96t-73 102t-82 99.5l38 36q48 -55 87 -107.5t70.5 -101.5t57 -91.5t46.5 -78.5zM46 620l-8 33q22 5 38.5 10t32.5 9l11 -10q-31 7 -54.5 30.5t-23.5 54.5q0 25 12 42.5t31 27t39 9.5
q11 0 22 -2t21 -6l-6 -30q-9 3 -18 4.5t-19 1.5q-23 0 -35.5 -14t-12.5 -32q0 -19 12 -34t29 -23t33 -11l-36 -6q24 6 44 12.5t38 13.5l10 -31q-22 -8 -49.5 -17.5t-56.5 -17.5t-54 -14z" />
    <glyph glyph-name="uniFEF9" unicode="&#xfedf;&#xfe88;" horiz-adv-x="512" arabic-form="isolated" 
d="M332 532q0 27 -3 60.5t-7.5 64.5t-8.5 52l50 8q4 -20 8 -52.5t6.5 -67.5t2.5 -62q0 -42 -5.5 -82.5t-16 -79.5t-26.5 -76l-7 -17q-28 -63 -68 -120.5t-88 -106.5h125q40 0 61.5 11.5t29.5 29t8 36.5q0 35 -27.5 77t-76 91t-113 107.5t-138.5 126.5l29 40
q77 -70 137.5 -125.5t105 -100.5t74 -82.5t43.5 -71t14 -66.5q0 -20 -6.5 -42t-23 -41t-47 -31t-78.5 -12h-183v59q76 72 127 148t76.5 157.5t25.5 167.5zM88 -284l-8 33q22 5 38.5 10t32.5 9l11 -10q-31 7 -54.5 30.5t-23.5 54.5q0 25 12 42.5t31 27t39 9.5q11 0 22 -2
t21 -6l-6 -30q-9 3 -18 4.5t-19 1.5q-23 0 -35.5 -14t-12.5 -32q0 -19 12 -34t29 -23t33 -11l-36 -6q24 6 44 12.5t38 13.5l10 -31q-22 -8 -49.5 -17.5t-56.5 -17.5t-54 -14z" />
    <glyph glyph-name="uniFEFA" unicode="&#xfee0;&#xfe88;" horiz-adv-x="496" arabic-form="final" 
d="M499 -5q-39 0 -67 10t-46.5 31.5t-28 56.5t-11.5 86l-15 535h48l19 -507q2 -59 8 -95t27.5 -52.5t71.5 -16.5q13 0 19.5 -6t6.5 -15q0 -10 -9 -18.5t-23 -8.5zM137 -8q-27 0 -54.5 4.5t-38.5 6.5l7 52q61 -13 114.5 -5.5t93.5 40.5t63 95.5t23 157.5l28 -72
q-4 -69 -21 -118t-43 -80.5t-56.5 -49t-60.5 -24.5t-55 -7zM313 143q-19 36 -46 81.5t-61 96t-73 102t-82 99.5l38 36q48 -55 87 -107.5t70.5 -101.5t57 -91.5t46.5 -78.5zM93 -284l-8 33q22 5 38.5 10t32.5 9l11 -10q-31 7 -54.5 30.5t-23.5 54.5q0 25 12 42.5t31 27
t39 9.5q11 0 22 -2t21 -6l-6 -30q-9 3 -18 4.5t-19 1.5q-23 0 -35.5 -14t-12.5 -32q0 -19 12 -34t29 -23t33 -11l-36 -6q24 6 44 12.5t38 13.5l10 -31q-22 -8 -49.5 -17.5t-56.5 -17.5t-54 -14z" />
    <glyph glyph-name="uniFEFB" unicode="&#xfedf;&#xfe8e;" horiz-adv-x="512" arabic-form="isolated" 
d="M332 532q0 27 -3 60.5t-7.5 64.5t-8.5 52l50 8q4 -20 8 -52.5t6.5 -67.5t2.5 -62q0 -42 -5.5 -82.5t-16 -79.5t-26.5 -76l-7 -17q-28 -63 -68 -120.5t-88 -106.5h125q40 0 61.5 11.5t29.5 29t8 36.5q0 35 -27.5 77t-76 91t-113 107.5t-138.5 126.5l29 40
q77 -70 137.5 -125.5t105 -100.5t74 -82.5t43.5 -71t14 -66.5q0 -20 -6.5 -42t-23 -41t-47 -31t-78.5 -12h-183v59q76 72 127 148t76.5 157.5t25.5 167.5z" />
    <glyph glyph-name="uniFEFC" unicode="&#xfee0;&#xfe8e;" horiz-adv-x="496" arabic-form="final" 
d="M499 -5q-39 0 -67 10t-46.5 31.5t-28 56.5t-11.5 86l-15 535h48l19 -507q2 -59 8 -95t27.5 -52.5t71.5 -16.5q13 0 19.5 -6t6.5 -15q0 -10 -9 -18.5t-23 -8.5zM137 -8q-27 0 -54.5 4.5t-38.5 6.5l7 52q61 -13 114.5 -5.5t93.5 40.5t63 95.5t23 157.5l28 -72
q-4 -69 -21 -118t-43 -80.5t-56.5 -49t-60.5 -24.5t-55 -7zM313 143q-19 36 -46 81.5t-61 96t-73 102t-82 99.5l38 36q48 -55 87 -107.5t70.5 -101.5t57 -91.5t46.5 -78.5z" />
    <glyph glyph-name="lam_alefMaksura_meemar" unicode="&#xfedf;&#xfbe9;&#xfee2;" horiz-adv-x="870" 
d="M677 -5l7 48q39 0 57.5 14.5t23 46.5t2.5 86l-19 514h48l20 -508q2 -52 -2.5 -89.5t-19 -62.5t-43 -37t-74.5 -12zM461 -5l7 48q36 0 58 11.5t32.5 34t10.5 56.5q0 31 -7 66t-19 73.5t-28 80.5l48 18q14 -38 26 -78t19 -79.5t7 -77.5q0 -28 -6 -51.5t-18 -42.5t-30.5 -32
t-43 -20t-56.5 -7zM81 -393q-21 80 -35.5 154t-22.5 130.5t-8 85.5q0 74 15.5 133t40.5 104.5t55 76t60.5 46t55.5 15.5q21 0 36.5 -12.5t33 -48.5t43.5 -108q19 -53 37 -83.5t36.5 -43.5t39.5 -13q14 0 21 -5.5t7 -17.5q0 -11 -7.5 -18t-26.5 -7q-33 0 -65 24.5t-47 62.5
l24 -2q-2 -26 -13 -46t-30.5 -31t-45.5 -11q-23 0 -49.5 9.5t-53 30t-51 53.5t-44.5 81l9 -2q-19 -42 -27 -90t-8 -97q0 -28 5.5 -69.5t14.5 -90.5t21 -100t24 -98zM286 38q17 0 30 9.5t16.5 29t-7.5 50.5q-16 44 -28.5 76.5t-22 54.5t-18.5 32.5t-19 10.5q-12 0 -28 -7
t-33 -20.5t-32.5 -32.5t-28.5 -44v13q19 -52 47 -90.5t60.5 -60t63.5 -21.5z" />
    <glyph glyph-name="lam_alefWaslaar" unicode="&#xfedf;&#xfb51;" horiz-adv-x="443" 
d="M126 645q-19 0 -44 1.5t-47 4.5t-35 5l4 33q14 -2 35 -4.5t44 -4t42 -1.5q51 0 69 16t18 36q0 19 -11 27.5t-26 8.5q-19 0 -37.5 -13t-34 -34.5t-27.5 -45.5l-34 3q14 29 33 57.5t45 47.5t58 19q28 0 47.5 -18t19.5 -51q0 -21 -11.5 -41t-37.5 -33t-70 -13zM332 532
q0 27 -3 60.5t-7.5 64.5t-8.5 52l50 8q4 -20 8 -52.5t6.5 -67.5t2.5 -62q0 -43 -5.5 -83t-16 -79t-26.5 -76l-7 -17q-28 -63 -68 -120.5t-88 -106.5h125q40 0 61.5 11.5t29.5 29t8 36.5q0 35 -27.5 77t-76 91t-113 107.5t-138.5 126.5l29 40q77 -70 137.5 -125.5t105 -100.5
t74 -82.5t43.5 -71t14 -66.5q0 -20 -6.5 -42t-23 -41t-47 -31t-78.5 -12h-183v59q76 72 127 148t76.5 157.5t25.5 167.5z" />
    <glyph glyph-name="lam_alefWaslaar.fina" unicode="&#xfee0;&#xfb51;" horiz-adv-x="533" 
d="M126 665q-19 0 -44 2t-47 4.5t-35 4.5l4 33q14 -2 35 -4.5t44 -4t42 -1.5q51 0 69 16t18 36q0 19 -11 27.5t-26 8.5q-19 0 -37.5 -13t-34 -34t-27.5 -46l-34 3q14 29 33 57.5t45 47.5t58 19q28 0 47.5 -17.5t19.5 -50.5q0 -22 -11.5 -42t-37.5 -33t-70 -13zM499 -5
q-39 0 -67 10t-46.5 31.5t-28 56.5t-11.5 86l-15 535h48l19 -507q2 -59 8 -95t27.5 -52.5t71.5 -16.5q13 0 19.5 -6t6.5 -15q0 -10 -9 -18.5t-23 -8.5zM137 -8q-27 0 -54.5 4.5t-38.5 6.5l7 52q61 -13 114.5 -5.5t93.5 40.5t63 95.5t23 157.5l28 -72q-4 -69 -21 -118
t-43 -80.5t-56.5 -49t-60.5 -24.5t-55 -7zM313 143q-19 36 -46 81.5t-61 96t-73 102t-82 99.5l38 36q48 -55 87 -107.5t70.5 -101.5t57 -91.5t46.5 -78.5z" />
    <glyph glyph-name="uni0620.init" unicode="&#x620;" horiz-adv-x="243" 
d="M0 -5l7 48q41 0 69 8t42.5 30.5t14.5 63.5q0 30 -7 65.5t-19 74t-27 80.5l48 18q14 -37 25.5 -76.5t18.5 -78t7 -72.5q0 -43 -11 -73.5t-33 -50t-56 -28.5t-79 -9zM124 -96q-30 0 -50.5 21t-20.5 51t20.5 51t50.5 21t51.5 -21t21.5 -51t-21.5 -51t-51.5 -21zM124 -65
q17 0 29.5 12t12.5 29t-12.5 29.5t-29.5 12.5t-29 -12.5t-12 -29.5t12 -29t29 -12z" />
    <glyph glyph-name="uni0620.medi" unicode="&#x620;" horiz-adv-x="281" 
d="M0 -5l7 48q32 0 53 8.5t36 32t27 69.5t26 121l47 -11q-6 -27 -11 -50t-8 -43t-3 -39t4.5 -35t16.5 -28t34.5 -18.5t58.5 -6.5q16 0 22 -6t6 -16q0 -11 -7.5 -18.5t-27.5 -7.5q-39 0 -65.5 7t-42 21t-23.5 35t-9 48l14 -1q-13 -35 -28 -57t-33.5 -33.5t-41.5 -15.5t-52 -4
zM84 -108q-30 0 -50.5 21.5t-20.5 51.5t20.5 51t50.5 21t51.5 -21.5t21.5 -51.5q0 -29 -21.5 -50.5t-51.5 -21.5zM84 -77q17 0 29.5 12t12.5 29q0 18 -12.5 30t-29.5 12t-29 -12t-12 -30q0 -16 12 -28.5t29 -12.5z" />
    <glyph glyph-name="uni0620.fina" unicode="&#x620;" horiz-adv-x="619" 
d="M278 -344q-30 0 -50.5 21.5t-20.5 51.5t20.5 51t50.5 21t51.5 -21t21.5 -51t-21.5 -51.5t-51.5 -21.5zM278 -313q17 0 29.5 12.5t12.5 29.5t-12.5 29t-29.5 12t-29 -12t-12 -29t12 -29.5t29 -12.5zM44 -17q0 24 4.5 54t17 67.5t34.5 79.5l42 -20q-16 -32 -27 -61.5
t-16.5 -58t-5.5 -55.5q0 -47 16 -79.5t44.5 -52.5t65 -29t76.5 -9q60 0 104 15.5t73.5 39.5t43.5 49.5t14 46.5q0 16 -9.5 28.5t-29 23.5t-48 22t-66.5 23l12 47q47 -18 83.5 -31t64.5 -21.5t50 -13t39 -5.5q14 0 21 -5.5t7 -17.5q0 -11 -7.5 -18t-27.5 -7q-6 0 -14.5 1
t-17.5 2.5t-18 4.5q6 -8 8.5 -19.5t2.5 -20.5q0 -28 -18.5 -61.5t-55 -63t-90.5 -49t-125 -19.5q-78 0 -133.5 26t-84 73.5t-29.5 113.5z" />
    <glyph glyph-name="uni063B.init" unicode="&#x63b;" horiz-adv-x="325" 
d="M205 718q-15 0 -25 10t-10 24q0 15 10 25t25 10q14 0 24 -10t10 -25q0 -14 -10 -24t-24 -10zM93 665q-15 0 -25 10.5t-10 24.5t10 24.5t25 10.5q14 0 24 -10.5t10 -24.5t-10 -24.5t-24 -10.5zM0 -5l7 48h77q45 0 72 9.5t40.5 24.5t17 34t3.5 39q0 39 -21 83t-58 89
t-59.5 71.5t-35 41.5t-17 21.5t-4.5 11.5q0 9 2.5 20t6 21t8.5 15q19 16 41.5 34.5t53 40.5t72 48.5t98.5 59.5l24 -40q-49 -29 -89.5 -54t-73.5 -48t-61 -44t-52 -42l3 18q33 -42 69 -84t67.5 -85t52 -88t20.5 -95q0 -28 -8.5 -54.5t-29.5 -48.5t-57.5 -34.5t-91.5 -12.5
h-77z" />
    <glyph glyph-name="uni063B.medi" unicode="&#x63b;" horiz-adv-x="386" 
d="M207 717q-15 0 -25 10.5t-10 24.5t10 24.5t25 10.5q14 0 24 -10.5t10 -24.5t-10 -24.5t-24 -10.5zM95 665q-15 0 -25 10t-10 24q0 15 10 25t25 10q14 0 24 -10t10 -25q0 -14 -10 -24t-24 -10zM0 -5l7 48h72q47 0 78 10t46 33.5t15 62.5q0 28 -14 60t-36.5 65.5t-47 65
t-47 58t-36.5 45t-14 25.5q0 12 2.5 23t6.5 20.5t9 14.5q21 19 51 42t65.5 46.5t73 47t73.5 45.5l24 -41q-38 -23 -76.5 -47t-74.5 -48t-67 -46.5t-53 -42.5l1 10q25 -34 52 -66t53.5 -66.5t51 -76t45.5 -93.5q21 -50 39.5 -82.5t41 -48.5t52.5 -16q14 0 21 -5.5t7 -17.5
q0 -11 -7.5 -18t-27.5 -7q-33 0 -61 16.5t-50 49.5t-38 81l23 -10q-3 -41 -19.5 -68t-42 -42t-56.5 -21t-65 -6h-77z" />
    <glyph glyph-name="uni063B.fina" unicode="&#x63b;" horiz-adv-x="798" 
d="M599 718q-15 0 -25 10t-10 24q0 15 10 25t25 10q14 0 24 -10t10 -25q0 -14 -10 -24t-24 -10zM487 665q-15 0 -25 10.5t-10 24.5t10 24.5t25 10.5q14 0 24 -10.5t10 -24.5t-10 -24.5t-24 -10.5zM290 -21l16 49q76 0 135.5 6t101.5 20t63.5 36.5t21.5 55.5q0 28 -14 60.5
t-37 66t-48 65t-48 58.5t-37 46t-14 27q0 10 1.5 20.5t5.5 20t10 15.5q29 26 72 57t92.5 63t99.5 62l24 -40q-57 -34 -108 -68t-93.5 -65t-73.5 -56l4 14q22 -29 52 -64.5t60.5 -76.5t56.5 -83t41 -83q11 -27 23 -52t27 -45.5t35 -32.5t46 -12q14 0 21 -5.5t7 -17.5
q0 -11 -7.5 -18t-26.5 -7q-35 0 -64 17.5t-51 50.5t-36 79l24 -10q-7 -46 -34.5 -76t-76 -46.5t-116.5 -23.5t-155 -7zM290 -21q-52 0 -98.5 10.5t-81.5 33t-55 57.5t-20 85q0 25 4.5 52t11 53.5t12.5 49.5l45 -13q-5 -16 -10.5 -39t-9.5 -48t-4 -47q0 -47 23 -79.5
t72.5 -49t126.5 -16.5l20 -28z" />
    <glyph glyph-name="uni063C.init" unicode="&#x63c;" horiz-adv-x="325" 
d="M0 -5l7 48h77q45 0 72 9.5t40.5 24.5t17 34t3.5 39q0 39 -21 83t-58 89t-59.5 71.5t-35 41.5t-17 21.5t-4.5 11.5q0 9 2.5 20t6 21t8.5 15q19 16 41.5 34.5t53 40.5t72 48.5t98.5 59.5l24 -40q-49 -29 -89.5 -54t-73.5 -48t-61 -44t-52 -42l3 18q33 -42 69 -84t67.5 -85
t52 -88t20.5 -95q0 -28 -8.5 -54.5t-29.5 -48.5t-57.5 -34.5t-91.5 -12.5h-77zM134 -272q-15 0 -26 10.5t-11 25.5q0 16 11 27t27 11q15 0 25.5 -11t10.5 -27q0 -15 -11 -25.5t-26 -10.5zM78 -175q-15 0 -26 10.5t-11 25.5t11 26t27 11q15 0 25.5 -11t10.5 -26t-11 -25.5
t-26 -10.5zM190 -175q-15 0 -26 10.5t-11 25.5t10.5 26t26.5 11q15 0 25.5 -11t10.5 -26t-10.5 -25.5t-25.5 -10.5z" />
    <glyph glyph-name="uni063C.medi" unicode="&#x63c;" horiz-adv-x="386" 
d="M0 -5l7 48h72q47 0 78 10t46 33.5t15 62.5q0 28 -14 60t-36.5 65.5t-47 65t-47 58t-36.5 45t-14 25.5q0 12 2.5 23t6.5 20.5t9 14.5q21 19 51 42t65.5 46.5t73 47t73.5 45.5l24 -41q-38 -23 -76.5 -47t-74.5 -48t-67 -46.5t-53 -42.5l1 10q25 -34 52 -66t53.5 -66.5
t51 -76t45.5 -93.5q21 -50 39.5 -82.5t41 -48.5t52.5 -16q14 0 21 -5.5t7 -17.5q0 -11 -7.5 -18t-27.5 -7q-33 0 -61 16.5t-50 49.5t-38 81l23 -10q-3 -41 -19.5 -68t-42 -42t-56.5 -21t-65 -6h-77zM137 -272q-15 0 -26 10.5t-11 25.5q0 16 11 27t27 11q15 0 25.5 -11
t10.5 -27q0 -15 -11 -25.5t-26 -10.5zM81 -175q-15 0 -26 10.5t-11 25.5t11 26t27 11q15 0 25.5 -11t10.5 -26t-11 -25.5t-26 -10.5zM193 -175q-15 0 -26 10.5t-11 25.5t10.5 26t26.5 11q15 0 25.5 -11t10.5 -26t-10.5 -25.5t-25.5 -10.5z" />
    <glyph glyph-name="uni063C.fina" unicode="&#x63c;" horiz-adv-x="798" 
d="M290 -21l16 49q76 0 135.5 6t101.5 20t63.5 36.5t21.5 55.5q0 28 -14 60.5t-37 66t-48 65t-48 58.5t-37 46t-14 27q0 10 1.5 20.5t5.5 20t10 15.5q29 26 72 57t92.5 63t99.5 62l24 -40q-57 -34 -108 -68t-93.5 -65t-73.5 -56l4 14q22 -29 52 -64.5t60.5 -76.5t56.5 -83
t41 -83q11 -27 23 -52t27 -45.5t35 -32.5t46 -12q14 0 21 -5.5t7 -17.5q0 -11 -7.5 -18t-26.5 -7q-35 0 -64 17.5t-51 50.5t-36 79l24 -10q-7 -46 -34.5 -76t-76 -46.5t-116.5 -23.5t-155 -7zM290 -21q-52 0 -98.5 10.5t-81.5 33t-55 57.5t-20 85q0 25 4.5 52t11 53.5
t12.5 49.5l45 -13q-5 -16 -10.5 -39t-9.5 -48t-4 -47q0 -47 23 -79.5t72.5 -49t126.5 -16.5l20 -28zM337 -293q-15 0 -26 10.5t-11 25.5q0 16 11 27t27 11q15 0 25.5 -11t10.5 -27q0 -15 -11 -25.5t-26 -10.5zM281 -196q-15 0 -26 10.5t-11 25.5t11 26t27 11q15 0 25.5 -11
t10.5 -26t-11 -25.5t-26 -10.5zM393 -196q-15 0 -26 10.5t-11 25.5t10.5 26t26.5 11q15 0 25.5 -11t10.5 -26t-10.5 -25.5t-25.5 -10.5z" />
    <glyph glyph-name="uni063D.init" unicode="&#x63d;" horiz-adv-x="216" 
d="M0 -5l7 48q36 0 58 11.5t32.5 34t10.5 56.5q0 31 -7 66t-19 73.5t-28 80.5l48 18q14 -38 26 -78t19 -79.5t7 -77.5q0 -28 -6 -51.5t-18 -42.5t-30.5 -32t-43 -20t-56.5 -7zM106 715q6 -14 15 -39.5t19 -54.5t19 -54.5t16 -41.5l-30 -13q-5 9 -13.5 32t-18.5 51t-19 53
t-14 39l-13 24zM67 711l30 -10q-6 -17 -15 -45.5t-19.5 -59t-18.5 -54.5t-10 -31l-31 11q3 10 11.5 34.5t18.5 54.5t19.5 57.5t14.5 42.5zM154 -179q-15 0 -26 10.5t-11 25.5t10.5 26t26.5 11q15 0 25.5 -11t10.5 -26t-10.5 -25.5t-25.5 -10.5zM42 -179q-15 0 -26 10.5
t-11 25.5t10.5 26t26.5 11q15 0 25.5 -11t10.5 -26t-10.5 -25.5t-25.5 -10.5z" />
    <glyph glyph-name="uni063D.medi" unicode="&#x63d;" horiz-adv-x="241" 
d="M0 -5l7 48q21 0 37.5 8t30 31.5t26 69t25.5 121.5l47 -9q-6 -27 -11 -50t-8 -43.5t-3 -39.5q0 -25 8 -45t28.5 -31.5t60.5 -11.5q16 0 22 -6t6 -17q0 -10 -7.5 -17.5t-27.5 -7.5q-42 0 -68.5 12t-39.5 37t-17 62l16 -1q-11 -38 -27 -60.5t-34 -33t-36 -13.5t-35 -3z
M155 594q6 -14 15 -39.5t19 -54.5t19 -54.5t16 -41.5l-30 -13q-5 9 -13.5 32t-18.5 51t-19 53t-14 39l-13 24zM116 590l30 -10q-6 -17 -15 -45.5t-19.5 -59t-18.5 -54.5t-10 -31l-31 11q3 10 11.5 34.5t18.5 54.5t19.5 57.5t14.5 42.5zM169 -179q-15 0 -26 10.5t-11 25.5
t10.5 26t26.5 11q15 0 25.5 -11t10.5 -26t-10.5 -25.5t-25.5 -10.5zM57 -179q-15 0 -26 10.5t-11 25.5t10.5 26t26.5 11q15 0 25.5 -11t10.5 -26t-10.5 -25.5t-25.5 -10.5z" />
    <glyph glyph-name="uni063D.fina" unicode="&#x63d;" horiz-adv-x="619" 
d="M44 -17q0 24 4.5 54t17 67.5t34.5 79.5l42 -20q-16 -32 -27 -61.5t-16.5 -58t-5.5 -55.5q0 -47 16 -79.5t44.5 -52.5t65 -29t76.5 -9q60 0 104 15.5t73.5 39.5t43.5 49.5t14 46.5q0 16 -9.5 28.5t-29 23.5t-48 22t-66.5 23l12 47q47 -18 83.5 -31t64.5 -21.5t50 -13
t39 -5.5q14 0 21 -5.5t7 -17.5q0 -11 -7.5 -18t-27.5 -7q-6 0 -14.5 1t-17.5 2.5t-18 4.5q6 -8 8.5 -19.5t2.5 -20.5q0 -28 -18.5 -61.5t-55 -63t-90.5 -49t-125 -19.5q-78 0 -133.5 26t-84 73.5t-29.5 113.5zM224 472q6 -14 15 -39.5t19 -54.5t19 -54.5t16 -41.5l-30 -13
q-5 9 -13.5 32t-18.5 51t-19 53t-14 39l-13 24zM185 468l30 -10q-6 -17 -15 -45.5t-19.5 -59t-18.5 -54.5t-10 -31l-31 11q3 10 11.5 34.5t18.5 54.5t19.5 57.5t14.5 42.5z" />
    <glyph glyph-name="uni063E.init" unicode="&#x63e;" horiz-adv-x="243" 
d="M0 -5l7 48q41 0 69 8t42.5 30.5t14.5 63.5q0 30 -7 65.5t-19 74t-27 80.5l48 18q14 -37 25.5 -76.5t18.5 -78t7 -72.5q0 -43 -11 -73.5t-33 -50t-56 -28.5t-79 -9zM170 502q-15 0 -26 10.5t-11 25.5q0 16 10.5 27t26.5 11q15 0 25.5 -11t10.5 -27q0 -15 -10.5 -25.5
t-25.5 -10.5zM58 502q-15 0 -26 10.5t-11 25.5q0 16 10.5 27t26.5 11q15 0 25.5 -11t10.5 -27q0 -15 -10.5 -25.5t-25.5 -10.5zM149 -179q-15 0 -26 10.5t-11 25.5t10.5 26t26.5 11q15 0 25.5 -11t10.5 -26t-10.5 -25.5t-25.5 -10.5zM37 -179q-15 0 -26 10.5t-11 25.5
t10.5 26t26.5 11q15 0 25.5 -11t10.5 -26t-10.5 -25.5t-25.5 -10.5z" />
    <glyph glyph-name="uni063E.medi" unicode="&#x63e;" horiz-adv-x="281" 
d="M0 -5l7 48q32 0 53 8.5t36 32t27 69.5t26 121l47 -11q-6 -27 -11 -50t-8 -43t-3 -39t4.5 -35t16.5 -28t34.5 -18.5t58.5 -6.5q15 0 21.5 -6.5t6.5 -15.5q0 -11 -7.5 -18.5t-27.5 -7.5q-39 0 -65.5 7t-42 21t-23.5 35t-9 48l14 -1q-13 -35 -28 -57t-33.5 -33.5
t-41.5 -15.5t-52 -4zM218 440q-15 0 -26 10.5t-11 25.5q0 16 10.5 27t26.5 11q15 0 25.5 -11t10.5 -27q0 -15 -10.5 -25.5t-25.5 -10.5zM106 440q-15 0 -26 10.5t-11 25.5q0 16 10.5 27t26.5 11q15 0 25.5 -11t10.5 -27q0 -15 -10.5 -25.5t-25.5 -10.5zM195 -177
q-15 0 -26 10.5t-11 25.5q0 16 10.5 27t26.5 11q15 0 25.5 -11t10.5 -27q0 -15 -10.5 -25.5t-25.5 -10.5zM83 -177q-15 0 -26 10.5t-11 25.5q0 16 10.5 27t26.5 11q15 0 25.5 -11t10.5 -27q0 -15 -10.5 -25.5t-25.5 -10.5z" />
    <glyph glyph-name="uni063E.fina" unicode="&#x63e;" horiz-adv-x="619" 
d="M44 -17q0 24 4.5 54t17 67.5t34.5 79.5l42 -20q-16 -32 -27 -61.5t-16.5 -58t-5.5 -55.5q0 -47 16 -79.5t44.5 -52.5t65 -29t76.5 -9q60 0 104 15.5t73.5 39.5t43.5 49.5t14 46.5q0 16 -9.5 28.5t-29 23.5t-48 22t-66.5 23l12 47q47 -18 83.5 -31t64.5 -21.5t50 -13
t39 -5.5q14 0 21 -5.5t7 -17.5q0 -11 -7.5 -18t-27.5 -7q-6 0 -14.5 1t-17.5 2.5t-18 4.5q6 -8 8.5 -19.5t2.5 -20.5q0 -28 -18.5 -61.5t-55 -63t-90.5 -49t-125 -19.5q-78 0 -133.5 26t-84 73.5t-29.5 113.5zM271 282q-15 0 -26 10.5t-11 25.5q0 16 11 27t27 11
q15 0 25.5 -11t10.5 -27q0 -15 -11 -25.5t-26 -10.5zM159 282q-15 0 -26 10.5t-11 25.5q0 16 11 27t27 11q15 0 25.5 -11t10.5 -27q0 -15 -11 -25.5t-26 -10.5z" />
    <glyph glyph-name="uni063F.init" unicode="&#x63f;" horiz-adv-x="243" 
d="M0 -5l7 48q41 0 69 8t42.5 30.5t14.5 63.5q0 30 -7 65.5t-19 74t-27 80.5l48 18q14 -37 25.5 -76.5t18.5 -78t7 -72.5q0 -43 -11 -73.5t-33 -50t-56 -28.5t-79 -9zM114 599q-15 0 -26 10.5t-11 25.5q0 16 11 26.5t26 10.5t26 -10.5t11 -26.5q0 -15 -11 -25.5t-26 -10.5z
M58 502q-14 0 -25 11t-11 25q0 16 10.5 27t25.5 11q16 0 26.5 -11t10.5 -26q0 -16 -11 -26.5t-26 -10.5zM170 502q-15 0 -26 11t-11 25q0 16 11 27t26 11t26 -11t11 -26q0 -16 -11 -26.5t-26 -10.5zM149 -179q-15 0 -26 10.5t-11 25.5t10.5 26t26.5 11q15 0 25.5 -11
t10.5 -26t-10.5 -25.5t-25.5 -10.5zM37 -179q-15 0 -26 10.5t-11 25.5t10.5 26t26.5 11q15 0 25.5 -11t10.5 -26t-10.5 -25.5t-25.5 -10.5z" />
    <glyph glyph-name="uni063F.medi" unicode="&#x63f;" horiz-adv-x="281" 
d="M0 -5l7 48q32 0 53 8.5t36 32t27 69.5t26 121l47 -11q-6 -27 -11 -50t-8 -43t-3 -39t4.5 -35t16.5 -28t34.5 -18.5t58.5 -6.5q15 0 21.5 -6.5t6.5 -15.5q0 -11 -7.5 -18.5t-27.5 -7.5q-39 0 -65.5 7t-42 21t-23.5 35t-9 48l14 -1q-13 -35 -28 -57t-33.5 -33.5
t-41.5 -15.5t-52 -4zM162 537q-15 0 -26 10.5t-11 25.5q0 16 11 26.5t26 10.5t26 -10.5t11 -26.5q0 -15 -11 -25.5t-26 -10.5zM106 440q-14 0 -25 11t-11 25q0 16 10.5 27t25.5 11q16 0 26.5 -11t10.5 -26q0 -16 -11 -26.5t-26 -10.5zM218 440q-15 0 -26 11t-11 25
q0 16 11 27t26 11t26 -11t11 -26q0 -16 -11 -26.5t-26 -10.5zM195 -177q-15 0 -26 10.5t-11 25.5q0 16 10.5 27t26.5 11q15 0 25.5 -11t10.5 -27q0 -15 -10.5 -25.5t-25.5 -10.5zM83 -177q-15 0 -26 10.5t-11 25.5q0 16 10.5 27t26.5 11q15 0 25.5 -11t10.5 -27
q0 -15 -10.5 -25.5t-25.5 -10.5z" />
    <glyph glyph-name="uni063F.fina" unicode="&#x63f;" horiz-adv-x="619" 
d="M44 -17q0 24 4.5 54t17 67.5t34.5 79.5l42 -20q-16 -32 -27 -61.5t-16.5 -58t-5.5 -55.5q0 -47 16 -79.5t44.5 -52.5t65 -29t76.5 -9q60 0 104 15.5t73.5 39.5t43.5 49.5t14 46.5q0 16 -9.5 28.5t-29 23.5t-48 22t-66.5 23l12 47q47 -18 83.5 -31t64.5 -21.5t50 -13
t39 -5.5q14 0 21 -5.5t7 -17.5q0 -11 -7.5 -18t-27.5 -7q-6 0 -14.5 1t-17.5 2.5t-18 4.5q6 -8 8.5 -19.5t2.5 -20.5q0 -28 -18.5 -61.5t-55 -63t-90.5 -49t-125 -19.5q-78 0 -133.5 26t-84 73.5t-29.5 113.5zM215 379q-14 0 -25 10.5t-11 25.5q0 16 10.5 26.5t25.5 10.5
q16 0 26.5 -10.5t10.5 -26.5q0 -15 -11 -25.5t-26 -10.5zM160 282q-15 0 -26 11t-11 25q0 16 11 27t26 11t26 -11t11 -26q0 -16 -11 -26.5t-26 -10.5zM271 282q-14 0 -25 11t-11 25q0 16 10.5 27t25.5 11q16 0 26.5 -11t10.5 -26q0 -16 -11 -26.5t-26 -10.5z" />
    <glyph glyph-name="uni066E.init" unicode="&#x66e;" horiz-adv-x="216" 
d="M0 -5l7 48q36 0 58 11.5t32.5 34t10.5 56.5q0 31 -7 66t-19 73.5t-28 80.5l48 18q14 -38 26 -78t19 -79.5t7 -77.5q0 -28 -6 -51.5t-18 -42.5t-30.5 -32t-43 -20t-56.5 -7z" />
    <glyph glyph-name="uni066E.medi" unicode="&#x66e;" horiz-adv-x="241" 
d="M0 -5l7 48q21 0 37.5 8t30 31.5t26 69t25.5 121.5l47 -9q-6 -27 -11 -50t-8 -43.5t-3 -39.5q0 -25 8 -45t28.5 -31.5t60.5 -11.5q16 0 22 -6t6 -17q0 -10 -7.5 -17.5t-27.5 -7.5q-42 0 -68.5 12t-39.5 37t-17 62l16 -1q-11 -38 -27 -60.5t-34 -33t-36 -13.5t-35 -3z" />
    <glyph glyph-name="uni066E.fina" unicode="&#x66e;" horiz-adv-x="747" 
d="M289 -21l16 49q54 0 104.5 7.5t95.5 27.5t81.5 56.5t61.5 93.5l41 -20q-11 -27 -18.5 -49.5t-7.5 -42.5q0 -13 7 -26.5t26.5 -22.5t57.5 -9q16 0 22 -6t6 -17q0 -10 -7.5 -17.5t-27.5 -7.5q-38 0 -69 12t-46.5 38.5t-7.5 69.5l19 2q-30 -45 -73 -72.5t-92 -41.5t-98 -19
t-91 -5zM289 -21q-52 0 -98.5 10.5t-81.5 33t-55 57.5t-20 85q0 25 4.5 52t11 53.5t12.5 49.5l45 -13q-5 -16 -10.5 -39t-9.5 -48t-4 -47q0 -47 23 -79.5t72.5 -49t126.5 -16.5l20 -28z" />
    <glyph glyph-name="uni066F.init" unicode="&#x66f;" horiz-adv-x="368" 
d="M0 -5l7 48q25 0 51.5 1t53 4t50.5 9.5t43 16.5q21 11 37.5 32t25.5 56t9 88q0 48 -9 92t-27.5 72t-48.5 28q-23 0 -41.5 -21.5t-29.5 -55.5t-11 -73q0 -34 13 -53t34 -26.5t44 -7.5q21 0 45 6t42 16l4 -42q-13 -10 -31.5 -16t-36 -8.5t-30.5 -2.5q-42 0 -72 15.5
t-45.5 44.5t-15.5 68q0 35 9 71.5t27 67t43 48.5t57 18q43 0 72 -33.5t43 -89t14 -123.5q0 -65 -19 -118.5t-69 -86.5q-20 -13 -45 -21.5t-55 -13.5t-64.5 -7.5t-73.5 -2.5z" />
    <glyph glyph-name="uni066F.medi" unicode="&#x66f;" horiz-adv-x="367" 
d="M0 -5l7 48q21 0 42.5 2t42.5 7t40.5 12t37.5 17q29 16 51.5 39t35.5 51t13 60q0 27 -9 55t-26.5 47t-42.5 19q-21 0 -41 -17t-32 -45t-12 -61q0 -37 14.5 -66.5t38 -50.5t50.5 -34l-53 -20q-21 14 -44 37t-39 56.5t-16 77.5q0 34 10.5 64.5t29 54.5t43 38t52.5 14
q38 0 66.5 -23t44.5 -60t16 -80q0 -31 -8.5 -59t-24 -52t-36.5 -44t-46 -35q-22 -14 -47 -24t-51 -16t-53 -9t-54 -3zM367 -5q-30 0 -67 6.5t-72 18t-59 25.5l46 27q22 -7 49.5 -14t56 -11t53.5 -4q14 0 21 -5.5t7 -17.5q0 -11 -7.5 -18t-27.5 -7z" />
    <glyph glyph-name="uni066F.fina" unicode="&#x66f;" horiz-adv-x="700" 
d="M297 -272q-51 0 -98 13t-84 40.5t-58.5 71.5t-21.5 105q0 13 3.5 42.5t15.5 70.5t38 88l42 -21q-14 -28 -25.5 -56t-18 -57.5t-6.5 -62.5q0 -68 31.5 -108.5t81.5 -58.5t106 -18q31 0 64 4t64 14t58 28t48 45t33 66q12 25 17.5 59t5.5 73q0 58 -10 104.5t-28.5 74
t-46.5 27.5q-19 0 -34.5 -14t-26 -36.5t-16.5 -48.5t-6 -52t8 -41.5t24 -23.5t38 -10.5t49 -2.5h163q14 0 21 -5.5t7 -17.5t-8.5 -18.5t-26.5 -6.5h-164q-34 0 -63.5 6.5t-51 20.5t-33.5 36.5t-12 55.5q0 35 9.5 71.5t26.5 67.5t43 50t59 19q43 0 71 -33.5t42.5 -91
t14.5 -130.5q0 -47 -7.5 -87.5t-22.5 -72.5q-19 -53 -52.5 -88t-76.5 -55t-91 -28t-95 -8z" />
    <glyph glyph-name="uni0672.fina" unicode="&#x672;" horiz-adv-x="227" 
d="M227 -5q-46 0 -75 15.5t-43.5 52t-17.5 98.5l-17 483h48l17 -462q3 -55 11 -85t28 -42t56 -12q16 0 22 -6t6 -16q0 -11 -7.5 -18.5t-27.5 -7.5zM-69 726l-26 16q12 23 28 33.5t32 10.5q22 0 38 -10.5t33 -10.5q11 0 23 2.5t20 6.5l3 -11q-33 7 -57.5 32t-24.5 58
q0 40 27 60.5t60 20.5q11 0 22.5 -2t21.5 -6l-6 -32q-9 2 -18 3.5t-19 1.5q-26 0 -39 -12.5t-13 -32.5t11.5 -35.5t29 -24.5t36.5 -11l-28 -7q26 7 43.5 14t33.5 15l11 -31q-9 -5 -26 -12.5t-37.5 -15t-40.5 -12t-34 -4.5q-24 0 -40 10.5t-30 10.5q-11 0 -18.5 -7t-15.5 -18
z" />
    <glyph glyph-name="uni0673.fina" unicode="&#x673;" horiz-adv-x="234" 
d="M234 -5q-49 0 -79 15.5t-44.5 51.5t-17.5 99l-19 543h48l19 -522q3 -57 11.5 -87t29 -41t59.5 -11q16 0 22 -6t6 -17q0 -10 -7.5 -17.5t-27.5 -7.5zM-10 -288l-27 16q12 23 28.5 33.5t32.5 10.5q22 0 37.5 -10.5t33.5 -10.5q11 0 22.5 2.5t20.5 6.5l2 -11q-32 7 -56.5 32
t-24.5 58q0 40 26.5 60.5t59.5 20.5q11 0 22.5 -2t22.5 -6l-7 -32q-9 2 -18 3.5t-19 1.5q-26 0 -39 -12.5t-13 -32.5t11.5 -35.5t29 -24.5t36.5 -11l-28 -7q26 7 43.5 14t33.5 15l12 -31q-9 -5 -26 -12.5t-38 -15t-40.5 -12t-34.5 -4.5q-23 0 -39.5 10.5t-30.5 10.5
q-10 0 -17.5 -7t-15.5 -18z" />
    <glyph glyph-name="uni0675.fina" unicode="&#x675;" horiz-adv-x="384" 
d="M383 -5h-151q-48 0 -78 15.5t-44 52t-17 98.5l-19 543h48l19 -522q3 -56 11.5 -86.5t28.5 -41.5t58 -11h152q16 0 22 -6t6 -16q0 -11 -7.5 -18.5t-28.5 -7.5zM201 591l-8 35q25 5 39.5 9.5t34.5 9.5l11 -13q-36 7 -59 32.5t-23 57.5q0 27 13 45t33 27t41 9q12 0 24 -1.5
t22 -5.5l-7 -33q-9 3 -18 4.5t-20 1.5q-24 0 -38.5 -13t-14.5 -33t12 -35.5t29.5 -24.5t36.5 -11l-38 -5q25 7 48 14t40 14l11 -33q-23 -9 -52.5 -18.5t-59.5 -18t-57 -14.5z" />
    <glyph glyph-name="uni0676.fina" unicode="&#x676;" horiz-adv-x="382" 
d="M44 -230l-11 45q54 13 98 35t75 54t48 74.5t17 97.5q1 88 -22.5 140t-62.5 52q-24 0 -43 -21.5t-29.5 -54.5t-10.5 -68q0 -27 7 -43t22.5 -24.5t39 -11t55.5 -2.5h162q12 0 20 -4.5t8 -18.5t-10 -19.5t-25 -5.5h-160q-59 0 -96 12t-54.5 39t-17.5 72q0 35 9.5 71t27.5 66
t44 48.5t57 18.5q41 0 70 -32t44 -88t14 -127q-1 -82 -32.5 -142.5t-92.5 -100.5t-151 -62zM240 371l-8 33q22 5 38.5 10t32.5 9l11 -10q-31 7 -54.5 30.5t-23.5 54.5q0 25 12 42.5t31 27t39 9.5q11 0 22 -2t21 -6l-6 -30q-9 3 -18 4.5t-19 1.5q-23 0 -35.5 -14t-12.5 -32
q0 -19 12 -34t29 -23t33 -11l-36 -6q24 6 44 12.5t38 13.5l10 -31q-22 -8 -49.5 -17.5t-56.5 -17.5t-54 -14z" />
    <glyph glyph-name="uni0677.fina" unicode="&#x677;" horiz-adv-x="426" 
d="M78 -230l-11 45q54 13 98 35t75 54t48 74.5t17 97.5q1 88 -22.5 140t-62.5 52q-24 0 -43 -21.5t-29.5 -54.5t-10.5 -68q0 -27 7 -43t22.5 -24.5t39 -11t55.5 -2.5h162q12 0 20 -4.5t8 -18.5t-10 -19.5t-25 -5.5h-160q-59 0 -96 12t-54.5 39t-17.5 72q0 35 9.5 71t27.5 66
t44 48.5t57 18.5q41 0 70 -32t44 -88t14 -127q-1 -82 -32.5 -142.5t-92.5 -100.5t-151 -62zM279 398l-8 33q22 5 38.5 10t32.5 9l11 -10q-31 7 -54.5 30.5t-23.5 54.5q0 25 12 42.5t31 27t39 9.5q11 0 22 -2t21 -6l-6 -30q-9 3 -18 4.5t-19 1.5q-23 0 -35.5 -14t-12.5 -32
q0 -19 12 -34t29 -23t33 -11l-36 -6q24 6 44 12.5t38 13.5l10 -31q-22 -8 -49.5 -17.5t-56.5 -17.5t-54 -14zM39 395l-6 32q53 4 85.5 20t48 38.5t15.5 46.5q0 21 -8 35.5t-27 14.5q-16 0 -25.5 -12t-9.5 -29q0 -24 20 -40.5t44 -21.5l-20 -24q-35 8 -57 31t-22 55
q0 31 20 53t52 22q29 0 48 -21.5t19 -59.5q0 -39 -22 -69.5t-61.5 -48.5t-93.5 -22z" />
    <glyph glyph-name="uni0678.init" unicode="&#x678;" horiz-adv-x="276" 
d="M0 -5l7 48q36 0 58 11.5t32.5 34t10.5 56.5q0 31 -7 66t-19 73.5t-28 80.5l48 18q14 -38 26 -78t19 -79.5t7 -77.5q0 -28 -6 -51.5t-18 -42.5t-30.5 -32t-43 -20t-56.5 -7zM107 591l-8 35q25 5 39.5 9.5t34.5 9.5l11 -13q-36 7 -59 32.5t-23 57.5q0 27 13 45t33 27t41 9
q12 0 24 -1.5t22 -5.5l-7 -33q-9 3 -18 4.5t-20 1.5q-24 0 -38.5 -13t-14.5 -33t11.5 -35.5t29.5 -24.5t37 -11l-38 -5q25 7 48 14t40 14l11 -33q-23 -9 -52.5 -18.5t-59.5 -18t-57 -14.5z" />
    <glyph glyph-name="uni0678.medi" unicode="&#x678;" horiz-adv-x="251" 
d="M0 -5l7 48q21 0 37.5 8t30 31.5t26 69t25.5 121.5l47 -9q-6 -27 -11 -50t-8 -43.5t-3 -39.5q0 -25 8 -45t28.5 -31.5t60.5 -11.5q16 0 22 -6t6 -17q0 -10 -7.5 -17.5t-27.5 -7.5q-42 0 -68.5 12t-39.5 37t-17 62l16 -1q-11 -38 -27 -60.5t-34 -33t-36 -13.5t-35 -3z
M118 422l-8 35q25 5 39.5 9.5t34.5 9.5l11 -13q-36 7 -59 32.5t-23 57.5q0 27 13 45t33 27t41 9q12 0 24 -1.5t22 -5.5l-7 -33q-9 3 -18 4.5t-20 1.5q-24 0 -38.5 -13t-14.5 -33t11.5 -35.5t29.5 -24.5t37 -11l-38 -5q25 7 48 14t40 14l11 -33q-23 -9 -52.5 -18.5t-59.5 -18
t-57 -14.5z" />
    <glyph glyph-name="uni0678.fina" unicode="&#x678;" horiz-adv-x="619" 
d="M44 -17q0 24 4.5 54t17 67.5t34.5 79.5l42 -20q-16 -32 -27 -61.5t-16.5 -58t-5.5 -55.5q0 -47 16 -79.5t44.5 -52.5t65 -29t76.5 -9q60 0 104 15.5t73.5 39.5t43.5 49.5t14 46.5q0 16 -9.5 28.5t-29 23.5t-48 22t-66.5 23l12 47q47 -18 83.5 -31t64.5 -21.5t50 -13
t39 -5.5q14 0 21 -5.5t7 -17.5q0 -11 -7.5 -18t-27.5 -7q-6 0 -14.5 1t-17.5 2.5t-18 4.5q6 -8 8.5 -19.5t2.5 -20.5q0 -28 -18.5 -61.5t-55 -63t-90.5 -49t-125 -19.5q-78 0 -133.5 26t-84 73.5t-29.5 113.5zM425 203l-8 35q25 5 39.5 9.5t34.5 9.5l11 -13q-36 7 -59 32.5
t-23 57.5q0 27 13 45t33 27t41 9q12 0 24 -1.5t22 -5.5l-7 -33q-9 3 -18 4.5t-20 1.5q-24 0 -38.5 -13t-14.5 -33t11.5 -35.5t29.5 -24.5t37 -11l-38 -5q25 7 48 14t40 14l11 -33q-23 -9 -52.5 -18.5t-59.5 -18t-57 -14.5z" />
    <glyph glyph-name="uni067C.init" unicode="&#x67c;" horiz-adv-x="243" 
d="M0 -5l7 48q41 0 69 8t42.5 30.5t14.5 63.5q0 30 -7 65.5t-19 74t-27 80.5l48 18q14 -37 25.5 -76.5t18.5 -78t7 -72.5q0 -43 -11 -73.5t-33 -50t-56 -28.5t-79 -9zM106 -101q-30 0 -50.5 21t-20.5 52q0 30 20.5 51t50.5 21t51.5 -21.5t21.5 -51.5q0 -29 -21 -50.5
t-52 -21.5zM107 -70q17 0 29.5 12t12.5 29q0 18 -12.5 30t-30.5 12q-17 0 -28.5 -12t-11.5 -30q0 -16 12 -28.5t29 -12.5zM170 502q-15 0 -26 10.5t-11 25.5q0 16 10.5 27t26.5 11q15 0 25.5 -11t10.5 -27q0 -15 -10.5 -25.5t-25.5 -10.5zM58 502q-15 0 -26 10.5t-11 25.5
q0 16 10.5 27t26.5 11q15 0 25.5 -11t10.5 -27q0 -15 -10.5 -25.5t-25.5 -10.5z" />
    <glyph glyph-name="uni067C.medi" unicode="&#x67c;" horiz-adv-x="241" 
d="M79 -105q-30 0 -50.5 21t-20.5 52q0 30 20.5 51t50.5 21t51.5 -21.5t21.5 -51.5q0 -29 -21 -50.5t-52 -21.5zM80 -74q17 0 29.5 12t12.5 29q0 18 -12.5 30t-30.5 12q-17 0 -28.5 -12t-11.5 -30q0 -16 12 -28.5t29 -12.5zM0 -5l7 48q21 0 37.5 8t30 31.5t26 69t25.5 121.5
l47 -9q-6 -28 -11 -51t-8 -43t-3 -39q0 -25 8 -45t28.5 -31.5t60.5 -11.5q15 0 21.5 -6.5t6.5 -15.5q0 -11 -7.5 -18.5t-27.5 -7.5q-42 0 -68.5 12t-39.5 37t-17 62l16 -1q-11 -38 -27 -60.5t-34 -33t-36 -13.5t-35 -3zM226 415q-15 0 -26 10.5t-11 25.5q0 16 10.5 27
t26.5 11q15 0 25.5 -11t10.5 -27q0 -15 -10.5 -25.5t-25.5 -10.5zM114 415q-15 0 -26 10.5t-11 25.5q0 16 10.5 27t26.5 11q15 0 25.5 -11t10.5 -27q0 -15 -10.5 -25.5t-25.5 -10.5z" />
    <glyph glyph-name="uni067C.fina" unicode="&#x67c;" horiz-adv-x="747" 
d="M350 -135q-30 0 -50.5 21.5t-20.5 51.5t20.5 51t50.5 21t51.5 -21.5t21.5 -51.5q0 -29 -21.5 -50.5t-51.5 -21.5zM350 -104q17 0 29.5 12t12.5 30q0 17 -12.5 29t-29.5 12t-29 -12t-12 -29t12 -29.5t29 -12.5zM289 -21l16 49q54 0 104.5 7.5t95.5 27.5t81.5 56.5
t61.5 93.5l41 -20q-11 -27 -18.5 -49.5t-7.5 -42.5q0 -13 7 -26.5t26.5 -22.5t57.5 -9q15 0 21.5 -6.5t6.5 -15.5q0 -11 -7.5 -18.5t-27.5 -7.5q-38 0 -69 12t-46.5 38.5t-7.5 69.5l19 2q-30 -45 -73 -72.5t-92 -41.5t-98 -19t-91 -5zM289 -21q-52 0 -98.5 10.5t-81.5 33
t-55 57.5t-20 85q0 25 4 52t11 53.5t13 49.5l45 -13q-5 -16 -10.5 -39t-9.5 -48t-4 -47q0 -47 23 -79.5t72.5 -49t126.5 -16.5l20 -28zM403 419q-15 0 -26 10.5t-11 25.5q0 16 11 27t26 11q16 0 26.5 -11t10.5 -26q0 -16 -11 -26.5t-26 -10.5zM291 419q-15 0 -26 10.5
t-11 25.5q0 16 11 27t26 11q16 0 26.5 -11t10.5 -26q0 -16 -11 -26.5t-26 -10.5z" />
    <glyph glyph-name="uni067D.init" unicode="&#x67d;" horiz-adv-x="243" 
d="M0 -5l7 48q41 0 69 8t42.5 30.5t14.5 63.5q0 30 -7 65.5t-19 74t-27 80.5l48 18q14 -37 25.5 -76.5t18.5 -78t7 -72.5q0 -43 -11 -73.5t-33 -50t-56 -28.5t-79 -9zM114 502q-15 0 -26 10.5t-11 25.5q0 16 11 27t27 11q15 0 25.5 -11t10.5 -27q0 -15 -11 -25.5t-26 -10.5z
M58 599q-15 0 -26 10.5t-11 25.5t11 26t27 11q15 0 25.5 -11t10.5 -26t-11 -25.5t-26 -10.5zM170 599q-15 0 -26 10.5t-11 25.5t10.5 26t26.5 11q15 0 25.5 -11t10.5 -26t-10.5 -25.5t-25.5 -10.5z" />
    <glyph glyph-name="uni067D.medi" unicode="&#x67d;" horiz-adv-x="281" 
d="M0 -5l7 48q32 0 53 8.5t36 32t27 69.5t26 121l47 -11q-6 -27 -11 -50t-8 -43t-3 -39t4.5 -35t16.5 -28t34.5 -18.5t58.5 -6.5q15 0 21.5 -6.5t6.5 -15.5q0 -11 -7.5 -18.5t-27.5 -7.5q-39 0 -65.5 7t-42 21t-23.5 35t-9 48l14 -1q-13 -35 -28 -57t-33.5 -33.5
t-41.5 -15.5t-52 -4zM167 440q-15 0 -26 10.5t-11 25.5q0 16 11 27t27 11q15 0 25.5 -11t10.5 -27q0 -15 -11 -25.5t-26 -10.5zM111 537q-15 0 -26 10.5t-11 25.5t11 26t27 11q15 0 25.5 -11t10.5 -26t-11 -25.5t-26 -10.5zM223 537q-15 0 -26 10.5t-11 25.5t10.5 26
t26.5 11q15 0 25.5 -11t10.5 -26t-10.5 -25.5t-25.5 -10.5z" />
    <glyph glyph-name="uni067D.fina" unicode="&#x67d;" horiz-adv-x="747" 
d="M289 -21l16 49q54 0 104.5 7.5t95.5 27.5t81.5 56.5t61.5 93.5l41 -20q-11 -27 -18.5 -49.5t-7.5 -42.5q0 -13 7 -26.5t26.5 -22.5t57.5 -9q16 0 22 -6t6 -17q0 -10 -7.5 -17.5t-27.5 -7.5q-38 0 -69 12t-46.5 38.5t-7.5 69.5l19 2q-30 -45 -73 -72.5t-92 -41.5t-98 -19
t-91 -5zM289 -21q-52 0 -98.5 10.5t-81.5 33t-55 57.5t-20 85q0 25 4.5 52t11 53.5t12.5 49.5l45 -13q-5 -16 -10.5 -39t-9.5 -48t-4 -47q0 -47 23 -79.5t72.5 -49t126.5 -16.5l20 -28zM353 419q-15 0 -26 10.5t-11 25.5q0 16 10.5 27t26.5 11q15 0 25.5 -11t10.5 -27
q0 -15 -10.5 -25.5t-25.5 -10.5zM297 516q-15 0 -26 10.5t-11 25.5t10.5 26t26.5 11q15 0 25.5 -11t10.5 -26t-10.5 -25.5t-25.5 -10.5zM408 516q-15 0 -26 10.5t-11 25.5t11 26t27 11q15 0 25.5 -11t10.5 -26t-11 -25.5t-26 -10.5z" />
    <glyph glyph-name="uni0681.init" unicode="&#x681;" horiz-adv-x="454" 
d="M0 -5l7 48q44 0 80 8.5t71 25t74.5 41.5t89.5 58q-41 29 -72 53t-60.5 38.5t-66.5 14.5q-13 0 -24.5 -1t-21.5 -2.5t-23 -5.5l-10 43q19 6 39.5 9t39.5 3q42 0 74 -13t58.5 -31.5t49.5 -37.5t45 -32t46 -13h14l5 -48q-31 0 -58 -12t-53.5 -29.5t-56.5 -38t-65.5 -38
t-80 -29t-101.5 -11.5zM57 391l-8 33q22 5 38.5 10t32.5 9l11 -10q-31 7 -54.5 30.5t-23.5 54.5q0 25 12 42.5t31 27t39 9.5q11 0 22 -2t21 -6l-6 -30q-9 3 -18 4.5t-19 1.5q-23 0 -35.5 -14t-12.5 -32q0 -19 12 -34t29 -23t33 -11l-36 -6q24 6 44 12.5t38 13.5l10 -31
q-22 -8 -49.5 -17.5t-56.5 -17.5t-54 -14z" />
    <glyph glyph-name="uni0681.medi" unicode="&#x681;" horiz-adv-x="467" 
d="M467 -5q-24 0 -47 4.5t-44 19t-37.5 43t-26.5 76.5l36 17q14 -51 31 -74.5t40.5 -30.5t54.5 -7q16 0 22 -6t6 -17q0 -10 -7.5 -17.5t-27.5 -7.5zM0 -5l7 48q44 0 80 8.5t71 25t74.5 41.5t89.5 58q-41 29 -72 53t-60.5 38.5t-66.5 14.5q-13 0 -24.5 -1t-21.5 -2.5
t-23 -5.5l-10 43q19 6 39.5 9t39.5 3q42 0 74 -13t58.5 -31.5t49.5 -37.5t45 -32t46 -13h14l5 -48q-31 0 -58 -12t-53.5 -29.5t-56.5 -38t-65.5 -38t-80 -29t-101.5 -11.5zM60 391l-8 33q22 5 38.5 10t32.5 9l11 -10q-31 7 -54.5 30.5t-23.5 54.5q0 25 12 42.5t31 27t39 9.5
q11 0 22 -2t21 -6l-6 -30q-9 3 -18 4.5t-19 1.5q-23 0 -35.5 -14t-12.5 -32q0 -19 12 -34t29 -23t33 -11l-36 -6q24 6 44 12.5t38 13.5l10 -31q-22 -8 -49.5 -17.5t-56.5 -17.5t-54 -14z" />
    <glyph glyph-name="uni0681.fina" unicode="&#x681;" horiz-adv-x="525" 
d="M525 -5q-41 0 -77 11.5t-64 38t-45.5 73.5t-21.5 119l41 15q5 -60 18.5 -100.5t36 -64t52.5 -34t67 -10.5q16 0 22 -6t6 -17q0 -10 -7.5 -17.5t-27.5 -7.5zM301 -394q-54 0 -103.5 17t-88.5 50.5t-62 84.5t-23 119q0 59 18 111.5t49.5 97t74 81t91.5 64t102 44.5l6 -12
q-25 7 -51.5 19t-55.5 25t-61 22t-69 9q-21 0 -38.5 -3t-34.5 -9l-9 45q20 7 43 11t45 4q36 0 68 -9.5t62 -23t58.5 -27t59 -23t64.5 -9.5h7l1 -48q-42 -1 -86 -14t-86.5 -36t-80 -55.5t-66.5 -73t-45 -88t-16 -101.5q0 -61 20 -103.5t53.5 -68.5t75 -38t83.5 -12
q38 0 74.5 6t77.5 21l17 -42q-47 -22 -94 -28.5t-80 -6.5zM176 483l-8 33q22 5 38.5 10t32.5 9l11 -10q-31 7 -54.5 30.5t-23.5 54.5q0 25 12 42.5t31 27t39 9.5q11 0 22 -2t21 -6l-6 -30q-9 3 -18 4.5t-19 1.5q-23 0 -35.5 -14t-12.5 -32q0 -19 12 -34t29 -23t33 -11
l-36 -6q24 6 44 12.5t38 13.5l10 -31q-22 -8 -49.5 -17.5t-56.5 -17.5t-54 -14z" />
    <glyph glyph-name="uni0682.init" unicode="&#x682;" horiz-adv-x="454" 
d="M0 -5l7 48q44 0 80 8.5t71 25t74.5 41.5t89.5 58q-41 29 -72 53t-60.5 38.5t-66.5 14.5q-13 0 -24.5 -1t-21.5 -2.5t-23 -5.5l-10 43q19 6 39.5 9t39.5 3q42 0 74 -13t58.5 -31.5t49.5 -37.5t45 -32t46 -13h14l5 -48q-31 0 -58 -12t-53.5 -29.5t-56.5 -38t-65.5 -38
t-80 -29t-101.5 -11.5zM130 447q-15 0 -26 10.5t-11 25.5q0 16 10.5 27t26.5 11q15 0 25.5 -11t10.5 -27q0 -15 -10.5 -25.5t-25.5 -10.5zM129 569q-15 0 -26 10.5t-11 25.5t10.5 26t26.5 11q15 0 25.5 -11t10.5 -26t-10.5 -25.5t-25.5 -10.5z" />
    <glyph glyph-name="uni0682.medi" unicode="&#x682;" horiz-adv-x="467" 
d="M467 -5q-24 0 -47 4.5t-44 19t-37.5 43t-26.5 76.5l36 17q14 -51 31 -74.5t40.5 -30.5t54.5 -7q16 0 22 -6t6 -17q0 -10 -7.5 -17.5t-27.5 -7.5zM0 -5l7 48q44 0 80 8.5t71 25t74.5 41.5t89.5 58q-41 29 -72 53t-60.5 38.5t-66.5 14.5q-13 0 -24.5 -1t-21.5 -2.5
t-23 -5.5l-10 43q19 6 39.5 9t39.5 3q42 0 74 -13t58.5 -31.5t49.5 -37.5t45 -32t46 -13h14l5 -48q-31 0 -58 -12t-53.5 -29.5t-56.5 -38t-65.5 -38t-80 -29t-101.5 -11.5zM130 447q-15 0 -26 10.5t-11 25.5q0 16 10.5 27t26.5 11q15 0 25.5 -11t10.5 -27q0 -15 -10.5 -25.5
t-25.5 -10.5zM129 569q-15 0 -26 10.5t-11 25.5t10.5 26t26.5 11q15 0 25.5 -11t10.5 -26t-10.5 -25.5t-25.5 -10.5z" />
    <glyph glyph-name="uni0682.fina" unicode="&#x682;" horiz-adv-x="525" 
d="M525 -5q-41 0 -77 11.5t-64 38t-45.5 73.5t-21.5 119l41 15q5 -60 18.5 -100.5t36 -64t52.5 -34t67 -10.5q16 0 22 -6t6 -17q0 -10 -7.5 -17.5t-27.5 -7.5zM301 -394q-54 0 -103.5 17t-88.5 50.5t-62 84.5t-23 119q0 59 18 111.5t49.5 97t74 81t91.5 64t102 44.5l6 -12
q-25 7 -51.5 19t-55.5 25t-61 22t-69 9q-21 0 -38.5 -3t-34.5 -9l-9 45q20 7 43 11t45 4q36 0 68 -9.5t62 -23t58.5 -27t59 -23t64.5 -9.5h7l1 -48q-42 -1 -86 -14t-86.5 -36t-80 -55.5t-66.5 -73t-45 -88t-16 -101.5q0 -61 20 -103.5t53.5 -68.5t75 -38t83.5 -12
q38 0 74.5 6t77.5 21l17 -42q-47 -22 -94 -28.5t-80 -6.5zM269 512q-15 0 -26 10.5t-11 25.5q0 16 10.5 27t26.5 11q15 0 25.5 -11t10.5 -27q0 -15 -10.5 -25.5t-25.5 -10.5zM268 634q-15 0 -26 10.5t-11 25.5t10.5 26t26.5 11q15 0 25.5 -11t10.5 -26t-10.5 -25.5
t-25.5 -10.5z" />
    <glyph glyph-name="uni0685.init" unicode="&#x685;" horiz-adv-x="454" 
d="M0 -5l7 48q44 0 80 8.5t71 25t74.5 41.5t89.5 58q-41 29 -72 53t-60.5 38.5t-66.5 14.5q-13 0 -24.5 -1t-21.5 -2.5t-23 -5.5l-10 43q19 6 39.5 9t39.5 3q42 0 74 -13t58.5 -31.5t49.5 -37.5t45 -32t46 -13h14l5 -48q-31 0 -58 -12t-53.5 -29.5t-56.5 -38t-65.5 -38
t-80 -29t-101.5 -11.5zM131 534q-14 0 -25 10.5t-11 25.5q0 16 10.5 26.5t25.5 10.5q16 0 26.5 -10.5t10.5 -26.5q0 -15 -11 -25.5t-26 -10.5zM76 437q-15 0 -26 11t-11 25q0 16 11 27t26 11t26 -11t11 -26q0 -16 -11 -26.5t-26 -10.5zM187 437q-14 0 -25 11t-11 25
q0 16 10.5 27t25.5 11q16 0 26.5 -11t10.5 -26q0 -16 -11 -26.5t-26 -10.5z" />
    <glyph glyph-name="uni0685.medi" unicode="&#x685;" horiz-adv-x="467" 
d="M467 -5q-24 0 -47 4.5t-44 19t-37.5 43t-26.5 76.5l36 17q14 -51 31 -74.5t40.5 -30.5t54.5 -7q16 0 22 -6t6 -17q0 -10 -7.5 -17.5t-27.5 -7.5zM0 -5l7 48q44 0 80 8.5t71 25t74.5 41.5t89.5 58q-41 29 -72 53t-60.5 38.5t-66.5 14.5q-13 0 -24.5 -1t-21.5 -2.5
t-23 -5.5l-10 43q19 6 39.5 9t39.5 3q42 0 74 -13t58.5 -31.5t49.5 -37.5t45 -32t46 -13h14l5 -48q-31 0 -58 -12t-53.5 -29.5t-56.5 -38t-65.5 -38t-80 -29t-101.5 -11.5zM131 534q-14 0 -25 10.5t-11 25.5q0 16 10.5 26.5t25.5 10.5q16 0 26.5 -10.5t10.5 -26.5
q0 -15 -11 -25.5t-26 -10.5zM76 437q-15 0 -26 11t-11 25q0 16 11 27t26 11t26 -11t11 -26q0 -16 -11 -26.5t-26 -10.5zM187 437q-14 0 -25 11t-11 25q0 16 10.5 27t25.5 11q16 0 26.5 -11t10.5 -26q0 -16 -11 -26.5t-26 -10.5z" />
    <glyph glyph-name="uni0685.fina" unicode="&#x685;" horiz-adv-x="525" 
d="M525 -5q-41 0 -77 11.5t-64 38t-45.5 73.5t-21.5 119l41 15q5 -60 18.5 -100.5t36 -64t52.5 -34t67 -10.5q16 0 22 -6t6 -17q0 -10 -7.5 -17.5t-27.5 -7.5zM301 -394q-54 0 -103.5 17t-88.5 50.5t-62 84.5t-23 119q0 59 18 111.5t49.5 97t74 81t91.5 64t102 44.5l6 -12
q-25 7 -51.5 19t-55.5 25t-61 22t-69 9q-21 0 -38.5 -3t-34.5 -9l-9 45q20 7 43 11t45 4q36 0 68 -9.5t62 -23t58.5 -27t59 -23t64.5 -9.5h7l1 -48q-42 -1 -86 -14t-86.5 -36t-80 -55.5t-66.5 -73t-45 -88t-16 -101.5q0 -61 20 -103.5t53.5 -68.5t75 -38t83.5 -12
q38 0 74.5 6t77.5 21l17 -42q-47 -22 -94 -28.5t-80 -6.5zM280 609q-14 0 -25 10.5t-11 25.5q0 16 10.5 26.5t25.5 10.5q16 0 26.5 -10.5t10.5 -26.5q0 -15 -11 -25.5t-26 -10.5zM225 512q-15 0 -26 11t-11 25q0 16 11 27t26 11t26 -11t11 -26q0 -16 -11 -26.5t-26 -10.5z
M336 512q-14 0 -25 11t-11 25q0 16 10.5 27t25.5 11q16 0 26.5 -11t10.5 -26q0 -16 -11 -26.5t-26 -10.5z" />
    <glyph glyph-name="uni0689.fina" unicode="&#x689;" horiz-adv-x="400" 
d="M172 -117q-30 0 -50.5 21t-20.5 51t20.5 51t50.5 21t51.5 -21t21.5 -51t-21.5 -51t-51.5 -21zM172 -86q17 0 29.5 12t12.5 29t-12.5 29.5t-29.5 12.5t-29 -12.5t-12 -29.5t12 -29t29 -12zM157 44q36 0 57.5 11.5t31.5 32.5t10 48q0 17 -3 40.5t-14.5 57t-36 80.5
t-66.5 110l42 28q36 -56 61.5 -105.5t42 -94.5t24.5 -88q9 -41 21.5 -68t32 -40t47.5 -13q16 0 22 -6t6 -17q0 -10 -7.5 -17.5t-27.5 -7.5q-32 0 -57 13.5t-42.5 40t-26.5 66.5l16 -17q-6 -27 -20.5 -50t-41.5 -37.5t-71 -14.5q-20 0 -43 3t-43.5 8.5t-36.5 13.5l14 44
q26 -9 53 -15t56 -6z" />
    <glyph glyph-name="uni068A.fina" unicode="&#x68a;" horiz-adv-x="400" 
d="M157 44q36 0 57.5 11.5t31.5 32.5t10 48q0 17 -3 40.5t-14.5 57t-36 80.5t-66.5 110l42 28q36 -56 61.5 -105.5t42 -94.5t24.5 -88q9 -41 21.5 -68t32 -40t47.5 -13q16 0 22 -6t6 -17q0 -10 -7.5 -17.5t-27.5 -7.5q-32 0 -57 13.5t-42.5 40t-26.5 66.5l16 -17
q-6 -27 -20.5 -50t-41.5 -37.5t-71 -14.5q-20 0 -43 3t-43.5 8.5t-36.5 13.5l14 44q26 -9 53 -15t56 -6zM141 -180q-15 0 -26 10.5t-11 25.5t11 26t27 11q15 0 25.5 -11t10.5 -26t-11 -25.5t-26 -10.5z" />
    <glyph glyph-name="uni068B.fina" unicode="&#x68b;" horiz-adv-x="400" 
d="M157 44q36 0 57.5 11.5t31.5 32.5t10 48q0 17 -3 40.5t-14.5 57t-36 80.5t-66.5 110l42 28q36 -56 61.5 -105.5t42 -94.5t24.5 -88q9 -41 21.5 -68t32 -40t47.5 -13q16 0 22 -6t6 -17q0 -10 -7.5 -17.5t-27.5 -7.5q-32 0 -57 13.5t-42.5 40t-26.5 66.5l16 -17
q-6 -27 -20.5 -50t-41.5 -37.5t-71 -14.5q-20 0 -43 3t-43.5 8.5t-36.5 13.5l14 44q26 -9 53 -15t56 -6zM126 614q-14 0 -34 1t-38.5 3t-29.5 3l2 33q25 -4 51 -5.5t48 -1.5q32 0 53.5 7.5t32 19.5t10.5 26q0 17 -9 27t-26 10q-22 0 -42 -15.5t-35.5 -36.5t-26.5 -39l-32 3
q16 30 38 58t48 45.5t53 17.5q30 0 48 -18.5t18 -47.5q0 -23 -13.5 -43.5t-41.5 -33.5t-74 -13zM74 673l-6 184h31l6 -162zM141 -180q-15 0 -26 10.5t-11 25.5t11 26t27 11q15 0 25.5 -11t10.5 -26t-11 -25.5t-26 -10.5z" />
    <glyph glyph-name="uni068F.fina" unicode="&#x68f;" horiz-adv-x="400" 
d="M157 44q36 0 57.5 11.5t31.5 32.5t10 48q0 17 -3 40.5t-14.5 57t-36 80.5t-66.5 110l42 28q36 -56 61.5 -105.5t42 -94.5t24.5 -88q9 -41 21.5 -68t32 -40t47.5 -13q16 0 22 -6t6 -17q0 -10 -7.5 -17.5t-27.5 -7.5q-32 0 -57 13.5t-42.5 40t-26.5 66.5l16 -17
q-6 -27 -20.5 -50t-41.5 -37.5t-71 -14.5q-20 0 -43 3t-43.5 8.5t-36.5 13.5l14 44q26 -9 53 -15t56 -6zM147 592q-15 0 -26 10.5t-11 25.5q0 16 10.5 27t26.5 11q15 0 25.5 -11t10.5 -27q0 -15 -10.5 -25.5t-25.5 -10.5zM91 689q-15 0 -26 10.5t-11 25.5t10.5 26t26.5 11
q15 0 25.5 -11t10.5 -26t-10.5 -25.5t-25.5 -10.5zM202 689q-15 0 -26 10.5t-11 25.5t11 26t27 11q15 0 25.5 -11t10.5 -26t-11 -25.5t-26 -10.5z" />
    <glyph glyph-name="uni0690.fina" unicode="&#x690;" horiz-adv-x="400" 
d="M157 44q36 0 57.5 11.5t31.5 32.5t10 48q0 17 -3 40.5t-14.5 57t-36 80.5t-66.5 110l42 28q36 -56 61.5 -105.5t42 -94.5t24.5 -88q9 -41 21.5 -68t32 -40t47.5 -13q16 0 22 -6t6 -17q0 -10 -7.5 -17.5t-27.5 -7.5q-32 0 -57 13.5t-42.5 40t-26.5 66.5l16 -17
q-6 -27 -20.5 -50t-41.5 -37.5t-71 -14.5q-20 0 -43 3t-43.5 8.5t-36.5 13.5l14 44q26 -9 53 -15t56 -6zM92 709q-15 0 -26 10.5t-11 25.5t10.5 26t26.5 11q15 0 25.5 -11t10.5 -26t-10.5 -25.5t-25.5 -10.5zM91 592q-15 0 -26 10.5t-11 25.5q0 16 10.5 27t26.5 11
q15 0 25.5 -11t10.5 -27q0 -15 -10.5 -25.5t-25.5 -10.5zM203 709q-15 0 -26 10.5t-11 25.5t11 26t27 11q15 0 25.5 -11t10.5 -26t-11 -25.5t-26 -10.5zM202 592q-15 0 -26 10.5t-11 25.5q0 16 11 27t27 11q15 0 25.5 -11t10.5 -27q0 -15 -11 -25.5t-26 -10.5z" />
    <glyph glyph-name="uni0692.fina" unicode="&#x692;" horiz-adv-x="278" 
d="M10 -230l-29 43q43 28 76 62.5t55 72.5t33 75.5t11 71.5q0 48 -19 99t-55 115l48 25q20 -35 33 -66.5t22.5 -60t15.5 -55.5q14 -60 32.5 -84.5t51.5 -24.5q16 0 22 -6t6 -17q0 -10 -7.5 -17.5t-27.5 -7.5q-27 0 -46.5 12t-33 34.5t-21.5 54.5l28 4q0 -51 -15.5 -100.5
t-42.5 -93t-62.5 -78.5t-74.5 -58zM93 481q-6 15 -15 40t-19 54t-19.5 54.5t-15.5 41.5l30 13q5 -9 13.5 -32t18.5 -51t18.5 -53t14.5 -39l12 -24zM131 485l-29 10q5 17 14.5 45.5t19.5 59t18 54.5t11 31l31 -11q-4 -10 -12.5 -34.5t-18.5 -54.5t-19 -57.5t-15 -42.5z" />
    <glyph glyph-name="uni0693.fina" unicode="&#x693;" horiz-adv-x="278" 
d="M162 -217q-30 0 -50.5 21t-20.5 51t20.5 51t50.5 21t51.5 -21t21.5 -51t-21.5 -51t-51.5 -21zM162 -186q17 0 29.5 12t12.5 29t-12.5 29.5t-29.5 12.5t-29 -12.5t-12 -29.5t12 -29t29 -12zM10 -230l-29 43q43 28 76 62.5t55 72.5t33 75.5t11 71.5q0 48 -19 99t-55 115
l48 25q20 -35 33 -66.5t22.5 -60t15.5 -55.5q14 -60 32.5 -84.5t51.5 -24.5q16 0 22 -6t6 -17q0 -10 -7.5 -17.5t-27.5 -7.5q-27 0 -46.5 12t-33 34.5t-21.5 54.5l28 4q0 -51 -15.5 -100.5t-42.5 -93t-62.5 -78.5t-74.5 -58z" />
    <glyph glyph-name="uni0694.fina" unicode="&#x694;" horiz-adv-x="278" 
d="M10 -230l-29 43q43 28 76 62.5t55 72.5t33 75.5t11 71.5q0 48 -19 99t-55 115l48 25q20 -35 33 -66.5t22.5 -60t15.5 -55.5q14 -60 32.5 -84.5t51.5 -24.5q16 0 22 -6t6 -17q0 -10 -7.5 -17.5t-27.5 -7.5q-27 0 -46.5 12t-33 34.5t-21.5 54.5l28 4q0 -51 -15.5 -100.5
t-42.5 -93t-62.5 -78.5t-74.5 -58zM93 -392q-15 0 -26 10.5t-11 25.5t11 26t27 11q15 0 25.5 -11t10.5 -26t-11 -25.5t-26 -10.5z" />
    <glyph glyph-name="uni0695.fina" unicode="&#x695;" horiz-adv-x="278" 
d="M18 -74q-6 16 -17 42.5t-22.5 54t-19.5 43.5l26 12q4 -9 11 -25.5t15 -36.5t15 -38t11 -29l10 -20zM47 -71l-24 8q4 14 12 35t15.5 43.5l13.5 40.5t9 24l25 -10q-3 -8 -9.5 -26t-14.5 -40t-15.5 -42.5t-11.5 -32.5zM10 -230l-29 43q43 28 76 62.5t55 72.5t33 75.5
t11 71.5q0 48 -19 99t-55 115l48 25q20 -35 33 -66.5t22.5 -60t15.5 -55.5q14 -60 32.5 -84.5t51.5 -24.5q16 0 22 -6t6 -17q0 -10 -7.5 -17.5t-27.5 -7.5q-27 0 -46.5 12t-33 34.5t-21.5 54.5l28 4q0 -51 -15.5 -100.5t-42.5 -93t-62.5 -78.5t-74.5 -58z" />
    <glyph glyph-name="uni0696.fina" unicode="&#x696;" horiz-adv-x="278" 
d="M10 -230l-29 43q43 28 76 62.5t55 72.5t33 75.5t11 71.5q0 48 -19 99t-55 115l48 25q20 -35 33 -66.5t22.5 -60t15.5 -55.5q14 -60 32.5 -84.5t51.5 -24.5q16 0 22 -6t6 -17q0 -10 -7.5 -17.5t-27.5 -7.5q-27 0 -46.5 12t-33 34.5t-21.5 54.5l28 4q0 -51 -15.5 -100.5
t-42.5 -93t-62.5 -78.5t-74.5 -58zM14 9q-15 0 -26 10.5t-11 25.5q0 16 11 27t27 11q15 0 25.5 -11t10.5 -27q0 -15 -11 -25.5t-26 -10.5zM53 -392q-15 0 -26 10.5t-11 25.5t11 26t27 11q15 0 25.5 -11t10.5 -26t-11 -25.5t-26 -10.5z" />
    <glyph glyph-name="uni0697.fina" unicode="&#x697;" horiz-adv-x="278" 
d="M10 -230l-29 43q43 28 76 62.5t55 72.5t33 75.5t11 71.5q0 48 -19 99t-55 115l48 25q20 -35 33 -66.5t22.5 -60t15.5 -55.5q14 -60 32.5 -84.5t51.5 -24.5q16 0 22 -6t6 -17q0 -10 -7.5 -17.5t-27.5 -7.5q-27 0 -46.5 12t-33 34.5t-21.5 54.5l28 4q0 -51 -15.5 -100.5
t-42.5 -93t-62.5 -78.5t-74.5 -58zM167 471q-15 0 -26 10.5t-11 25.5q0 16 11 27t27 11q15 0 25.5 -11t10.5 -27q0 -15 -11 -25.5t-26 -10.5zM55 471q-15 0 -26 10.5t-11 25.5q0 16 11 27t27 11q15 0 25.5 -11t10.5 -27q0 -15 -11 -25.5t-26 -10.5z" />
    <glyph glyph-name="uni0699.fina" unicode="&#x699;" horiz-adv-x="278" 
d="M10 -230l-29 43q43 28 76 62.5t55 72.5t33 75.5t11 71.5q0 48 -19 99t-55 115l48 25q20 -35 33 -66.5t22.5 -60t15.5 -55.5q14 -60 32.5 -84.5t51.5 -24.5q16 0 22 -6t6 -17q0 -10 -7.5 -17.5t-27.5 -7.5q-27 0 -46.5 12t-33 34.5t-21.5 54.5l28 4q0 -51 -15.5 -100.5
t-42.5 -93t-62.5 -78.5t-74.5 -58zM57 588q-15 0 -26 10.5t-11 25.5t10.5 26t26.5 11q15 0 25.5 -11t10.5 -26t-10.5 -25.5t-25.5 -10.5zM56 471q-15 0 -26 10.5t-11 25.5q0 16 10.5 27t26.5 11q15 0 25.5 -11t10.5 -27q0 -15 -10.5 -25.5t-25.5 -10.5zM168 588
q-15 0 -26 10.5t-11 25.5t11 26t27 11q15 0 25.5 -11t10.5 -26t-11 -25.5t-26 -10.5zM167 471q-15 0 -26 10.5t-11 25.5q0 16 11 27t27 11q15 0 25.5 -11t10.5 -27q0 -15 -11 -25.5t-26 -10.5z" />
    <glyph glyph-name="uni069A.init" unicode="&#x69a;" horiz-adv-x="638" 
d="M0 -5l7 48q27 0 44.5 6.5t30 28.5t24.5 65.5t27 117.5l44 -12q-6 -25 -11 -47t-8 -42t-4 -41q0 -42 16 -58.5t56 -16.5q24 0 40.5 7.5t27.5 30.5t20.5 68.5t20.5 119.5l45 -8q-4 -23 -8 -49.5t-7 -51t-3 -42.5q0 -26 8 -43t25 -24.5t44 -7.5q24 0 44 8.5t32 31.5t12 65
q0 50 -16 104t-35 110l48 19q12 -34 24 -73t19.5 -79t7.5 -77q0 -45 -11.5 -75t-31.5 -48t-45 -26.5t-51 -8.5q-38 0 -60 12.5t-33 35t-15 53.5h18q-12 -39 -27.5 -61t-38.5 -31t-59 -9q-28 0 -51.5 8t-38 32t-14.5 70l20 3q-12 -48 -30 -72.5t-44 -32.5t-63 -8zM299 -180
q-15 0 -26 10.5t-11 25.5t11 26t27 11q15 0 25.5 -11t10.5 -26t-11 -25.5t-26 -10.5zM344 451q-15 0 -26 10.5t-11 25.5q0 16 11 27t27 11q15 0 25.5 -11t10.5 -27q0 -15 -11 -25.5t-26 -10.5z" />
    <glyph glyph-name="uni069A.medi" unicode="&#x69a;" horiz-adv-x="639" 
d="M0 -5l7 48q23 0 40 6t30 26.5t25.5 65t28.5 120.5l44 -12q-6 -25 -14.5 -62t-8.5 -67q0 -26 3.5 -43t17.5 -25t44 -8q23 0 39.5 6.5t28.5 29t22 68t21 122.5l46 -8l-7.5 -45t-8 -53.5t-3.5 -43.5q0 -27 5 -44t20.5 -24.5t45.5 -7.5q42 0 62.5 21t20.5 79q0 23 -1 54.5
t-3.5 66t-6.5 65.5l48 4q4 -92 10.5 -149.5t17.5 -88t28.5 -42t43.5 -11.5q16 0 22 -6t6 -17q0 -10 -7.5 -17.5t-27.5 -7.5q-29 0 -48.5 8t-32 23t-20.5 36t-13 46l17 -3q-5 -45 -22.5 -68.5t-41.5 -32.5t-53 -9q-34 0 -56 11t-33 33t-14 57h16q-12 -36 -27 -58t-38 -32.5
t-59 -10.5q-26 0 -49 8t-36 31.5t-13 70.5l20 3q-16 -51 -34.5 -75t-43.5 -31t-58 -7zM299 -180q-15 0 -26 10.5t-11 25.5t11 26t27 11q15 0 25.5 -11t10.5 -26t-11 -25.5t-26 -10.5zM346 451q-15 0 -26 10.5t-11 25.5q0 16 11 27t27 11q15 0 25.5 -11t10.5 -27
q0 -15 -11 -25.5t-26 -10.5z" />
    <glyph glyph-name="uni069A.fina" unicode="&#x69a;" horiz-adv-x="944" 
d="M248 -232q-43 0 -80.5 13t-65 38t-43 63t-15.5 88q0 21 4 50t16.5 66.5t36.5 83.5l41 -22q-15 -31 -26 -59.5t-16.5 -55.5t-5.5 -54q0 -55 19.5 -91t54.5 -53.5t81 -17.5q54 0 86.5 19t49 49t22 65.5t5.5 69.5q0 43 -5.5 80.5t-15.5 76t-22 82.5l49 14q15 -57 22 -86
t13 -53q11 -35 21 -54.5t24 -27.5t35 -8q18 0 32 6t26 28t22.5 68t19.5 126l46 -8q-4 -29 -8.5 -55.5t-7.5 -49t-3 -40.5q0 -23 5 -40t21 -26t46 -9q35 0 58.5 26t23.5 74q0 23 -1.5 55t-4 67t-5.5 66l47 4q6 -89 11.5 -146t15.5 -88.5t27.5 -44.5t46.5 -14q16 0 22 -6
t6 -17q0 -10 -7.5 -17.5t-27.5 -7.5q-29 0 -52.5 11t-39.5 34t-24 60l17 -3q-8 -36 -25.5 -58.5t-40.5 -33t-48 -10.5q-34 0 -56 11t-33.5 34t-14.5 59h17q-12 -39 -27.5 -61.5t-35 -32.5t-48.5 -10q-25 0 -42 8.5t-28 22t-17 29.5t-9 32l22 -36q2 -58 -7 -109t-33 -90.5
t-65.5 -61.5t-105.5 -22zM632 -175q-15 0 -26 10.5t-11 25.5t11 26t27 11q15 0 25.5 -11t10.5 -26t-11 -25.5t-26 -10.5zM624 451q-15 0 -26 10.5t-11 25.5q0 16 11 27t27 11q15 0 25.5 -11t10.5 -27q0 -15 -11 -25.5t-26 -10.5z" />
    <glyph glyph-name="uni069B.init" unicode="&#x69b;" horiz-adv-x="638" 
d="M0 -5l7 48q27 0 44.5 6.5t30 28.5t24.5 65.5t27 117.5l44 -12q-6 -25 -11 -47t-8 -42t-4 -41q0 -42 16 -58.5t56 -16.5q24 0 40.5 7.5t27.5 30.5t20.5 68.5t20.5 119.5l45 -8q-4 -23 -8 -49.5t-7 -51t-3 -42.5q0 -26 8 -43t25 -24.5t44 -7.5q24 0 44 8.5t32 31.5t12 65
q0 50 -16 104t-35 110l48 19q12 -34 24 -73t19.5 -79t7.5 -77q0 -45 -11.5 -75t-31.5 -48t-45 -26.5t-51 -8.5q-38 0 -60 12.5t-33 35t-15 53.5h18q-12 -39 -27.5 -61t-38.5 -31t-59 -9q-28 0 -51.5 8t-38 32t-14.5 70l20 3q-12 -48 -30 -72.5t-44 -32.5t-63 -8zM299 -277
q-15 0 -26 10.5t-11 25.5q0 16 11 27t27 11q15 0 25.5 -11t10.5 -27q0 -15 -11 -25.5t-26 -10.5zM243 -180q-15 0 -26 10.5t-11 25.5t11 26t27 11q15 0 25.5 -11t10.5 -26t-11 -25.5t-26 -10.5zM355 -180q-15 0 -26 10.5t-11 25.5t10.5 26t26.5 11q15 0 25.5 -11t10.5 -26
t-10.5 -25.5t-25.5 -10.5z" />
    <glyph glyph-name="uni069B.medi" unicode="&#x69b;" horiz-adv-x="639" 
d="M0 -5l7 48q23 0 40 6t30 26.5t25.5 65t28.5 120.5l44 -12q-6 -25 -14.5 -62t-8.5 -67q0 -26 3.5 -43t17.5 -25t44 -8q23 0 39.5 6.5t28.5 29t22 68t21 122.5l46 -8l-7.5 -45t-8 -53.5t-3.5 -43.5q0 -27 5 -44t20.5 -24.5t45.5 -7.5q42 0 62.5 21t20.5 79q0 23 -1 54.5
t-3.5 66t-6.5 65.5l48 4q4 -92 10.5 -149.5t17.5 -88t28.5 -42t43.5 -11.5q16 0 22 -6t6 -17q0 -10 -7.5 -17.5t-27.5 -7.5q-29 0 -48.5 8t-32 23t-20.5 36t-13 46l17 -3q-5 -45 -22.5 -68.5t-41.5 -32.5t-53 -9q-34 0 -56 11t-33 33t-14 57h16q-12 -36 -27 -58t-38 -32.5
t-59 -10.5q-26 0 -49 8t-36 31.5t-13 70.5l20 3q-16 -51 -34.5 -75t-43.5 -31t-58 -7zM299 -277q-15 0 -26 10.5t-11 25.5q0 16 11 27t27 11q15 0 25.5 -11t10.5 -27q0 -15 -11 -25.5t-26 -10.5zM243 -180q-15 0 -26 10.5t-11 25.5t11 26t27 11q15 0 25.5 -11t10.5 -26
t-11 -25.5t-26 -10.5zM355 -180q-15 0 -26 10.5t-11 25.5t10.5 26t26.5 11q15 0 25.5 -11t10.5 -26t-10.5 -25.5t-25.5 -10.5z" />
    <glyph glyph-name="uni069B.fina" unicode="&#x69b;" horiz-adv-x="944" 
d="M248 -232q-43 0 -80.5 13t-65 38t-43 63t-15.5 88q0 21 4 50t16.5 66.5t36.5 83.5l41 -22q-15 -31 -26 -59.5t-16.5 -55.5t-5.5 -54q0 -55 19.5 -91t54.5 -53.5t81 -17.5q54 0 86.5 19t49 49t22 65.5t5.5 69.5q0 43 -5.5 80.5t-15.5 76t-22 82.5l49 14q15 -57 22 -86
t13 -53q11 -35 21 -54.5t24 -27.5t35 -8q18 0 32 6t26 28t22.5 68t19.5 126l46 -8q-4 -29 -8.5 -55.5t-7.5 -49t-3 -40.5q0 -23 5 -40t21 -26t46 -9q35 0 58.5 26t23.5 74q0 23 -1.5 55t-4 67t-5.5 66l47 4q6 -89 11.5 -146t15.5 -88.5t27.5 -44.5t46.5 -14q16 0 22 -6
t6 -17q0 -10 -7.5 -17.5t-27.5 -7.5q-29 0 -52.5 11t-39.5 34t-24 60l17 -3q-8 -36 -25.5 -58.5t-40.5 -33t-48 -10.5q-34 0 -56 11t-33.5 34t-14.5 59h17q-12 -39 -27.5 -61.5t-35 -32.5t-48.5 -10q-25 0 -42 8.5t-28 22t-17 29.5t-9 32l22 -36q2 -58 -7 -109t-33 -90.5
t-65.5 -61.5t-105.5 -22zM631 -272q-15 0 -26 10.5t-11 25.5q0 16 11 27t27 11q15 0 25.5 -11t10.5 -27q0 -15 -11 -25.5t-26 -10.5zM575 -175q-15 0 -26 10.5t-11 25.5t11 26t27 11q15 0 25.5 -11t10.5 -26t-11 -25.5t-26 -10.5zM687 -175q-15 0 -26 10.5t-11 25.5t10.5 26
t26.5 11q15 0 25.5 -11t10.5 -26t-10.5 -25.5t-25.5 -10.5z" />
    <glyph glyph-name="uni069D.init" unicode="&#x69d;" horiz-adv-x="722" 
d="M373 -15q-52 0 -97 5.5t-78.5 18.5t-53.5 35.5t-25 56.5l16 3q-16 -45 -37 -68.5t-45.5 -32t-52.5 -8.5l7 48q24 0 39.5 7.5t28 30.5t25.5 68t31 119l48 -12q-5 -20 -11 -43t-10 -44t-4 -36q0 -26 11.5 -44.5t38 -30.5t69.5 -18t106 -6q60 0 107 10t80 29t50 47.5
t17 65.5q0 32 -12.5 56t-35 37t-53.5 13q-41 0 -82 -24t-77 -63t-65 -83.5t-47 -86.5l-49 4q27 63 63.5 117.5t78.5 96.5t88 65.5t92 23.5q42 0 75 -18.5t52.5 -53t19.5 -81.5q0 -61 -35 -107t-103 -71.5t-170 -25.5zM425 -189q-15 0 -26 10.5t-11 25.5t10.5 26t26.5 11
q15 0 25.5 -11t10.5 -26t-10.5 -25.5t-25.5 -10.5zM313 -189q-15 0 -26 10.5t-11 25.5t10.5 26t26.5 11q15 0 25.5 -11t10.5 -26t-10.5 -25.5t-25.5 -10.5z" />
    <glyph glyph-name="uni069D.medi" unicode="&#x69d;" horiz-adv-x="748" 
d="M748 -5q-32 0 -60 6.5t-51.5 20t-42.5 33.5l41 24q23 -17 51 -26.5t69 -9.5q16 0 22 -6t6 -17q0 -10 -7.5 -17.5t-27.5 -7.5zM373 -15q-52 0 -97 5.5t-78.5 18.5t-53.5 35.5t-25 56.5l16 3q-16 -45 -37 -68.5t-45.5 -32t-52.5 -8.5l7 48q24 0 39.5 7.5t28 30.5t25.5 68
t31 119l48 -12q-5 -20 -11 -43t-10 -44t-4 -36q0 -26 11.5 -44.5t38 -30.5t69.5 -18t106 -6q60 0 107 10t80 29t50 47.5t17 65.5q0 32 -12.5 56t-35 37t-53.5 13q-41 0 -82 -24t-77 -63t-65 -83.5t-47 -86.5l-49 4q27 63 63.5 117.5t78.5 96.5t88 65.5t92 23.5
q42 0 75 -18.5t52.5 -53t19.5 -81.5q0 -61 -35 -107t-103 -71.5t-170 -25.5zM425 -189q-15 0 -26 10.5t-11 25.5t10.5 26t26.5 11q15 0 25.5 -11t10.5 -26t-10.5 -25.5t-25.5 -10.5zM313 -189q-15 0 -26 10.5t-11 25.5t10.5 26t26.5 11q15 0 25.5 -11t10.5 -26t-10.5 -25.5
t-25.5 -10.5z" />
    <glyph glyph-name="uni069D.fina" unicode="&#x69d;" horiz-adv-x="1066" 
d="M1066 -5q-32 0 -60 6.5t-51.5 20t-42.5 33.5l41 24q23 -17 51 -26.5t69 -9.5q16 0 22 -6t6 -17q0 -10 -7.5 -17.5t-27.5 -7.5zM246 -232q-43 0 -80 12.5t-64 38.5t-42.5 65t-15.5 91q0 21 4 48.5t16.5 64t36.5 82.5l41 -22q-15 -31 -26 -60t-16.5 -55t-5.5 -51
q0 -57 19.5 -94t54 -54t78.5 -17q52 0 84.5 16t50.5 44.5t24.5 66t6.5 80.5q0 61 -13 118.5t-30 117.5l49 14q10 -38 15.5 -63t9.5 -41t9 -29q9 -23 25 -42t43.5 -33t69 -21.5t100.5 -7.5q40 0 77.5 4.5t69.5 15.5t56.5 28.5t38.5 43t14 60.5q0 31 -11.5 55t-34.5 37.5
t-55 13.5q-36 0 -73 -19.5t-72.5 -54t-67.5 -81.5t-58 -103l-48 7q18 42 43.5 85t57 82t67.5 69t74.5 47.5t77.5 17.5q46 0 78.5 -20t51 -54.5t18.5 -79.5q0 -52 -24 -90.5t-66 -63.5t-98 -37t-121 -12q-64 0 -108 9t-72.5 24t-45 33.5t-25.5 36.5l24 -28q4 -62 -4.5 -116
t-33 -94t-67 -62.5t-107.5 -22.5zM755 -186q-15 0 -26 10.5t-11 25.5t10.5 26t26.5 11q15 0 25.5 -11t10.5 -26t-10.5 -25.5t-25.5 -10.5zM643 -186q-15 0 -26 10.5t-11 25.5t10.5 26t26.5 11q15 0 25.5 -11t10.5 -26t-10.5 -25.5t-25.5 -10.5z" />
    <glyph glyph-name="uni069E.init" unicode="&#x69e;" horiz-adv-x="722" 
d="M373 -15q-52 0 -97 5.5t-78.5 18.5t-53.5 35.5t-25 56.5l16 3q-16 -45 -37 -68.5t-45.5 -32t-52.5 -8.5l7 48q24 0 39.5 7.5t28 30.5t25.5 68t31 119l48 -12q-5 -20 -11 -43t-10 -44t-4 -36q0 -26 11.5 -44.5t38 -30.5t69.5 -18t106 -6q60 0 107 10t80 29t50 47.5
t17 65.5q0 32 -12.5 56t-35 37t-53.5 13q-41 0 -82 -24t-77 -63t-65 -83.5t-47 -86.5l-49 4q27 63 63.5 117.5t78.5 96.5t88 65.5t92 23.5q42 0 75 -18.5t52.5 -53t19.5 -81.5q0 -61 -35 -107t-103 -71.5t-170 -25.5zM506 558q-14 0 -25 10.5t-11 25.5q0 16 10.5 26.5
t25.5 10.5q16 0 26.5 -10.5t10.5 -26.5q0 -15 -11 -25.5t-26 -10.5zM451 461q-15 0 -26 11t-11 25q0 16 11 27t26 11t26 -11t11 -26q0 -16 -11 -26.5t-26 -10.5zM562 461q-14 0 -25 11t-11 25q0 16 10.5 27t25.5 11q16 0 26.5 -11t10.5 -26q0 -16 -11 -26.5t-26 -10.5z" />
    <glyph glyph-name="uni069E.medi" unicode="&#x69e;" horiz-adv-x="748" 
d="M748 -5q-32 0 -60 6.5t-51.5 20t-42.5 33.5l41 24q23 -17 51 -26.5t69 -9.5q16 0 22 -6t6 -17q0 -10 -7.5 -17.5t-27.5 -7.5zM373 -15q-52 0 -97 5.5t-78.5 18.5t-53.5 35.5t-25 56.5l16 3q-16 -45 -37 -68.5t-45.5 -32t-52.5 -8.5l7 48q24 0 39.5 7.5t28 30.5t25.5 68
t31 119l48 -12q-5 -20 -11 -43t-10 -44t-4 -36q0 -26 11.5 -44.5t38 -30.5t69.5 -18t106 -6q60 0 107 10t80 29t50 47.5t17 65.5q0 32 -12.5 56t-35 37t-53.5 13q-41 0 -82 -24t-77 -63t-65 -83.5t-47 -86.5l-49 4q27 63 63.5 117.5t78.5 96.5t88 65.5t92 23.5
q42 0 75 -18.5t52.5 -53t19.5 -81.5q0 -61 -35 -107t-103 -71.5t-170 -25.5zM506 558q-14 0 -25 10.5t-11 25.5q0 16 10.5 26.5t25.5 10.5q16 0 26.5 -10.5t10.5 -26.5q0 -15 -11 -25.5t-26 -10.5zM451 461q-15 0 -26 11t-11 25q0 16 11 27t26 11t26 -11t11 -26
q0 -16 -11 -26.5t-26 -10.5zM562 461q-14 0 -25 11t-11 25q0 16 10.5 27t25.5 11q16 0 26.5 -11t10.5 -26q0 -16 -11 -26.5t-26 -10.5z" />
    <glyph glyph-name="uni069E.fina" unicode="&#x69e;" horiz-adv-x="1066" 
d="M1066 -5q-32 0 -60 6.5t-51.5 20t-42.5 33.5l41 24q23 -17 51 -26.5t69 -9.5q16 0 22 -6t6 -17q0 -10 -7.5 -17.5t-27.5 -7.5zM246 -232q-43 0 -80 12.5t-64 38.5t-42.5 65t-15.5 91q0 21 4 48.5t16.5 64t36.5 82.5l41 -22q-15 -31 -26 -60t-16.5 -55t-5.5 -51
q0 -57 19.5 -94t54 -54t78.5 -17q52 0 84.5 16t50.5 44.5t24.5 66t6.5 80.5q0 61 -13 118.5t-30 117.5l49 14q10 -38 15.5 -63t9.5 -41t9 -29q9 -23 25 -42t43.5 -33t69 -21.5t100.5 -7.5q40 0 77.5 4.5t69.5 15.5t56.5 28.5t38.5 43t14 60.5q0 31 -11.5 55t-34.5 37.5
t-55 13.5q-36 0 -73 -19.5t-72.5 -54t-67.5 -81.5t-58 -103l-48 7q18 42 43.5 85t57 82t67.5 69t74.5 47.5t77.5 17.5q46 0 78.5 -20t51 -54.5t18.5 -79.5q0 -52 -24 -90.5t-66 -63.5t-98 -37t-121 -12q-64 0 -108 9t-72.5 24t-45 33.5t-25.5 36.5l24 -28q4 -62 -4.5 -116
t-33 -94t-67 -62.5t-107.5 -22.5zM816 561q-14 0 -25 10.5t-11 25.5q0 16 10.5 26.5t25.5 10.5q16 0 26.5 -10.5t10.5 -26.5q0 -15 -11 -25.5t-26 -10.5zM761 464q-15 0 -26 11t-11 25q0 16 11 27t26 11t26 -11t11 -26q0 -16 -11 -26.5t-26 -10.5zM872 464q-14 0 -25 11
t-11 25q0 16 10.5 27t25.5 11q16 0 26.5 -11t10.5 -26q0 -16 -11 -26.5t-26 -10.5z" />
    <glyph glyph-name="uni069F.init" unicode="&#x69f;" horiz-adv-x="565" 
d="M0 -5l7 48h203q57 0 105.5 8.5t84 26t55.5 45.5t20 67q0 27 -10 51t-32 39t-59 15q-41 0 -80.5 -24.5t-75 -63t-65 -83.5t-49.5 -87l-54 -4q29 60 65 116t78 100t88.5 70t94.5 26q45 0 78 -20t51 -54t18 -78q0 -58 -33 -101t-101 -67q-30 -11 -71 -17.5t-85 -9.5t-86 -3
h-147zM97 89l-18 615h49l18 -562zM343 561q-14 0 -25 10.5t-11 25.5q0 16 10.5 26.5t25.5 10.5q16 0 26.5 -10.5t10.5 -26.5q0 -15 -11 -25.5t-26 -10.5zM288 464q-15 0 -26 11t-11 25q0 16 11 27t26 11t26 -11t11 -26q0 -16 -11 -26.5t-26 -10.5zM399 464q-14 0 -25 11
t-11 25q0 16 10.5 27t25.5 11q16 0 26.5 -11t10.5 -26q0 -16 -11 -26.5t-26 -10.5z" />
    <glyph glyph-name="uni069F.medi" unicode="&#x69f;" horiz-adv-x="574" 
d="M574 -5q-32 0 -60 6.5t-51.5 20t-43.5 33.5l42 24q22 -17 50 -26.5t70 -9.5q16 0 22 -6t6 -17q0 -10 -7.5 -17.5t-27.5 -7.5zM0 -5l7 48h203q57 0 105.5 8.5t84 26t55.5 45.5t20 67q0 27 -10 51t-32 39t-59 15q-41 0 -80.5 -24.5t-75 -63t-65 -83.5t-49.5 -87l-54 -4
q29 60 65 116t78 100t88.5 70t94.5 26q45 0 78 -20t51 -54t18 -78q0 -58 -33 -101t-101 -67q-30 -11 -71 -17.5t-85 -9.5t-86 -3h-147zM97 89l-18 615h49l18 -562zM343 561q-14 0 -25 10.5t-11 25.5q0 16 10.5 26.5t25.5 10.5q16 0 26.5 -10.5t10.5 -26.5q0 -15 -11 -25.5
t-26 -10.5zM288 464q-15 0 -26 11t-11 25q0 16 11 27t26 11t26 -11t11 -26q0 -16 -11 -26.5t-26 -10.5zM399 464q-14 0 -25 11t-11 25q0 16 10.5 27t25.5 11q16 0 26.5 -11t10.5 -26q0 -16 -11 -26.5t-26 -10.5z" />
    <glyph glyph-name="uni069F.fina" unicode="&#x69f;" horiz-adv-x="661" 
d="M661 -5q-32 0 -60 6.5t-51.5 20t-43.5 33.5l42 24q22 -17 50 -26.5t70 -9.5q16 0 22 -6t6 -17q0 -10 -7.5 -17.5t-27.5 -7.5zM288 -13q-29 0 -66 2t-74.5 4.5t-70.5 6t-54 6.5l6 48q27 -3 59 -6.5t66.5 -6t70.5 -3.5t72 -1q53 0 98.5 8.5t79.5 27t53.5 47.5t19.5 70
q0 28 -11 52t-33 38.5t-57 14.5q-41 0 -81 -23.5t-76.5 -62t-65.5 -83.5t-48 -89l-53 -4q28 65 64.5 121.5t79.5 99t89 67t92 24.5q44 0 77 -19.5t52 -53.5t19 -81q0 -65 -38 -111t-107 -69.5t-163 -23.5zM170 86l-19 618h49l20 -565zM415 561q-14 0 -25 10.5t-11 25.5
q0 16 10.5 26.5t25.5 10.5q16 0 26.5 -10.5t10.5 -26.5q0 -15 -11 -25.5t-26 -10.5zM360 464q-15 0 -26 11t-11 25q0 16 11 27t26 11t26 -11t11 -26q0 -16 -11 -26.5t-26 -10.5zM471 464q-14 0 -25 11t-11 25q0 16 10.5 27t25.5 11q16 0 26.5 -11t10.5 -26q0 -16 -11 -26.5
t-26 -10.5z" />
    <glyph glyph-name="uni06A0.init" unicode="&#x6a0;" horiz-adv-x="384" 
d="M0 -5l7 48q36 0 66 2t58 6t58 10q-33 15 -63.5 42t-50.5 64.5t-20 82.5q0 49 21.5 86.5t61 58.5t90.5 21q18 0 35.5 -3t37.5 -10l-9 -44q-18 5 -33 7t-30 2q-37 0 -65.5 -15t-44.5 -41.5t-16 -61.5q0 -28 10 -52.5t27.5 -44t38.5 -34.5t42.5 -25t38.5 -14q12 3 19.5 5
t15.5 4t19 6.5t31 12.5l16 -44q-54 -23 -109 -38.5t-116.5 -23t-135.5 -7.5zM206 632q-14 0 -25 10.5t-11 25.5q0 16 10.5 26.5t25.5 10.5q16 0 26.5 -10.5t10.5 -26.5q0 -15 -11 -25.5t-26 -10.5zM151 535q-15 0 -26 11t-11 25q0 16 11 27t26 11t26 -11t11 -26
q0 -16 -11 -26.5t-26 -10.5zM262 535q-14 0 -25 11t-11 25q0 16 10.5 27t25.5 11q16 0 26.5 -11t10.5 -26q0 -16 -11 -26.5t-26 -10.5z" />
    <glyph glyph-name="uni06A0.medi" unicode="&#x6a0;" horiz-adv-x="396" 
d="M0 -5l7 48q43 0 85 15t78.5 40t64.5 56t44 64.5t16 64.5q0 19 -10 34t-28.5 23t-44.5 8q-24 0 -47.5 -8.5t-43 -22t-31.5 -29.5q19 -23 40.5 -50.5t43.5 -59t40 -66.5q16 -18 34 -30.5t39.5 -21t49.5 -13t66 -4.5q13 0 20.5 -5t7.5 -18t-9 -19t-26 -6q-53 0 -92.5 9.5
t-70 29.5t-57.5 51q-21 40 -44 73t-42.5 57t-30.5 37q-2 2 -4 8.5t-3.5 14t-1.5 12.5q0 16 13.5 35.5t37 36.5t53 28t60.5 11q37 0 66 -10.5t46 -34t17 -62.5q0 -41 -18 -83t-51 -80t-76.5 -68t-93.5 -47.5t-104 -17.5zM212 614q-14 0 -25 10.5t-11 25.5q0 16 10.5 26.5
t25.5 10.5q16 0 26.5 -10.5t10.5 -26.5q0 -15 -11 -25.5t-26 -10.5zM157 517q-15 0 -26 11t-11 25q0 16 11 27t26 11t26 -11t11 -26q0 -16 -11 -26.5t-26 -10.5zM268 517q-14 0 -25 11t-11 25q0 16 10.5 27t25.5 11q16 0 26.5 -11t10.5 -26q0 -16 -11 -26.5t-26 -10.5z" />
    <glyph glyph-name="uni06A0.fina" unicode="&#x6a0;" horiz-adv-x="406" 
d="M246 -384q-35 0 -76.5 9t-79 31.5t-61.5 63t-24 104.5q0 54 22 99t56 82.5t72.5 71.5t72.5 66.5t55.5 67t21.5 72.5q0 18 -9 33t-27 23.5t-47 8.5q-23 0 -46.5 -8t-43 -22t-32.5 -30q22 -25 43 -51.5t41.5 -57t40.5 -65.5q18 -20 37.5 -33.5t42 -21.5t49.5 -12t59 -4
q11 0 19.5 -4.5t8.5 -18.5q0 -12 -8.5 -18.5t-26.5 -6.5q-45 0 -84.5 8.5t-73 28.5t-62.5 54q-16 32 -38 64t-43 59t-35 42q-2 3 -4.5 10t-4 14.5t-1.5 10.5q0 18 14 37.5t37.5 36.5t53 27.5t61.5 10.5q64 0 96 -29.5t32 -76.5q0 -46 -22 -85.5t-56 -75t-72.5 -70t-72.5 -70
t-55.5 -75.5t-21.5 -87q0 -45 16 -77t43.5 -51t62.5 -27.5t73 -8.5q27 0 51.5 2t51.5 9t60 21l17 -39q-31 -15 -62 -24.5t-61 -13.5t-60 -4zM223 614q-14 0 -25 10.5t-11 25.5q0 16 10.5 26.5t25.5 10.5q16 0 26.5 -10.5t10.5 -26.5q0 -15 -11 -25.5t-26 -10.5zM168 517
q-15 0 -26 11t-11 25q0 16 11 27t26 11t26 -11t11 -26q0 -16 -11 -26.5t-26 -10.5zM279 517q-14 0 -25 11t-11 25q0 16 10.5 27t25.5 11q16 0 26.5 -11t10.5 -26q0 -16 -11 -26.5t-26 -10.5z" />
    <glyph glyph-name="uni06A1.init" unicode="&#x6a1;" horiz-adv-x="368" 
d="M0 -5l7 48q25 0 51.5 1t53 4t50.5 9.5t43 16.5q21 11 37.5 32t25.5 56t9 88q0 48 -9 92t-27.5 72t-48.5 28q-23 0 -41.5 -21.5t-29.5 -55.5t-11 -73q0 -34 13 -53t34 -26.5t44 -7.5q21 0 45 6t42 16l4 -42q-13 -10 -31.5 -16t-36 -8.5t-30.5 -2.5q-42 0 -72 15.5
t-45.5 44.5t-15.5 68q0 35 9 71.5t27 67t43 48.5t57 18q43 0 72 -33.5t43 -89t14 -123.5q0 -65 -19 -118.5t-69 -86.5q-20 -13 -45 -21.5t-55 -13.5t-64.5 -7.5t-73.5 -2.5z" />
    <glyph glyph-name="uni06A1.medi" unicode="&#x6a1;" horiz-adv-x="367" 
d="M0 -5l7 48q21 0 42.5 2t42.5 7t40.5 12t37.5 17q29 16 51.5 39t35.5 51t13 60q0 27 -9 55t-26.5 47t-42.5 19q-21 0 -41 -17t-32 -45t-12 -61q0 -37 14.5 -66.5t38 -50.5t50.5 -34l-53 -20q-21 14 -44 37t-39 56.5t-16 77.5q0 34 10.5 64.5t29 54.5t43 38t52.5 14
q38 0 66.5 -23t44.5 -60t16 -80q0 -31 -8.5 -59t-24 -52t-36.5 -44t-46 -35q-22 -14 -47 -24t-51 -16t-53 -9t-54 -3zM367 -5q-30 0 -67 6.5t-72 18t-59 25.5l46 27q22 -7 49.5 -14t56 -11t53.5 -4q14 0 21 -5.5t7 -17.5q0 -11 -7.5 -18t-27.5 -7z" />
    <glyph glyph-name="uni06A1.fina" unicode="&#x6a1;" horiz-adv-x="847" 
d="M290 -21l16 49q47 0 94.5 3t92 9.5t83 17t67.5 25.5q36 18 60 39.5t36 47.5t12 57q0 22 -5 44t-15 40.5t-24.5 29.5t-34.5 11q-24 0 -43.5 -18.5t-30.5 -48.5t-11 -64q0 -36 14.5 -63.5t38 -46.5t48.5 -32l-52 -21q-20 14 -43 35t-39 52.5t-16 75.5q0 34 9.5 66
t27.5 57.5t43 40.5t55 15q39 0 67.5 -23.5t44 -62.5t15.5 -85q0 -28 -8 -53t-23 -47t-36.5 -41.5t-49.5 -35.5q-34 -20 -79.5 -34t-98 -22.5t-107.5 -12.5t-108 -4zM847 -5q-35 0 -70.5 6t-68.5 17.5t-60 26.5l47 27q20 -7 46.5 -13.5t55.5 -11t57 -4.5q14 0 21 -5.5
t7 -17.5q0 -11 -8 -18t-27 -7zM290 -21q-52 0 -98.5 10.5t-81.5 33t-55 57.5t-20 85q0 25 4.5 52t11 53.5t12.5 49.5l45 -13q-5 -16 -10.5 -39t-9.5 -48t-4 -47q0 -47 23 -79.5t72.5 -49t126.5 -16.5l20 -28z" />
    <glyph glyph-name="fehDotMovedbelowar.init" unicode="&#x6a2;" horiz-adv-x="368" 
d="M0 -5l7 48q25 0 51.5 1t53 4t50.5 9.5t43 16.5q21 11 37.5 32t25.5 56t9 88q0 48 -9 92t-27.5 72t-48.5 28q-23 0 -41.5 -21.5t-29.5 -55.5t-11 -73q0 -34 13 -53t34 -26.5t44 -7.5q21 0 45 6t42 16l4 -42q-13 -10 -31.5 -16t-36 -8.5t-30.5 -2.5q-42 0 -72 15.5
t-45.5 44.5t-15.5 68q0 35 9 71.5t27 67t43 48.5t57 18q43 0 72 -33.5t43 -89t14 -123.5q0 -65 -19 -118.5t-69 -86.5q-20 -13 -45 -21.5t-55 -13.5t-64.5 -7.5t-73.5 -2.5zM167 -198q-15 0 -26 10.5t-11 25.5t11 26t27 11q15 0 25.5 -11t10.5 -26t-11 -25.5t-26 -10.5z" />
    <glyph glyph-name="fehDotMovedbelowar.medi" unicode="&#x6a2;" horiz-adv-x="367" 
d="M0 -5l7 48q21 0 42.5 2t42.5 7t40.5 12t37.5 17q29 16 51.5 39t35.5 51t13 60q0 27 -9 55t-26.5 47t-42.5 19q-21 0 -41 -17t-32 -45t-12 -61q0 -37 14.5 -66.5t38 -50.5t50.5 -34l-53 -20q-21 14 -44 37t-39 56.5t-16 77.5q0 34 10.5 64.5t29 54.5t43 38t52.5 14
q38 0 66.5 -23t44.5 -60t16 -80q0 -31 -8.5 -59t-24 -52t-36.5 -44t-46 -35q-22 -14 -47 -24t-51 -16t-53 -9t-54 -3zM367 -5q-30 0 -67 6.5t-72 18t-59 25.5l46 27q22 -7 49.5 -14t56 -11t53.5 -4q14 0 21 -5.5t7 -17.5q0 -11 -7.5 -18t-27.5 -7zM183 -198q-15 0 -26 10.5
t-11 25.5t11 26t27 11q15 0 25.5 -11t10.5 -26t-11 -25.5t-26 -10.5z" />
    <glyph glyph-name="fehDotMovedbelowar.fina" unicode="&#x6a2;" horiz-adv-x="847" 
d="M290 -21l16 49q47 0 94.5 3t92 9.5t83 17t67.5 25.5q36 18 60 39.5t36 47.5t12 57q0 22 -5 44t-15 40.5t-24.5 29.5t-34.5 11q-24 0 -43.5 -18.5t-30.5 -48.5t-11 -64q0 -36 14.5 -63.5t38 -46.5t48.5 -32l-52 -21q-20 14 -43 35t-39 52.5t-16 75.5q0 34 9.5 66
t27.5 57.5t43 40.5t55 15q39 0 67.5 -23.5t44 -62.5t15.5 -85q0 -28 -8 -53t-23 -47t-36.5 -41.5t-49.5 -35.5q-34 -20 -79.5 -34t-98 -22.5t-107.5 -12.5t-108 -4zM847 -5q-35 0 -70.5 6t-68.5 17.5t-60 26.5l47 27q20 -7 46.5 -13.5t55.5 -11t57 -4.5q14 0 21 -5.5
t7 -17.5q0 -11 -8 -18t-27 -7zM290 -21q-52 0 -98.5 10.5t-81.5 33t-55 57.5t-20 85q0 25 4.5 52t11 53.5t12.5 49.5l45 -13q-5 -16 -10.5 -39t-9.5 -48t-4 -47q0 -47 23 -79.5t72.5 -49t126.5 -16.5l20 -28zM349 -198q-15 0 -26 10.5t-11 25.5t11 26t27 11q15 0 25.5 -11
t10.5 -26t-11 -25.5t-26 -10.5z" />
    <glyph glyph-name="uni06A3.init" unicode="&#x6a3;" horiz-adv-x="368" 
d="M0 -5l7 48q25 0 51.5 1t53 4t50.5 9.5t43 16.5q21 11 37.5 32t25.5 56t9 88q0 48 -9 92t-27.5 72t-48.5 28q-23 0 -41.5 -21.5t-29.5 -55.5t-11 -73q0 -34 13 -53t34 -26.5t44 -7.5q21 0 45 6t42 16l4 -42q-13 -10 -31.5 -16t-36 -8.5t-30.5 -2.5q-42 0 -72 15.5
t-45.5 44.5t-15.5 68q0 35 9 71.5t27 67t43 48.5t57 18q43 0 72 -33.5t43 -89t14 -123.5q0 -65 -19 -118.5t-69 -86.5q-20 -13 -45 -21.5t-55 -13.5t-64.5 -7.5t-73.5 -2.5zM181 610q-15 0 -26 10.5t-11 25.5q0 16 11 27t27 11q15 0 25.5 -11t10.5 -27q0 -15 -11 -25.5
t-26 -10.5zM167 -198q-15 0 -26 10.5t-11 25.5t11 26t27 11q15 0 25.5 -11t10.5 -26t-11 -25.5t-26 -10.5z" />
    <glyph glyph-name="uni06A3.medi" unicode="&#x6a3;" horiz-adv-x="367" 
d="M0 -5l7 48q21 0 42.5 2t42.5 7t40.5 12t37.5 17q29 16 51.5 39t35.5 51t13 60q0 27 -9 55t-26.5 47t-42.5 19q-21 0 -41 -17t-32 -45t-12 -61q0 -37 14.5 -66.5t38 -50.5t50.5 -34l-53 -20q-21 14 -44 37t-39 56.5t-16 77.5q0 34 10.5 64.5t29 54.5t43 38t52.5 14
q38 0 66.5 -23t44.5 -60t16 -80q0 -31 -8.5 -59t-24 -52t-36.5 -44t-46 -35q-22 -14 -47 -24t-51 -16t-53 -9t-54 -3zM367 -5q-30 0 -67 6.5t-72 18t-59 25.5l46 27q22 -7 49.5 -14t56 -11t53.5 -4q14 0 21 -5.5t7 -17.5q0 -11 -7.5 -18t-27.5 -7zM192 519q-15 0 -26 10.5
t-11 25.5q0 16 11 27t27 11q15 0 25.5 -11t10.5 -27q0 -15 -11 -25.5t-26 -10.5zM183 -198q-15 0 -26 10.5t-11 25.5t11 26t27 11q15 0 25.5 -11t10.5 -26t-11 -25.5t-26 -10.5z" />
    <glyph glyph-name="uni06A3.fina" unicode="&#x6a3;" horiz-adv-x="847" 
d="M290 -21l16 49q47 0 94.5 3t92 9.5t83 17t67.5 25.5q36 18 60 39.5t36 47.5t12 57q0 22 -5 44t-15 40.5t-24.5 29.5t-34.5 11q-24 0 -43.5 -18.5t-30.5 -48.5t-11 -64q0 -36 14.5 -63.5t38 -46.5t48.5 -32l-52 -21q-20 14 -43 35t-39 52.5t-16 75.5q0 34 9.5 66
t27.5 57.5t43 40.5t55 15q39 0 67.5 -23.5t44 -62.5t15.5 -85q0 -28 -8 -53t-23 -47t-36.5 -41.5t-49.5 -35.5q-34 -20 -79.5 -34t-98 -22.5t-107.5 -12.5t-108 -4zM847 -5q-35 0 -70.5 6t-68.5 17.5t-60 26.5l47 27q20 -7 46.5 -13.5t55.5 -11t57 -4.5q14 0 21 -5.5
t7 -17.5q0 -11 -8 -18t-27 -7zM290 -21q-52 0 -98.5 10.5t-81.5 33t-55 57.5t-20 85q0 25 4.5 52t11 53.5t12.5 49.5l45 -13q-5 -16 -10.5 -39t-9.5 -48t-4 -47q0 -47 23 -79.5t72.5 -49t126.5 -16.5l20 -28zM673 519q-15 0 -26 10.5t-11 25.5q0 16 11 27t27 11
q15 0 25.5 -11t10.5 -27q0 -15 -11 -25.5t-26 -10.5zM349 -198q-15 0 -26 10.5t-11 25.5t11 26t27 11q15 0 25.5 -11t10.5 -26t-11 -25.5t-26 -10.5z" />
    <glyph glyph-name="uni06A5.init" unicode="&#x6a5;" horiz-adv-x="368" 
d="M0 -5l7 48q25 0 51.5 1t53 4t50.5 9.5t43 16.5q21 11 37.5 32t25.5 56t9 88q0 48 -9 92t-27.5 72t-48.5 28q-23 0 -41.5 -21.5t-29.5 -55.5t-11 -73q0 -34 13 -53t34 -26.5t44 -7.5q21 0 45 6t42 16l4 -42q-13 -10 -31.5 -16t-36 -8.5t-30.5 -2.5q-42 0 -72 15.5
t-45.5 44.5t-15.5 68q0 35 9 71.5t27 67t43 48.5t57 18q43 0 72 -33.5t43 -89t14 -123.5q0 -65 -19 -118.5t-69 -86.5q-20 -13 -45 -21.5t-55 -13.5t-64.5 -7.5t-73.5 -2.5zM166 -294q-15 0 -26 10.5t-11 25.5q0 16 11 27t27 11q15 0 25.5 -11t10.5 -27q0 -15 -11 -25.5
t-26 -10.5zM110 -197q-15 0 -26 10.5t-11 25.5t11 26t27 11q15 0 25.5 -11t10.5 -26t-11 -25.5t-26 -10.5zM222 -197q-15 0 -26 10.5t-11 25.5t10.5 26t26.5 11q15 0 25.5 -11t10.5 -26t-10.5 -25.5t-25.5 -10.5z" />
    <glyph glyph-name="uni06A5.medi" unicode="&#x6a5;" horiz-adv-x="367" 
d="M0 -5l7 48q21 0 42.5 2t42.5 7t40.5 12t37.5 17q29 16 51.5 39t35.5 51t13 60q0 27 -9 55t-26.5 47t-42.5 19q-21 0 -41 -17t-32 -45t-12 -61q0 -37 14.5 -66.5t38 -50.5t50.5 -34l-53 -20q-21 14 -44 37t-39 56.5t-16 77.5q0 34 10.5 64.5t29 54.5t43 38t52.5 14
q38 0 66.5 -23t44.5 -60t16 -80q0 -31 -8.5 -59t-24 -52t-36.5 -44t-46 -35q-22 -14 -47 -24t-51 -16t-53 -9t-54 -3zM367 -5q-30 0 -67 6.5t-72 18t-59 25.5l46 27q22 -7 49.5 -14t56 -11t53.5 -4q14 0 21 -5.5t7 -17.5q0 -11 -7.5 -18t-27.5 -7zM183 -295q-15 0 -26 10.5
t-11 25.5q0 16 11 27t27 11q15 0 25.5 -11t10.5 -27q0 -15 -11 -25.5t-26 -10.5zM127 -198q-15 0 -26 10.5t-11 25.5t11 26t27 11q15 0 25.5 -11t10.5 -26t-11 -25.5t-26 -10.5zM239 -198q-15 0 -26 10.5t-11 25.5t10.5 26t26.5 11q15 0 25.5 -11t10.5 -26t-10.5 -25.5
t-25.5 -10.5z" />
    <glyph glyph-name="uni06A5.fina" unicode="&#x6a5;" horiz-adv-x="847" 
d="M290 -21l16 49q47 0 94.5 3t92 9.5t83 17t67.5 25.5q36 18 60 39.5t36 47.5t12 57q0 22 -5 44t-15 40.5t-24.5 29.5t-34.5 11q-24 0 -43.5 -18.5t-30.5 -48.5t-11 -64q0 -36 14.5 -63.5t38 -46.5t48.5 -32l-52 -21q-20 14 -43 35t-39 52.5t-16 75.5q0 34 9.5 66
t27.5 57.5t43 40.5t55 15q39 0 67.5 -23.5t44 -62.5t15.5 -85q0 -28 -8 -53t-23 -47t-36.5 -41.5t-49.5 -35.5q-34 -20 -79.5 -34t-98 -22.5t-107.5 -12.5t-108 -4zM847 -5q-35 0 -70.5 6t-68.5 17.5t-60 26.5l47 27q20 -7 46.5 -13.5t55.5 -11t57 -4.5q14 0 21 -5.5
t7 -17.5q0 -11 -8 -18t-27 -7zM290 -21q-52 0 -98.5 10.5t-81.5 33t-55 57.5t-20 85q0 25 4.5 52t11 53.5t12.5 49.5l45 -13q-5 -16 -10.5 -39t-9.5 -48t-4 -47q0 -47 23 -79.5t72.5 -49t126.5 -16.5l20 -28zM349 -294q-15 0 -26 10.5t-11 25.5q0 16 11 27t27 11
q15 0 25.5 -11t10.5 -27q0 -15 -11 -25.5t-26 -10.5zM293 -197q-15 0 -26 10.5t-11 25.5t11 26t27 11q15 0 25.5 -11t10.5 -26t-11 -25.5t-26 -10.5zM405 -197q-15 0 -26 10.5t-11 25.5t10.5 26t26.5 11q15 0 25.5 -11t10.5 -26t-10.5 -25.5t-25.5 -10.5z" />
    <glyph glyph-name="uni06A7.fina" unicode="&#x6a7;" horiz-adv-x="700" 
d="M297 -272q-51 0 -98 13t-84 40.5t-58.5 71.5t-21.5 105q0 13 3.5 42.5t15.5 70.5t38 88l42 -21q-14 -28 -25.5 -56t-18 -57.5t-6.5 -62.5q0 -68 31.5 -108.5t81.5 -58.5t106 -18q31 0 64 4t64 14t58 28t48 45t33 66q12 25 17.5 59t5.5 73q0 58 -10 104.5t-28.5 74
t-46.5 27.5q-19 0 -34.5 -14t-26 -36.5t-16.5 -48.5t-6 -52t8 -41.5t24 -23.5t38 -10.5t49 -2.5h163q14 0 21 -5.5t7 -17.5t-8.5 -18.5t-26.5 -6.5h-164q-34 0 -63.5 6.5t-51 20.5t-33.5 36.5t-12 55.5q0 35 9.5 71.5t26.5 67.5t43 50t59 19q43 0 71 -33.5t42.5 -91
t14.5 -130.5q0 -47 -7.5 -87.5t-22.5 -72.5q-19 -53 -52.5 -88t-76.5 -55t-91 -28t-95 -8zM512 441q-15 0 -26 10.5t-11 25.5q0 16 11 27t27 11q15 0 25.5 -11t10.5 -27q0 -15 -11 -25.5t-26 -10.5z" />
    <glyph glyph-name="uni06A8.init" unicode="&#x6a8;" horiz-adv-x="368" 
d="M0 -5l7 48q25 0 51.5 1t53 4t50.5 9.5t43 16.5q21 11 37.5 32t25.5 56t9 88q0 48 -9 92t-27.5 72t-48.5 28q-23 0 -41.5 -21.5t-29.5 -55.5t-11 -73q0 -34 13 -53t34 -26.5t44 -7.5q21 0 45 6t42 16l4 -42q-13 -10 -31.5 -16t-36 -8.5t-30.5 -2.5q-42 0 -72 15.5
t-45.5 44.5t-15.5 68q0 35 9 71.5t27 67t43 48.5t57 18q43 0 72 -33.5t43 -89t14 -123.5q0 -65 -19 -118.5t-69 -86.5q-20 -13 -45 -21.5t-55 -13.5t-64.5 -7.5t-73.5 -2.5zM183 707q-14 0 -25 10.5t-11 25.5q0 16 10.5 26.5t25.5 10.5q16 0 26.5 -10.5t10.5 -26.5
q0 -15 -11 -25.5t-26 -10.5zM128 610q-15 0 -26 11t-11 25q0 16 11 27t26 11t26 -11t11 -26q0 -16 -11 -26.5t-26 -10.5zM239 610q-14 0 -25 11t-11 25q0 16 10.5 27t25.5 11q16 0 26.5 -11t10.5 -26q0 -16 -11 -26.5t-26 -10.5z" />
    <glyph glyph-name="uni06A8.medi" unicode="&#x6a8;" horiz-adv-x="367" 
d="M0 -5l7 48q21 0 42.5 2t42.5 7t40.5 12t37.5 17q29 16 51.5 39t35.5 51t13 60q0 27 -9 55t-26.5 47t-42.5 19q-21 0 -41 -17t-32 -45t-12 -61q0 -37 14.5 -66.5t38 -50.5t50.5 -34l-53 -20q-21 14 -44 37t-39 56.5t-16 77.5q0 34 10.5 64.5t29 54.5t43 38t52.5 14
q38 0 66.5 -23t44.5 -60t16 -80q0 -31 -8.5 -59t-24 -52t-36.5 -44t-46 -35q-22 -14 -47 -24t-51 -16t-53 -9t-54 -3zM367 -5q-30 0 -67 6.5t-72 18t-59 25.5l46 27q22 -7 49.5 -14t56 -11t53.5 -4q14 0 21 -5.5t7 -17.5q0 -11 -7.5 -18t-27.5 -7zM194 616q-14 0 -25 10.5
t-11 25.5q0 16 10.5 26.5t25.5 10.5q16 0 26.5 -10.5t10.5 -26.5q0 -15 -11 -25.5t-26 -10.5zM139 519q-15 0 -26 11t-11 25q0 16 11 27t26 11t26 -11t11 -26q0 -16 -11 -26.5t-26 -10.5zM250 519q-14 0 -25 11t-11 25q0 16 10.5 27t25.5 11q16 0 26.5 -11t10.5 -26
q0 -16 -11 -26.5t-26 -10.5z" />
    <glyph glyph-name="uni06A8.fina" unicode="&#x6a8;" horiz-adv-x="700" 
d="M297 -272q-51 0 -98 13t-84 40.5t-58.5 71.5t-21.5 105q0 13 3.5 42.5t15.5 70.5t38 88l42 -21q-14 -28 -25.5 -56t-18 -57.5t-6.5 -62.5q0 -68 31.5 -108.5t81.5 -58.5t106 -18q31 0 64 4t64 14t58 28t48 45t33 66q12 25 17.5 59t5.5 73q0 58 -10 104.5t-28.5 74
t-46.5 27.5q-19 0 -34.5 -14t-26 -36.5t-16.5 -48.5t-6 -52t8 -41.5t24 -23.5t38 -10.5t49 -2.5h163q14 0 21 -5.5t7 -17.5t-8.5 -18.5t-26.5 -6.5h-164q-34 0 -63.5 6.5t-51 20.5t-33.5 36.5t-12 55.5q0 35 9.5 71.5t26.5 67.5t43 50t59 19q43 0 71 -33.5t42.5 -91
t14.5 -130.5q0 -47 -7.5 -87.5t-22.5 -72.5q-19 -53 -52.5 -88t-76.5 -55t-91 -28t-95 -8zM514 538q-14 0 -25 10.5t-11 25.5q0 16 10.5 26.5t25.5 10.5q16 0 26.5 -10.5t10.5 -26.5q0 -15 -11 -25.5t-26 -10.5zM459 441q-15 0 -26 11t-11 25q0 16 11 27t26 11t26 -11
t11 -26q0 -16 -11 -26.5t-26 -10.5zM570 441q-14 0 -25 11t-11 25q0 16 10.5 27t25.5 11q16 0 26.5 -11t10.5 -26q0 -16 -11 -26.5t-26 -10.5z" />
    <glyph glyph-name="uni06AA.init" unicode="&#x6aa;" horiz-adv-x="705" 
d="M0 -5l7 48h268q78 0 139 4.5t103.5 14.5t64.5 27.5t22 42.5q0 17 -9.5 32.5t-33 29t-65 24.5t-103.5 19q-88 12 -141 23t-76.5 29t-23.5 52q0 38 24.5 72t67 63.5t96.5 53.5t112 41l11 -45q-92 -29 -150 -61t-85 -62t-27 -54q0 -19 17.5 -29t59.5 -17.5t116 -17.5
q62 -8 109.5 -20t80 -28.5t49.5 -41t17 -58.5q0 -43 -28 -71t-78.5 -43.5t-118.5 -21.5t-148 -6h-277z" />
    <glyph glyph-name="uni06AA.medi" unicode="&#x6aa;" horiz-adv-x="732" 
d="M732 -5q-32 0 -60 6.5t-51.5 20t-42.5 33.5l41 24q23 -17 51 -26.5t69 -9.5q16 0 22 -6t6 -17q0 -10 -7.5 -17.5t-27.5 -7.5zM0 -5l7 48h268q78 0 139 4.5t103.5 14.5t64.5 27.5t22 42.5q0 17 -9.5 32.5t-33 29t-65 24.5t-103.5 19q-88 12 -141 23t-76.5 29t-23.5 52
q0 38 24.5 72t67 63.5t96.5 53.5t112 41l11 -45q-92 -29 -150 -61t-85 -62t-27 -54q0 -19 17.5 -29t59.5 -17.5t116 -17.5q62 -8 109.5 -20t80 -28.5t49.5 -41t17 -58.5q0 -43 -28 -71t-78.5 -43.5t-118.5 -21.5t-148 -6h-277z" />
    <glyph glyph-name="uni06AA.fina" unicode="&#x6aa;" horiz-adv-x="938" 
d="M938 -5q-32 0 -60 6.5t-51.5 20t-42.5 33.5l41 24q23 -17 51 -26.5t69 -9.5q16 0 22 -6t6 -17q0 -10 -7.5 -17.5t-27.5 -7.5zM483 -15q-30 0 -81.5 1t-112.5 3t-121 6t-108 9l4 47q50 -4 108 -7.5t116 -6t108.5 -3.5t84.5 -1q78 0 139 6t103.5 18t64.5 31t22 44
q0 17 -9.5 32.5t-33 29t-65 24.5t-103.5 19q-88 12 -141 23t-76.5 29t-23.5 52q0 38 24.5 72t67 63.5t96.5 53.5t112 41l11 -45q-92 -29 -150 -61t-85 -62t-27 -55q0 -18 17.5 -28t59.5 -17.5t116 -17.5q62 -8 109.5 -20t80 -28.5t49.5 -41t17 -58.5q0 -43 -28 -72.5
t-78.5 -47t-118.5 -25t-148 -7.5z" />
    <glyph glyph-name="uni06AB.init" unicode="&#x6ab;" horiz-adv-x="325" 
d="M248 496q-30 0 -51 21t-21 51t21 51t51 21t51 -21t21 -51t-21 -51t-51 -21zM248 527q17 0 29.5 12t12.5 29t-12.5 29.5t-29.5 12.5t-29 -12.5t-12 -29.5t12 -29t29 -12zM0 -5l7 48h77q45 0 72 9.5t40.5 24.5t17 34t3.5 39q0 39 -21 83t-58 89t-59.5 71.5t-35 41.5
t-17 21.5t-4.5 11.5q0 9 2.5 20t6 21t8.5 15q19 16 41.5 34.5t53 40.5t72 48.5t98.5 59.5l24 -40q-49 -29 -89.5 -54t-73.5 -48t-61 -44t-52 -42l3 18q33 -42 69 -84t67.5 -85t52 -88t20.5 -95q0 -28 -8.5 -54.5t-29.5 -48.5t-57.5 -34.5t-91.5 -12.5h-77z" />
    <glyph glyph-name="uni06AB.medi" unicode="&#x6ab;" horiz-adv-x="386" 
d="M248 494q-30 0 -51 21t-21 51t21 51t51 21t51 -21t21 -51t-21 -51t-51 -21zM248 525q17 0 29.5 12t12.5 29t-12.5 29.5t-29.5 12.5t-29 -12.5t-12 -29.5t12 -29t29 -12zM0 -5l7 48h72q47 0 78 10t46 33.5t15 62.5q0 28 -14 60t-36.5 65.5t-47 65t-47 58t-36.5 45
t-14 25.5q0 12 2.5 23t6.5 20.5t9 14.5q21 19 51 42t65.5 46.5t73 47t73.5 45.5l24 -41q-38 -23 -76.5 -47t-74.5 -48t-67 -46.5t-53 -42.5l1 10q25 -34 52 -66t53.5 -66.5t51 -76t45.5 -93.5q21 -50 39.5 -82.5t41 -48.5t52.5 -16q14 0 21 -5.5t7 -17.5q0 -11 -7.5 -18
t-27.5 -7q-33 0 -61 16.5t-50 49.5t-38 81l23 -10q-3 -41 -19.5 -68t-42 -42t-56.5 -21t-65 -6h-77z" />
    <glyph glyph-name="uni06AB.fina" unicode="&#x6ab;" horiz-adv-x="798" 
d="M649 491q-30 0 -50.5 21.5t-20.5 51.5t20.5 51t50.5 21t51.5 -21t21.5 -51t-21.5 -51.5t-51.5 -21.5zM649 522q17 0 29.5 12.5t12.5 29.5t-12.5 29t-29.5 12t-29 -12t-12 -29t12 -29.5t29 -12.5zM290 -21l16 49q76 0 135.5 6t101.5 20t63.5 36.5t21.5 55.5q0 28 -14 60.5
t-37 66t-48 65t-48 58.5t-37 46t-14 27q0 10 1.5 20.5t5.5 20t10 15.5q29 26 72 57t92.5 63t99.5 62l24 -40q-57 -34 -108 -68t-93.5 -65t-73.5 -56l4 14q22 -29 52 -64.5t60.5 -76.5t56.5 -83t41 -83q11 -27 23 -52t27 -45.5t35 -32.5t46 -12q14 0 21 -5.5t7 -17.5
q0 -11 -7.5 -18t-26.5 -7q-35 0 -64 17.5t-51 50.5t-36 79l24 -10q-7 -46 -34.5 -76t-76 -46.5t-116.5 -23.5t-155 -7zM290 -21q-52 0 -98.5 10.5t-81.5 33t-55 57.5t-20 85q0 25 4.5 52t11 53.5t12.5 49.5l45 -13q-5 -16 -10.5 -39t-9.5 -48t-4 -47q0 -47 23 -79.5
t72.5 -49t126.5 -16.5l20 -28z" />
    <glyph glyph-name="uni06AC.init" unicode="&#x6ac;" horiz-adv-x="325" 
d="M0 -5l7 48h77q45 0 72 9.5t40.5 24.5t17 34t3.5 39q0 39 -21 83t-58 89t-59.5 71.5t-35 41.5t-17 21.5t-4.5 11.5q0 9 2.5 20t6 21t8.5 15q19 16 41.5 34.5t53 40.5t72 48.5t98.5 59.5l24 -40q-49 -29 -89.5 -54t-73.5 -48t-61 -44t-52 -42l3 18q33 -42 69 -84t67.5 -85
t52 -88t20.5 -95q0 -28 -8.5 -54.5t-29.5 -48.5t-57.5 -34.5t-91.5 -12.5h-77zM144 729q-15 0 -26 10.5t-11 25.5q0 16 11 27t27 11q15 0 25.5 -11t10.5 -27q0 -15 -11 -25.5t-26 -10.5z" />
    <glyph glyph-name="uni06AC.medi" unicode="&#x6ac;" horiz-adv-x="386" 
d="M0 -5l7 48h72q47 0 78 10t46 33.5t15 62.5q0 28 -14 60t-36.5 65.5t-47 65t-47 58t-36.5 45t-14 25.5q0 12 2.5 23t6.5 20.5t9 14.5q21 19 51 42t65.5 46.5t73 47t73.5 45.5l24 -41q-38 -23 -76.5 -47t-74.5 -48t-67 -46.5t-53 -42.5l1 10q25 -34 52 -66t53.5 -66.5
t51 -76t45.5 -93.5q21 -50 39.5 -82.5t41 -48.5t52.5 -16q14 0 21 -5.5t7 -17.5q0 -11 -7.5 -18t-27.5 -7q-33 0 -61 16.5t-50 49.5t-38 81l23 -10q-3 -41 -19.5 -68t-42 -42t-56.5 -21t-65 -6h-77zM146 728q-15 0 -26 10.5t-11 25.5q0 16 11 27t27 11q15 0 25.5 -11
t10.5 -27q0 -15 -11 -25.5t-26 -10.5z" />
    <glyph glyph-name="uni06AC.fina" unicode="&#x6ac;" horiz-adv-x="739" 
d="M290 -21l16 49q88 0 144.5 8t88.5 26t45 47t11 70l-19 525h49l19 -517q2 -52 12.5 -83.5t32.5 -46t57 -14.5q14 0 21 -5.5t7 -16.5q0 -12 -8 -19t-27 -7q-34 0 -60 11.5t-41 34.5t-18 61l20 -1q-15 -36 -42 -59.5t-69 -37t-100.5 -19.5t-138.5 -6zM287 212l-12 39
q44 13 69 23.5t35 20t10 16.5q0 14 -12.5 24.5t-28 21.5t-27.5 25t-12 34q0 15 9 33t32.5 39.5t66.5 44.5l19 -36q-39 -20 -62.5 -41t-23.5 -38q0 -13 12 -24t27.5 -23t28 -27t12.5 -35q0 -12 -6.5 -24.5t-22.5 -24.5t-44 -24t-70 -24zM290 -21q-52 0 -98.5 10.5t-81.5 33
t-55 57.5t-20 85q0 24 4.5 51.5t11 54t12.5 49.5l45 -13q-5 -16 -10.5 -39t-9.5 -48t-4 -47q0 -47 23 -79.5t72.5 -49t126.5 -16.5l20 -28zM358 647q-15 0 -26 10.5t-11 25.5q0 16 11 27t27 11q15 0 25.5 -11t10.5 -27q0 -15 -11 -25.5t-26 -10.5z" />
    <glyph glyph-name="uni06AE.init" unicode="&#x6ae;" horiz-adv-x="325" 
d="M0 -5l7 48h77q45 0 72 9.5t40.5 24.5t17 34t3.5 39q0 39 -21 83t-58 89t-59.5 71.5t-35 41.5t-17 21.5t-4.5 11.5q0 9 2.5 20t6 21t8.5 15q19 16 41.5 34.5t53 40.5t72 48.5t98.5 59.5l24 -40q-49 -29 -89.5 -54t-73.5 -48t-61 -44t-52 -42l3 18q33 -42 69 -84t67.5 -85
t52 -88t20.5 -95q0 -28 -8.5 -54.5t-29.5 -48.5t-57.5 -34.5t-91.5 -12.5h-77zM139 -272q-15 0 -26 10.5t-11 25.5q0 16 11 27t27 11q15 0 25.5 -11t10.5 -27q0 -15 -11 -25.5t-26 -10.5zM83 -175q-15 0 -26 10.5t-11 25.5t11 26t27 11q15 0 25.5 -11t10.5 -26t-11 -25.5
t-26 -10.5zM195 -175q-15 0 -26 10.5t-11 25.5t10.5 26t26.5 11q15 0 25.5 -11t10.5 -26t-10.5 -25.5t-25.5 -10.5z" />
    <glyph glyph-name="uni06AE.medi" unicode="&#x6ae;" horiz-adv-x="386" 
d="M0 -5l7 48h72q47 0 78 10t46 33.5t15 62.5q0 28 -14 60t-36.5 65.5t-47 65t-47 58t-36.5 45t-14 25.5q0 12 2.5 23t6.5 20.5t9 14.5q21 19 51 42t65.5 46.5t73 47t73.5 45.5l24 -41q-38 -23 -76.5 -47t-74.5 -48t-67 -46.5t-53 -42.5l1 10q25 -34 52 -66t53.5 -66.5
t51 -76t45.5 -93.5q21 -50 39.5 -82.5t41 -48.5t52.5 -16q14 0 21 -5.5t7 -17.5q0 -11 -7.5 -18t-27.5 -7q-33 0 -61 16.5t-50 49.5t-38 81l23 -10q-3 -41 -19.5 -68t-42 -42t-56.5 -21t-65 -6h-77zM127 -272q-15 0 -26 10.5t-11 25.5q0 16 11 27t27 11q15 0 25.5 -11
t10.5 -27q0 -15 -11 -25.5t-26 -10.5zM71 -175q-15 0 -26 10.5t-11 25.5t11 26t27 11q15 0 25.5 -11t10.5 -26t-11 -25.5t-26 -10.5zM183 -175q-15 0 -26 10.5t-11 25.5t10.5 26t26.5 11q15 0 25.5 -11t10.5 -26t-10.5 -25.5t-25.5 -10.5z" />
    <glyph glyph-name="uni06AE.fina" unicode="&#x6ae;" horiz-adv-x="739" 
d="M290 -21l16 49q88 0 144.5 8t88.5 26t45 47t11 70l-19 525h49l19 -517q2 -52 12.5 -83.5t32.5 -46t57 -14.5q14 0 21 -5.5t7 -16.5q0 -12 -8 -19t-27 -7q-34 0 -60 11.5t-41 34.5t-18 61l20 -1q-15 -36 -42 -59.5t-69 -37t-100.5 -19.5t-138.5 -6zM287 212l-12 39
q44 13 69 23.5t35 20t10 16.5q0 14 -12.5 24.5t-28 21.5t-27.5 25t-12 34q0 15 9 33t32.5 39.5t66.5 44.5l19 -36q-39 -20 -62.5 -41t-23.5 -38q0 -13 12 -24t27.5 -23t28 -27t12.5 -35q0 -12 -6.5 -24.5t-22.5 -24.5t-44 -24t-70 -24zM290 -21q-52 0 -98.5 10.5t-81.5 33
t-55 57.5t-20 85q0 24 4.5 51.5t11 54t12.5 49.5l45 -13q-5 -16 -10.5 -39t-9.5 -48t-4 -47q0 -47 23 -79.5t72.5 -49t126.5 -16.5l20 -28zM307 -293q-15 0 -26 10.5t-11 25.5q0 16 11 27t27 11q15 0 25.5 -11t10.5 -27q0 -15 -11 -25.5t-26 -10.5zM251 -196q-15 0 -26 10.5
t-11 25.5t11 26t27 11q15 0 25.5 -11t10.5 -26t-11 -25.5t-26 -10.5zM363 -196q-15 0 -26 10.5t-11 25.5t10.5 26t26.5 11q15 0 25.5 -11t10.5 -26t-10.5 -25.5t-25.5 -10.5z" />
    <glyph glyph-name="uni06B0.init" unicode="&#x6b0;" horiz-adv-x="323" 
d="M250 497q-30 0 -51 21.5t-21 51.5t21 51t51 21t51 -21t21 -51t-21 -51.5t-51 -21.5zM250 528q17 0 29.5 12.5t12.5 29.5t-12.5 29t-29.5 12t-29 -12t-12 -29t12 -29.5t29 -12.5zM21 595l-24 38q39 27 76.5 52.5t79.5 52t93 58.5l24 -39q-51 -31 -93.5 -58.5t-80 -52.5
t-75.5 -51zM0 -5l7 48h77q45 0 72 9.5t40.5 24.5t17 34t3.5 39q0 39 -21 83t-58 89t-59.5 71.5t-35 41.5t-17 21.5t-4.5 11.5q0 9 2.5 20t6 21t8.5 15q19 16 41.5 34.5t53 40.5t72 48.5t98.5 59.5l24 -40q-49 -29 -89.5 -54t-73.5 -48t-61 -44t-52 -42l3 18q33 -42 69 -84
t67.5 -85t52 -88t20.5 -95q0 -28 -8.5 -54.5t-29.5 -48.5t-57.5 -34.5t-91.5 -12.5h-77z" />
    <glyph glyph-name="uni06B0.medi" unicode="&#x6b0;" horiz-adv-x="386" 
d="M254 498q-30 0 -51 21t-21 51t21 51t51 21t51 -21t21 -51t-21 -51t-51 -21zM254 529q17 0 29.5 12t12.5 29t-12.5 29.5t-29.5 12.5t-29 -12.5t-12 -29.5t12 -29t29 -12zM19 595l-24 38q39 27 76.5 52.5t79.5 52t93 58.5l24 -39q-51 -31 -93.5 -58.5t-80 -52.5t-75.5 -51z
M0 -5l7 48h72q47 0 78 10t46 33.5t15 62.5q0 28 -14 60t-36.5 65.5t-47 65t-47 58t-36.5 45t-14 25.5q0 12 2.5 23t6.5 20.5t9 14.5q21 19 51 42t65.5 46.5t73 47t73.5 45.5l24 -41q-38 -23 -76.5 -47t-74.5 -48t-67 -46.5t-53 -42.5l1 10q25 -34 52 -66t53.5 -66.5t51 -76
t45.5 -93.5q21 -50 39.5 -82.5t41 -48.5t52.5 -16q14 0 21 -5.5t7 -17.5q0 -11 -7.5 -18t-27.5 -7q-33 0 -61 16.5t-50 49.5t-38 81l23 -10q-3 -41 -19.5 -68t-42 -42t-56.5 -21t-65 -6h-77z" />
    <glyph glyph-name="uni06B0.fina" unicode="&#x6b0;" horiz-adv-x="787" 
d="M650 492q-30 0 -50.5 21t-20.5 51t20.5 51t50.5 21t51.5 -21t21.5 -51t-21.5 -51t-51.5 -21zM650 523q17 0 29.5 12t12.5 29t-12.5 29.5t-29.5 12.5t-29 -12.5t-12 -29.5t12 -29t29 -12zM426 596l-24 38q39 28 76.5 53t79.5 52t93 58l24 -39q-51 -31 -93 -58t-80 -52.5
t-76 -51.5zM290 -21l16 49q76 0 135.5 6t101.5 20t63.5 36.5t21.5 55.5q0 28 -14 60.5t-37 66t-48 65t-48 58.5t-37 46t-14 27q0 10 1.5 20.5t5.5 20t10 15.5q29 26 72 57t92.5 63t99.5 62l24 -40q-57 -34 -108 -68t-93.5 -65t-73.5 -56l4 14q22 -29 52 -64.5t60.5 -76.5
t56.5 -83t41 -83q11 -27 23 -52t27 -45.5t35 -32.5t46 -12q14 0 21 -5.5t7 -17.5q0 -11 -7.5 -18t-26.5 -7q-35 0 -64 17.5t-51 50.5t-36 79l24 -10q-7 -46 -34.5 -76t-76 -46.5t-116.5 -23.5t-155 -7zM290 -21q-52 0 -98.5 10.5t-81.5 33t-55 57.5t-20 85q0 25 4.5 52
t11 53.5t12.5 49.5l45 -13q-5 -16 -10.5 -39t-9.5 -48t-4 -47q0 -47 23 -79.5t72.5 -49t126.5 -16.5l20 -28z" />
    <glyph glyph-name="uni06B2.init" unicode="&#x6b2;" horiz-adv-x="323" 
d="M21 595l-24 38q39 27 76.5 52.5t79.5 52t93 58.5l24 -39q-51 -31 -93.5 -58.5t-80 -52.5t-75.5 -51zM0 -5l7 48h77q45 0 72 9.5t40.5 24.5t17 34t3.5 39q0 39 -21 83t-58 89t-59.5 71.5t-35 41.5t-17 21.5t-4.5 11.5q0 9 2.5 20t6 21t8.5 15q19 16 41.5 34.5t53 40.5
t72 48.5t98.5 59.5l24 -40q-49 -29 -89.5 -54t-73.5 -48t-61 -44t-52 -42l3 18q33 -42 69 -84t67.5 -85t52 -88t20.5 -95q0 -28 -8.5 -54.5t-29.5 -48.5t-57.5 -34.5t-91.5 -12.5h-77zM197 -174q-15 0 -26 10.5t-11 25.5t10.5 26t26.5 11q15 0 25.5 -11t10.5 -26
t-10.5 -25.5t-25.5 -10.5zM85 -174q-15 0 -26 10.5t-11 25.5t10.5 26t26.5 11q15 0 25.5 -11t10.5 -26t-10.5 -25.5t-25.5 -10.5z" />
    <glyph glyph-name="uni06B2.medi" unicode="&#x6b2;" horiz-adv-x="386" 
d="M19 595l-24 38q39 27 76.5 52.5t79.5 52t93 58.5l24 -39q-51 -31 -93.5 -58.5t-80 -52.5t-75.5 -51zM0 -5l7 48h72q47 0 78 10t46 33.5t15 62.5q0 28 -14 60t-36.5 65.5t-47 65t-47 58t-36.5 45t-14 25.5q0 12 2.5 23t6.5 20.5t9 14.5q21 19 51 42t65.5 46.5t73 47
t73.5 45.5l24 -41q-38 -23 -76.5 -47t-74.5 -48t-67 -46.5t-53 -42.5l1 10q25 -34 52 -66t53.5 -66.5t51 -76t45.5 -93.5q21 -50 39.5 -82.5t41 -48.5t52.5 -16q14 0 21 -5.5t7 -17.5q0 -11 -7.5 -18t-27.5 -7q-33 0 -61 16.5t-50 49.5t-38 81l23 -10q-3 -41 -19.5 -68
t-42 -42t-56.5 -21t-65 -6h-77zM204 -174q-15 0 -26 10.5t-11 25.5t10.5 26t26.5 11q15 0 25.5 -11t10.5 -26t-10.5 -25.5t-25.5 -10.5zM92 -174q-15 0 -26 10.5t-11 25.5t10.5 26t26.5 11q15 0 25.5 -11t10.5 -26t-10.5 -25.5t-25.5 -10.5z" />
    <glyph glyph-name="uni06B2.fina" unicode="&#x6b2;" horiz-adv-x="787" 
d="M426 596l-24 38q39 28 76.5 53t79.5 52t93 58l24 -39q-51 -31 -93 -58t-80 -52.5t-76 -51.5zM290 -21l16 49q76 0 135.5 6t101.5 20t63.5 36.5t21.5 55.5q0 28 -14 60.5t-37 66t-48 65t-48 58.5t-37 46t-14 27q0 10 1.5 20.5t5.5 20t10 15.5q29 26 72 57t92.5 63t99.5 62
l24 -40q-57 -34 -108 -68t-93.5 -65t-73.5 -56l4 14q22 -29 52 -64.5t60.5 -76.5t56.5 -83t41 -83q11 -27 23 -52t27 -45.5t35 -32.5t46 -12q14 0 21 -5.5t7 -17.5q0 -11 -7.5 -18t-26.5 -7q-35 0 -64 17.5t-51 50.5t-36 79l24 -10q-7 -46 -34.5 -76t-76 -46.5t-116.5 -23.5
t-155 -7zM290 -21q-52 0 -98.5 10.5t-81.5 33t-55 57.5t-20 85q0 25 4.5 52t11 53.5t12.5 49.5l45 -13q-5 -16 -10.5 -39t-9.5 -48t-4 -47q0 -47 23 -79.5t72.5 -49t126.5 -16.5l20 -28zM396 -195q-15 0 -26 10.5t-11 25.5t10.5 26t26.5 11q15 0 25.5 -11t10.5 -26
t-10.5 -25.5t-25.5 -10.5zM284 -195q-15 0 -26 10.5t-11 25.5t10.5 26t26.5 11q15 0 25.5 -11t10.5 -26t-10.5 -25.5t-25.5 -10.5z" />
    <glyph glyph-name="uni06B4.init" unicode="&#x6b4;" horiz-adv-x="323" 
d="M54 873q-15 0 -25.5 10.5t-10.5 24.5t10.5 24.5t25.5 10.5q14 0 24 -10.5t10 -24.5t-10 -24.5t-24 -10.5zM44 748q-15 0 -25.5 10t-10.5 24q0 15 10.5 25t25.5 10q14 0 24 -10t10 -25q0 -14 -10 -24t-24 -10zM156 799q-15 0 -25.5 10.5t-10.5 24.5t10.5 24.5t25.5 10.5
q14 0 24 -10.5t10 -24.5t-10 -24.5t-24 -10.5zM21 595l-24 38q39 27 76.5 52.5t79.5 52t93 58.5l24 -39q-51 -31 -93.5 -58.5t-80 -52.5t-75.5 -51zM0 -5l7 48h77q45 0 72 9.5t40.5 24.5t17 34t3.5 39q0 39 -21 83t-58 89t-59.5 71.5t-35 41.5t-17 21.5t-4.5 11.5
q0 9 2.5 20t6 21t8.5 15q19 16 41.5 34.5t53 40.5t72 48.5t98.5 59.5l24 -40q-49 -29 -89.5 -54t-73.5 -48t-61 -44t-52 -42l3 18q33 -42 69 -84t67.5 -85t52 -88t20.5 -95q0 -28 -8.5 -54.5t-29.5 -48.5t-57.5 -34.5t-91.5 -12.5h-77z" />
    <glyph glyph-name="uni06B4.medi" unicode="&#x6b4;" horiz-adv-x="386" 
d="M54 873q-15 0 -25.5 10t-10.5 24q0 15 10.5 25t25.5 10q14 0 24 -10t10 -25q0 -14 -10 -24t-24 -10zM44 747q-15 0 -25.5 10.5t-10.5 24.5t10.5 24.5t25.5 10.5q14 0 24 -10.5t10 -24.5t-10 -24.5t-24 -10.5zM156 799q-15 0 -25.5 10t-10.5 24q0 15 10.5 25t25.5 10
q14 0 24 -10t10 -25q0 -14 -10 -24t-24 -10zM19 595l-24 38q39 27 76.5 52.5t79.5 52t93 58.5l24 -39q-51 -31 -93.5 -58.5t-80 -52.5t-75.5 -51zM0 -5l7 48h72q47 0 78 10t46 33.5t15 62.5q0 28 -14 60t-36.5 65.5t-47 65t-47 58t-36.5 45t-14 25.5q0 12 2.5 23t6.5 20.5
t9 14.5q21 19 51 42t65.5 46.5t73 47t73.5 45.5l24 -41q-38 -23 -76.5 -47t-74.5 -48t-67 -46.5t-53 -42.5l1 10q25 -34 52 -66t53.5 -66.5t51 -76t45.5 -93.5q21 -50 39.5 -82.5t41 -48.5t52.5 -16q14 0 21 -5.5t7 -17.5q0 -11 -7.5 -18t-27.5 -7q-33 0 -61 16.5t-50 49.5
t-38 81l23 -10q-3 -41 -19.5 -68t-42 -42t-56.5 -21t-65 -6h-77z" />
    <glyph glyph-name="uni06B4.fina" unicode="&#x6b4;" horiz-adv-x="787" 
d="M451 873q-15 0 -25.5 10.5t-10.5 24.5t10.5 24.5t25.5 10.5q14 0 24 -10.5t10 -24.5t-10 -24.5t-24 -10.5zM441 748q-15 0 -25.5 10t-10.5 24q0 15 10.5 25t25.5 10q14 0 24 -10t10 -25q0 -14 -10 -24t-24 -10zM553 799q-15 0 -25.5 10.5t-10.5 24.5t10.5 24.5t25.5 10.5
q14 0 24 -10.5t10 -24.5t-10 -24.5t-24 -10.5zM426 596l-24 38q39 28 76.5 53t79.5 52t93 58l24 -39q-51 -31 -93 -58t-80 -52.5t-76 -51.5zM290 -21l16 49q76 0 135.5 6t101.5 20t63.5 36.5t21.5 55.5q0 28 -14 60.5t-37 66t-48 65t-48 58.5t-37 46t-14 27q0 10 1.5 20.5
t5.5 20t10 15.5q29 26 72 57t92.5 63t99.5 62l24 -40q-57 -34 -108 -68t-93.5 -65t-73.5 -56l4 14q22 -29 52 -64.5t60.5 -76.5t56.5 -83t41 -83q11 -27 23 -52t27 -45.5t35 -32.5t46 -12q14 0 21 -5.5t7 -17.5q0 -11 -7.5 -18t-26.5 -7q-35 0 -64 17.5t-51 50.5t-36 79
l24 -10q-7 -46 -34.5 -76t-76 -46.5t-116.5 -23.5t-155 -7zM290 -21q-52 0 -98.5 10.5t-81.5 33t-55 57.5t-20 85q0 25 4.5 52t11 53.5t12.5 49.5l45 -13q-5 -16 -10.5 -39t-9.5 -48t-4 -47q0 -47 23 -79.5t72.5 -49t126.5 -16.5l20 -28z" />
    <glyph glyph-name="uni06B5.init" unicode="&#x6b5;" horiz-adv-x="193" 
d="M0 -5l7 48q39 0 57.5 14.5t23 46.5t2.5 86l-19 514h48l20 -508q2 -52 -2.5 -89.5t-19 -62.5t-43 -37t-74.5 -12zM79 833q-6 15 -15 40t-19 54t-19.5 54.5t-15.5 41.5l30 13q5 -9 13.5 -32t18.5 -51t18.5 -53t14.5 -39l12 -24zM117 837l-29 10q5 17 14.5 45.5t19.5 59
t18 54.5t11 31l31 -11q-4 -10 -12.5 -34.5t-18.5 -54.5t-19 -57.5t-15 -42.5z" />
    <glyph glyph-name="uni06B5.medi" unicode="&#x6b5;" horiz-adv-x="221" 
d="M0 -5l7 48q36 0 53.5 17.5t22.5 53.5t3 91l-17 499h49l17 -497q3 -64 13.5 -100t30.5 -50t49 -14q14 0 21 -5.5t7 -17.5q0 -11 -7.5 -18t-26.5 -7q-28 0 -51.5 13.5t-39 37t-19.5 52.5l18 -1q-8 -32 -25 -54.5t-42.5 -35t-62.5 -12.5zM75 833q-6 15 -15 40t-19 54
t-19.5 54.5t-15.5 41.5l30 13q5 -9 13.5 -32t18.5 -51t18.5 -53t14.5 -39l12 -24zM113 837l-29 10q5 17 14.5 45.5t19.5 59t18 54.5t11 31l31 -11q-4 -10 -12.5 -34.5t-18.5 -54.5t-19 -57.5t-15 -42.5z" />
    <glyph glyph-name="uni06B5.fina" unicode="&#x6b5;" horiz-adv-x="590" 
d="M44 -23q0 18 4 45.5t15 65t33 82.5l42 -21q-15 -32 -25 -61t-15 -55.5t-5 -52.5q0 -51 20 -87.5t55.5 -55.5t84.5 -19q72 0 113 35.5t57.5 111.5t11.5 198l-17 541h50l16 -517q2 -46 18.5 -78.5t42 -49t52.5 -16.5q14 0 21 -5.5t7 -17.5q0 -11 -7.5 -18t-26.5 -7
q-22 0 -42 8t-36 22.5t-26 33.5t-12 41l8 -21q-2 -65 -14.5 -121t-38.5 -98.5t-70 -66t-110 -23.5q-46 0 -84 13.5t-65 40t-42 65t-15 88.5zM223 586q-6 15 -15 40t-19 54t-19.5 54.5t-15.5 41.5l30 13q5 -9 13.5 -32t18.5 -51t18.5 -53t14.5 -39l12 -24zM261 590l-29 10
q5 17 14.5 45.5t19.5 59t18 54.5t11 31l31 -11q-4 -10 -12.5 -34.5t-18.5 -54.5t-19 -57.5t-15 -42.5z" />
    <glyph glyph-name="uni06B6.init" unicode="&#x6b6;" horiz-adv-x="193" 
d="M0 -5l7 48q39 0 57.5 14.5t23 46.5t2.5 86l-19 514h48l20 -508q2 -52 -2.5 -89.5t-19 -62.5t-43 -37t-74.5 -12zM95 823q-15 0 -26 10.5t-11 25.5q0 16 11 27t27 11q15 0 25.5 -11t10.5 -27q0 -15 -11 -25.5t-26 -10.5z" />
    <glyph glyph-name="uni06B6.medi" unicode="&#x6b6;" horiz-adv-x="221" 
d="M0 -5l7 48q36 0 53.5 17.5t22.5 53.5t3 91l-17 499h49l17 -497q3 -64 13.5 -100t30.5 -50t49 -14q14 0 21 -5.5t7 -17.5q0 -11 -7.5 -18t-26.5 -7q-28 0 -51.5 13.5t-39 37t-19.5 52.5l18 -1q-8 -32 -25 -54.5t-42.5 -35t-62.5 -12.5zM91 823q-15 0 -26 10.5t-11 25.5
q0 16 11 27t27 11q15 0 25.5 -11t10.5 -27q0 -15 -11 -25.5t-26 -10.5z" />
    <glyph glyph-name="uni06B6.fina" unicode="&#x6b6;" horiz-adv-x="590" 
d="M44 -23q0 18 4 45.5t15 65t33 82.5l42 -21q-15 -32 -25 -61t-15 -55.5t-5 -52.5q0 -51 20 -87.5t55.5 -55.5t84.5 -19q72 0 113 35.5t57.5 111.5t11.5 198l-17 541h50l16 -517q2 -46 18.5 -78.5t42 -49t52.5 -16.5q14 0 21 -5.5t7 -17.5q0 -11 -7.5 -18t-26.5 -7
q-22 0 -42 8t-36 22.5t-26 33.5t-12 41l8 -21q-2 -65 -14.5 -121t-38.5 -98.5t-70 -66t-110 -23.5q-46 0 -84 13.5t-65 40t-42 65t-15 88.5zM239 576q-15 0 -26 10.5t-11 25.5q0 16 11 27t27 11q15 0 25.5 -11t10.5 -27q0 -15 -11 -25.5t-26 -10.5z" />
    <glyph glyph-name="uni06B7.init" unicode="&#x6b7;" horiz-adv-x="193" 
d="M0 -5l7 48q39 0 57.5 14.5t23 46.5t2.5 86l-19 514h48l20 -508q2 -52 -2.5 -89.5t-19 -62.5t-43 -37t-74.5 -12zM97 920q-14 0 -25 10.5t-11 25.5q0 16 10.5 26.5t25.5 10.5q16 0 26.5 -10.5t10.5 -26.5q0 -15 -11 -25.5t-26 -10.5zM42 823q-15 0 -26 11t-11 25
q0 16 11 27t26 11t26 -11t11 -26q0 -16 -11 -26.5t-26 -10.5zM153 823q-14 0 -25 11t-11 25q0 16 10.5 27t25.5 11q16 0 26.5 -11t10.5 -26q0 -16 -11 -26.5t-26 -10.5z" />
    <glyph glyph-name="uni06B7.medi" unicode="&#x6b7;" horiz-adv-x="221" 
d="M0 -5l7 48q36 0 53.5 17.5t22.5 53.5t3 91l-17 499h49l17 -497q3 -64 13.5 -100t30.5 -50t49 -14q14 0 21 -5.5t7 -17.5q0 -11 -7.5 -18t-26.5 -7q-28 0 -51.5 13.5t-39 37t-19.5 52.5l18 -1q-8 -32 -25 -54.5t-42.5 -35t-62.5 -12.5zM93 920q-14 0 -25 10.5t-11 25.5
q0 16 10.5 26.5t25.5 10.5q16 0 26.5 -10.5t10.5 -26.5q0 -15 -11 -25.5t-26 -10.5zM38 823q-15 0 -26 11t-11 25q0 16 11 27t26 11t26 -11t11 -26q0 -16 -11 -26.5t-26 -10.5zM149 823q-14 0 -25 11t-11 25q0 16 10.5 27t25.5 11q16 0 26.5 -11t10.5 -26q0 -16 -11 -26.5
t-26 -10.5z" />
    </font>
</defs>
</svg>
