<?xml version="1.0" standalone="no"?>
<!DOCTYPE svg PUBLIC "-//W3C//DTD SVG 1.1//EN" "http://www.w3.org/Graphics/SVG/1.1/DTD/svg11.dtd" >
<svg xmlns="http://www.w3.org/2000/svg" xmlns:xlink="http://www.w3.org/1999/xlink" version="1.1">
<metadata>
Created by FontForge 20170731 at Thu Nov 12 05:28:44 2020
 By Aleksey,,,
Copyright 2015-2020 Google LLC. All Rights Reserved.
</metadata>
<defs>
<font id="NotoSansArabicExtraCondensed-Medium" horiz-adv-x="0" >
  <font-face 
    font-family="Noto Sans Arabic ExtraCondensed Medium"
    font-weight="500"
    font-stretch="extra-condensed"
    units-per-em="1000"
    panose-1="0 0 0 0 0 0 0 0 0 0"
    ascent="800"
    descent="-200"
    bbox="-220 -573 1964 1081"
    underline-thickness="50"
    underline-position="-175"
    unicode-range="U+000D-FEFC"
  />
<missing-glyph horiz-adv-x="600" 
d="M94 0v714h411v-714h-411zM145 51h309v612h-309v-612z" />
    <glyph glyph-name="uniFC43" unicode="&#xfedf;&#xfef0;" horiz-adv-x="871" arabic-form="isolated" 
d="M639 -5l9 90q34 0 50 12t20 42t2 82l-19 486h91l20 -483q2 -54 -3 -97t-23.5 -72.5t-54 -44.5t-92.5 -15zM43 -11q0 28 5 61.5t18 72t33 78.5l78 -35q-14 -32 -24 -59.5t-14.5 -52t-4.5 -47.5q0 -46 17 -75t44 -44.5t58.5 -22t61.5 -6.5q54 0 93.5 12.5t65 33t37.5 41.5
t12 37q0 10 -7.5 20.5t-24.5 21t-44.5 22t-68.5 23.5l24 85q57 -22 97 -35.5t67.5 -21t47 -10t35.5 -3.5q24 0 35.5 -11.5t11.5 -31.5t-12.5 -33.5t-43.5 -13.5h-9.5h-12h-9.5l2.5 -12.5t1.5 -16.5q0 -30 -19 -64.5t-57 -64t-95 -48.5t-133 -19q-91 0 -149.5 28t-87 77.5
t-29.5 113.5z" />
    <glyph glyph-name="uniFC86" unicode="&#xfee0;&#xfef0;" horiz-adv-x="884" arabic-form="final" 
d="M639 -5l10 90q29 0 42.5 12.5t18 42.5t2.5 82l-18 485h91l19 -483q2 -53 11 -83.5t28.5 -43t50.5 -12.5q24 0 35.5 -11.5t11.5 -31.5t-12.5 -33.5t-43.5 -13.5q-29 0 -56.5 11t-47 34t-23.5 58l32 -1q-12 -34 -33.5 -57t-50.5 -34t-67 -11zM43 -11q0 28 5 61.5t18 72
t33 78.5l78 -35q-14 -32 -24 -59.5t-14.5 -52t-4.5 -47.5q0 -46 17 -75t44 -44.5t58.5 -22t61.5 -6.5q54 0 93.5 12.5t65 33t37.5 41.5t12 37q0 10 -7.5 20.5t-24.5 21t-44.5 22t-68.5 23.5l24 85q57 -22 97 -35.5t67.5 -21t47 -10t35.5 -3.5q24 0 35.5 -11.5t11.5 -31.5
t-12.5 -33.5t-43.5 -13.5h-9.5h-12h-9.5l2.5 -12.5t1.5 -16.5q0 -30 -19 -64.5t-57 -64t-95 -48.5t-133 -19q-91 0 -149.5 28t-87 77.5t-29.5 113.5z" />
    <glyph glyph-name="uniFD82" unicode="&#xfee0;&#xfea4;&#xfef0;" horiz-adv-x="1363" arabic-form="final" 
d="M1118 -5l10 90q29 0 42.5 12.5t18 42.5t2.5 82l-18 485h91l19 -483q2 -53 11 -83.5t28.5 -43t50.5 -12.5q24 0 35.5 -11.5t11.5 -31.5t-12.5 -33.5t-43.5 -13.5q-29 0 -56.5 11t-47 34t-23.5 58l32 -1q-12 -34 -33.5 -57t-50.5 -34t-67 -11zM1118 -5q-29 0 -54 7t-46 23
t-36.5 45t-26.5 74l59 35q13 -38 27 -58.5t34.5 -28t52.5 -7.5q24 0 35.5 -11.5t11.5 -31.5t-13 -33.5t-44 -13.5zM639 -5l9 90q46 0 83.5 9t72 25t71 39t79.5 50q-35 22 -62 39.5t-54 28.5t-62 11q-16 0 -29 -1t-23.5 -3t-23.5 -6l-18 82q22 8 45 12.5t47 4.5
q46 0 80.5 -12.5t62 -30.5t50.5 -35.5t46 -30t50 -12.5h16l9 -85q-34 -2 -62.5 -15t-57 -33t-60 -42t-69.5 -41.5t-87 -31.5t-113 -12zM43 -11q0 28 5 61.5t18 72t33 78.5l78 -35q-14 -32 -24 -59.5t-14.5 -52t-4.5 -47.5q0 -46 17 -75t44 -44.5t58.5 -22t61.5 -6.5
q54 0 93.5 12.5t65 33t37.5 41.5t12 37q0 10 -7.5 20.5t-24.5 21t-44.5 22t-68.5 23.5l24 85q57 -22 97 -35.5t67.5 -21t47 -10t35.5 -3.5q24 0 35.5 -11.5t11.5 -31.5t-12.5 -33.5t-43.5 -13.5h-9.5h-12h-9.5l2.5 -12.5t1.5 -16.5q0 -30 -19 -64.5t-57 -64t-95 -48.5
t-133 -19q-91 0 -149.5 28t-87 77.5t-29.5 113.5z" />
    <glyph glyph-name="uniFDF2" unicode="&#x627;&#xfedf;&#xfee0;&#xfeea;" horiz-adv-x="1137" arabic-form="isolated" 
d="M427 -5q-38 0 -69.5 9.5t-53.5 32.5t-34 62q-43 -7 -86.5 -4.5t-80.5 18.5t-59.5 45.5t-22.5 74.5q0 54 29.5 98.5t80 78t114.5 50.5l-4 78h90l17 -340q2 -45 9.5 -70t26.5 -34t53 -9q28 0 41.5 12.5t17.5 42.5t2 82l-13 361h91l14 -359q2 -53 11 -83.5t28.5 -43
t50.5 -12.5q33 0 48.5 12t19.5 42t2 82l-19 486h91l20 -483q2 -54 -3.5 -97t-23 -72.5t-52.5 -44.5t-92 -15q-23 0 -45 7t-40 20.5t-30 34.5q-20 -31 -53 -46.5t-76 -15.5zM257 184l-9 180q-42 -9 -72.5 -29t-46.5 -43.5t-16 -46.5q0 -21 13.5 -35t35.5 -20.5t47.5 -7.5
t47.5 2zM982 0l-20 707h91l20 -707h-91zM441 645q-38 0 -49.5 25t-11.5 55q0 11 1 21.5t4 25.5l49 13q-3 -15 -4.5 -28.5t-1.5 -23.5q0 -18 5 -26t17 -8q14 0 22 14.5t9 56.5v28l45 16v-56q0 -13 5.5 -22t19.5 -9q15 0 20.5 9.5t5.5 25.5t-4 31.5t-10 31.5l44 13
q9 -18 15 -40t6 -40q0 -32 -17 -57.5t-54 -25.5q-26 0 -44.5 15.5t-18.5 39.5l21 -8q0 -34 -21.5 -55.5t-52.5 -21.5zM475 870l-5 157h56l5 -157h-56z" />
    <glyph glyph-name="uniFEF5" unicode="&#xfedf;&#xfe82;" horiz-adv-x="665" arabic-form="isolated" 
d="M342 536q0 25 -3 56.5t-7.5 62.5t-8.5 53l93 12q3 -20 7 -52.5t6 -65.5t2 -58q0 -45 -6.5 -88t-19.5 -83.5t-32 -79.5l-13 -27q-25 -46 -57 -88.5t-71 -81.5h75q35 0 53 7.5t24.5 20t6.5 26.5q0 27 -28.5 66.5t-78.5 88.5t-114.5 103.5t-134.5 110.5l53 73
q85 -69 150 -126t111.5 -103.5t75.5 -86t43 -73.5t14 -64q0 -25 -8 -49t-27 -44.5t-52 -33t-84 -12.5h-203v97q81 74 132.5 142.5t76.5 141t25 155.5zM185 655q-28 0 -50.5 9.5t-40.5 19t-34 9.5t-30 -8.5t-29 -23.5l-36 34q21 29 45 43.5t50 14.5q23 0 42.5 -9t39.5 -18
t42 -9q15 0 28 5t32 16l28 -42q-30 -27 -51.5 -34t-35.5 -7z" />
    <glyph glyph-name="uniFEF6" unicode="&#xfee0;&#xfe82;" horiz-adv-x="554" arabic-form="final" 
d="M554 -5q-46 0 -81.5 10t-59 31.5t-36 54.5t-14.5 79l-15 551h90l21 -509q2 -52 9 -79t28 -37.5t65 -10.5q26 0 37.5 -11.5t11.5 -27.5q0 -20 -14.5 -35.5t-41.5 -15.5zM141 -5q-29 0 -56.5 4.5t-38.5 6.5l13 97q64 -10 119 -4t96 34.5t64.5 85t23.5 146.5l44 -131
q-9 -60 -29.5 -102t-49.5 -69t-61.5 -42t-65 -20.5t-59.5 -5.5zM311 132q-16 30 -40.5 71t-59 90t-78.5 102.5t-98 108.5l66 68q63 -70 108 -126t76 -101.5t53 -81.5t39 -67zM185 655q-28 0 -50.5 9.5t-40.5 19t-34 9.5t-30 -8.5t-29 -23.5l-36 34q21 29 45 43.5t50 14.5
q23 0 42.5 -9t39.5 -18t42 -9q15 0 28 5t32 16l28 -42q-30 -27 -51.5 -34t-35.5 -7z" />
    <glyph glyph-name="uniFEF7" unicode="&#xfedf;&#xfe84;" horiz-adv-x="572" arabic-form="isolated" 
d="M342 536q0 25 -3 56.5t-7.5 62.5t-8.5 53l93 12q3 -20 7 -52.5t6 -65.5t2 -58q0 -45 -6.5 -88t-19.5 -83.5t-32 -79.5l-13 -27q-25 -46 -57 -88.5t-71 -81.5h75q35 0 53 7.5t24.5 20t6.5 26.5q0 27 -28.5 66.5t-78.5 88.5t-114.5 103.5t-134.5 110.5l53 73
q85 -69 150 -126t111.5 -103.5t75.5 -86t43 -73.5t14 -64q0 -25 -8 -49t-27 -44.5t-52 -33t-84 -12.5h-203v97q81 74 132.5 142.5t76.5 141t25 155.5zM30 655l-11 48q24 5 38.5 8.5t31.5 7.5l-7 -14q-22 8 -42 28t-20 50q0 26 12 43.5t32.5 27t43.5 9.5q9 0 20.5 -1.5
t21.5 -6.5l-7 -43q-8 2 -16.5 3.5t-16.5 1.5q-20 0 -29.5 -9.5t-9.5 -23.5q0 -17 11 -29.5t25.5 -19t23.5 -6.5l-36 -8q23 7 42.5 13t36.5 12l15 -46q-21 -7 -48.5 -15.5t-56 -16t-54.5 -13.5z" />
    <glyph glyph-name="uniFEF8" unicode="&#xfee0;&#xfe84;" horiz-adv-x="578" arabic-form="final" 
d="M554 -5q-46 0 -81.5 10t-59 31.5t-36 54.5t-14.5 79l-15 551h90l21 -509q2 -52 9 -79t28 -37.5t65 -10.5q26 0 37.5 -11.5t11.5 -27.5q0 -20 -14.5 -35.5t-41.5 -15.5zM141 -5q-29 0 -56.5 4.5t-38.5 6.5l13 97q64 -10 119 -4t96 34.5t64.5 85t23.5 146.5l44 -131
q-9 -60 -29.5 -102t-49.5 -69t-61.5 -42t-65 -20.5t-59.5 -5.5zM311 132q-16 30 -40.5 71t-59 90t-78.5 102.5t-98 108.5l66 68q63 -70 108 -126t76 -101.5t53 -81.5t39 -67zM46 655l-11 48q24 5 38.5 8.5t31.5 7.5l-7 -14q-22 8 -42 28t-20 50q0 26 12 43.5t32.5 27
t43.5 9.5q9 0 20.5 -1.5t21.5 -6.5l-7 -43q-8 2 -16.5 3.5t-16.5 1.5q-20 0 -29.5 -9.5t-9.5 -23.5q0 -17 11 -29.5t25.5 -19t23.5 -6.5l-36 -8q23 7 42.5 13t36.5 12l15 -46q-21 -7 -48.5 -15.5t-56 -16t-54.5 -13.5z" />
    <glyph glyph-name="uniFEF9" unicode="&#xfedf;&#xfe88;" horiz-adv-x="545" arabic-form="isolated" 
d="M342 536q0 25 -3 56.5t-7.5 62.5t-8.5 53l93 12q3 -20 7 -52.5t6 -65.5t2 -58q0 -45 -6.5 -88t-19.5 -83.5t-32 -79.5l-13 -27q-25 -46 -57 -88.5t-71 -81.5h75q35 0 53 7.5t24.5 20t6.5 26.5q0 27 -28.5 66.5t-78.5 88.5t-114.5 103.5t-134.5 110.5l53 73
q85 -69 150 -126t111.5 -103.5t75.5 -86t43 -73.5t14 -64q0 -25 -8 -49t-27 -44.5t-52 -33t-84 -12.5h-203v97q81 74 132.5 142.5t76.5 141t25 155.5zM95 -293l-11 48q24 5 38.5 8.5t31.5 7.5l-7 -14q-22 8 -42 28t-20 50q0 26 12 43.5t32.5 27t43.5 9.5q9 0 20.5 -1.5
t21.5 -6.5l-7 -43q-8 2 -16.5 3.5t-16.5 1.5q-20 0 -29.5 -9.5t-9.5 -23.5q0 -17 11 -29.5t25.5 -19t23.5 -6.5l-36 -8q23 7 42.5 13t36.5 12l15 -46q-21 -7 -48.5 -15.5t-56 -16t-54.5 -13.5z" />
    <glyph glyph-name="uniFEFA" unicode="&#xfee0;&#xfe88;" horiz-adv-x="554" arabic-form="final" 
d="M554 -5q-46 0 -81.5 10t-59 31.5t-36 54.5t-14.5 79l-15 551h90l21 -509q2 -52 9 -79t28 -37.5t65 -10.5q26 0 37.5 -11.5t11.5 -27.5q0 -20 -14.5 -35.5t-41.5 -15.5zM141 -5q-29 0 -56.5 4.5t-38.5 6.5l13 97q64 -10 119 -4t96 34.5t64.5 85t23.5 146.5l44 -131
q-9 -60 -29.5 -102t-49.5 -69t-61.5 -42t-65 -20.5t-59.5 -5.5zM311 132q-16 30 -40.5 71t-59 90t-78.5 102.5t-98 108.5l66 68q63 -70 108 -126t76 -101.5t53 -81.5t39 -67zM95 -293l-11 48q24 5 38.5 8.5t31.5 7.5l-7 -14q-22 8 -42 28t-20 50q0 26 12 43.5t32.5 27
t43.5 9.5q9 0 20.5 -1.5t21.5 -6.5l-7 -43q-8 2 -16.5 3.5t-16.5 1.5q-20 0 -29.5 -9.5t-9.5 -23.5q0 -17 11 -29.5t25.5 -19t23.5 -6.5l-36 -8q23 7 42.5 13t36.5 12l15 -46q-21 -7 -48.5 -15.5t-56 -16t-54.5 -13.5z" />
    <glyph glyph-name="uniFEFB" unicode="&#xfedf;&#xfe8e;" horiz-adv-x="545" arabic-form="isolated" 
d="M342 536q0 25 -3 56.5t-7.5 62.5t-8.5 53l93 12q3 -20 7 -52.5t6 -65.5t2 -58q0 -45 -6.5 -88t-19.5 -83.5t-32 -79.5l-13 -27q-25 -46 -57 -88.5t-71 -81.5h75q35 0 53 7.5t24.5 20t6.5 26.5q0 27 -28.5 66.5t-78.5 88.5t-114.5 103.5t-134.5 110.5l53 73
q85 -69 150 -126t111.5 -103.5t75.5 -86t43 -73.5t14 -64q0 -25 -8 -49t-27 -44.5t-52 -33t-84 -12.5h-203v97q81 74 132.5 142.5t76.5 141t25 155.5z" />
    <glyph glyph-name="uniFEFC" unicode="&#xfee0;&#xfe8e;" horiz-adv-x="554" arabic-form="final" 
d="M554 -5q-46 0 -81.5 10t-59 31.5t-36 54.5t-14.5 79l-15 551h90l21 -509q2 -52 9 -79t28 -37.5t65 -10.5q26 0 37.5 -11.5t11.5 -27.5q0 -20 -14.5 -35.5t-41.5 -15.5zM141 -5q-29 0 -56.5 4.5t-38.5 6.5l13 97q64 -10 119 -4t96 34.5t64.5 85t23.5 146.5l44 -131
q-9 -60 -29.5 -102t-49.5 -69t-61.5 -42t-65 -20.5t-59.5 -5.5zM311 132q-16 30 -40.5 71t-59 90t-78.5 102.5t-98 108.5l66 68q63 -70 108 -126t76 -101.5t53 -81.5t39 -67z" />
    <glyph glyph-name="lam_alefMaksura_meemar" unicode="&#xfedf;&#xfbe9;&#xfee2;" horiz-adv-x="963" 
d="M731 -5l9 90q34 0 50 12t20 42t2 82l-19 486h91l20 -483q2 -54 -3 -97t-23.5 -72.5t-54 -44.5t-92.5 -15zM496 -5l10 90q23 0 42 8t31 27.5t12 55.5q0 27 -7.5 63.5t-20 77t-26.5 77.5l88 31q12 -34 24 -76.5t20 -87t8 -84.5q0 -38 -9.5 -68t-27 -51.5t-40 -35.5
t-49 -20.5t-55.5 -6.5zM76 -392q-21 80 -35.5 153t-22 129.5t-7.5 85.5q0 80 19.5 144t50.5 112.5t67.5 81.5t72 49.5t62.5 16.5t45.5 -13.5t35.5 -46.5t39 -92q21 -54 37.5 -85.5t32 -44.5t34.5 -13q23 0 34.5 -11.5t11.5 -31.5t-12.5 -33.5t-43.5 -13.5q-32 0 -62.5 21
t-48.5 52l31 7q-6 -28 -21.5 -47.5t-38 -29t-49.5 -9.5q-19 0 -43.5 5.5t-51 21t-53.5 46t-53 80.5l20 -2q-17 -41 -24 -81.5t-7 -80.5q0 -29 6 -71.5t15.5 -91t20.5 -96t22 -87.5zM310 74q15 0 26 6.5t14.5 20t-4.5 34.5q-17 46 -29 75.5t-19.5 46.5t-14.5 24t-15 7
q-9 0 -24.5 -8.5t-31.5 -22t-30.5 -30.5t-23.5 -34l-3 22q24 -47 51 -78t54.5 -47t49.5 -16z" />
    <glyph glyph-name="lam_alefWaslaar" unicode="&#xfedf;&#xfb51;" horiz-adv-x="494" 
d="M127 675q-19 0 -44.5 1.5t-48.5 4t-34 4.5l5 49q13 -1 34.5 -4t45 -4.5t42.5 -1.5q47 0 62 10.5t15 25.5q0 16 -9.5 23t-22.5 7t-26 -8.5t-25.5 -24.5t-23.5 -39l-53 1q12 27 29.5 55t43 47t58.5 19q30 0 54 -18.5t24 -58.5q0 -22 -10.5 -42t-38 -33t-77.5 -13zM342 536
q0 25 -3 56.5t-7.5 62.5t-8.5 53l93 12q3 -20 7 -52.5t6 -65.5t2 -58q0 -45 -6.5 -88t-19.5 -83.5t-32 -79.5l-13 -27q-25 -46 -57 -88.5t-71 -81.5h75q35 0 53 7.5t24.5 20t6.5 26.5q0 26 -28.5 66t-78.5 89t-114.5 103.5t-134.5 110.5l53 73q85 -69 150 -126t111.5 -103.5
t75.5 -86t43 -73.5t14 -64q0 -25 -8 -49t-27 -44.5t-52 -33t-84 -12.5h-203v97q81 74 132.5 142.5t76.5 141t25 155.5z" />
    <glyph glyph-name="lam_alefWaslaar.fina" unicode="&#xfee0;&#xfb51;" horiz-adv-x="622" 
d="M127 675q-19 0 -44.5 1.5t-48.5 4t-34 4.5l5 49q13 -2 34.5 -4.5t45 -4t42.5 -1.5q47 0 62 10.5t15 25.5q0 16 -9.5 23t-22.5 7t-26 -8.5t-25.5 -24.5t-23.5 -39l-53 1q12 27 29.5 55t43 47t58.5 19q30 0 54 -18.5t24 -58.5q0 -22 -10.5 -42t-38 -33t-77.5 -13zM554 -5
q-46 0 -81.5 10t-59 31.5t-36 54.5t-14.5 79l-15 551h90l21 -509q2 -52 9 -79t28 -37.5t65 -10.5q26 0 37.5 -11.5t11.5 -27.5q0 -20 -14.5 -35.5t-41.5 -15.5zM141 -5q-29 0 -56.5 4.5t-38.5 6.5l13 97q64 -10 119 -4t96 34.5t64.5 85t23.5 146.5l44 -131
q-9 -60 -29.5 -102t-49.5 -69t-61.5 -42t-65 -20.5t-59.5 -5.5zM311 132q-16 30 -40.5 71t-59 90t-78.5 102.5t-98 108.5l66 68q63 -70 108 -126t76 -101.5t53 -81.5t39 -67z" />
    <glyph glyph-name="uni0620.init" unicode="&#x620;" horiz-adv-x="274" 
d="M0 -5l10 90q44 0 72 6.5t41.5 26.5t13.5 58q0 27 -7.5 63.5t-20 76.5t-26.5 78l87 31q13 -33 25 -75.5t20 -85t8 -76.5q0 -55 -15.5 -92.5t-44.5 -59.5t-70.5 -31.5t-92.5 -9.5zM144 -90q-32 0 -54 22.5t-22 53.5q0 32 22 54.5t54 22.5t54.5 -22.5t22.5 -54.5t-22.5 -54
t-54.5 -22zM144 -45q14 0 23.5 9t9.5 22q0 14 -9.5 23t-23.5 9t-23 -9t-9 -23q0 -13 9.5 -22t22.5 -9z" />
    <glyph glyph-name="uni0620.medi" unicode="&#x620;" horiz-adv-x="337" 
d="M0 -5l10 90q38 0 60 8.5t35 31t22 65t21 110.5l86 -16q-3 -18 -7.5 -39t-8 -42.5t-3.5 -38.5q0 -16 5.5 -30.5t19.5 -25.5t40 -17t67 -6q24 0 35.5 -11.5t11.5 -31.5t-13 -33.5t-44 -13.5q-47 0 -80 7.5t-53.5 22t-31 36.5t-13.5 50l32 -2q-16 -37 -36 -59.5t-43.5 -34.5
t-51.5 -16t-60 -4zM103 -100q-32 0 -54 22.5t-22 53.5q0 32 22 54.5t54 22.5t54.5 -22.5t22.5 -54.5t-22.5 -54t-54.5 -22zM103 -55q14 0 23.5 9t9.5 22q0 14 -9.5 23t-23.5 9q-13 0 -22.5 -9t-9.5 -23q0 -13 9.5 -22t22.5 -9z" />
    <glyph glyph-name="uni0620.fina" unicode="&#x620;" horiz-adv-x="639" 
d="M296 -339q-32 0 -54 22.5t-22 54.5t22 54.5t54 22.5t54 -22.5t22 -54.5t-22 -54.5t-54 -22.5zM296 -293q14 0 23.5 9t9.5 22q0 14 -9.5 23t-23.5 9t-23 -9t-9 -23q0 -13 9 -22t23 -9zM43 -11q0 28 5 61.5t18 72t33 78.5l78 -35q-14 -32 -24 -59.5t-14.5 -52t-4.5 -47.5
q0 -46 17 -75t44 -44.5t58.5 -22t61.5 -6.5q54 0 93.5 12.5t65 33t37.5 41.5t12 37q0 10 -7.5 20.5t-24.5 21t-44.5 22t-68.5 23.5l24 85q57 -22 97 -35.5t67.5 -21t47 -10t35.5 -3.5q24 0 35.5 -11.5t11.5 -31.5t-12.5 -33.5t-43.5 -13.5h-9.5h-12h-9.5l2.5 -12.5
t1.5 -16.5q0 -30 -19 -64.5t-57 -64t-95 -48.5t-133 -19q-91 0 -149.5 28t-87 77.5t-29.5 113.5z" />
    <glyph glyph-name="uni063B.init" unicode="&#x63b;" horiz-adv-x="341" 
d="M204 701q-20 0 -34.5 14t-14.5 34t14.5 34.5t34.5 14.5t34 -14.5t14 -34.5t-14 -34t-34 -14zM86 645q-21 0 -35.5 14t-14.5 34t14.5 34.5t35.5 14.5q19 0 33 -14.5t14 -34.5t-14 -34t-33 -14zM0 -5l10 90h77q32 0 52.5 6.5t31.5 17.5t15 25.5t4 30.5q0 36 -21.5 75
t-52.5 73q-28 32 -47.5 53.5t-31 35.5t-17 22t-5.5 15q0 12 2.5 29.5t6.5 33.5t10 22q10 11 28.5 27t49 37.5t77.5 50t115 65.5l43 -74q-55 -31 -97 -55t-73.5 -43.5t-56.5 -38t-47 -37.5l7 37q32 -40 67 -79.5t65.5 -80t49.5 -84.5t19 -93q0 -28 -9.5 -56t-33 -52.5
t-63.5 -38.5t-99 -14h-76z" />
    <glyph glyph-name="uni063B.medi" unicode="&#x63b;" horiz-adv-x="393" 
d="M209 700q-21 0 -35.5 14t-14.5 34t14.5 34.5t35.5 14.5q19 0 33 -14.5t14 -34.5t-14 -34t-33 -14zM90 644q-21 0 -35 14t-14 34t14 34.5t35 14.5q19 0 33 -14.5t14 -34.5t-14 -34t-33 -14zM0 -5l9 90h68q38 0 63 7.5t37.5 25t12.5 47.5q0 20 -13 45.5t-32.5 54t-42 56
t-42 52t-32.5 42t-13 23.5q0 15 2.5 33t7 34t11.5 22q17 17 46.5 39t66.5 46t76.5 47.5t78.5 44.5l43 -75q-40 -22 -78.5 -44t-73 -43.5t-63.5 -41.5t-51 -39l-2 27q27 -33 51.5 -62.5t48 -61t47.5 -70t50 -89.5q25 -47 42.5 -73.5t37 -36.5t47.5 -10q24 0 35 -11.5
t11 -31.5t-12.5 -33.5t-43.5 -13.5q-37 0 -66 13t-51.5 42t-41.5 75l35 -5q-7 -37 -25.5 -61.5t-45 -38.5t-59 -19.5t-67.5 -5.5h-72z" />
    <glyph glyph-name="uni063B.fina" unicode="&#x63b;" horiz-adv-x="826" 
d="M627 701q-21 0 -35.5 14t-14.5 34t14.5 34.5t35.5 14.5q19 0 33 -14.5t14 -34.5t-14 -34t-33 -14zM508 645q-21 0 -35 14t-14 34t14 34.5t35 14.5q20 0 34 -14.5t14 -34.5t-14 -34t-34 -14zM310 -21l25 90q72 0 125.5 5t89.5 16t54 28.5t18 43.5q0 21 -12.5 48
t-32.5 55.5t-42 55.5t-42 51t-32.5 42t-12.5 25q0 13 2 30t6.5 32.5t11.5 23.5q25 26 69 56.5t97 62.5t103 60l43 -74q-61 -35 -110.5 -64.5t-89 -56.5t-72.5 -54l3 34q23 -26 50.5 -59t55 -72t52.5 -79t43 -80q17 -35 31 -57.5t28 -35t29.5 -17t35.5 -4.5q24 0 35 -11.5
t11 -31.5t-12 -33.5t-43 -13.5q-38 0 -68.5 15t-53 44t-36.5 71l33 -2q-12 -46 -42 -74t-78 -43.5t-115.5 -21t-156.5 -5.5zM310 -21q-59 0 -110 11t-89 34.5t-59 60.5t-21 91q0 27 5 57t13 59.5t15 54.5l81 -23q-5 -15 -10.5 -37.5t-9.5 -46.5t-4 -45q0 -37 18 -65.5
t65 -44.5t131 -16l20 -58z" />
    <glyph glyph-name="uni063C.init" unicode="&#x63c;" horiz-adv-x="341" 
d="M0 -5l10 90h77q32 0 52.5 6.5t31.5 17.5t15 25.5t4 30.5q0 36 -21.5 75t-52.5 73q-28 32 -47.5 53.5t-31 35.5t-17 22t-5.5 15q0 12 2.5 29.5t6.5 33.5t10 22q10 11 28.5 27t49 37.5t77.5 50t115 65.5l43 -74q-55 -31 -97 -55t-73.5 -43.5t-56.5 -38t-47 -37.5l7 37
q32 -40 67 -79.5t65.5 -80t49.5 -84.5t19 -93q0 -28 -9.5 -56t-33 -52.5t-63.5 -38.5t-99 -14h-76zM150 -312q-21 0 -36.5 15t-15.5 35q0 22 15.5 37t36.5 15t35.5 -15t14.5 -36t-14.5 -36t-35.5 -15zM81 -192q-21 0 -36 14.5t-15 35.5t15 36.5t37 15.5q20 0 35 -15.5
t15 -36.5t-15 -35.5t-36 -14.5zM220 -192q-22 0 -37 14.5t-15 35.5t15 36.5t37 15.5q21 0 35.5 -15.5t14.5 -36.5t-15 -35.5t-35 -14.5z" />
    <glyph glyph-name="uni063C.medi" unicode="&#x63c;" horiz-adv-x="393" 
d="M0 -5l9 90h68q38 0 63 7.5t37.5 25t12.5 47.5q0 20 -13 45.5t-32.5 54t-42 56t-42 52t-32.5 42t-13 23.5q0 15 2.5 33t7 34t11.5 22q17 17 46.5 39t66.5 46t76.5 47.5t78.5 44.5l43 -75q-40 -22 -78.5 -44t-73 -43.5t-63.5 -41.5t-51 -39l-2 27q27 -33 51.5 -62.5t48 -61
t47.5 -70t50 -89.5q25 -47 42.5 -73.5t37 -36.5t47.5 -10q24 0 35 -11.5t11 -31.5t-12.5 -33.5t-43.5 -13.5q-37 0 -66 13t-51.5 42t-41.5 75l35 -5q-7 -37 -25.5 -61.5t-45 -38.5t-59 -19.5t-67.5 -5.5h-72zM153 -312q-21 0 -36.5 15t-15.5 35q0 22 15.5 37t36.5 15
t35.5 -15t14.5 -36t-14.5 -36t-35.5 -15zM84 -192q-21 0 -36 14.5t-15 35.5t15 36.5t37 15.5q20 0 35 -15.5t15 -36.5t-15 -35.5t-36 -14.5zM223 -192q-22 0 -37 14.5t-15 35.5t15 36.5t37 15.5q21 0 35.5 -15.5t14.5 -36.5t-15 -35.5t-35 -14.5z" />
    <glyph glyph-name="uni063C.fina" unicode="&#x63c;" horiz-adv-x="826" 
d="M310 -21l25 90q72 0 125.5 5t89.5 16t54 28.5t18 43.5q0 21 -12.5 48t-32.5 55.5t-42 55.5t-42 51t-32.5 42t-12.5 25q0 13 2 30t6.5 32.5t11.5 23.5q25 26 69 56.5t97 62.5t103 60l43 -74q-61 -35 -110.5 -64.5t-89 -56.5t-72.5 -54l3 34q23 -26 50.5 -59t55 -72
t52.5 -79t43 -80q17 -35 31 -57.5t28 -35t29.5 -17t35.5 -4.5q24 0 35 -11.5t11 -31.5t-12 -33.5t-43 -13.5q-38 0 -68.5 15t-53 44t-36.5 71l33 -2q-12 -46 -42 -74t-78 -43.5t-115.5 -21t-156.5 -5.5zM310 -21q-59 0 -110 11t-89 34.5t-59 60.5t-21 91q0 27 5 57t13 59.5
t15 54.5l81 -23q-5 -15 -10.5 -37.5t-9.5 -46.5t-4 -45q0 -37 18 -65.5t65 -44.5t131 -16l20 -58zM350 -333q-21 0 -36.5 15t-15.5 35q0 22 15.5 37t36.5 15t35.5 -15t14.5 -36t-14.5 -36t-35.5 -15zM281 -213q-21 0 -36 14.5t-15 35.5t15 36.5t37 15.5q20 0 35 -15.5
t15 -36.5t-15 -35.5t-36 -14.5zM420 -213q-22 0 -37 14.5t-15 35.5t15 36.5t37 15.5q21 0 35.5 -15.5t14.5 -36.5t-15 -35.5t-35 -14.5z" />
    <glyph glyph-name="uni063D.init" unicode="&#x63d;" horiz-adv-x="234" 
d="M0 -5l10 90q23 0 42 8t31 27.5t12 55.5q0 27 -7.5 63.5t-20 77t-26.5 77.5l88 31q12 -34 24 -76.5t20 -87t8 -84.5q0 -38 -9.5 -68t-27 -51.5t-40 -35.5t-49 -20.5t-55.5 -6.5zM109 737q6 -13 16 -38.5t20.5 -54t20.5 -54t17 -40.5l-44 -20q-5 9 -13.5 30.5t-19 47.5
t-20 49.5t-15.5 36.5l-19 38zM52 732l42 -17q-5 -16 -15.5 -43.5t-21.5 -57.5t-20 -53t-12 -30l-44 16q4 9 13.5 33t20.5 54t21.5 56.5t15.5 41.5zM179 -199q-22 0 -37 15t-15 36q0 22 15 37.5t37 15.5t37 -15.5t15 -36.5q0 -22 -15.5 -37t-36.5 -15zM40 -199q-22 0 -37 15
t-15 36q0 22 15 37.5t37 15.5t37 -15.5t15 -36.5q0 -22 -15.5 -37t-36.5 -15z" />
    <glyph glyph-name="uni063D.medi" unicode="&#x63d;" horiz-adv-x="274" 
d="M0 -5l10 90q25 0 41.5 7.5t28 29.5t21 64.5t20.5 112.5l86 -15q-3 -18 -7.5 -39.5t-8 -42.5t-3.5 -38q0 -21 9 -39.5t29.5 -29t57.5 -10.5q24 0 35 -11.5t11 -31.5t-12.5 -33.5t-43.5 -13.5q-44 0 -74 12.5t-47.5 38.5t-23.5 64l35 -1q-14 -42 -35.5 -65t-44.5 -33.5
t-45 -13t-39 -2.5zM167 617q6 -13 16 -38.5t20.5 -54t20.5 -54t17 -40.5l-44 -20q-5 9 -13.5 30.5t-19 47.5t-20 49.5t-15.5 36.5l-19 38zM110 612l42 -17q-5 -16 -15.5 -43.5t-21.5 -57.5t-20 -53t-12 -30l-44 16q4 9 13.5 33t20.5 54t21.5 56.5t15.5 41.5zM198 -199
q-22 0 -37 15t-15 36q0 22 15 37.5t37 15.5t37 -15.5t15 -36.5q0 -22 -15.5 -37t-36.5 -15zM59 -199q-22 0 -37 15t-15 36q0 22 15 37.5t37 15.5t37 -15.5t15 -36.5q0 -22 -15.5 -37t-36.5 -15z" />
    <glyph glyph-name="uni063D.fina" unicode="&#x63d;" horiz-adv-x="639" 
d="M43 -11q0 28 5 61.5t18 72t33 78.5l78 -35q-14 -32 -24 -59.5t-14.5 -52t-4.5 -47.5q0 -46 17 -75t44 -44.5t58.5 -22t61.5 -6.5q54 0 93.5 12.5t65 33t37.5 41.5t12 37q0 10 -7.5 20.5t-24.5 21t-44.5 22t-68.5 23.5l24 85q57 -22 97 -35.5t67.5 -21t47 -10t35.5 -3.5
q24 0 35.5 -11.5t11.5 -31.5t-12.5 -33.5t-43.5 -13.5h-9.5h-12h-9.5l2.5 -12.5t1.5 -16.5q0 -30 -19 -64.5t-57 -64t-95 -48.5t-133 -19q-91 0 -149.5 28t-87 77.5t-29.5 113.5zM239 498q6 -13 16 -38.5t20.5 -54t20.5 -54t17 -40.5l-44 -20q-5 9 -13.5 30.5t-19 47.5
t-20 49.5t-15.5 36.5l-19 38zM182 493l42 -17q-5 -16 -15.5 -43.5t-21.5 -57.5t-20 -53t-12 -30l-44 16q4 9 13.5 33t20.5 54t21.5 56.5t15.5 41.5z" />
    <glyph glyph-name="uni063E.init" unicode="&#x63e;" horiz-adv-x="274" 
d="M0 -5l10 90q44 0 72 6.5t41.5 26.5t13.5 58q0 27 -7.5 63.5t-20 76.5t-26.5 78l87 31q13 -33 25 -75.5t20 -84.5t8 -77q0 -55 -15.5 -92.5t-44.5 -59.5t-70.5 -31.5t-92.5 -9.5zM201 533q-22 0 -37.5 15t-15.5 36q0 22 15.5 37.5t37.5 15.5q21 0 36 -15.5t15 -37.5
q0 -21 -15 -36t-36 -15zM62 533q-22 0 -37.5 15t-15.5 36q0 22 15 37.5t38 15.5q21 0 36 -15.5t15 -37.5q0 -21 -15 -36t-36 -15zM175 -199q-23 0 -38 15t-15 36q0 22 15 37.5t38 15.5q21 0 36 -15.5t15 -36.5q0 -22 -15 -37t-36 -15zM36 -199q-23 0 -38 15t-15 36
q0 22 15 37.5t38 15.5q21 0 36 -15.5t15 -36.5q0 -22 -15.5 -37t-35.5 -15z" />
    <glyph glyph-name="uni063E.medi" unicode="&#x63e;" horiz-adv-x="337" 
d="M0 -5l10 90q38 0 60 8.5t35 31t22 65t21 110.5l86 -16q-3 -18 -7.5 -39t-8 -42.5t-3.5 -38.5q0 -16 5.5 -30.5t19.5 -25.5t40 -17t67 -6q24 0 35.5 -11.5t11.5 -31.5t-13 -33.5t-44 -13.5q-47 0 -80 7.5t-53.5 22t-31 36.5t-13.5 50l32 -2q-16 -37 -36 -59.5t-43.5 -34.5
t-51.5 -16t-60 -4zM256 468q-23 0 -38 15.5t-15 36.5t15 37t38 16q21 0 36 -16t15 -37q0 -22 -15.5 -37t-35.5 -15zM117 468q-23 0 -38 15.5t-15 36.5t15 37t38 16q21 0 36 -16t15 -37q0 -22 -15.5 -37t-35.5 -15zM230 -199q-22 0 -37.5 15t-15.5 36q0 22 15.5 37.5
t37.5 15.5q21 0 36 -15.5t15 -36.5q0 -22 -15 -37t-36 -15zM91 -199q-22 0 -37.5 15t-15.5 36q0 22 15.5 37.5t37.5 15.5q21 0 36 -15.5t15 -36.5q0 -22 -15 -37t-36 -15z" />
    <glyph glyph-name="uni063E.fina" unicode="&#x63e;" horiz-adv-x="639" 
d="M43 -11q0 28 5 61.5t18 72t33 78.5l78 -35q-14 -32 -24 -59.5t-14.5 -52t-4.5 -47.5q0 -46 17 -75t44 -44.5t58.5 -22t61.5 -6.5q54 0 93.5 12.5t65 33t37.5 41.5t12 37q0 10 -7.5 20.5t-24.5 21t-44.5 22t-68.5 23.5l24 85q57 -22 97 -35.5t67.5 -21t47 -10t35.5 -3.5
q24 0 35.5 -11.5t11.5 -31.5t-12.5 -33.5t-43.5 -13.5h-9.5h-12h-9.5l2.5 -12.5t1.5 -16.5q0 -30 -19 -64.5t-57 -64t-95 -48.5t-133 -19q-91 0 -149.5 28t-87 77.5t-29.5 113.5zM298 316q-22 0 -37.5 15t-15.5 36q0 22 15 38t38 16q21 0 36 -16t15 -37q0 -22 -15 -37
t-36 -15zM159 316q-23 0 -38 15t-15 36q0 22 15 38t38 16q21 0 36 -16t15 -37q0 -22 -15 -37t-36 -15z" />
    <glyph glyph-name="uni063F.init" unicode="&#x63f;" horiz-adv-x="274" 
d="M0 -5l10 90q44 0 72 6.5t41.5 26.5t13.5 58q0 27 -7.5 63.5t-20 76.5t-26.5 78l87 31q13 -33 25 -75.5t20 -84.5t8 -77q0 -55 -15.5 -92.5t-44.5 -59.5t-70.5 -31.5t-92.5 -9.5zM134 644q-22 0 -37.5 15t-15.5 36q0 22 15 37.5t38 15.5q21 0 36 -15.5t15 -36.5
q0 -22 -15 -37t-36 -15zM66 524q-22 0 -37.5 15t-15.5 36q0 22 15.5 37.5t37.5 15.5q21 0 36 -15.5t15 -37.5q0 -21 -15 -36t-36 -15zM205 524q-22 0 -37.5 15t-15.5 36q0 22 15 37.5t38 15.5q21 0 36 -15.5t15 -37.5q0 -21 -15 -36t-36 -15zM175 -199q-23 0 -38 15t-15 36
q0 22 15 37.5t38 15.5q21 0 36 -15.5t15 -36.5q0 -22 -15 -37t-36 -15zM36 -199q-23 0 -38 15t-15 36q0 22 15 37.5t38 15.5q21 0 36 -15.5t15 -36.5q0 -22 -15.5 -37t-35.5 -15z" />
    <glyph glyph-name="uni063F.medi" unicode="&#x63f;" horiz-adv-x="337" 
d="M0 -5l10 90q38 0 60 8.5t35 31t22 65t21 110.5l86 -16q-3 -18 -7.5 -39t-8 -42.5t-3.5 -38.5q0 -16 5.5 -30.5t19.5 -25.5t40 -17t67 -6q24 0 35.5 -11.5t11.5 -31.5t-13 -33.5t-44 -13.5q-47 0 -80 7.5t-53.5 22t-31 36.5t-13.5 50l32 -2q-16 -37 -36 -59.5t-43.5 -34.5
t-51.5 -16t-60 -4zM178 580q-22 0 -37.5 15t-15.5 36q0 22 15.5 37.5t37.5 15.5q21 0 36 -15.5t15 -37.5q0 -21 -15 -36t-36 -15zM110 460q-22 0 -37.5 15t-15.5 36q0 22 15.5 37.5t37.5 15.5q21 0 36 -15.5t15 -37.5q0 -21 -15 -36t-36 -15zM249 460q-22 0 -37.5 15
t-15.5 36q0 22 15.5 37.5t37.5 15.5q21 0 36 -15.5t15 -37.5q0 -21 -15 -36t-36 -15zM230 -199q-22 0 -37.5 15t-15.5 36q0 22 15.5 37.5t37.5 15.5q21 0 36 -15.5t15 -37.5q0 -21 -15 -36t-36 -15zM91 -199q-22 0 -37.5 15t-15.5 36q0 22 15.5 37.5t37.5 15.5
q21 0 36 -15.5t15 -37.5q0 -21 -15 -36t-36 -15z" />
    <glyph glyph-name="uni063F.fina" unicode="&#x63f;" horiz-adv-x="639" 
d="M43 -11q0 28 5 61.5t18 72t33 78.5l78 -35q-14 -32 -24 -59.5t-14.5 -52t-4.5 -47.5q0 -46 17 -75t44 -44.5t58.5 -22t61.5 -6.5q54 0 93.5 12.5t65 33t37.5 41.5t12 37q0 10 -7.5 20.5t-24.5 21t-44.5 22t-68.5 23.5l24 85q57 -22 97 -35.5t67.5 -21t47 -10t35.5 -3.5
q24 0 35.5 -11.5t11.5 -31.5t-12.5 -33.5t-43.5 -13.5h-9.5h-12h-9.5l2.5 -12.5t1.5 -16.5q0 -30 -19 -64.5t-57 -64t-95 -48.5t-133 -19q-91 0 -149.5 28t-87 77.5t-29.5 113.5zM227 436q-22 0 -37.5 15t-15.5 37t15.5 37.5t37.5 15.5q21 0 36 -15.5t15 -37.5t-15 -37
t-36 -15zM159 316q-22 0 -37.5 15t-15.5 36q0 22 15.5 38t37.5 16q21 0 36 -16t15 -37q0 -22 -15 -37t-36 -15zM298 316q-22 0 -37.5 15t-15.5 36q0 23 15.5 38.5t37.5 15.5q21 0 36 -15.5t15 -37.5t-15 -37t-36 -15z" />
    <glyph glyph-name="uni066E.init" unicode="&#x66e;" horiz-adv-x="234" 
d="M0 -5l10 90q23 0 42 8t31 27.5t12 55.5q0 27 -7.5 63.5t-20 77t-26.5 77.5l88 31q12 -34 24 -76.5t20 -87t8 -84.5q0 -38 -9.5 -68t-27 -51.5t-40 -35.5t-49 -20.5t-55.5 -6.5z" />
    <glyph glyph-name="uni066E.medi" unicode="&#x66e;" horiz-adv-x="274" 
d="M0 -5l10 90q25 0 41.5 7.5t28 29.5t21 64.5t20.5 112.5l86 -15q-3 -18 -7.5 -39.5t-8 -42.5t-3.5 -38q0 -21 9 -39.5t29.5 -29t57.5 -10.5q24 0 35 -11.5t11 -31.5t-12.5 -33.5t-43.5 -13.5q-44 0 -74 12.5t-47.5 38.5t-23.5 64l35 -1q-14 -42 -35.5 -65t-44.5 -33.5
t-45 -13t-39 -2.5z" />
    <glyph glyph-name="uni066E.fina" unicode="&#x66e;" horiz-adv-x="832" 
d="M312 -21l26 90q52 0 102 7.5t96 26t86 52.5t70 86l72 -39q-10 -23 -14 -37.5t-4 -25.5q0 -13 8.5 -25.5t29.5 -20.5t58 -8q24 0 35.5 -11.5t11.5 -31.5t-13 -33.5t-44 -13.5q-43 0 -81.5 13t-60.5 40.5t-15 71.5l30 3q-29 -42 -72.5 -69.5t-96.5 -44t-110 -23.5t-114 -7z
M313 -21q-59 0 -110 11t-89 34.5t-59 60.5t-21 91q0 27 5 57t13 59.5t15 54.5l81 -23q-5 -15 -10.5 -37.5t-9.5 -46.5t-4 -45q0 -37 18 -65.5t65 -44.5t131 -16l20 -58z" />
    <glyph glyph-name="uni066F.init" unicode="&#x66f;" horiz-adv-x="388" 
d="M0 -5l9 90h46.5t49 1.5t47 5.5t40.5 12q26 11 41.5 32.5t22.5 54.5t7 77q0 46 -7.5 83.5t-22 59.5t-37.5 22q-16 0 -30 -15t-22.5 -41t-8.5 -61q0 -25 9.5 -39.5t26.5 -20.5t36 -6t38.5 4.5t34.5 14.5l4 -72q-11 -10 -27 -17t-33 -10t-34 -3q-50 0 -82.5 19t-47 50
t-14.5 67q0 40 11 78.5t31.5 69.5t49 49t64.5 18q49 0 82.5 -33t50 -91t16.5 -132t-23 -133.5t-77 -92.5q-23 -14 -51 -22t-60 -12t-67 -5.5t-73 -1.5z" />
    <glyph glyph-name="uni066F.medi" unicode="&#x66f;" horiz-adv-x="407" 
d="M0 -5l9 90q21 0 44 1.5t46 5.5t44 10t39 15q27 13 47.5 32.5t31.5 44t11 52.5q0 25 -8 47.5t-22 36.5t-30 14q-15 0 -30 -13.5t-24.5 -36.5t-9.5 -50q0 -32 13.5 -57t35.5 -43t47 -32l-89 -37q-21 17 -44 40t-38.5 56t-15.5 77q0 34 12 66.5t33 59t50 42t62 15.5
q44 0 77.5 -25t53 -65t19.5 -86q0 -37 -10 -68t-28 -56t-41.5 -45.5t-50.5 -36.5q-25 -15 -54 -25.5t-59.5 -16.5t-61.5 -9t-59 -3zM407 -5q-38 0 -78 6t-77 17t-66 26l66 59q28 -6 58.5 -10.5t59 -6t47.5 -1.5q24 0 35 -11.5t11 -31.5t-12.5 -33.5t-43.5 -13.5z" />
    <glyph glyph-name="uni066F.fina" unicode="&#x66f;" horiz-adv-x="712" 
d="M304 -273q-50 0 -99 13.5t-88.5 41.5t-63.5 72.5t-24 107.5q0 17 4 47.5t16 71.5t36 89l80 -35q-15 -35 -25 -61.5t-14.5 -51t-4.5 -52.5q0 -51 26 -85t70 -51t97 -17q33 0 62.5 4t55 12.5t47 21t38 29.5t27.5 38q17 30 25 71t8 93q0 49 -7.5 88.5t-21.5 62.5t-36 23
q-15 0 -26.5 -10.5t-19.5 -27.5t-12 -37t-4 -39q0 -21 6 -33.5t20.5 -19t37 -8.5t53.5 0h155q24 0 35 -11.5t11 -31.5q0 -21 -13 -34t-42 -13h-169q-45 0 -79.5 8.5t-57.5 25.5t-34.5 42.5t-11.5 59.5q0 38 11 76.5t31.5 70t50.5 50t66 18.5q47 0 80 -33.5t49.5 -92.5
t16.5 -134q0 -65 -12.5 -117.5t-35.5 -91.5q-22 -39 -54.5 -67t-73 -46.5t-87.5 -27.5t-99 -9z" />
    <glyph glyph-name="uni0672.fina" unicode="&#x672;" horiz-adv-x="257" 
d="M258 -5q-60 0 -98 18.5t-57 56.5t-21 99l-18 481h92l17 -438q2 -50 11 -77.5t29 -38.5t55 -11q24 0 35 -11.5t11 -31.5t-12.5 -33.5t-43.5 -13.5zM-47 733l-40 25q11 26 30 37t35 11q22 0 39 -10t32 -10q10 0 20.5 1t18.5 5l-9 -16q-25 9 -46 32t-21 54q0 41 28.5 62.5
t66.5 21.5q11 0 23 -1.5t22 -5.5l-8 -48q-8 2 -16.5 3.5t-18.5 1.5q-21 0 -32.5 -8.5t-11.5 -23.5q0 -19 12 -33t27.5 -21t26.5 -8l-33 -6q25 6 44 13.5t35 14.5l16 -47q-7 -4 -23.5 -11t-38 -14.5t-43 -12.5t-38.5 -5q-23 0 -40 10t-29 10q-9 0 -15 -5.5t-13 -15.5z" />
    <glyph glyph-name="uni0673.fina" unicode="&#x673;" horiz-adv-x="260" 
d="M260 -5q-60 0 -98 18.5t-57 56.5t-21 99l-20 538h92l19 -495q2 -50 11 -77.5t29 -38.5t55 -11q24 0 35 -11.5t11 -31.5t-12.5 -33.5t-43.5 -13.5zM-8 -291l-40 26q11 25 30 36.5t35 11.5q23 0 39.5 -10t32.5 -10q10 0 20 0.5t18 4.5l-8 -16q-26 9 -46.5 32.5t-20.5 54.5
q0 40 28 62t67 22q10 0 22 -2t22 -6l-7 -48q-9 2 -17.5 3.5t-18.5 1.5q-21 0 -32 -8.5t-11 -23.5q0 -18 11.5 -32t27.5 -21.5t26 -7.5l-32 -7q25 6 43.5 13.5t35.5 14.5l16 -47q-7 -4 -24 -11t-38.5 -14t-43 -12t-37.5 -5q-23 0 -40 10t-29 10q-10 0 -16 -5.5t-13 -16.5z
" />
    <glyph glyph-name="uni0675.fina" unicode="&#x675;" horiz-adv-x="437" 
d="M438 -5h-180q-59 0 -97 18.5t-56 57t-21 98.5l-20 538h92l19 -495q2 -48 11 -76t28.5 -39.5t52.5 -11.5h181q24 0 35 -11.5t11 -31.5t-12.5 -33.5t-43.5 -13.5zM232 587l-12 53q27 5 42 9t35 9l-7 -21q-25 8 -47 32t-22 55q0 30 14 49t36 28.5t47 9.5q12 0 24 -2t22 -6
l-7 -49l-18 4t-20 2q-20 0 -31.5 -9t-11.5 -25q0 -19 12 -32.5t28 -21.5t26 -8l-38 -3q25 6 47 12.5t39 14.5l16 -51q-22 -8 -52.5 -17.5t-62 -18t-59.5 -14.5z" />
    <glyph glyph-name="uni0676.fina" unicode="&#x676;" horiz-adv-x="405" 
d="M42 -230l-20 82q69 13 114.5 35t73 52.5t40 67.5t12.5 78q2 76 -15.5 123.5t-50.5 47.5q-19 0 -32.5 -16.5t-21 -42.5t-7.5 -53q0 -20 6 -32t19.5 -18.5t34.5 -8.5t51 0h169q20 0 33 -10.5t13 -32.5q0 -25 -15.5 -36t-39.5 -11h-183q-60 0 -99.5 16.5t-58.5 47t-19 71.5
q0 39 11 78t31.5 72t50.5 52.5t66 19.5q48 0 81.5 -34t50 -93.5t14.5 -134.5q-1 -90 -38 -155.5t-105.5 -106.5t-165.5 -58zM240 408l-11 48q24 5 38.5 8.5t31.5 7.5l-7 -14q-22 8 -42 28t-20 50q0 26 12 43.5t32.5 27t43.5 9.5q9 0 20.5 -1.5t21.5 -6.5l-7 -43
q-8 2 -16.5 3.5t-16.5 1.5q-20 0 -29.5 -9.5t-9.5 -23.5q0 -17 11 -29.5t25.5 -19t23.5 -6.5l-36 -8q23 7 42.5 13t36.5 12l15 -46q-21 -7 -48.5 -15.5t-56 -16t-54.5 -13.5z" />
    <glyph glyph-name="uni0677.fina" unicode="&#x677;" horiz-adv-x="436" 
d="M73 -230l-20 82q69 13 114.5 35t73 52.5t40 67.5t12.5 78q2 76 -15.5 123.5t-50.5 47.5q-19 0 -32.5 -16.5t-21 -42.5t-7.5 -53q0 -20 6 -32t19.5 -18.5t34.5 -8.5t51 0h169q20 0 33 -10.5t13 -32.5q0 -25 -15.5 -36t-39.5 -11h-183q-60 0 -99.5 16.5t-58.5 47t-19 71.5
q0 39 11 78t31.5 72t50.5 52.5t66 19.5q48 0 81.5 -34t50 -93.5t14.5 -134.5q-1 -90 -38 -155.5t-105.5 -106.5t-165.5 -58zM282 409l-11 48q24 5 38.5 8.5t31.5 7.5l-7 -14q-22 8 -42 28t-20 50q0 26 12 43.5t32.5 27t43.5 9.5q9 0 20.5 -1.5t21.5 -6.5l-7 -43
q-8 2 -16.5 3.5t-16.5 1.5q-20 0 -29.5 -9.5t-9.5 -23.5q0 -17 11 -29.5t25.5 -19t23.5 -6.5l-36 -8q23 7 42.5 13t36.5 12l15 -46q-21 -7 -48.5 -15.5t-56 -16t-54.5 -13.5zM31 401l-9 47q61 4 100 18.5t57.5 35t18.5 41.5q0 16 -7 26.5t-22 10.5q-14 0 -23 -9t-9 -22
q0 -18 15 -32.5t36 -22.5l-32 -30q-29 11 -49.5 32t-20.5 53q0 34 23.5 57.5t60.5 23.5q39 0 58.5 -25.5t19.5 -58.5q0 -41 -27 -72t-75.5 -49.5t-114.5 -23.5z" />
    <glyph glyph-name="uni0678.init" unicode="&#x678;" horiz-adv-x="299" 
d="M0 -5l10 90q23 0 42 8t31 27.5t12 55.5q0 27 -7.5 63.5t-20 77t-26.5 77.5l88 31q12 -34 24 -76.5t20 -87t8 -84.5q0 -38 -9.5 -68t-27 -51.5t-40 -35.5t-49 -20.5t-55.5 -6.5zM125 587l-12 53q27 5 42 9t35 9l-7 -21q-25 8 -47 32t-22 55q0 30 14 49t36 28.5t47 9.5
q12 0 24 -2t22 -6l-8 -49q-8 2 -17 4t-20 2q-21 0 -32.5 -9t-11.5 -25q0 -19 12 -32.5t28.5 -21.5t26.5 -8l-38 -3q25 6 47 12.5t39 14.5l16 -51q-22 -8 -52.5 -17.5t-62 -18t-59.5 -14.5z" />
    <glyph glyph-name="uni0678.medi" unicode="&#x678;" horiz-adv-x="275" 
d="M0 -5l10 90q25 0 41.5 7.5t28 29.5t21 64.5t20.5 112.5l86 -15q-3 -18 -7.5 -39.5t-8 -42.5t-3.5 -38q0 -21 9 -39.5t29.5 -29t57.5 -10.5q24 0 35 -11.5t11 -31.5t-12.5 -33.5t-43.5 -13.5q-44 0 -74 12.5t-47.5 38.5t-23.5 64l35 -1q-14 -42 -35.5 -65t-44.5 -33.5
t-45 -13t-39 -2.5zM122 418l-12 53q27 5 42 9t35 9l-7 -21q-25 8 -47 32t-22 55q0 30 14 49t36 28.5t47 9.5q12 0 24 -2t22 -6l-8 -49q-8 2 -17 4t-20 2q-21 0 -32.5 -9t-11.5 -25q0 -19 12 -32.5t28.5 -21.5t26.5 -8l-38 -3q25 6 47 12.5t39 14.5l16 -51
q-22 -8 -52.5 -17.5t-62 -18t-59.5 -14.5z" />
    <glyph glyph-name="uni0678.fina" unicode="&#x678;" horiz-adv-x="639" 
d="M43 -11q0 28 5 61.5t18 72t33 78.5l78 -35q-14 -32 -24 -59.5t-14.5 -52t-4.5 -47.5q0 -46 17 -75t44 -44.5t58.5 -22t61.5 -6.5q54 0 93.5 12.5t65 33t37.5 41.5t12 37q0 10 -7.5 20.5t-24.5 21t-44.5 22t-68.5 23.5l24 85q57 -22 97 -35.5t67.5 -21t47 -10t35.5 -3.5
q24 0 35.5 -11.5t11.5 -31.5t-12.5 -33.5t-43.5 -13.5h-9.5h-12h-9.5l2.5 -12.5t1.5 -16.5q0 -30 -19 -64.5t-57 -64t-95 -48.5t-133 -19q-91 0 -149.5 28t-87 77.5t-29.5 113.5zM431 200l-12 53q27 5 42 9t35 9l-7 -21q-25 8 -47 32t-22 55q0 30 14 49t36 28.5t47 9.5
q12 0 24 -2t22 -6l-8 -49q-8 2 -17 4t-20 2q-21 0 -32.5 -9t-11.5 -25q0 -19 12 -32.5t28.5 -21.5t26.5 -8l-38 -3q25 6 47 12.5t39 14.5l16 -51q-22 -8 -52.5 -17.5t-62 -18t-59.5 -14.5z" />
    <glyph glyph-name="uni067C.init" unicode="&#x67c;" horiz-adv-x="274" 
d="M0 -5l10 90q44 0 72 6.5t41.5 26.5t13.5 58q0 27 -7.5 63.5t-20 76.5t-26.5 78l87 31q13 -33 25 -75.5t20 -85t8 -76.5q0 -55 -15.5 -92.5t-44.5 -59.5t-70.5 -31.5t-92.5 -9.5zM132 -95q-32 0 -54 22.5t-22 54.5t22 54t54 22t54 -22t22 -54t-22 -54.5t-54 -22.5z
M132 -49q14 0 23.5 8.5t9.5 22.5t-9.5 23t-23.5 9t-23 -9.5t-9 -22.5t9.5 -22t22.5 -9zM204 524q-22 0 -37.5 15t-15.5 36q0 22 15 37.5t38 15.5q21 0 36 -15.5t15 -37.5q0 -21 -15 -36t-36 -15zM65 524q-23 0 -38 15t-15 36q0 22 15 37.5t38 15.5q21 0 36 -15.5t15 -37.5
q0 -21 -15 -36t-36 -15z" />
    <glyph glyph-name="uni067C.medi" unicode="&#x67c;" horiz-adv-x="274" 
d="M88 -101q-32 0 -53.5 22.5t-21.5 54.5t21.5 54t53.5 22q33 0 55 -22.5t22 -54.5t-22 -54t-55 -22zM89 -56q13 0 23 9t10 22q0 14 -9.5 23t-23.5 9t-23.5 -9t-9.5 -23q0 -13 9.5 -22t23.5 -9zM0 -5l10 90q25 0 41.5 7.5t28 29.5t21 64.5t20.5 112.5l86 -15
q-3 -18 -7.5 -39.5t-8 -42.5t-3.5 -38q0 -21 9 -39.5t29.5 -29t57.5 -10.5q24 0 35 -11.5t11 -31.5t-12.5 -33.5t-43.5 -13.5q-44 0 -74 12.5t-47.5 38.5t-23.5 64l35 -1q-14 -42 -35.5 -65t-44.5 -33.5t-45 -13t-39 -2.5zM241 419q-22 0 -37.5 15t-15.5 36q0 22 15 37.5
t38 15.5q21 0 36 -15.5t15 -37.5q0 -21 -15 -36t-36 -15zM102 419q-22 0 -37.5 15t-15.5 36q0 22 15 37.5t38 15.5q21 0 36 -15.5t15 -37.5q0 -21 -15 -36t-36 -15z" />
    <glyph glyph-name="uni067C.fina" unicode="&#x67c;" horiz-adv-x="832" 
d="M402 -128q-32 0 -53.5 22.5t-21.5 54.5t21.5 54t53.5 22t54.5 -22t22.5 -55q0 -31 -22.5 -53.5t-54.5 -22.5zM403 -82q13 0 23 8.5t10 22.5t-10 23t-23 9q-14 0 -23.5 -9.5t-9.5 -22.5t9.5 -22t23.5 -9zM312 -21l26 90q52 0 102 7.5t96 26t86 52.5t70 86l72 -39
q-10 -23 -14 -37.5t-4 -25.5q0 -13 8.5 -25.5t29.5 -20.5t58 -8q24 0 35.5 -11.5t11.5 -31.5t-13 -33.5t-44 -13.5q-43 0 -81.5 13t-60.5 40.5t-15 71.5l30 3q-29 -42 -72.5 -69.5t-96.5 -44t-110 -23.5t-114 -7zM313 -21q-59 0 -110 11t-89 34.5t-59 60.5t-21 91q0 27 5 57
t13 59.5t15 54.5l81 -23q-5 -15 -10.5 -37.5t-9.5 -46.5t-4 -45q0 -37 18 -65.5t65 -44.5t131 -16l20 -58zM463 416q-23 0 -38 15t-15 36q0 22 15 38t38 16q21 0 36 -16t15 -37q0 -22 -15.5 -37t-35.5 -15zM323 416q-22 0 -37 15t-15 36q0 22 15 38t38 16q21 0 36 -16
t15 -37q0 -22 -15.5 -37t-36.5 -15z" />
    <glyph glyph-name="uni067D.init" unicode="&#x67d;" horiz-adv-x="274" 
d="M0 -5l10 90q44 0 72 6.5t41.5 26.5t13.5 58q0 27 -7.5 63.5t-20 76.5t-26.5 78l87 31q13 -33 25 -75.5t20 -85t8 -76.5q0 -55 -15.5 -92.5t-44.5 -59.5t-70.5 -31.5t-92.5 -9.5zM133 523q-21 0 -36 15t-15 35q0 22 15 37t36 15t36 -15t15 -36q0 -22 -15 -36.5t-36 -14.5z
M65 643q-22 0 -37 14.5t-15 35.5t15 36.5t37 15.5q20 0 35 -15.5t15 -36.5t-15 -35.5t-35 -14.5zM203 643q-21 0 -36.5 14.5t-15.5 35.5t15 36.5t37 15.5q21 0 35.5 -15.5t14.5 -36.5t-15 -35.5t-35 -14.5z" />
    <glyph glyph-name="uni067D.medi" unicode="&#x67d;" horiz-adv-x="337" 
d="M0 -5l10 90q38 0 60 8.5t35 31t22 65t21 110.5l86 -16q-3 -18 -7.5 -39t-8 -42.5t-3.5 -38.5q0 -16 5.5 -30.5t19.5 -25.5t40 -17t67 -6q24 0 35.5 -11.5t11.5 -31.5t-13 -33.5t-44 -13.5q-47 0 -80 7.5t-53.5 22t-31 36.5t-13.5 50l32 -2q-16 -37 -36 -59.5t-43.5 -34.5
t-51.5 -16t-60 -4zM184 459q-21 0 -36 15t-15 35q0 22 15 37t37 15q20 0 35 -15t15 -36q0 -22 -15 -36.5t-36 -14.5zM116 578q-22 0 -37 15t-15 36t15 36.5t37 15.5q21 0 35.5 -15.5t14.5 -36.5t-15 -36t-35 -15zM254 578q-21 0 -36.5 15t-15.5 36t15.5 36.5t36.5 15.5
t35.5 -15.5t14.5 -36.5t-14.5 -36t-35.5 -15z" />
    <glyph glyph-name="uni067D.fina" unicode="&#x67d;" horiz-adv-x="832" 
d="M312 -21l26 90q52 0 102 7.5t96 26t86 52.5t70 86l72 -39q-10 -23 -14 -37.5t-4 -25.5q0 -13 8.5 -25.5t29.5 -20.5t58 -8q24 0 35.5 -11.5t11.5 -31.5t-13 -33.5t-44 -13.5q-43 0 -81.5 13t-60.5 40.5t-15 71.5l30 3q-29 -42 -72.5 -69.5t-96.5 -44t-110 -23.5t-114 -7z
M313 -21q-59 0 -110 11t-89 34.5t-59 60.5t-21 91q0 27 5 57t13 59.5t15 54.5l81 -23q-5 -15 -10.5 -37.5t-9.5 -46.5t-4 -45q0 -37 18 -65.5t65 -44.5t131 -16l20 -58zM392 416q-21 0 -36 14.5t-15 35.5t15 36.5t36 15.5t36 -15.5t15 -36.5t-15 -35.5t-36 -14.5zM324 535
q-22 0 -37 15t-15 35q0 22 15 37t37 15q20 0 35 -15t15 -36q0 -22 -15 -36.5t-35 -14.5zM462 535q-21 0 -36.5 15t-15.5 35q0 22 15 37t37 15q21 0 35.5 -15t14.5 -36q0 -22 -14.5 -36.5t-35.5 -14.5z" />
    <glyph glyph-name="uni0681.init" unicode="&#x681;" horiz-adv-x="474" 
d="M0 -5l9 90q46 0 83.5 9t72 25t71 39t79.5 50q-35 22 -62 39.5t-54 28.5t-62 11q-16 0 -29 -1t-23.5 -3t-23.5 -6l-18 82q22 8 45 12.5t47 4.5q46 0 80.5 -12.5t62 -30.5t50.5 -35.5t46 -30t50 -12.5h16l9 -85q-34 -2 -62.5 -15t-57 -33t-60 -42t-69.5 -41.5t-87 -31.5
t-113 -12zM77 441l-11 48q24 5 38.5 8.5t31.5 7.5l-7 -14q-22 8 -42 28t-20 50q0 26 12 43.5t32.5 27t43.5 9.5q9 0 20.5 -1.5t21.5 -6.5l-7 -43q-8 2 -16.5 3.5t-16.5 1.5q-20 0 -29.5 -9.5t-9.5 -23.5q0 -17 11 -29.5t25.5 -19t23.5 -6.5l-36 -8q23 7 42.5 13t36.5 12
l15 -46q-21 -7 -48.5 -15.5t-56 -16t-54.5 -13.5z" />
    <glyph glyph-name="uni0681.medi" unicode="&#x681;" horiz-adv-x="479" 
d="M479 -5q-29 0 -54 7t-46 23t-36.5 45t-26.5 74l59 35q13 -38 27 -58.5t34.5 -28t52.5 -7.5q24 0 35.5 -11.5t11.5 -31.5t-13 -33.5t-44 -13.5zM0 -5l9 90q46 0 83.5 9t72 25t71 39t79.5 50q-35 22 -62 39.5t-54 28.5t-62 11q-16 0 -29 -1t-23.5 -3t-23.5 -6l-18 82
q22 8 45 12.5t47 4.5q46 0 80.5 -12.5t62 -30.5t50.5 -35.5t46 -30t50 -12.5h16l9 -85q-34 -2 -62.5 -15t-57 -33t-60 -42t-69.5 -41.5t-87 -31.5t-113 -12zM85 441l-11 48q24 5 38.5 8.5t31.5 7.5l-7 -14q-22 8 -42 28t-20 50q0 26 12 43.5t32.5 27t43.5 9.5q9 0 20.5 -1.5
t21.5 -6.5l-7 -43q-8 2 -16.5 3.5t-16.5 1.5q-20 0 -29.5 -9.5t-9.5 -23.5q0 -17 11 -29.5t25.5 -19t23.5 -6.5l-36 -8q23 7 42.5 13t36.5 12l15 -46q-21 -7 -48.5 -15.5t-56 -16t-54.5 -13.5z" />
    <glyph glyph-name="uni0681.fina" unicode="&#x681;" horiz-adv-x="551" 
d="M551 -5q-40 0 -77.5 9t-68.5 34.5t-51 75t-25 128.5l71 29q7 -59 20.5 -95.5t34.5 -56.5t48 -27t58 -7q24 0 35 -11.5t11 -31.5t-12.5 -33.5t-43.5 -13.5zM321 -392q-58 0 -113.5 17t-99.5 52t-70 88t-26 125q0 52 16 101t45 94t70.5 84.5t93.5 73t112 58.5l10 -23
q-25 8 -52.5 20.5t-56 24t-57.5 19.5t-59 8q-22 0 -44 -3.5t-40 -9.5l-15 85q21 7 48.5 12.5t54.5 5.5q38 0 71 -10.5t64 -25.5t62.5 -30t65 -25.5t72.5 -10.5h12l5 -90q-45 -4 -90.5 -17.5t-89 -36t-80.5 -53t-65.5 -68t-44.5 -81.5t-16 -92q0 -56 20.5 -94t53.5 -61.5
t73 -34t79 -10.5q33 0 70.5 7t84.5 26l30 -79q-59 -29 -109 -37.5t-85 -8.5zM181 503l-11 48q24 5 38.5 8.5t31.5 7.5l-7 -14q-22 8 -42 28t-20 50q0 26 12 43.5t32.5 27t43.5 9.5q9 0 20.5 -1.5t21.5 -6.5l-7 -43q-8 2 -16.5 3.5t-16.5 1.5q-20 0 -29.5 -9.5t-9.5 -23.5
q0 -17 11 -29.5t25.5 -19t23.5 -6.5l-36 -8q23 7 42.5 13t36.5 12l15 -46q-21 -7 -48.5 -15.5t-56 -16t-54.5 -13.5z" />
    <glyph glyph-name="uni0682.init" unicode="&#x682;" horiz-adv-x="474" 
d="M0 -5l9 90q46 0 83.5 9t72 25t71 39t79.5 50q-35 22 -62 39.5t-54 28.5t-62 11q-16 0 -29 -1t-23.5 -3t-23.5 -6l-18 82q22 8 45 12.5t47 4.5q46 0 80.5 -12.5t62 -30.5t50.5 -35.5t46 -30t50 -12.5h16l9 -85q-34 -2 -62.5 -15t-57 -33t-60 -42t-69.5 -41.5t-87 -31.5
t-113 -12zM140 478q-22 0 -37 14.5t-15 35.5q0 22 15 37t36 15t36 -15.5t15 -36.5t-15 -35.5t-35 -14.5zM139 619q-22 0 -37 14.5t-15 35.5q0 22 15 37t37 15q21 0 35.5 -15t14.5 -37q0 -21 -15 -35.5t-35 -14.5z" />
    <glyph glyph-name="uni0682.medi" unicode="&#x682;" horiz-adv-x="479" 
d="M479 -5q-29 0 -54 7t-46 23t-36.5 45t-26.5 74l59 35q13 -38 27 -58.5t34.5 -28t52.5 -7.5q24 0 35.5 -11.5t11.5 -31.5t-13 -33.5t-44 -13.5zM0 -5l9 90q46 0 83.5 9t72 25t71 39t79.5 50q-35 22 -62 39.5t-54 28.5t-62 11q-16 0 -29 -1t-23.5 -3t-23.5 -6l-18 82
q22 8 45 12.5t47 4.5q46 0 80.5 -12.5t62 -30.5t50.5 -35.5t46 -30t50 -12.5h16l9 -85q-34 -2 -62.5 -15t-57 -33t-60 -42t-69.5 -41.5t-87 -31.5t-113 -12zM148 478q-22 0 -37 14.5t-15 35.5q0 22 15 37t36 15t36 -15.5t15 -36.5t-15 -35.5t-35 -14.5zM147 619
q-22 0 -37 14.5t-15 35.5q0 22 15 37t37 15q21 0 35.5 -15t14.5 -37q0 -21 -15 -35.5t-35 -14.5z" />
    <glyph glyph-name="uni0682.fina" unicode="&#x682;" horiz-adv-x="551" 
d="M551 -5q-40 0 -77.5 9t-68.5 34.5t-51 75t-25 128.5l71 29q7 -59 20.5 -95.5t34.5 -56.5t48 -27t58 -7q24 0 35 -11.5t11 -31.5t-12.5 -33.5t-43.5 -13.5zM321 -392q-58 0 -113.5 17t-99.5 52t-70 88t-26 125q0 52 16 101t45 94t70.5 84.5t93.5 73t112 58.5l10 -23
q-25 8 -52.5 20.5t-56 24t-57.5 19.5t-59 8q-22 0 -44 -3.5t-40 -9.5l-15 85q21 7 48.5 12.5t54.5 5.5q38 0 71 -10.5t64 -25.5t62.5 -30t65 -25.5t72.5 -10.5h12l5 -90q-45 -4 -90.5 -17.5t-89 -36t-80.5 -53t-65.5 -68t-44.5 -81.5t-16 -92q0 -56 20.5 -94t53.5 -61.5
t73 -34t79 -10.5q33 0 70.5 7t84.5 26l30 -79q-59 -29 -109 -37.5t-85 -8.5zM294 541q-22 0 -37 14.5t-15 35.5q0 22 15 37t36 15t36 -15.5t15 -36.5t-15 -35.5t-35 -14.5zM293 682q-22 0 -37 14.5t-15 35.5q0 22 15 37t37 15q21 0 35.5 -15t14.5 -37q0 -21 -15 -35.5
t-35 -14.5z" />
    <glyph glyph-name="uni0685.init" unicode="&#x685;" horiz-adv-x="474" 
d="M0 -5l9 90q46 0 83.5 9t72 25t71 39t79.5 50q-35 22 -62 39.5t-54 28.5t-62 11q-16 0 -29 -1t-23.5 -3t-23.5 -6l-18 82q22 8 45 12.5t47 4.5q46 0 80.5 -12.5t62 -30.5t50.5 -35.5t46 -30t50 -12.5h16l9 -85q-34 -2 -62.5 -15t-57 -33t-60 -42t-69.5 -41.5t-87 -31.5
t-113 -12zM141 597q-22 0 -37.5 15t-15.5 37t15.5 37.5t37.5 15.5q21 0 36 -15.5t15 -37.5t-15 -37t-36 -15zM73 477q-22 0 -37.5 15t-15.5 36q0 22 15.5 38t37.5 16q21 0 36 -16t15 -37q0 -22 -15 -37t-36 -15zM212 477q-22 0 -37.5 15t-15.5 36q0 23 15.5 38.5t37.5 15.5
q21 0 36 -15.5t15 -37.5t-15 -37t-36 -15z" />
    <glyph glyph-name="uni0685.medi" unicode="&#x685;" horiz-adv-x="479" 
d="M479 -5q-29 0 -54 7t-46 23t-36.5 45t-26.5 74l59 35q13 -38 27 -58.5t34.5 -28t52.5 -7.5q24 0 35.5 -11.5t11.5 -31.5t-13 -33.5t-44 -13.5zM0 -5l9 90q46 0 83.5 9t72 25t71 39t79.5 50q-35 22 -62 39.5t-54 28.5t-62 11q-16 0 -29 -1t-23.5 -3t-23.5 -6l-18 82
q22 8 45 12.5t47 4.5q46 0 80.5 -12.5t62 -30.5t50.5 -35.5t46 -30t50 -12.5h16l9 -85q-34 -2 -62.5 -15t-57 -33t-60 -42t-69.5 -41.5t-87 -31.5t-113 -12zM149 597q-22 0 -37.5 15t-15.5 37t15.5 37.5t37.5 15.5q21 0 36 -15.5t15 -37.5t-15 -37t-36 -15zM81 477
q-22 0 -37.5 15t-15.5 36q0 22 15.5 38t37.5 16q21 0 36 -16t15 -37q0 -22 -15 -37t-36 -15zM220 477q-22 0 -37.5 15t-15.5 36q0 23 15.5 38.5t37.5 15.5q21 0 36 -15.5t15 -37.5t-15 -37t-36 -15z" />
    <glyph glyph-name="uni0685.fina" unicode="&#x685;" horiz-adv-x="551" 
d="M551 -5q-40 0 -77.5 9t-68.5 34.5t-51 75t-25 128.5l71 29q7 -59 20.5 -95.5t34.5 -56.5t48 -27t58 -7q24 0 35 -11.5t11 -31.5t-12.5 -33.5t-43.5 -13.5zM321 -392q-58 0 -113.5 17t-99.5 52t-70 88t-26 125q0 52 16 101t45 94t70.5 84.5t93.5 73t112 58.5l10 -23
q-25 8 -52.5 20.5t-56 24t-57.5 19.5t-59 8q-22 0 -44 -3.5t-40 -9.5l-15 85q21 7 48.5 12.5t54.5 5.5q38 0 71 -10.5t64 -25.5t62.5 -30t65 -25.5t72.5 -10.5h12l5 -90q-45 -4 -90.5 -17.5t-89 -36t-80.5 -53t-65.5 -68t-44.5 -81.5t-16 -92q0 -56 20.5 -94t53.5 -61.5
t73 -34t79 -10.5q33 0 70.5 7t84.5 26l30 -79q-59 -29 -109 -37.5t-85 -8.5zM289 663q-22 0 -37.5 15t-15.5 37t15.5 37.5t37.5 15.5q21 0 36 -15.5t15 -37.5t-15 -37t-36 -15zM221 543q-22 0 -37.5 15t-15.5 36q0 22 15.5 38t37.5 16q21 0 36 -16t15 -37q0 -22 -15 -37
t-36 -15zM360 543q-22 0 -37.5 15t-15.5 36q0 23 15.5 38.5t37.5 15.5q21 0 36 -15.5t15 -37.5t-15 -37t-36 -15z" />
    <glyph glyph-name="uni0689.fina" unicode="&#x689;" horiz-adv-x="443" 
d="M176 -113q-32 0 -54 22t-22 54t22 54.5t54 22.5t54.5 -22.5t22.5 -54.5t-22.5 -54t-54.5 -22zM176 -68q14 0 23.5 9t9.5 22q0 14 -9.5 23t-23.5 9q-13 0 -22.5 -9t-9.5 -23q0 -13 9.5 -22t22.5 -9zM176 87q29 0 49.5 7.5t31.5 25.5t11 47q0 15 -4 37.5t-16.5 54.5t-36 76
t-61.5 101l83 51q35 -55 61.5 -107.5t45.5 -104t29 -103.5q8 -32 21.5 -51.5t29.5 -27.5t33 -8q24 0 35 -11.5t11 -31.5t-12.5 -33.5t-43.5 -13.5q-30 0 -57.5 10.5t-49 33t-32.5 59.5l28 -11q-11 -28 -30.5 -48.5t-48.5 -32t-72 -11.5q-23 0 -50.5 3.5t-52.5 10.5t-43 16
l21 84q30 -10 62.5 -16t57.5 -6z" />
    <glyph glyph-name="uni068A.fina" unicode="&#x68a;" horiz-adv-x="443" 
d="M176 87q29 0 49.5 7.5t31.5 25.5t11 47q0 15 -4 37.5t-16.5 54.5t-36 76t-61.5 101l83 51q35 -55 61.5 -107.5t45.5 -104t29 -103.5q8 -32 21.5 -51.5t29.5 -27.5t33 -8q24 0 35 -11.5t11 -31.5t-12.5 -33.5t-43.5 -13.5q-30 0 -57.5 10.5t-49 33t-32.5 59.5l28 -11
q-11 -28 -30.5 -48.5t-48.5 -32t-72 -11.5q-23 0 -50.5 3.5t-52.5 10.5t-43 16l21 84q30 -10 62.5 -16t57.5 -6zM158 -202q-22 0 -37.5 15t-15.5 36q0 22 15 38t38 16q21 0 36 -16t15 -37q0 -22 -15 -37t-36 -15z" />
    <glyph glyph-name="uni068B.fina" unicode="&#x68b;" horiz-adv-x="443" 
d="M176 87q29 0 49.5 7.5t31.5 25.5t11 47q0 15 -4 37.5t-16.5 54.5t-36 76t-61.5 101l83 51q35 -55 61.5 -107.5t45.5 -104t29 -103.5q8 -32 21.5 -51.5t29.5 -27.5t33 -8q24 0 35 -11.5t11 -31.5t-12.5 -33.5t-43.5 -13.5q-30 0 -57.5 10.5t-49 33t-32.5 59.5l28 -11
q-11 -28 -30.5 -48.5t-48.5 -32t-72 -11.5q-23 0 -50.5 3.5t-52.5 10.5t-43 16l21 84q30 -10 62.5 -16t57.5 -6zM174 617q-16 0 -38.5 1.5t-42.5 3t-30 2.5l2 50q18 -4 47.5 -5.5t55.5 -1.5q31 0 50.5 5t28 14t8.5 19q0 13 -8 19.5t-21 6.5q-18 0 -35.5 -12.5t-31 -28.5
t-20.5 -26l-49 4q16 30 39 56t50 42t54 16q34 0 54 -20.5t20 -51.5q0 -19 -11 -40.5t-39.5 -37t-82.5 -15.5zM111 678l-6 175h48l7 -152zM158 -202q-22 0 -37.5 15t-15.5 36q0 22 15 38t38 16q21 0 36 -16t15 -37q0 -22 -15 -37t-36 -15z" />
    <glyph glyph-name="uni068F.fina" unicode="&#x68f;" horiz-adv-x="443" 
d="M176 87q29 0 49.5 7.5t31.5 25.5t11 47q0 15 -4 37.5t-16.5 54.5t-36 76t-61.5 101l83 51q35 -55 61.5 -107.5t45.5 -104t29 -103.5q8 -32 21.5 -51.5t29.5 -27.5t33 -8q24 0 35 -11.5t11 -31.5t-12.5 -33.5t-43.5 -13.5q-30 0 -57.5 10.5t-49 33t-32.5 59.5l28 -11
q-11 -28 -30.5 -48.5t-48.5 -32t-72 -11.5q-23 0 -50.5 3.5t-52.5 10.5t-43 16l21 84q30 -10 62.5 -16t57.5 -6zM187 594q-21 0 -36 14.5t-15 35.5t15 36.5t36 15.5t36 -15.5t15 -36.5t-15 -35.5t-36 -14.5zM119 713q-22 0 -37 15t-15 35q0 22 15 37t37 15q20 0 35 -15
t15 -36q0 -22 -15 -36.5t-35 -14.5zM257 713q-21 0 -36.5 15t-15.5 35q0 22 15 37t37 15q21 0 35.5 -15t14.5 -36q0 -22 -14.5 -36.5t-35.5 -14.5z" />
    <glyph glyph-name="uni0690.fina" unicode="&#x690;" horiz-adv-x="443" 
d="M176 87q29 0 49.5 7.5t31.5 25.5t11 47q0 15 -4 37.5t-16.5 54.5t-36 76t-61.5 101l83 51q35 -55 61.5 -107.5t45.5 -104t29 -103.5q8 -32 21.5 -51.5t29.5 -27.5t33 -8q24 0 35 -11.5t11 -31.5t-12.5 -33.5t-43.5 -13.5q-30 0 -57.5 10.5t-49 33t-32.5 59.5l28 -11
q-11 -28 -30.5 -48.5t-48.5 -32t-72 -11.5q-23 0 -50.5 3.5t-52.5 10.5t-43 16l21 84q30 -10 62.5 -16t57.5 -6zM107 710q-21 0 -35.5 14.5t-14.5 34.5q0 21 14.5 35.5t35.5 14.5q20 0 34.5 -14.5t14.5 -35.5q0 -20 -14.5 -34.5t-34.5 -14.5zM107 582q-21 0 -35.5 14
t-14.5 34q0 21 14.5 35.5t35.5 14.5q20 0 34.5 -14.5t14.5 -35.5q0 -20 -14.5 -34t-34.5 -14zM238 711q-21 0 -35.5 14.5t-14.5 33.5q0 21 14.5 36t35.5 15q20 0 34.5 -15t14.5 -35q0 -21 -14.5 -35t-34.5 -14zM238 582q-21 0 -35.5 14t-14.5 34q0 21 14.5 35.5t35.5 14.5
q20 0 34.5 -14.5t14.5 -35.5q0 -20 -14.5 -34t-34.5 -14z" />
    <glyph glyph-name="uni0692.fina" unicode="&#x692;" horiz-adv-x="307" 
d="M23 -230l-54 83q53 32 87.5 65t54 66t27 63.5t7.5 55.5q0 45 -18 94t-50 110l88 45q17 -33 29 -63.5t21.5 -59t16.5 -53.5q14 -54 35 -72.5t50 -18.5q24 0 35.5 -11.5t11.5 -31.5t-13 -33.5t-44 -13.5q-28 0 -50 12t-37.5 35.5t-24.5 57.5l42 13q0 -51 -13 -100
t-39.5 -93t-67 -82.5t-94.5 -67.5zM92 487q-6 14 -16 38.5t-20.5 53t-20.5 54t-17 40.5l44 20q5 -9 13.5 -30.5t19 -47.5t20 -49.5t15.5 -36.5l19 -37zM148 492l-41 16q5 16 15.5 43.5t21.5 57.5t20 53t12 30l44 -16q-4 -9 -13.5 -33t-20.5 -53.5t-21.5 -56.5t-16.5 -41z
" />
    <glyph glyph-name="uni0693.fina" unicode="&#x693;" horiz-adv-x="307" 
d="M179 -218q-32 0 -54 22.5t-22 54.5t22 54.5t54 22.5t54.5 -22.5t22.5 -54.5t-22.5 -54.5t-54.5 -22.5zM179 -172q14 0 23.5 9t9.5 22q0 14 -9.5 23t-23.5 9t-23 -9t-9 -23q0 -13 9 -22t23 -9zM23 -230l-54 83q53 32 87.5 65t54 66t27 63.5t7.5 55.5q0 45 -18 94t-50 110
l88 45q17 -33 29 -63.5t21.5 -59t16.5 -53.5q14 -54 35 -72.5t50 -18.5q24 0 35.5 -11.5t11.5 -31.5t-13 -33.5t-44 -13.5q-28 0 -50 12t-37.5 35.5t-24.5 57.5l42 13q0 -51 -13 -100t-39.5 -93t-67 -82.5t-94.5 -67.5z" />
    <glyph glyph-name="uni0694.fina" unicode="&#x694;" horiz-adv-x="307" 
d="M23 -230l-54 83q53 32 87.5 65t54 66t27 63.5t7.5 55.5q0 45 -18 94t-50 110l88 45q17 -33 29 -63.5t21.5 -59t16.5 -53.5q14 -54 35 -72.5t50 -18.5q24 0 35.5 -11.5t11.5 -31.5t-13 -33.5t-44 -13.5q-28 0 -50 12t-37.5 35.5t-24.5 57.5l42 13q0 -51 -13 -100
t-39.5 -93t-67 -82.5t-94.5 -67.5zM126 -407q-22 0 -37.5 15t-15.5 36q0 22 15 38t38 16q21 0 36 -16t15 -37q0 -22 -15 -37t-36 -15z" />
    <glyph glyph-name="uni0695.fina" unicode="&#x695;" horiz-adv-x="307" 
d="M4 -51q-7 15 -19 40.5t-24.5 52t-21.5 42.5l36 19q4 -9 11.5 -24.5t16 -33.5t16 -34.5l12.5 -27.5l15 -30zM46 -47l-35 13q5 13 13.5 33.5t17 42.5t16 39.5t10.5 22.5l35 -14q-3 -8 -10.5 -25.5t-17 -38.5t-17.5 -41t-12 -32zM23 -230l-54 83q53 32 87.5 65t54 66
t27 63.5t7.5 55.5q0 45 -18 94t-50 110l88 45q17 -33 29 -63.5t21.5 -59t16.5 -53.5q14 -54 35 -72.5t50 -18.5q24 0 35.5 -11.5t11.5 -31.5t-13 -33.5t-44 -13.5q-28 0 -50 12t-37.5 35.5t-24.5 57.5l42 13q0 -51 -13 -100t-39.5 -93t-67 -82.5t-94.5 -67.5z" />
    <glyph glyph-name="uni0696.fina" unicode="&#x696;" horiz-adv-x="307" 
d="M23 -230l-54 83q53 32 87.5 65t54 66t27 63.5t7.5 55.5q0 45 -18 94t-50 110l88 45q17 -33 29 -63.5t21.5 -59t16.5 -53.5q14 -54 35 -72.5t50 -18.5q24 0 35.5 -11.5t11.5 -31.5t-13 -33.5t-44 -13.5q-28 0 -50 12t-37.5 35.5t-24.5 57.5l42 13q0 -51 -13 -100
t-39.5 -93t-67 -82.5t-94.5 -67.5zM19 0q-22 0 -37.5 15t-15.5 36q0 22 15 38t38 16q21 0 36 -16t15 -37q0 -22 -15 -37t-36 -15zM96 -407q-22 0 -37.5 15t-15.5 36q0 22 15 38t38 16q21 0 36 -16t15 -37q0 -22 -15 -37t-36 -15z" />
    <glyph glyph-name="uni0697.fina" unicode="&#x697;" horiz-adv-x="307" 
d="M23 -230l-54 83q53 32 87.5 65t54 66t27 63.5t7.5 55.5q0 45 -18 94t-50 110l88 45q17 -33 29 -63.5t21.5 -59t16.5 -53.5q14 -54 35 -72.5t50 -18.5q24 0 35.5 -11.5t11.5 -31.5t-13 -33.5t-44 -13.5q-28 0 -50 12t-37.5 35.5t-24.5 57.5l42 13q0 -51 -13 -100
t-39.5 -93t-67 -82.5t-94.5 -67.5zM208 466q-22 0 -37.5 15t-15.5 36q0 22 15 38t38 16q21 0 36 -16t15 -37q0 -22 -15 -37t-36 -15zM69 466q-23 0 -38 15t-15 36q0 22 15 38t38 16q21 0 36 -16t15 -37q0 -22 -15 -37t-36 -15z" />
    <glyph glyph-name="uni0699.fina" unicode="&#x699;" horiz-adv-x="307" 
d="M23 -230l-54 83q53 32 87.5 65t54 66t27 63.5t7.5 55.5q0 45 -18 94t-50 110l88 45q17 -33 29 -63.5t21.5 -59t16.5 -53.5q14 -54 35 -72.5t50 -18.5q24 0 35.5 -11.5t11.5 -31.5t-13 -33.5t-44 -13.5q-28 0 -50 12t-37.5 35.5t-24.5 57.5l42 13q0 -51 -13 -100
t-39.5 -93t-67 -82.5t-94.5 -67.5zM55 594q-21 0 -35.5 14.5t-14.5 34.5q0 21 14.5 35.5t35.5 14.5q20 0 34.5 -14.5t14.5 -35.5q0 -20 -14.5 -34.5t-34.5 -14.5zM55 466q-21 0 -35.5 14t-14.5 34q0 21 14.5 35.5t35.5 14.5q20 0 34.5 -14.5t14.5 -35.5q0 -20 -14.5 -34
t-34.5 -14zM186 595q-21 0 -35.5 14.5t-14.5 33.5q0 21 14.5 36t35.5 15q20 0 34.5 -15t14.5 -35q0 -21 -14.5 -35t-34.5 -14zM186 466q-21 0 -35.5 14t-14.5 34q0 21 14.5 35.5t35.5 14.5q20 0 34.5 -14.5t14.5 -35.5q0 -20 -14.5 -34t-34.5 -14z" />
    <glyph glyph-name="uni069A.init" unicode="&#x69a;" horiz-adv-x="720" 
d="M0 -5l10 90q30 0 48.5 6t31.5 26t24 61.5t26 113.5l83 -19q-7 -30 -11.5 -51t-7 -38.5t-3.5 -36.5q0 -29 10.5 -45.5t52.5 -16.5q21 0 35 6t24.5 27t19.5 64.5t20 116.5l85 -15q-3 -19 -7.5 -45t-7.5 -50.5t-3 -41.5t5.5 -31.5t20.5 -22.5t41 -8q29 0 46.5 9.5t26 29
t8.5 47.5q0 44 -17 101.5t-40 118.5l89 31q13 -35 26 -78t22 -87t9 -82q0 -44 -13 -77.5t-36 -56.5t-54 -34.5t-67 -11.5q-33 0 -58 10.5t-40.5 34t-21.5 61.5h27q-15 -45 -35 -67.5t-46.5 -30.5t-62.5 -8q-29 0 -55.5 8t-44 32t-20.5 71l37 5q-18 -53 -42.5 -77.5
t-57.5 -31.5t-77 -7zM348 -202q-22 0 -37.5 15t-15.5 36q0 22 15 38t38 16q21 0 36 -16t15 -37q0 -22 -15 -37t-36 -15zM391 452q-22 0 -37.5 15t-15.5 36q0 22 15 38t38 16q21 0 36 -16t15 -37q0 -22 -15 -37t-36 -15z" />
    <glyph glyph-name="uni069A.medi" unicode="&#x69a;" horiz-adv-x="729" 
d="M0 -5l10 90q26 0 43 6t29.5 26t23.5 61.5t27 113.5l82 -19q-5 -24 -13 -60t-8 -65q0 -18 2.5 -32.5t16.5 -22.5t45 -8q20 0 34 6t24.5 27.5t20 64.5t19.5 116l85 -14q-3 -20 -7.5 -46t-7.5 -51.5t-3 -41.5q0 -21 4.5 -34.5t19.5 -20t44 -6.5q33 0 53 18.5t20 73.5
q0 23 -1 49.5t-4 58.5t-8 73l86 7q6 -84 12.5 -138.5t17.5 -85.5t28 -43.5t44 -12.5q24 0 35.5 -11.5t11.5 -31.5t-13 -33.5t-44 -13.5q-29 0 -51 8.5t-38.5 24t-28 38.5t-18.5 52l26 -6q-7 -45 -27.5 -70.5t-47.5 -36t-55 -10.5q-35 0 -61 11t-40.5 34.5t-16.5 60.5h25
q-14 -43 -33 -65.5t-45.5 -31.5t-65.5 -9q-26 0 -52.5 7.5t-45.5 31.5t-22 72l37 5q-19 -53 -42 -78t-54 -31.5t-73 -6.5zM349 -202q-22 0 -37.5 15t-15.5 36q0 22 15 38t38 16q21 0 36 -16t15 -37q0 -22 -15 -37t-36 -15zM385 452q-22 0 -37.5 15t-15.5 36q0 22 15 38
t38 16q21 0 36 -16t15 -37q0 -22 -15 -37t-36 -15z" />
    <glyph glyph-name="uni069A.fina" unicode="&#x69a;" horiz-adv-x="1044" 
d="M278 -232q-51 0 -94 15t-74.5 43t-49 69.5t-17.5 94.5q0 17 3.5 46.5t15.5 70t38 88.5l77 -35q-14 -33 -24 -59t-14 -49t-4 -49q0 -46 17 -78.5t50 -49.5t78 -17q48 0 77.5 16t44 41.5t19 54.5t4.5 55q0 47 -6 85.5t-16.5 77.5t-26.5 88l91 24q16 -57 23 -83.5t11 -43.5
q11 -36 21.5 -55t23.5 -26t32 -7q17 0 30 6t24 27t20 64.5t18 117.5l85 -15q-3 -20 -7 -46.5t-7.5 -51.5t-3.5 -42q0 -14 6 -28.5t21 -23t43 -8.5q29 0 50 24t21 68q0 23 -1 49.5t-3.5 58.5t-7.5 73l87 7q6 -86 12.5 -141t17.5 -85t28 -42t43 -12q24 0 35 -11.5t11 -31.5
t-12.5 -33.5t-43.5 -13.5q-28 0 -56.5 10.5t-50.5 37t-32 74.5l28 -5q-11 -46 -33 -71.5t-47 -35.5t-47 -10q-33 0 -59 11.5t-42.5 36t-20.5 63.5h28q-16 -42 -34.5 -66t-41 -34.5t-53.5 -10.5q-21 0 -39 7t-30.5 19.5t-20.5 29t-11 33.5l31 -42q3 -54 -10 -103.5t-42.5 -88
t-75 -60.5t-107.5 -22zM696 -196q-22 0 -37.5 15t-15.5 36q0 22 15 38t38 16q21 0 36 -16t15 -37q0 -22 -15 -37t-36 -15zM667 452q-22 0 -37.5 15t-15.5 36q0 22 15 38t38 16q21 0 36 -16t15 -37q0 -22 -15 -37t-36 -15z" />
    <glyph glyph-name="uni069B.init" unicode="&#x69b;" horiz-adv-x="720" 
d="M0 -5l10 90q30 0 48.5 6t31.5 26t24 61.5t26 113.5l83 -19q-7 -30 -11.5 -51t-7 -38.5t-3.5 -36.5q0 -29 10.5 -45.5t52.5 -16.5q21 0 35 6t24.5 27t19.5 64.5t20 116.5l85 -15q-3 -19 -7.5 -45t-7.5 -50.5t-3 -41.5t5.5 -31.5t20.5 -22.5t41 -8q29 0 46.5 9.5t26 29
t8.5 47.5q0 44 -17 101.5t-40 118.5l89 31q13 -35 26 -78t22 -87t9 -82q0 -44 -13 -77.5t-36 -56.5t-54 -34.5t-67 -11.5q-33 0 -58 10.5t-40.5 34t-21.5 61.5h27q-15 -45 -35 -67.5t-46.5 -30.5t-62.5 -8q-29 0 -55.5 8t-44 32t-20.5 71l37 5q-18 -53 -42.5 -77.5
t-57.5 -31.5t-77 -7zM348 -317q-21 0 -36.5 15t-15.5 35q0 22 15.5 37t36.5 15t35.5 -15t14.5 -36t-14.5 -36t-35.5 -15zM279 -197q-21 0 -36 14.5t-15 35.5t15 36.5t37 15.5q20 0 35 -15.5t15 -36.5t-15 -35.5t-36 -14.5zM418 -197q-22 0 -37 14.5t-15 35.5t15 36.5
t37 15.5q21 0 35.5 -15.5t14.5 -36.5t-15 -35.5t-35 -14.5z" />
    <glyph glyph-name="uni069B.medi" unicode="&#x69b;" horiz-adv-x="729" 
d="M0 -5l10 90q26 0 43 6t29.5 26t23.5 61.5t27 113.5l82 -19q-5 -24 -13 -60t-8 -65q0 -18 2.5 -32.5t16.5 -22.5t45 -8q20 0 34 6t24.5 27.5t20 64.5t19.5 116l85 -14q-3 -20 -7.5 -46t-7.5 -51.5t-3 -41.5q0 -21 4.5 -34.5t19.5 -20t44 -6.5q33 0 53 18.5t20 73.5
q0 23 -1 49.5t-4 58.5t-8 73l86 7q6 -84 12.5 -138.5t17.5 -85.5t28 -43.5t44 -12.5q24 0 35.5 -11.5t11.5 -31.5t-13 -33.5t-44 -13.5q-29 0 -51 8.5t-38.5 24t-28 38.5t-18.5 52l26 -6q-7 -45 -27.5 -70.5t-47.5 -36t-55 -10.5q-35 0 -61 11t-40.5 34.5t-16.5 60.5h25
q-14 -43 -33 -65.5t-45.5 -31.5t-65.5 -9q-26 0 -52.5 7.5t-45.5 31.5t-22 72l37 5q-19 -53 -42 -78t-54 -31.5t-73 -6.5zM349 -317q-21 0 -36.5 15t-15.5 35q0 22 15.5 37t36.5 15t35.5 -15t14.5 -36t-14.5 -36t-35.5 -15zM280 -197q-21 0 -36 14.5t-15 35.5t15 36.5
t37 15.5q20 0 35 -15.5t15 -36.5t-15 -35.5t-36 -14.5zM419 -197q-22 0 -37 14.5t-15 35.5t15 36.5t37 15.5q21 0 35.5 -15.5t14.5 -36.5t-15 -35.5t-35 -14.5z" />
    <glyph glyph-name="uni069B.fina" unicode="&#x69b;" horiz-adv-x="1044" 
d="M278 -232q-51 0 -94 15t-74.5 43t-49 69.5t-17.5 94.5q0 17 3.5 46.5t15.5 70t38 88.5l77 -35q-14 -33 -24 -59t-14 -49t-4 -49q0 -46 17 -78.5t50 -49.5t78 -17q48 0 77.5 16t44 41.5t19 54.5t4.5 55q0 47 -6 85.5t-16.5 77.5t-26.5 88l91 24q16 -57 23 -83.5t11 -43.5
q11 -36 21.5 -55t23.5 -26t32 -7q17 0 30 6t24 27t20 64.5t18 117.5l85 -15q-3 -20 -7 -46.5t-7.5 -51.5t-3.5 -42q0 -14 6 -28.5t21 -23t43 -8.5q29 0 50 24t21 68q0 23 -1 49.5t-3.5 58.5t-7.5 73l87 7q6 -86 12.5 -141t17.5 -85t28 -42t43 -12q24 0 35 -11.5t11 -31.5
t-12.5 -33.5t-43.5 -13.5q-28 0 -56.5 10.5t-50.5 37t-32 74.5l28 -5q-11 -46 -33 -71.5t-47 -35.5t-47 -10q-33 0 -59 11.5t-42.5 36t-20.5 63.5h28q-16 -42 -34.5 -66t-41 -34.5t-53.5 -10.5q-21 0 -39 7t-30.5 19.5t-20.5 29t-11 33.5l31 -42q3 -54 -10 -103.5t-42.5 -88
t-75 -60.5t-107.5 -22zM696 -312q-21 0 -36.5 15t-15.5 35q0 22 15.5 37t36.5 15t35.5 -15t14.5 -36t-14.5 -36t-35.5 -15zM627 -192q-21 0 -36 14.5t-15 35.5t15 36.5t37 15.5q20 0 35 -15.5t15 -36.5t-15 -35.5t-36 -14.5zM766 -192q-22 0 -37 14.5t-15 35.5t15 36.5
t37 15.5q21 0 35.5 -15.5t14.5 -36.5t-15 -35.5t-35 -14.5z" />
    <glyph glyph-name="uni069D.init" unicode="&#x69d;" horiz-adv-x="772" 
d="M402 -13q-72 0 -120 6t-78 19t-47.5 33t-26.5 47l26 7q-20 -41 -45 -64t-53 -31.5t-58 -8.5l10 90q25 0 40 8.5t25 30.5t19.5 61.5t25.5 100.5l88 -22q-6 -24 -11 -45t-7.5 -36t-2.5 -25q0 -23 8 -38.5t31 -24.5t66.5 -13t114.5 -4q63 0 108 8.5t74 25t42.5 40t13.5 54.5
q0 23 -9.5 42t-27 31t-44.5 12q-34 0 -68.5 -22t-66.5 -56t-59 -71.5t-46 -68.5l-94 3q30 57 69 112t83.5 99.5t92 70.5t95.5 26t85.5 -22.5t58.5 -61.5t21 -91q0 -62 -35.5 -112.5t-109 -80t-188.5 -29.5zM464 -207q-22 0 -37 15t-15 36q0 22 15 37.5t37 15.5t37 -15.5
t15 -36.5q0 -22 -15.5 -37t-36.5 -15zM325 -207q-22 0 -37 15t-15 36q0 22 15 37.5t37 15.5t37 -15.5t15 -36.5q0 -22 -15.5 -37t-36.5 -15z" />
    <glyph glyph-name="uni069D.medi" unicode="&#x69d;" horiz-adv-x="788" 
d="M789 -5q-32 0 -62 8.5t-55.5 23.5t-42.5 35l71 48q18 -12 42.5 -18.5t55.5 -6.5q24 0 35.5 -11.5t11.5 -31.5t-13 -33.5t-43 -13.5zM402 -13q-72 0 -120 6t-78 19t-47.5 33t-26.5 47l26 7q-20 -41 -45 -64t-53 -31.5t-58 -8.5l10 90q25 0 40 8.5t25 30.5t19.5 61.5
t25.5 100.5l88 -22q-6 -24 -11 -45t-7.5 -36t-2.5 -25q0 -23 8 -38.5t31 -24.5t66.5 -13t114.5 -4q63 0 108 8.5t74 25t42.5 40t13.5 54.5q0 23 -9.5 42t-27 31t-44.5 12q-34 0 -68.5 -22t-66.5 -56t-59 -71.5t-46 -68.5l-94 3q30 57 69 112t83.5 99.5t92 70.5t95.5 26
t85.5 -22.5t58.5 -61.5t21 -91q0 -62 -35.5 -112.5t-109 -80t-188.5 -29.5zM464 -207q-22 0 -37 15t-15 36q0 22 15 37.5t37 15.5t37 -15.5t15 -36.5q0 -22 -15.5 -37t-36.5 -15zM325 -207q-22 0 -37 15t-15 36q0 22 15 37.5t37 15.5t37 -15.5t15 -36.5q0 -22 -15.5 -37
t-36.5 -15z" />
    <glyph glyph-name="uni069D.fina" unicode="&#x69d;" horiz-adv-x="1115" 
d="M1115 -5q-31 0 -61.5 8.5t-56 23.5t-42.5 35l71 48q18 -12 42.5 -18.5t56.5 -6.5q24 0 35 -11.5t11 -31.5t-13 -33.5t-43 -13.5zM275 -232q-49 0 -91 14.5t-73.5 43t-49.5 71t-18 97.5q0 19 4 47t16 67t37 88l77 -35q-14 -33 -24 -59t-14 -49t-4 -47q0 -49 17.5 -82
t49.5 -49.5t76 -16.5q45 0 73 12.5t44.5 36t23 55.5t6.5 69q0 67 -14.5 124.5t-32.5 121.5l91 25q10 -39 16 -63t10 -39t7 -26q8 -21 23 -38.5t41.5 -30.5t68 -19.5t101.5 -6.5q46 0 84 5t66.5 15.5t47 26t28 35.5t9.5 46q0 23 -9.5 42.5t-27.5 31t-44 11.5q-30 0 -60.5 -17
t-61.5 -47.5t-60.5 -69.5t-58.5 -84l-90 7q16 33 42.5 73.5t59.5 81t71 74.5t79.5 54.5t83.5 20.5q48 0 85 -22t59 -61t22 -92q0 -47 -20.5 -88t-61 -71t-102.5 -46.5t-146 -16.5q-59 0 -104.5 9.5t-77.5 25.5t-50 35t-22 37l35 -45q4 -56 -8 -106.5t-41 -90t-76 -62.5
t-112 -23zM811 -206q-22 0 -37 15t-15 36q0 22 15 37.5t37 15.5t37 -15.5t15 -36.5q0 -22 -15.5 -37t-36.5 -15zM672 -206q-22 0 -37 15t-15 36q0 22 15 37.5t37 15.5t37 -15.5t15 -36.5q0 -22 -15.5 -37t-36.5 -15z" />
    <glyph glyph-name="uni069E.init" unicode="&#x69e;" horiz-adv-x="772" 
d="M402 -13q-72 0 -120 6t-78 19t-47.5 33t-26.5 47l26 7q-20 -41 -45 -64t-53 -31.5t-58 -8.5l10 90q25 0 40 8.5t25 30.5t19.5 61.5t25.5 100.5l88 -22q-6 -24 -11 -45t-7.5 -36t-2.5 -25q0 -23 8 -38.5t31 -24.5t66.5 -13t114.5 -4q63 0 108 8.5t74 25t42.5 40t13.5 54.5
q0 23 -9.5 42t-27 31t-44.5 12q-34 0 -68.5 -22t-66.5 -56t-59 -71.5t-46 -68.5l-94 3q30 57 69 112t83.5 99.5t92 70.5t95.5 26t85.5 -22.5t58.5 -61.5t21 -91q0 -62 -35.5 -112.5t-109 -80t-188.5 -29.5zM542 606q-22 0 -37.5 15t-15.5 37t15.5 37.5t37.5 15.5
q21 0 36 -15.5t15 -37.5t-15 -37t-36 -15zM474 486q-22 0 -37.5 15t-15.5 36q0 22 15.5 38t37.5 16q21 0 36 -16t15 -37q0 -22 -15 -37t-36 -15zM613 486q-22 0 -37.5 15t-15.5 36q0 23 15.5 38.5t37.5 15.5q21 0 36 -15.5t15 -37.5t-15 -37t-36 -15z" />
    <glyph glyph-name="uni069E.medi" unicode="&#x69e;" horiz-adv-x="788" 
d="M789 -5q-32 0 -62 8.5t-55.5 23.5t-42.5 35l71 48q18 -12 42.5 -18.5t55.5 -6.5q24 0 35.5 -11.5t11.5 -31.5t-13 -33.5t-43 -13.5zM402 -13q-72 0 -120 6t-78 19t-47.5 33t-26.5 47l26 7q-20 -41 -45 -64t-53 -31.5t-58 -8.5l10 90q25 0 40 8.5t25 30.5t19.5 61.5
t25.5 100.5l88 -22q-6 -24 -11 -45t-7.5 -36t-2.5 -25q0 -23 8 -38.5t31 -24.5t66.5 -13t114.5 -4q63 0 108 8.5t74 25t42.5 40t13.5 54.5q0 23 -9.5 42t-27 31t-44.5 12q-34 0 -68.5 -22t-66.5 -56t-59 -71.5t-46 -68.5l-94 3q30 57 69 112t83.5 99.5t92 70.5t95.5 26
t85.5 -22.5t58.5 -61.5t21 -91q0 -62 -35.5 -112.5t-109 -80t-188.5 -29.5zM542 606q-22 0 -37.5 15t-15.5 37t15.5 37.5t37.5 15.5q21 0 36 -15.5t15 -37.5t-15 -37t-36 -15zM474 486q-22 0 -37.5 15t-15.5 36q0 22 15.5 38t37.5 16q21 0 36 -16t15 -37q0 -22 -15 -37
t-36 -15zM613 486q-22 0 -37.5 15t-15.5 36q0 23 15.5 38.5t37.5 15.5q21 0 36 -15.5t15 -37.5t-15 -37t-36 -15z" />
    <glyph glyph-name="uni069E.fina" unicode="&#x69e;" horiz-adv-x="1115" 
d="M1115 -5q-31 0 -61.5 8.5t-56 23.5t-42.5 35l71 48q18 -12 42.5 -18.5t56.5 -6.5q24 0 35 -11.5t11 -31.5t-13 -33.5t-43 -13.5zM275 -232q-49 0 -91 14.5t-73.5 43t-49.5 71t-18 97.5q0 19 4 47t16 67t37 88l77 -35q-14 -33 -24 -59t-14 -49t-4 -47q0 -49 17.5 -82
t49.5 -49.5t76 -16.5q45 0 73 12.5t44.5 36t23 55.5t6.5 69q0 67 -14.5 124.5t-32.5 121.5l91 25q10 -39 16 -63t10 -39t7 -26q8 -21 23 -38.5t41.5 -30.5t68 -19.5t101.5 -6.5q46 0 84 5t66.5 15.5t47 26t28 35.5t9.5 46q0 23 -9.5 42.5t-27.5 31t-44 11.5q-30 0 -60.5 -17
t-61.5 -47.5t-60.5 -69.5t-58.5 -84l-90 7q16 33 42.5 73.5t59.5 81t71 74.5t79.5 54.5t83.5 20.5q48 0 85 -22t59 -61t22 -92q0 -47 -20.5 -88t-61 -71t-102.5 -46.5t-146 -16.5q-59 0 -104.5 9.5t-77.5 25.5t-50 35t-22 37l35 -45q4 -56 -8 -106.5t-41 -90t-76 -62.5
t-112 -23zM864 607q-22 0 -37.5 15t-15.5 37t15.5 37.5t37.5 15.5q21 0 36 -15.5t15 -37.5t-15 -37t-36 -15zM796 487q-22 0 -37.5 15t-15.5 36q0 22 15.5 38t37.5 16q21 0 36 -16t15 -37q0 -22 -15 -37t-36 -15zM935 487q-22 0 -37.5 15t-15.5 36q0 23 15.5 38.5t37.5 15.5
q21 0 36 -15.5t15 -37.5t-15 -37t-36 -15z" />
    <glyph glyph-name="uni069F.init" unicode="&#x69f;" horiz-adv-x="590" 
d="M0 -5l9 90h189q59 0 107.5 6.5t83.5 21t54.5 38.5t19.5 59q0 20 -8 39.5t-25.5 31.5t-46.5 12q-35 0 -69.5 -21t-66 -54t-59 -71t-48.5 -72l-94 5q33 59 72 114t82.5 98.5t91 69t95.5 25.5t85.5 -22t59 -60.5t21.5 -88.5q0 -60 -31 -104t-87 -72q-29 -15 -66 -24.5
t-80 -15t-91 -5.5h-198zM97 99l-19 608h92l19 -512zM367 603q-22 0 -37.5 15t-15.5 37t15.5 37.5t37.5 15.5q21 0 36 -15.5t15 -37.5t-15 -37t-36 -15zM299 483q-22 0 -37.5 15t-15.5 36q0 22 15.5 38t37.5 16q21 0 36 -16t15 -37q0 -22 -15 -37t-36 -15zM438 483
q-22 0 -37.5 15t-15.5 36q0 23 15.5 38.5t37.5 15.5q21 0 36 -15.5t15 -37.5t-15 -37t-36 -15z" />
    <glyph glyph-name="uni069F.medi" unicode="&#x69f;" horiz-adv-x="596" 
d="M596 -5q-31 0 -61.5 8.5t-55.5 23.5t-42 35l70 48q18 -12 42.5 -18.5t56.5 -6.5q24 0 35.5 -11.5t11.5 -31.5t-13 -33.5t-44 -13.5zM0 -5l9 90h189q59 0 107.5 6.5t83.5 21t54.5 38.5t19.5 59q0 20 -8 39.5t-25.5 31.5t-46.5 12q-35 0 -69.5 -21t-66 -54t-59 -71
t-48.5 -72l-94 5q33 59 72 114t82.5 98.5t91 69t95.5 25.5t85.5 -22t59 -60.5t21.5 -88.5q0 -60 -31 -104t-87 -72q-29 -15 -66 -24.5t-80 -15t-91 -5.5h-198zM97 99l-19 608h92l19 -512zM367 603q-22 0 -37.5 15t-15.5 37t15.5 37.5t37.5 15.5q21 0 36 -15.5t15 -37.5
t-15 -37t-36 -15zM299 483q-22 0 -37.5 15t-15.5 36q0 22 15.5 38t37.5 16q21 0 36 -16t15 -37q0 -22 -15 -37t-36 -15zM438 483q-22 0 -37.5 15t-15.5 36q0 23 15.5 38.5t37.5 15.5q21 0 36 -15.5t15 -37.5t-15 -37t-36 -15z" />
    <glyph glyph-name="uni069F.fina" unicode="&#x69f;" horiz-adv-x="668" 
d="M668 -5q-31 0 -61.5 8.5t-55.5 23.5t-42 35l70 48q18 -12 43 -18.5t56 -6.5q24 0 35.5 -11.5t11.5 -31.5t-13 -33.5t-44 -13.5zM288 -13q-34 0 -72.5 1.5t-77 4t-71.5 6t-58 7.5l11 89q35 -4 65.5 -7t61 -5t66 -3t80.5 -1q57 0 101 7.5t74 23t46 39.5t16 57q0 22 -9 41.5
t-26.5 32t-46.5 12.5q-33 0 -67 -21.5t-66.5 -55t-60 -71.5t-47.5 -71l-93 7q31 57 70 111.5t83.5 98t92 69.5t94.5 26q46 0 83.5 -21.5t59.5 -60.5t22 -93q0 -66 -37.5 -116.5t-111.5 -78.5t-182 -28zM163 98l-19 609h92l19 -513zM435 601q-22 0 -37.5 15t-15.5 37
t15.5 37.5t37.5 15.5q21 0 36 -15.5t15 -37.5t-15 -37t-36 -15zM367 481q-22 0 -37.5 15t-15.5 36q0 22 15.5 38t37.5 16q21 0 36 -16t15 -37q0 -22 -15 -37t-36 -15zM506 481q-22 0 -37.5 15t-15.5 36q0 23 15.5 38.5t37.5 15.5q21 0 36 -15.5t15 -37.5t-15 -37t-36 -15z
" />
    <glyph glyph-name="uni06A0.init" unicode="&#x6a0;" horiz-adv-x="427" 
d="M0 -5l10 90q32 0 56 1t46 3t46 6q-23 12 -47 37t-40.5 60.5t-16.5 79.5q0 58 26 98.5t69.5 62t95.5 21.5q21 0 39 -3t40 -10l-16 -82q-16 4 -29 6t-27 2q-29 0 -53.5 -12t-39 -34t-14.5 -53q0 -26 9.5 -48t26 -39.5t35 -30.5t36.5 -20.5t30 -8.5q13 4 21.5 6t17 5
t19.5 7.5t29 11.5l29 -77q-54 -24 -114.5 -42t-130.5 -27.5t-153 -9.5zM217 676q-22 0 -37.5 15t-15.5 37t15.5 37.5t37.5 15.5q21 0 36 -15.5t15 -37.5t-15 -37t-36 -15zM149 556q-22 0 -37.5 15t-15.5 36q0 22 15.5 38t37.5 16q21 0 36 -16t15 -37q0 -22 -15 -37t-36 -15z
M288 556q-22 0 -37.5 15t-15.5 36q0 23 15.5 38.5t37.5 15.5q21 0 36 -15.5t15 -37.5t-15 -37t-36 -15z" />
    <glyph glyph-name="uni06A0.medi" unicode="&#x6a0;" horiz-adv-x="437" 
d="M0 -5l10 90q50 0 94.5 12t81.5 33t64 48t42 55.5t15 55.5q0 20 -10.5 31.5t-27 16.5t-33.5 5q-18 0 -38.5 -5.5t-40.5 -16t-34 -26.5q18 -18 39.5 -41.5t42.5 -51t40 -58.5q16 -13 36.5 -23.5t44.5 -18t54.5 -12t67.5 -4.5q23 0 34.5 -11.5t11.5 -31.5q0 -23 -14.5 -35
t-41.5 -12q-55 0 -99.5 9.5t-81.5 29t-73 49.5q-22 35 -44.5 63t-43 50.5t-36.5 39.5q-3 3 -6.5 13.5t-6 23t-2.5 19.5q0 22 16.5 46.5t44 44.5t62.5 33t73 13q40 0 75 -11.5t56.5 -39t21.5 -75.5q0 -47 -20 -92t-57 -84t-86.5 -68.5t-108 -46.5t-122.5 -17zM232 651
q-22 0 -37.5 15t-15.5 37t15.5 37.5t37.5 15.5q21 0 36 -15.5t15 -37.5t-15 -37t-36 -15zM164 531q-22 0 -37.5 15t-15.5 36q0 22 15.5 38t37.5 16q21 0 36 -16t15 -37q0 -22 -15 -37t-36 -15zM303 531q-22 0 -37.5 15t-15.5 36q0 23 15.5 38.5t37.5 15.5q21 0 36 -15.5
t15 -37.5t-15 -37t-36 -15z" />
    <glyph glyph-name="uni06A0.fina" unicode="&#x6a0;" horiz-adv-x="439" 
d="M256 -378q-45 0 -91 10t-84.5 34.5t-62.5 65.5t-24 103q0 57 23 103t58.5 83.5t76 70t76.5 63.5t59 63t23 70q1 15 -7.5 27.5t-24.5 19.5t-40 7q-17 0 -37 -5.5t-39.5 -16.5t-35.5 -26q25 -26 46 -49t41 -48t41 -57q19 -15 40 -25.5t45 -17t51.5 -9.5t58.5 -3
q21 0 34 -10.5t13 -32.5t-13.5 -34.5t-43.5 -12.5q-54 0 -99.5 9.5t-84.5 30.5t-74 55q-18 29 -38.5 55.5t-41 49.5t-37.5 40q-3 4 -7 15t-6 23.5t-2 16.5q0 25 16.5 49.5t44.5 45t63 32.5t73 12q76 0 113.5 -35.5t38.5 -90.5q0 -50 -22.5 -91.5t-57.5 -77.5t-75.5 -69.5
t-76 -67t-58 -71t-22.5 -82.5q0 -40 15.5 -66t40.5 -40.5t55 -20t60 -5.5q23 0 46 1.5t51.5 9t65.5 23.5l31 -72q-30 -18 -64.5 -29.5t-68 -17t-62.5 -5.5zM235 651q-22 0 -37.5 15t-15.5 37t15.5 37.5t37.5 15.5q21 0 36 -15.5t15 -37.5t-15 -37t-36 -15zM167 531
q-22 0 -37.5 15t-15.5 36q0 22 15.5 38t37.5 16q21 0 36 -16t15 -37q0 -22 -15 -37t-36 -15zM306 531q-22 0 -37.5 15t-15.5 36q0 23 15.5 38.5t37.5 15.5q21 0 36 -15.5t15 -37.5t-15 -37t-36 -15z" />
    <glyph glyph-name="uni06A1.init" unicode="&#x6a1;" horiz-adv-x="388" 
d="M0 -5l9 90h46.5t49 1.5t47 5.5t40.5 12q26 11 41.5 32.5t22.5 54.5t7 77q0 46 -7.5 83.5t-22 59.5t-37.5 22q-16 0 -30 -15t-22.5 -41t-8.5 -61q0 -25 9.5 -39.5t26.5 -20.5t36 -6t38.5 4.5t34.5 14.5l4 -72q-11 -10 -27 -17t-33 -10t-34 -3q-50 0 -82.5 19t-47 50
t-14.5 67q0 40 11 78.5t31.5 69.5t49 49t64.5 18q49 0 82.5 -33t50 -91t16.5 -132t-23 -133.5t-77 -92.5q-23 -14 -51 -22t-60 -12t-67 -5.5t-73 -1.5z" />
    <glyph glyph-name="uni06A1.medi" unicode="&#x6a1;" horiz-adv-x="407" 
d="M0 -5l9 90q21 0 44 1.5t46 5.5t44 10t39 15q27 13 47.5 32.5t31.5 44t11 52.5q0 25 -8 47.5t-22 36.5t-30 14q-15 0 -30 -13.5t-24.5 -36.5t-9.5 -50q0 -32 13.5 -57t35.5 -43t47 -32l-89 -37q-21 17 -44 40t-38.5 56t-15.5 77q0 34 12 66.5t33 59t50 42t62 15.5
q44 0 77.5 -25t53 -65t19.5 -86q0 -37 -10 -68t-28 -56t-41.5 -45.5t-50.5 -36.5q-25 -15 -54 -25.5t-59.5 -16.5t-61.5 -9t-59 -3zM407 -5q-38 0 -78 6t-77 17t-66 26l66 59q28 -6 58.5 -10.5t59 -6t47.5 -1.5q24 0 35 -11.5t11 -31.5t-12.5 -33.5t-43.5 -13.5z" />
    <glyph glyph-name="uni06A1.fina" unicode="&#x6a1;" horiz-adv-x="908" 
d="M310 -21l25 90q45 0 92.5 2.5t93.5 8.5t86.5 15t70.5 22q33 15 54.5 33.5t32 41.5t10.5 50q0 18 -4 36t-12 33t-19.5 24t-25.5 9q-18 0 -33.5 -15.5t-23.5 -40t-8 -51.5q0 -30 13 -53.5t34.5 -40.5t45.5 -30l-86 -38q-21 17 -44 38.5t-38.5 52.5t-15.5 75q0 35 11.5 68.5
t32 61t50 44t64.5 16.5q46 0 80 -26.5t52.5 -68t18.5 -87.5q0 -33 -10.5 -61.5t-28.5 -53.5t-42 -45t-51 -36q-38 -21 -89 -35.5t-108.5 -23t-116.5 -12t-111 -3.5zM908 -5q-38 0 -78.5 5.5t-77 16.5t-65.5 27l67 59q23 -6 53.5 -10t60.5 -6t50 -2q24 0 35 -11.5t11 -31.5
t-12.5 -33.5t-43.5 -13.5zM310 -21q-59 0 -110 11t-89 34.5t-59 60.5t-21 91q0 27 5 57t13 59.5t15 54.5l81 -23q-5 -15 -10.5 -37.5t-9.5 -46.5t-4 -45q0 -37 18 -65.5t65 -44.5t131 -16l20 -58z" />
    <glyph glyph-name="fehDotMovedbelowar.init" unicode="&#x6a2;" horiz-adv-x="388" 
d="M0 -5l9 90h46.5t49 1.5t47 5.5t40.5 12q26 11 41.5 32.5t22.5 54.5t7 77q0 46 -7.5 83.5t-22 59.5t-37.5 22q-16 0 -30 -15t-22.5 -41t-8.5 -61q0 -25 9.5 -39.5t26.5 -20.5t36 -6t38.5 4.5t34.5 14.5l4 -72q-11 -10 -27 -17t-33 -10t-34 -3q-50 0 -82.5 19t-47 50
t-14.5 67q0 40 11 78.5t31.5 69.5t49 49t64.5 18q49 0 82.5 -33t50 -91t16.5 -132t-23 -133.5t-77 -92.5q-23 -14 -51 -22t-60 -12t-67 -5.5t-73 -1.5zM162 -216q-22 0 -37.5 15t-15.5 36q0 22 15 38t38 16q21 0 36 -16t15 -37q0 -22 -15 -37t-36 -15z" />
    <glyph glyph-name="fehDotMovedbelowar.medi" unicode="&#x6a2;" horiz-adv-x="407" 
d="M0 -5l9 90q21 0 44 1.5t46 5.5t44 10t39 15q27 13 47.5 32.5t31.5 44t11 52.5q0 25 -8 47.5t-22 36.5t-30 14q-15 0 -30 -13.5t-24.5 -36.5t-9.5 -50q0 -32 13.5 -57t35.5 -43t47 -32l-89 -37q-21 17 -44 40t-38.5 56t-15.5 77q0 34 12 66.5t33 59t50 42t62 15.5
q44 0 77.5 -25t53 -65t19.5 -86q0 -37 -10 -68t-28 -56t-41.5 -45.5t-50.5 -36.5q-25 -15 -54 -25.5t-59.5 -16.5t-61.5 -9t-59 -3zM407 -5q-38 0 -78 6t-77 17t-66 26l66 59q28 -6 58.5 -10.5t59 -6t47.5 -1.5q24 0 35 -11.5t11 -31.5t-12.5 -33.5t-43.5 -13.5zM203 -216
q-22 0 -37.5 15t-15.5 36q0 22 15 38t38 16q21 0 36 -16t15 -37q0 -22 -15 -37t-36 -15z" />
    <glyph glyph-name="fehDotMovedbelowar.fina" unicode="&#x6a2;" horiz-adv-x="908" 
d="M310 -21l25 90q45 0 92.5 2.5t93.5 8.5t86.5 15t70.5 22q33 15 54.5 33.5t32 41.5t10.5 50q0 18 -4 36t-12 33t-19.5 24t-25.5 9q-18 0 -33.5 -15.5t-23.5 -40t-8 -51.5q0 -30 13 -53.5t34.5 -40.5t45.5 -30l-86 -38q-21 17 -44 38.5t-38.5 52.5t-15.5 75q0 35 11.5 68.5
t32 61t50 44t64.5 16.5q46 0 80 -26.5t52.5 -68t18.5 -87.5q0 -33 -10.5 -61.5t-28.5 -53.5t-42 -45t-51 -36q-38 -21 -89 -35.5t-108.5 -23t-116.5 -12t-111 -3.5zM908 -5q-38 0 -78.5 5.5t-77 16.5t-65.5 27l67 59q23 -6 53.5 -10t60.5 -6t50 -2q24 0 35 -11.5t11 -31.5
t-12.5 -33.5t-43.5 -13.5zM310 -21q-59 0 -110 11t-89 34.5t-59 60.5t-21 91q0 27 5 57t13 59.5t15 54.5l81 -23q-5 -15 -10.5 -37.5t-9.5 -46.5t-4 -45q0 -37 18 -65.5t65 -44.5t131 -16l20 -58zM392 -217q-22 0 -37.5 15t-15.5 36q0 22 15 38t38 16q21 0 36 -16t15 -37
q0 -22 -15 -37t-36 -15z" />
    <glyph glyph-name="uni06A3.init" unicode="&#x6a3;" horiz-adv-x="388" 
d="M0 -5l9 90h46.5t49 1.5t47 5.5t40.5 12q26 11 41.5 32.5t22.5 54.5t7 77q0 46 -7.5 83.5t-22 59.5t-37.5 22q-16 0 -30 -15t-22.5 -41t-8.5 -61q0 -25 9.5 -39.5t26.5 -20.5t36 -6t38.5 4.5t34.5 14.5l4 -72q-11 -10 -27 -17t-33 -10t-34 -3q-50 0 -82.5 19t-47 50
t-14.5 67q0 40 11 78.5t31.5 69.5t49 49t64.5 18q49 0 82.5 -33t50 -91t16.5 -132t-23 -133.5t-77 -92.5q-23 -14 -51 -22t-60 -12t-67 -5.5t-73 -1.5zM186 620q-22 0 -37.5 15t-15.5 36q0 22 15 38t38 16q21 0 36 -16t15 -37q0 -22 -15 -37t-36 -15zM162 -216
q-22 0 -37.5 15t-15.5 36q0 22 15 38t38 16q21 0 36 -16t15 -37q0 -22 -15 -37t-36 -15z" />
    <glyph glyph-name="uni06A3.medi" unicode="&#x6a3;" horiz-adv-x="407" 
d="M0 -5l9 90q21 0 44 1.5t46 5.5t44 10t39 15q27 13 47.5 32.5t31.5 44t11 52.5q0 25 -8 47.5t-22 36.5t-30 14q-15 0 -30 -13.5t-24.5 -36.5t-9.5 -50q0 -32 13.5 -57t35.5 -43t47 -32l-89 -37q-21 17 -44 40t-38.5 56t-15.5 77q0 34 12 66.5t33 59t50 42t62 15.5
q44 0 77.5 -25t53 -65t19.5 -86q0 -37 -10 -68t-28 -56t-41.5 -45.5t-50.5 -36.5q-25 -15 -54 -25.5t-59.5 -16.5t-61.5 -9t-59 -3zM407 -5q-38 0 -78 6t-77 17t-66 26l66 59q28 -6 58.5 -10.5t59 -6t47.5 -1.5q24 0 35 -11.5t11 -31.5t-12.5 -33.5t-43.5 -13.5zM213 533
q-22 0 -37.5 15t-15.5 36q0 22 15 38t38 16q21 0 36 -16t15 -37q0 -22 -15 -37t-36 -15zM203 -216q-22 0 -37.5 15t-15.5 36q0 22 15 38t38 16q21 0 36 -16t15 -37q0 -22 -15 -37t-36 -15z" />
    <glyph glyph-name="uni06A3.fina" unicode="&#x6a3;" horiz-adv-x="908" 
d="M310 -21l25 90q45 0 92.5 2.5t93.5 8.5t86.5 15t70.5 22q33 15 54.5 33.5t32 41.5t10.5 50q0 18 -4 36t-12 33t-19.5 24t-25.5 9q-18 0 -33.5 -15.5t-23.5 -40t-8 -51.5q0 -30 13 -53.5t34.5 -40.5t45.5 -30l-86 -38q-21 17 -44 38.5t-38.5 52.5t-15.5 75q0 35 11.5 68.5
t32 61t50 44t64.5 16.5q46 0 80 -26.5t52.5 -68t18.5 -87.5q0 -33 -10.5 -61.5t-28.5 -53.5t-42 -45t-51 -36q-38 -21 -89 -35.5t-108.5 -23t-116.5 -12t-111 -3.5zM908 -5q-38 0 -78.5 5.5t-77 16.5t-65.5 27l67 59q23 -6 53.5 -10t60.5 -6t50 -2q24 0 35 -11.5t11 -31.5
t-12.5 -33.5t-43.5 -13.5zM310 -21q-59 0 -110 11t-89 34.5t-59 60.5t-21 91q0 27 5 57t13 59.5t15 54.5l81 -23q-5 -15 -10.5 -37.5t-9.5 -46.5t-4 -45q0 -37 18 -65.5t65 -44.5t131 -16l20 -58zM716 533q-22 0 -37.5 15t-15.5 36q0 22 15 38t38 16q21 0 36 -16t15 -37
q0 -22 -15 -37t-36 -15zM392 -217q-22 0 -37.5 15t-15.5 36q0 22 15 38t38 16q21 0 36 -16t15 -37q0 -22 -15 -37t-36 -15z" />
    <glyph glyph-name="uni06A5.init" unicode="&#x6a5;" horiz-adv-x="388" 
d="M0 -5l9 90h46.5t49 1.5t47 5.5t40.5 12q26 11 41.5 32.5t22.5 54.5t7 77q0 46 -7.5 83.5t-22 59.5t-37.5 22q-16 0 -30 -15t-22.5 -41t-8.5 -61q0 -25 9.5 -39.5t26.5 -20.5t36 -6t38.5 4.5t34.5 14.5l4 -72q-11 -10 -27 -17t-33 -10t-34 -3q-50 0 -82.5 19t-47 50
t-14.5 67q0 40 11 78.5t31.5 69.5t49 49t64.5 18q49 0 82.5 -33t50 -91t16.5 -132t-23 -133.5t-77 -92.5q-23 -14 -51 -22t-60 -12t-67 -5.5t-73 -1.5zM161 -332q-21 0 -36.5 15t-15.5 35q0 22 15.5 37t36.5 15t35.5 -15t14.5 -36t-14.5 -36t-35.5 -15zM92 -212
q-21 0 -36 14.5t-15 35.5t15 36.5t37 15.5q20 0 35 -15.5t15 -36.5t-15 -35.5t-36 -14.5zM231 -212q-22 0 -37 14.5t-15 35.5t15 36.5t37 15.5q21 0 35.5 -15.5t14.5 -36.5t-15 -35.5t-35 -14.5z" />
    <glyph glyph-name="uni06A5.medi" unicode="&#x6a5;" horiz-adv-x="407" 
d="M0 -5l9 90q21 0 44 1.5t46 5.5t44 10t39 15q27 13 47.5 32.5t31.5 44t11 52.5q0 25 -8 47.5t-22 36.5t-30 14q-15 0 -30 -13.5t-24.5 -36.5t-9.5 -50q0 -32 13.5 -57t35.5 -43t47 -32l-89 -37q-21 17 -44 40t-38.5 56t-15.5 77q0 34 12 66.5t33 59t50 42t62 15.5
q44 0 77.5 -25t53 -65t19.5 -86q0 -37 -10 -68t-28 -56t-41.5 -45.5t-50.5 -36.5q-25 -15 -54 -25.5t-59.5 -16.5t-61.5 -9t-59 -3zM407 -5q-38 0 -78 6t-77 17t-66 26l66 59q28 -6 58.5 -10.5t59 -6t47.5 -1.5q24 0 35 -11.5t11 -31.5t-12.5 -33.5t-43.5 -13.5zM202 -332
q-21 0 -36.5 15t-15.5 35q0 22 15.5 37t36.5 15t35.5 -15t14.5 -36t-14.5 -36t-35.5 -15zM133 -212q-21 0 -36 14.5t-15 35.5t15 36.5t37 15.5q20 0 35 -15.5t15 -36.5t-15 -35.5t-36 -14.5zM272 -212q-22 0 -37 14.5t-15 35.5t15 36.5t37 15.5q21 0 35.5 -15.5t14.5 -36.5
t-15 -35.5t-35 -14.5z" />
    <glyph glyph-name="uni06A5.fina" unicode="&#x6a5;" horiz-adv-x="908" 
d="M310 -21l25 90q45 0 92.5 2.5t93.5 8.5t86.5 15t70.5 22q33 15 54.5 33.5t32 41.5t10.5 50q0 18 -4 36t-12 33t-19.5 24t-25.5 9q-18 0 -33.5 -15.5t-23.5 -40t-8 -51.5q0 -30 13 -53.5t34.5 -40.5t45.5 -30l-86 -38q-21 17 -44 38.5t-38.5 52.5t-15.5 75q0 35 11.5 68.5
t32 61t50 44t64.5 16.5q46 0 80 -26.5t52.5 -68t18.5 -87.5q0 -33 -10.5 -61.5t-28.5 -53.5t-42 -45t-51 -36q-38 -21 -89 -35.5t-108.5 -23t-116.5 -12t-111 -3.5zM908 -5q-38 0 -78.5 5.5t-77 16.5t-65.5 27l67 59q23 -6 53.5 -10t60.5 -6t50 -2q24 0 35 -11.5t11 -31.5
t-12.5 -33.5t-43.5 -13.5zM310 -21q-59 0 -110 11t-89 34.5t-59 60.5t-21 91q0 27 5 57t13 59.5t15 54.5l81 -23q-5 -15 -10.5 -37.5t-9.5 -46.5t-4 -45q0 -37 18 -65.5t65 -44.5t131 -16l20 -58zM392 -333q-21 0 -36.5 15t-15.5 35q0 22 15.5 37t36.5 15t35.5 -15t14.5 -36
t-14.5 -36t-35.5 -15zM323 -213q-21 0 -36 14.5t-15 35.5t15 36.5t37 15.5q20 0 35 -15.5t15 -36.5t-15 -35.5t-36 -14.5zM462 -213q-22 0 -37 14.5t-15 35.5t15 36.5t37 15.5q21 0 35.5 -15.5t14.5 -36.5t-15 -35.5t-35 -14.5z" />
    <glyph glyph-name="uni06A7.fina" unicode="&#x6a7;" horiz-adv-x="712" 
d="M304 -273q-50 0 -99 13.5t-88.5 41.5t-63.5 72.5t-24 107.5q0 17 4 47.5t16 71.5t36 89l80 -35q-15 -35 -25 -61.5t-14.5 -51t-4.5 -52.5q0 -51 26 -85t70 -51t97 -17q33 0 62.5 4t55 12.5t47 21t38 29.5t27.5 38q17 30 25 71t8 93q0 49 -7.5 88.5t-21.5 62.5t-36 23
q-15 0 -26.5 -10.5t-19.5 -27.5t-12 -37t-4 -39q0 -21 6 -33.5t20.5 -19t37 -8.5t53.5 0h155q24 0 35 -11.5t11 -31.5q0 -21 -13 -34t-42 -13h-169q-45 0 -79.5 8.5t-57.5 25.5t-34.5 42.5t-11.5 59.5q0 38 11 76.5t31.5 70t50.5 50t66 18.5q47 0 80 -33.5t49.5 -92.5
t16.5 -134q0 -65 -12.5 -117.5t-35.5 -91.5q-22 -39 -54.5 -67t-73 -46.5t-87.5 -27.5t-99 -9zM517 448q-22 0 -37.5 15t-15.5 36q0 22 15 38t38 16q21 0 36 -16t15 -37q0 -22 -15 -37t-36 -15z" />
    <glyph glyph-name="uni06A8.init" unicode="&#x6a8;" horiz-adv-x="388" 
d="M0 -5l9 90h46.5t49 1.5t47 5.5t40.5 12q26 11 41.5 32.5t22.5 54.5t7 77q0 46 -7.5 83.5t-22 59.5t-37.5 22q-16 0 -30 -15t-22.5 -41t-8.5 -61q0 -25 9.5 -39.5t26.5 -20.5t36 -6t38.5 4.5t34.5 14.5l4 -72q-11 -10 -27 -17t-33 -10t-34 -3q-50 0 -82.5 19t-47 50
t-14.5 67q0 40 11 78.5t31.5 69.5t49 49t64.5 18q49 0 82.5 -33t50 -91t16.5 -132t-23 -133.5t-77 -92.5q-23 -14 -51 -22t-60 -12t-67 -5.5t-73 -1.5zM187 740q-22 0 -37.5 15t-15.5 37t15.5 37.5t37.5 15.5q21 0 36 -15.5t15 -37.5t-15 -37t-36 -15zM119 620
q-22 0 -37.5 15t-15.5 36q0 22 15.5 38t37.5 16q21 0 36 -16t15 -37q0 -22 -15 -37t-36 -15zM258 620q-22 0 -37.5 15t-15.5 36q0 23 15.5 38.5t37.5 15.5q21 0 36 -15.5t15 -37.5t-15 -37t-36 -15z" />
    <glyph glyph-name="uni06A8.medi" unicode="&#x6a8;" horiz-adv-x="407" 
d="M0 -5l9 90q21 0 44 1.5t46 5.5t44 10t39 15q27 13 47.5 32.5t31.5 44t11 52.5q0 25 -8 47.5t-22 36.5t-30 14q-15 0 -30 -13.5t-24.5 -36.5t-9.5 -50q0 -32 13.5 -57t35.5 -43t47 -32l-89 -37q-21 17 -44 40t-38.5 56t-15.5 77q0 34 12 66.5t33 59t50 42t62 15.5
q44 0 77.5 -25t53 -65t19.5 -86q0 -37 -10 -68t-28 -56t-41.5 -45.5t-50.5 -36.5q-25 -15 -54 -25.5t-59.5 -16.5t-61.5 -9t-59 -3zM407 -5q-38 0 -78 6t-77 17t-66 26l66 59q28 -6 58.5 -10.5t59 -6t47.5 -1.5q24 0 35 -11.5t11 -31.5t-12.5 -33.5t-43.5 -13.5zM214 653
q-22 0 -37.5 15t-15.5 37t15.5 37.5t37.5 15.5q21 0 36 -15.5t15 -37.5t-15 -37t-36 -15zM146 533q-22 0 -37.5 15t-15.5 36q0 22 15.5 38t37.5 16q21 0 36 -16t15 -37q0 -22 -15 -37t-36 -15zM285 533q-22 0 -37.5 15t-15.5 36q0 23 15.5 38.5t37.5 15.5q21 0 36 -15.5
t15 -37.5t-15 -37t-36 -15z" />
    <glyph glyph-name="uni06A8.fina" unicode="&#x6a8;" horiz-adv-x="712" 
d="M304 -273q-50 0 -99 13.5t-88.5 41.5t-63.5 72.5t-24 107.5q0 17 4 47.5t16 71.5t36 89l80 -35q-15 -35 -25 -61.5t-14.5 -51t-4.5 -52.5q0 -51 26 -85t70 -51t97 -17q33 0 62.5 4t55 12.5t47 21t38 29.5t27.5 38q17 30 25 71t8 93q0 49 -7.5 88.5t-21.5 62.5t-36 23
q-15 0 -26.5 -10.5t-19.5 -27.5t-12 -37t-4 -39q0 -21 6 -33.5t20.5 -19t37 -8.5t53.5 0h155q24 0 35 -11.5t11 -31.5q0 -21 -13 -34t-42 -13h-169q-45 0 -79.5 8.5t-57.5 25.5t-34.5 42.5t-11.5 59.5q0 38 11 76.5t31.5 70t50.5 50t66 18.5q47 0 80 -33.5t49.5 -92.5
t16.5 -134q0 -65 -12.5 -117.5t-35.5 -91.5q-22 -39 -54.5 -67t-73 -46.5t-87.5 -27.5t-99 -9zM518 568q-22 0 -37.5 15t-15.5 37t15.5 37.5t37.5 15.5q21 0 36 -15.5t15 -37.5t-15 -37t-36 -15zM450 448q-22 0 -37.5 15t-15.5 36q0 22 15.5 38t37.5 16q21 0 36 -16t15 -37
q0 -22 -15 -37t-36 -15zM589 448q-22 0 -37.5 15t-15.5 36q0 23 15.5 38.5t37.5 15.5q21 0 36 -15.5t15 -37.5t-15 -37t-36 -15z" />
    <glyph glyph-name="uni06AA.init" unicode="&#x6aa;" horiz-adv-x="741" 
d="M0 -5l10 90h295q74 0 131 2t95 7.5t57.5 18t19.5 32.5q0 15 -10.5 27.5t-34 22.5t-62.5 18t-96 15q-89 11 -140.5 24.5t-73 36t-21.5 59.5q0 42 23.5 78t64.5 66.5t95.5 54.5t114.5 42l21 -80q-82 -27 -132.5 -52.5t-73 -49t-22.5 -43.5q0 -13 10.5 -21.5t43.5 -15
t98 -14.5q80 -11 134 -25t85.5 -33t45.5 -45.5t14 -60.5q0 -45 -23 -74.5t-71 -47t-120 -25t-171 -7.5h-307z" />
    <glyph glyph-name="uni06AA.medi" unicode="&#x6aa;" horiz-adv-x="763" 
d="M763 -5q-31 0 -61.5 8.5t-55.5 23.5t-43 35l71 48q18 -12 42.5 -18.5t56.5 -6.5q24 0 35 -11.5t11 -31.5t-12.5 -33.5t-43.5 -13.5zM0 -5l10 90h295q74 0 131 2t95 7.5t57.5 18t19.5 32.5q0 15 -10.5 27.5t-34 22.5t-62.5 18t-96 15q-89 11 -140.5 24.5t-73 36
t-21.5 59.5q0 42 23.5 78t64.5 66.5t95.5 54.5t114.5 42l21 -80q-82 -27 -132.5 -52.5t-73 -49t-22.5 -43.5q0 -13 10.5 -21.5t43.5 -15t98 -14.5q80 -11 134 -25t85.5 -33t45.5 -45.5t14 -60.5q0 -45 -23 -74.5t-71 -47t-120 -25t-171 -7.5h-307z" />
    <glyph glyph-name="uni06AA.fina" unicode="&#x6aa;" horiz-adv-x="952" 
d="M952 -5q-31 0 -61.5 8.5t-55.5 23.5t-42 35l70 48q18 -12 42.5 -18.5t56.5 -6.5q24 0 35.5 -11.5t11.5 -31.5t-13 -33.5t-44 -13.5zM496 -15q-32 0 -87 1t-119.5 3t-127 6t-109.5 9l6 86q50 -3 107 -6t115.5 -5.5t113 -4t99.5 -1.5q75 0 131.5 3.5t95 11.5t57.5 22t19 34
q0 15 -10 28t-34 23t-63 18t-96 15q-90 11 -141.5 24.5t-72.5 36t-21 59.5q0 42 23.5 78t64.5 66.5t95.5 54.5t115.5 42l21 -80q-83 -27 -133.5 -53t-73 -49t-22.5 -43q0 -14 10.5 -22t43 -14.5t98.5 -14.5q80 -11 134 -25t86 -33t46 -45.5t14 -60.5q0 -45 -23.5 -76
t-71 -50.5t-120 -28.5t-171.5 -9z" />
    <glyph glyph-name="uni06AB.init" unicode="&#x6ab;" horiz-adv-x="341" 
d="M256 463q-33 0 -54.5 22.5t-21.5 54.5t21.5 54t54.5 22q32 0 54 -22t22 -54t-22 -54.5t-54 -22.5zM256 508q13 0 23 9.5t10 22.5q0 14 -10 23t-23 9q-14 0 -23.5 -9.5t-9.5 -22.5t9.5 -22.5t23.5 -9.5zM0 -5l10 90h77q32 0 52.5 6.5t31.5 17.5t15 25.5t4 30.5
q0 36 -21.5 75t-52.5 73q-28 32 -47.5 53.5t-31 35.5t-17 22t-5.5 15q0 12 2.5 29.5t6.5 33.5t10 22q10 11 28.5 27t49 37.5t77.5 50t115 65.5l43 -74q-55 -31 -97 -55t-73.5 -43.5t-56.5 -38t-47 -37.5l7 37q32 -40 67 -79.5t65.5 -80t49.5 -84.5t19 -93q0 -28 -9.5 -56
t-33 -52.5t-63.5 -38.5t-99 -14h-76z" />
    <glyph glyph-name="uni06AB.medi" unicode="&#x6ab;" horiz-adv-x="393" 
d="M256 461q-32 0 -53.5 22.5t-21.5 54.5t21.5 54.5t53.5 22.5q33 0 55 -22.5t22 -54.5t-22 -54.5t-55 -22.5zM256 507q14 0 24 9t10 22q0 14 -10 23t-24 9q-13 0 -22.5 -9t-9.5 -23q0 -13 9.5 -22t22.5 -9zM0 -5l9 90h68q38 0 63 7.5t37.5 25t12.5 47.5q0 20 -13 45.5
t-32.5 54t-42 56t-42 52t-32.5 42t-13 23.5q0 15 2.5 33t7 34t11.5 22q17 17 46.5 39t66.5 46t76.5 47.5t78.5 44.5l43 -75q-40 -22 -78.5 -44t-73 -43.5t-63.5 -41.5t-51 -39l-2 27q27 -33 51.5 -62.5t48 -61t47.5 -70t50 -89.5q25 -47 42.5 -73.5t37 -36.5t47.5 -10
q24 0 35 -11.5t11 -31.5t-12.5 -33.5t-43.5 -13.5q-37 0 -66 13t-51.5 42t-41.5 75l35 -5q-7 -37 -25.5 -61.5t-45 -38.5t-59 -19.5t-67.5 -5.5h-72z" />
    <glyph glyph-name="uni06AB.fina" unicode="&#x6ab;" horiz-adv-x="826" 
d="M679 455q-32 0 -53.5 22.5t-21.5 54.5t21.5 54.5t53.5 22.5q33 0 55 -22.5t22 -54.5t-22 -54.5t-55 -22.5zM679 501q14 0 24 9t10 22q0 14 -10 23t-24 9q-13 0 -22.5 -9t-9.5 -23q0 -13 9.5 -22t22.5 -9zM310 -21l25 90q72 0 125.5 5t89.5 16t54 28.5t18 43.5
q0 21 -12.5 48t-32.5 55.5t-42 55.5t-42 51t-32.5 42t-12.5 25q0 13 2 30t6.5 32.5t11.5 23.5q25 26 69 56.5t97 62.5t103 60l43 -74q-61 -35 -110.5 -64.5t-89 -56.5t-72.5 -54l3 34q23 -26 50.5 -59t55 -72t52.5 -79t43 -80q17 -35 31 -57.5t28 -35t29.5 -17t35.5 -4.5
q24 0 35 -11.5t11 -31.5t-12 -33.5t-43 -13.5q-38 0 -68.5 15t-53 44t-36.5 71l33 -2q-12 -46 -42 -74t-78 -43.5t-115.5 -21t-156.5 -5.5zM310 -21q-59 0 -110 11t-89 34.5t-59 60.5t-21 91q0 27 5 57t13 59.5t15 54.5l81 -23q-5 -15 -10.5 -37.5t-9.5 -46.5t-4 -45
q0 -37 18 -65.5t65 -44.5t131 -16l20 -58z" />
    <glyph glyph-name="uni06AC.init" unicode="&#x6ac;" horiz-adv-x="341" 
d="M0 -5l10 90h77q32 0 52.5 6.5t31.5 17.5t15 25.5t4 30.5q0 36 -21.5 75t-52.5 73q-28 32 -47.5 53.5t-31 35.5t-17 22t-5.5 15q0 12 2.5 29.5t6.5 33.5t10 22q10 11 28.5 27t49 37.5t77.5 50t115 65.5l43 -74q-55 -31 -97 -55t-73.5 -43.5t-56.5 -38t-47 -37.5l7 37
q32 -40 67 -79.5t65.5 -80t49.5 -84.5t19 -93q0 -28 -9.5 -56t-33 -52.5t-63.5 -38.5t-99 -14h-76zM139 702q-22 0 -37.5 15t-15.5 36q0 22 15 38t38 16q21 0 36 -16t15 -37q0 -22 -15 -37t-36 -15z" />
    <glyph glyph-name="uni06AC.medi" unicode="&#x6ac;" horiz-adv-x="393" 
d="M0 -5l9 90h68q38 0 63 7.5t37.5 25t12.5 47.5q0 20 -13 45.5t-32.5 54t-42 56t-42 52t-32.5 42t-13 23.5q0 15 2.5 33t7 34t11.5 22q17 17 46.5 39t66.5 46t76.5 47.5t78.5 44.5l43 -75q-40 -22 -78.5 -44t-73 -43.5t-63.5 -41.5t-51 -39l-2 27q27 -33 51.5 -62.5t48 -61
t47.5 -70t50 -89.5q25 -47 42.5 -73.5t37 -36.5t47.5 -10q24 0 35 -11.5t11 -31.5t-12.5 -33.5t-43.5 -13.5q-37 0 -66 13t-51.5 42t-41.5 75l35 -5q-7 -37 -25.5 -61.5t-45 -38.5t-59 -19.5t-67.5 -5.5h-72zM142 701q-22 0 -37.5 15t-15.5 36q0 22 15 38t38 16q21 0 36 -16
t15 -37q0 -22 -15 -37t-36 -15z" />
    <glyph glyph-name="uni06AC.fina" unicode="&#x6ac;" horiz-adv-x="819" 
d="M310 -21l25 90q94 0 151.5 7t89 24.5t42 47.5t8.5 74l-20 485h91l20 -482q3 -54 18 -85t39.5 -43t54.5 -12q24 0 35.5 -11.5t11.5 -31.5t-13 -33.5t-43 -13.5q-44 0 -74.5 14t-48 38t-23.5 54l34 -1q-21 -36 -53 -59.5t-78.5 -37t-112 -19t-154.5 -5.5zM303 220l-20 68
q38 10 61.5 17t34 14t10.5 15q0 9 -10 18.5t-23.5 20t-23.5 24t-10 32.5q0 18 11 37.5t37 39.5t71 41l32 -61q-41 -18 -60 -32t-19 -26q0 -9 10.5 -19t23.5 -22.5t23 -27t10 -33.5q0 -14 -5.5 -27.5t-22 -26.5t-47.5 -26t-83 -26zM310 -21q-59 0 -110 11t-89 34.5t-59 60.5
t-21 91q0 27 5 57t13 59.5t15 54.5l81 -23q-5 -15 -10.5 -37.5t-9.5 -46.5t-4 -45q0 -37 18 -65.5t65 -44.5t131 -16l20 -58zM388 638q-22 0 -37.5 15t-15.5 36q0 22 15 38t38 16q21 0 36 -16t15 -37q0 -22 -15 -37t-36 -15z" />
    <glyph glyph-name="uni06AE.init" unicode="&#x6ae;" horiz-adv-x="341" 
d="M0 -5l10 90h77q32 0 52.5 6.5t31.5 17.5t15 25.5t4 30.5q0 36 -21.5 75t-52.5 73q-28 32 -47.5 53.5t-31 35.5t-17 22t-5.5 15q0 12 2.5 29.5t6.5 33.5t10 22q10 11 28.5 27t49 37.5t77.5 50t115 65.5l43 -74q-55 -31 -97 -55t-73.5 -43.5t-56.5 -38t-47 -37.5l7 37
q32 -40 67 -79.5t65.5 -80t49.5 -84.5t19 -93q0 -28 -9.5 -56t-33 -52.5t-63.5 -38.5t-99 -14h-76zM150 -312q-21 0 -36.5 15t-15.5 35q0 22 15.5 37t36.5 15t35.5 -15t14.5 -36t-14.5 -36t-35.5 -15zM81 -192q-21 0 -36 14.5t-15 35.5t15 36.5t37 15.5q20 0 35 -15.5
t15 -36.5t-15 -35.5t-36 -14.5zM220 -192q-22 0 -37 14.5t-15 35.5t15 36.5t37 15.5q21 0 35.5 -15.5t14.5 -36.5t-15 -35.5t-35 -14.5z" />
    <glyph glyph-name="uni06AE.medi" unicode="&#x6ae;" horiz-adv-x="393" 
d="M0 -5l9 90h68q38 0 63 7.5t37.5 25t12.5 47.5q0 20 -13 45.5t-32.5 54t-42 56t-42 52t-32.5 42t-13 23.5q0 15 2.5 33t7 34t11.5 22q17 17 46.5 39t66.5 46t76.5 47.5t78.5 44.5l43 -75q-40 -22 -78.5 -44t-73 -43.5t-63.5 -41.5t-51 -39l-2 27q27 -33 51.5 -62.5t48 -61
t47.5 -70t50 -89.5q25 -47 42.5 -73.5t37 -36.5t47.5 -10q24 0 35 -11.5t11 -31.5t-12.5 -33.5t-43.5 -13.5q-37 0 -66 13t-51.5 42t-41.5 75l35 -5q-7 -37 -25.5 -61.5t-45 -38.5t-59 -19.5t-67.5 -5.5h-72zM153 -312q-21 0 -36.5 15t-15.5 35q0 22 15.5 37t36.5 15
t35.5 -15t14.5 -36t-14.5 -36t-35.5 -15zM84 -192q-21 0 -36 14.5t-15 35.5t15 36.5t37 15.5q20 0 35 -15.5t15 -36.5t-15 -35.5t-36 -14.5zM223 -192q-22 0 -37 14.5t-15 35.5t15 36.5t37 15.5q21 0 35.5 -15.5t14.5 -36.5t-15 -35.5t-35 -14.5z" />
    <glyph glyph-name="uni06AE.fina" unicode="&#x6ae;" horiz-adv-x="819" 
d="M310 -21l25 90q94 0 151.5 7t89 24.5t42 47.5t8.5 74l-20 485h91l20 -482q3 -54 18 -85t39.5 -43t54.5 -12q24 0 35.5 -11.5t11.5 -31.5t-13 -33.5t-43 -13.5q-44 0 -74.5 14t-48 38t-23.5 54l34 -1q-21 -36 -53 -59.5t-78.5 -37t-112 -19t-154.5 -5.5zM303 220l-20 68
q38 10 61.5 17t34 14t10.5 15q0 9 -10 18.5t-23.5 20t-23.5 24t-10 32.5q0 18 11 37.5t37 39.5t71 41l32 -61q-41 -18 -60 -32t-19 -26q0 -9 10.5 -19t23.5 -22.5t23 -27t10 -33.5q0 -14 -5.5 -27.5t-22 -26.5t-47.5 -26t-83 -26zM310 -21q-59 0 -110 11t-89 34.5t-59 60.5
t-21 91q0 27 5 57t13 59.5t15 54.5l81 -23q-5 -15 -10.5 -37.5t-9.5 -46.5t-4 -45q0 -37 18 -65.5t65 -44.5t131 -16l20 -58zM334 -333q-21 0 -36.5 15t-15.5 35q0 22 15.5 37t36.5 15t35.5 -15t14.5 -36t-14.5 -36t-35.5 -15zM265 -213q-21 0 -36 14.5t-15 35.5t15 36.5
t37 15.5q20 0 35 -15.5t15 -36.5t-15 -35.5t-36 -14.5zM404 -213q-22 0 -37 14.5t-15 35.5t15 36.5t37 15.5q21 0 35.5 -15.5t14.5 -36.5t-15 -35.5t-35 -14.5z" />
    <glyph glyph-name="uni06B0.init" unicode="&#x6b0;" horiz-adv-x="338" 
d="M257 464q-33 0 -54.5 22t-21.5 54t21.5 54.5t54.5 22.5q32 0 54 -22.5t22 -54.5t-22 -54t-54 -22zM257 509q13 0 23 9t10 22q0 14 -10 23t-23 9q-14 0 -23.5 -9t-9.5 -23q0 -13 9.5 -22t23.5 -9zM32 605l-41 67q39 25 77 48.5t79 47.5t89 52l41 -70q-48 -26 -89.5 -50.5
t-79.5 -48t-76 -46.5zM0 -5l10 90h77q32 0 52.5 6.5t31.5 17.5t15 25.5t4 30.5q0 36 -21.5 75t-52.5 73q-28 32 -47.5 53.5t-31 35.5t-17 22t-5.5 15q0 12 2.5 29.5t6.5 33.5t10 22q10 11 28.5 27t49 37.5t77.5 50t115 65.5l43 -74q-55 -31 -97 -55t-73.5 -43.5t-56.5 -38
t-47 -37.5l7 37q32 -40 67 -79.5t65.5 -80t49.5 -84.5t19 -93q0 -28 -9.5 -56t-33 -52.5t-63.5 -38.5t-99 -14h-76z" />
    <glyph glyph-name="uni06B0.medi" unicode="&#x6b0;" horiz-adv-x="393" 
d="M266 467q-32 0 -54 22.5t-22 53.5q0 33 22 55t54 22t54 -22t22 -55q0 -31 -22 -53.5t-54 -22.5zM266 512q13 0 23 9t10 22q0 14 -10 23.5t-23 9.5q-14 0 -23.5 -9.5t-9.5 -23.5q0 -13 9.5 -22t23.5 -9zM32 605l-42 67q39 25 77 48.5t79.5 47.5t88.5 52l41 -70
q-47 -26 -89 -50.5t-80 -48t-75 -46.5zM0 -5l9 90h68q38 0 63 7.5t37.5 25t12.5 47.5q0 20 -13 45.5t-32.5 54t-42 56t-42 52t-32.5 42t-13 23.5q0 15 2.5 33t7 34t11.5 22q17 17 46.5 39t66.5 46t76.5 47.5t78.5 44.5l43 -75q-40 -22 -78.5 -44t-73 -43.5t-63.5 -41.5
t-51 -39l-2 27q27 -33 51.5 -62.5t48 -61t47.5 -70t50 -89.5q25 -47 42.5 -73.5t37 -36.5t47.5 -10q24 0 35 -11.5t11 -31.5t-12.5 -33.5t-43.5 -13.5q-37 0 -66 13t-51.5 42t-41.5 75l35 -5q-7 -37 -25.5 -61.5t-45 -38.5t-59 -19.5t-67.5 -5.5h-72z" />
    <glyph glyph-name="uni06B0.fina" unicode="&#x6b0;" horiz-adv-x="810" 
d="M684 458q-32 0 -54 22.5t-22 54.5t22 54t54 22t54 -22t22 -54t-22 -54.5t-54 -22.5zM684 504q14 0 23.5 9t9.5 22q0 14 -9.5 23t-23.5 9t-23.5 -9.5t-9.5 -22.5t9.5 -22t23.5 -9zM467 607l-41 68q39 24 77 47.5t79.5 47.5t88.5 52l41 -69q-47 -26 -88.5 -51t-80 -48.5
t-76.5 -46.5zM310 -21l25 90q72 0 125.5 5t89.5 16t54 28.5t18 43.5q0 21 -12.5 48t-32.5 55.5t-42 55.5t-42 51t-32.5 42t-12.5 25q0 13 2 30t6.5 32.5t11.5 23.5q25 26 69 56.5t97 62.5t103 60l43 -74q-61 -35 -110.5 -64.5t-89 -56.5t-72.5 -54l3 34q23 -26 50.5 -59
t55 -72t52.5 -79t43 -80q17 -35 31 -57.5t28 -35t29.5 -17t35.5 -4.5q24 0 35 -11.5t11 -31.5t-12 -33.5t-43 -13.5q-38 0 -68.5 15t-53 44t-36.5 71l33 -2q-12 -46 -42 -74t-78 -43.5t-115.5 -21t-156.5 -5.5zM310 -21q-59 0 -110 11t-89 34.5t-59 60.5t-21 91q0 27 5 57
t13 59.5t15 54.5l81 -23q-5 -15 -10.5 -37.5t-9.5 -46.5t-4 -45q0 -37 18 -65.5t65 -44.5t131 -16l20 -58z" />
    <glyph glyph-name="uni06B2.init" unicode="&#x6b2;" horiz-adv-x="338" 
d="M32 605l-41 67q39 25 77 48.5t79 47.5t89 52l41 -70q-48 -26 -89.5 -50.5t-79.5 -48t-76 -46.5zM0 -5l10 90h77q32 0 52.5 6.5t31.5 17.5t15 25.5t4 30.5q0 36 -21.5 75t-52.5 73q-28 32 -47.5 53.5t-31 35.5t-17 22t-5.5 15q0 12 2.5 29.5t6.5 33.5t10 22q10 11 28.5 27
t49 37.5t77.5 50t115 65.5l43 -74q-55 -31 -97 -55t-73.5 -43.5t-56.5 -38t-47 -37.5l7 37q32 -40 67 -79.5t65.5 -80t49.5 -84.5t19 -93q0 -28 -9.5 -56t-33 -52.5t-63.5 -38.5t-99 -14h-76zM216 -194q-22 0 -37 15t-15 36q0 22 15 37.5t37 15.5t37 -15.5t15 -36.5
q0 -22 -15.5 -37t-36.5 -15zM77 -194q-22 0 -37 15t-15 36q0 22 15 37.5t37 15.5t37 -15.5t15 -36.5q0 -22 -15.5 -37t-36.5 -15z" />
    <glyph glyph-name="uni06B2.medi" unicode="&#x6b2;" horiz-adv-x="393" 
d="M32 605l-42 67q39 25 77 48.5t79.5 47.5t88.5 52l41 -70q-47 -26 -89 -50.5t-80 -48t-75 -46.5zM0 -5l9 90h68q38 0 63 7.5t37.5 25t12.5 47.5q0 20 -13 45.5t-32.5 54t-42 56t-42 52t-32.5 42t-13 23.5q0 15 2.5 33t7 34t11.5 22q17 17 46.5 39t66.5 46t76.5 47.5
t78.5 44.5l43 -75q-40 -22 -78.5 -44t-73 -43.5t-63.5 -41.5t-51 -39l-2 27q27 -33 51.5 -62.5t48 -61t47.5 -70t50 -89.5q25 -47 42.5 -73.5t37 -36.5t47.5 -10q24 0 35 -11.5t11 -31.5t-12.5 -33.5t-43.5 -13.5q-37 0 -66 13t-51.5 42t-41.5 75l35 -5q-7 -37 -25.5 -61.5
t-45 -38.5t-59 -19.5t-67.5 -5.5h-72zM212 -194q-22 0 -37 15t-15 36q0 22 15 37.5t37 15.5t37 -15.5t15 -36.5q0 -22 -15.5 -37t-36.5 -15zM73 -194q-22 0 -37 15t-15 36q0 22 15 37.5t37 15.5t37 -15.5t15 -36.5q0 -22 -15.5 -37t-36.5 -15z" />
    <glyph glyph-name="uni06B2.fina" unicode="&#x6b2;" horiz-adv-x="810" 
d="M467 607l-41 68q39 24 77 47.5t79.5 47.5t88.5 52l41 -69q-47 -26 -88.5 -51t-80 -48.5t-76.5 -46.5zM310 -21l25 90q72 0 125.5 5t89.5 16t54 28.5t18 43.5q0 21 -12.5 48t-32.5 55.5t-42 55.5t-42 51t-32.5 42t-12.5 25q0 13 2 30t6.5 32.5t11.5 23.5q25 26 69 56.5
t97 62.5t103 60l43 -74q-61 -35 -110.5 -64.5t-89 -56.5t-72.5 -54l3 34q23 -26 50.5 -59t55 -72t52.5 -79t43 -80q17 -35 31 -57.5t28 -35t29.5 -17t35.5 -4.5q24 0 35 -11.5t11 -31.5t-12 -33.5t-43 -13.5q-38 0 -68.5 15t-53 44t-36.5 71l33 -2q-12 -46 -42 -74
t-78 -43.5t-115.5 -21t-156.5 -5.5zM310 -21q-59 0 -110 11t-89 34.5t-59 60.5t-21 91q0 27 5 57t13 59.5t15 54.5l81 -23q-5 -15 -10.5 -37.5t-9.5 -46.5t-4 -45q0 -37 18 -65.5t65 -44.5t131 -16l20 -58zM423 -215q-22 0 -37 15t-15 36q0 22 15 37.5t37 15.5t37 -15.5
t15 -36.5q0 -22 -15.5 -37t-36.5 -15zM284 -215q-22 0 -37 15t-15 36q0 22 15 37.5t37 15.5t37 -15.5t15 -36.5q0 -22 -15.5 -37t-36.5 -15z" />
    <glyph glyph-name="uni06B4.init" unicode="&#x6b4;" horiz-adv-x="338" 
d="M42 901q-21 0 -35.5 14t-14.5 34t14.5 34.5t35.5 14.5q19 0 33 -14.5t14 -34.5t-14 -34t-33 -14zM30 775q-20 0 -34.5 14t-14.5 33q0 21 14.5 35.5t34.5 14.5t34 -14.5t14 -35.5q0 -19 -14 -33t-34 -14zM147 826q-20 0 -34.5 14t-14.5 34t14.5 34.5t34.5 14.5t34 -14.5
t14 -34.5t-14 -34t-34 -14zM32 605l-41 67q39 25 77 48.5t79 47.5t89 52l41 -70q-48 -26 -89.5 -50.5t-79.5 -48t-76 -46.5zM0 -5l10 90h77q32 0 52.5 6.5t31.5 17.5t15 25.5t4 30.5q0 36 -21.5 75t-52.5 73q-28 32 -47.5 53.5t-31 35.5t-17 22t-5.5 15q0 12 2.5 29.5
t6.5 33.5t10 22q10 11 28.5 27t49 37.5t77.5 50t115 65.5l43 -74q-55 -31 -97 -55t-73.5 -43.5t-56.5 -38t-47 -37.5l7 37q32 -40 67 -79.5t65.5 -80t49.5 -84.5t19 -93q0 -28 -9.5 -56t-33 -52.5t-63.5 -38.5t-99 -14h-76z" />
    <glyph glyph-name="uni06B4.medi" unicode="&#x6b4;" horiz-adv-x="393" 
d="M38 901q-21 0 -35 14t-14 34t14 34.5t35 14.5q20 0 33.5 -14.5t13.5 -34.5t-13.5 -34t-33.5 -14zM27 775q-21 0 -35 14t-14 33q0 21 14 35.5t35 14.5q19 0 33 -14.5t14 -35.5q0 -19 -14 -33t-33 -14zM144 826q-21 0 -35.5 14t-14.5 34t14.5 34.5t35.5 14.5q19 0 33 -14.5
t14 -34.5t-14 -34t-33 -14zM32 605l-42 67q39 25 77 48.5t79.5 47.5t88.5 52l41 -70q-47 -26 -89 -50.5t-80 -48t-75 -46.5zM0 -5l9 90h68q38 0 63 7.5t37.5 25t12.5 47.5q0 20 -13 45.5t-32.5 54t-42 56t-42 52t-32.5 42t-13 23.5q0 15 2.5 33t7 34t11.5 22q17 17 46.5 39
t66.5 46t76.5 47.5t78.5 44.5l43 -75q-40 -22 -78.5 -44t-73 -43.5t-63.5 -41.5t-51 -39l-2 27q27 -33 51.5 -62.5t48 -61t47.5 -70t50 -89.5q25 -47 42.5 -73.5t37 -36.5t47.5 -10q24 0 35 -11.5t11 -31.5t-12.5 -33.5t-43.5 -13.5q-37 0 -66 13t-51.5 42t-41.5 75l35 -5
q-7 -37 -25.5 -61.5t-45 -38.5t-59 -19.5t-67.5 -5.5h-72z" />
    <glyph glyph-name="uni06B4.fina" unicode="&#x6b4;" horiz-adv-x="810" 
d="M466 902q-21 0 -35.5 13.5t-14.5 33.5q0 21 14.5 35t35.5 14q19 0 33 -14t14 -35q0 -20 -14 -33.5t-33 -13.5zM454 775q-20 0 -34.5 14t-14.5 34t14.5 34.5t34.5 14.5t34 -14.5t14 -34.5t-14 -34t-34 -14zM571 827q-20 0 -34.5 13.5t-14.5 33.5t14.5 35t34.5 15t34 -15
t14 -35t-14 -33.5t-34 -13.5zM467 607l-41 68q39 24 77 47.5t79.5 47.5t88.5 52l41 -69q-47 -26 -88.5 -51t-80 -48.5t-76.5 -46.5zM310 -21l25 90q72 0 125.5 5t89.5 16t54 28.5t18 43.5q0 21 -12.5 48t-32.5 55.5t-42 55.5t-42 51t-32.5 42t-12.5 25q0 13 2 30t6.5 32.5
t11.5 23.5q25 26 69 56.5t97 62.5t103 60l43 -74q-61 -35 -110.5 -64.5t-89 -56.5t-72.5 -54l3 34q23 -26 50.5 -59t55 -72t52.5 -79t43 -80q17 -35 31 -57.5t28 -35t29.5 -17t35.5 -4.5q24 0 35 -11.5t11 -31.5t-12 -33.5t-43 -13.5q-38 0 -68.5 15t-53 44t-36.5 71l33 -2
q-12 -46 -42 -74t-78 -43.5t-115.5 -21t-156.5 -5.5zM310 -21q-59 0 -110 11t-89 34.5t-59 60.5t-21 91q0 27 5 57t13 59.5t15 54.5l81 -23q-5 -15 -10.5 -37.5t-9.5 -46.5t-4 -45q0 -37 18 -65.5t65 -44.5t131 -16l20 -58z" />
    <glyph glyph-name="uni06B5.init" unicode="&#x6b5;" horiz-adv-x="232" 
d="M0 -5l9 90q34 0 50 12t20 42t2 82l-19 486h91l20 -483q2 -54 -3 -97t-23.5 -72.5t-54 -44.5t-92.5 -15zM83 821q-6 14 -16 38.5t-20.5 53t-20.5 54t-17 40.5l44 20q5 -9 13.5 -30.5t19 -47.5t20 -49.5t15.5 -36.5l19 -37zM139 826l-41 16q5 16 15.5 43.5t21.5 57.5t20 53
t12 30l44 -16q-4 -9 -13.5 -33t-20.5 -53.5t-21.5 -56.5t-16.5 -41z" />
    <glyph glyph-name="uni06B5.medi" unicode="&#x6b5;" horiz-adv-x="245" 
d="M0 -5l10 90q29 0 42.5 12.5t18 42.5t2.5 82l-18 485h91l19 -483q2 -53 11 -83.5t28.5 -43t50.5 -12.5q24 0 35.5 -11.5t11.5 -31.5t-12.5 -33.5t-43.5 -13.5q-29 0 -56.5 11t-47 34t-23.5 58l32 -1q-12 -34 -33.5 -57t-50.5 -34t-67 -11zM78 830q-6 14 -16 38.5t-20.5 53
t-20.5 54t-17 40.5l44 20q5 -9 13.5 -30.5t19 -47.5t20 -49.5t15.5 -36.5l19 -37zM134 835l-41 16q5 16 15.5 43.5t21.5 57.5t20 53t12 30l44 -16q-4 -9 -13.5 -33t-20.5 -53.5t-21.5 -56.5t-16.5 -41z" />
    <glyph glyph-name="uni06B5.fina" unicode="&#x6b5;" horiz-adv-x="634" 
d="M43 -5q0 18 4 46t15.5 67.5t37.5 88.5l77 -36q-15 -33 -24.5 -59.5t-14 -49.5t-4.5 -46q0 -48 19.5 -81.5t52 -49.5t72.5 -16q72 0 110 32.5t51.5 99t9.5 167.5l-18 549h93l15 -491q2 -52 16.5 -80.5t38 -39.5t50.5 -11q24 0 35 -11.5t11 -31.5t-12 -33.5t-43 -13.5
q-21 0 -41 5.5t-36.5 18t-27.5 32t-16 46.5l25 -23q-3 -64 -19 -119.5t-47 -97t-80.5 -64.5t-118.5 -23q-45 0 -86.5 14t-74 41.5t-51.5 70t-19 99.5zM218 580q-6 14 -16 38.5t-20.5 53t-20.5 54t-17 40.5l44 20q5 -9 13.5 -30.5t19 -47.5t20 -49.5t15.5 -36.5l19 -37z
M274 585l-41 16q5 16 15.5 43.5t21.5 57.5t20 53t12 30l44 -16q-4 -9 -13.5 -33t-20.5 -53.5t-21.5 -56.5t-16.5 -41z" />
    <glyph glyph-name="uni06B6.init" unicode="&#x6b6;" horiz-adv-x="232" 
d="M0 -5l9 90q34 0 50 12t20 42t2 82l-19 486h91l20 -483q2 -54 -3 -97t-23.5 -72.5t-54 -44.5t-92.5 -15zM110 800q-22 0 -37.5 15t-15.5 36q0 22 15 38t38 16q21 0 36 -16t15 -37q0 -22 -15 -37t-36 -15z" />
    <glyph glyph-name="uni06B6.medi" unicode="&#x6b6;" horiz-adv-x="245" 
d="M0 -5l10 90q29 0 42.5 12.5t18 42.5t2.5 82l-18 485h91l19 -483q2 -53 11 -83.5t28.5 -43t50.5 -12.5q24 0 35.5 -11.5t11.5 -31.5t-12.5 -33.5t-43.5 -13.5q-29 0 -56.5 11t-47 34t-23.5 58l32 -1q-12 -34 -33.5 -57t-50.5 -34t-67 -11zM104 800q-22 0 -37.5 15
t-15.5 36q0 22 15 38t38 16q21 0 36 -16t15 -37q0 -22 -15 -37t-36 -15z" />
    <glyph glyph-name="uni06B6.fina" unicode="&#x6b6;" horiz-adv-x="634" 
d="M43 -5q0 18 4 46t15.5 67.5t37.5 88.5l77 -36q-15 -33 -24.5 -59.5t-14 -49.5t-4.5 -46q0 -48 19.5 -81.5t52 -49.5t72.5 -16q72 0 110 32.5t51.5 99t9.5 167.5l-18 549h93l15 -491q2 -52 16.5 -80.5t38 -39.5t50.5 -11q24 0 35 -11.5t11 -31.5t-12 -33.5t-43 -13.5
q-21 0 -41 5.5t-36.5 18t-27.5 32t-16 46.5l25 -23q-3 -64 -19 -119.5t-47 -97t-80.5 -64.5t-118.5 -23q-45 0 -86.5 14t-74 41.5t-51.5 70t-19 99.5zM245 559q-22 0 -37.5 15t-15.5 36q0 22 15 38t38 16q21 0 36 -16t15 -37q0 -22 -15 -37t-36 -15z" />
    <glyph glyph-name="uni06B7.init" unicode="&#x6b7;" horiz-adv-x="232" 
d="M0 -5l9 90q34 0 50 12t20 42t2 82l-19 486h91l20 -483q2 -54 -3 -97t-23.5 -72.5t-54 -44.5t-92.5 -15zM111 920q-22 0 -37.5 15t-15.5 37t15.5 37.5t37.5 15.5q21 0 36 -15.5t15 -37.5t-15 -37t-36 -15zM43 800q-22 0 -37.5 15t-15.5 36q0 22 15.5 38t37.5 16
q21 0 36 -16t15 -37q0 -22 -15 -37t-36 -15zM182 800q-22 0 -37.5 15t-15.5 36q0 23 15.5 38.5t37.5 15.5q21 0 36 -15.5t15 -37.5t-15 -37t-36 -15z" />
    <glyph glyph-name="uni06B7.medi" unicode="&#x6b7;" horiz-adv-x="245" 
d="M0 -5l10 90q29 0 42.5 12.5t18 42.5t2.5 82l-18 485h91l19 -483q2 -53 11 -83.5t28.5 -43t50.5 -12.5q24 0 35.5 -11.5t11.5 -31.5t-12.5 -33.5t-43.5 -13.5q-29 0 -56.5 11t-47 34t-23.5 58l32 -1q-12 -34 -33.5 -57t-50.5 -34t-67 -11zM99 920q-22 0 -37.5 15t-15.5 37
t15.5 37.5t37.5 15.5q21 0 36 -15.5t15 -37.5t-15 -37t-36 -15zM31 800q-22 0 -37.5 15t-15.5 36q0 22 15.5 38t37.5 16q21 0 36 -16t15 -37q0 -22 -15 -37t-36 -15zM170 800q-22 0 -37.5 15t-15.5 36q0 23 15.5 38.5t37.5 15.5q21 0 36 -15.5t15 -37.5t-15 -37t-36 -15z
" />
    </font>
</defs>
</svg>
