<?xml version="1.0" standalone="no"?>
<!DOCTYPE svg PUBLIC "-//W3C//DTD SVG 1.1//EN" "http://www.w3.org/Graphics/SVG/1.1/DTD/svg11.dtd" >
<svg xmlns="http://www.w3.org/2000/svg" xmlns:xlink="http://www.w3.org/1999/xlink" version="1.1">
<metadata>
Created by FontForge 20170731 at Thu Nov 12 05:28:44 2020
 By Aleksey,,,
Copyright 2015-2020 Google LLC. All Rights Reserved.
</metadata>
<defs>
<font id="NotoSansArabicExtraCondensed-Regular" horiz-adv-x="0" >
  <font-face 
    font-family="Noto Sans Arabic ExtraCondensed"
    font-weight="400"
    font-stretch="extra-condensed"
    units-per-em="1000"
    panose-1="0 0 0 0 0 0 0 0 0 0"
    ascent="800"
    descent="-200"
    bbox="-220 -573 1884 1066"
    underline-thickness="50"
    underline-position="-175"
    unicode-range="U+000D-FEFC"
  />
<missing-glyph horiz-adv-x="600" 
d="M94 0v714h411v-714h-411zM145 51h309v612h-309v-612z" />
    <glyph glyph-name="uniFC43" unicode="&#xfedf;&#xfef0;" horiz-adv-x="842" arabic-form="isolated" 
d="M625 -5l9 74q35 0 51 13t20 43t2 80l-19 489h73l20 -480q2 -53 -3 -94t-21.5 -69t-48.5 -42t-83 -14zM48 -21q0 31 5.5 64.5t18.5 69.5t32 72l62 -31q-14 -31 -24.5 -57.5t-15.5 -51.5t-5 -50q0 -51 19.5 -81.5t49.5 -45.5t63 -20t59 -5q56 0 95.5 13.5t65.5 35t38 44
t12 40.5q0 11 -8 22.5t-26 23t-47 23.5t-71 25l18 69q63 -24 104 -38t67.5 -20.5t43.5 -8.5t31 -3q21 0 30.5 -9t9.5 -26q0 -16 -10 -27.5t-39 -11.5h-9.5h-12.5h-10q1 -4 2.5 -12t1.5 -17q0 -30 -18.5 -64t-55.5 -64t-92.5 -49t-128.5 -19q-91 0 -147 28.5t-81.5 76
t-26.5 104.5z" />
    <glyph glyph-name="uniFC86" unicode="&#xfee0;&#xfef0;" horiz-adv-x="853" arabic-form="final" 
d="M625 -5l10 74q29 0 42.5 13t17.5 43t2 80l-18 489h73l19 -487q2 -51 11.5 -81.5t29.5 -43.5t51 -13q21 0 30.5 -9t9.5 -26q0 -16 -10 -27.5t-39 -11.5q-28 0 -53.5 11t-42.5 32t-20 51l27 -2q-10 -30 -30 -50.5t-47.5 -31t-62.5 -10.5zM48 -21q0 31 5.5 64.5t18.5 69.5
t32 72l62 -31q-14 -31 -24.5 -57.5t-15.5 -51.5t-5 -50q0 -51 19.5 -81.5t49.5 -45.5t63 -20t59 -5q56 0 95.5 13.5t65.5 35t38 44t12 40.5q0 11 -8 22.5t-26 23t-47 23.5t-71 25l18 69q63 -24 104 -38t67.5 -20.5t43.5 -8.5t31 -3q21 0 30.5 -9t9.5 -26q0 -16 -10 -27.5
t-39 -11.5h-9.5h-12.5h-10q1 -4 2.5 -12t1.5 -17q0 -30 -18.5 -64t-55.5 -64t-92.5 -49t-128.5 -19q-91 0 -147 28.5t-81.5 76t-26.5 104.5z" />
    <glyph glyph-name="uniFD82" unicode="&#xfee0;&#xfea4;&#xfef0;" horiz-adv-x="1310" arabic-form="final" 
d="M1082 -5l10 74q29 0 42.5 13t17.5 43t2 80l-18 489h73l19 -487q2 -51 11.5 -81.5t29.5 -43.5t51 -13q21 0 30.5 -9t9.5 -26q0 -16 -10 -27.5t-39 -11.5q-28 0 -53.5 11t-42.5 32t-20 51l27 -2q-10 -30 -30 -50.5t-47.5 -31t-62.5 -10.5zM1082 -5q-30 0 -54.5 6.5
t-44 22.5t-33.5 44t-24 72l52 27q13 -40 25 -61t32.5 -29t56.5 -8q21 0 30.5 -9t9.5 -26q0 -16 -10.5 -27.5t-39.5 -11.5zM625 -5l9 74q48 0 83.5 9.5t66.5 26.5t64.5 40t77.5 49q-35 23 -60.5 43t-51.5 32.5t-63 12.5q-16 0 -28 -1t-21.5 -3t-20.5 -5l-16 62
q20 8 42.5 12.5t43.5 4.5q43 0 74.5 -12.5t56.5 -30.5t46.5 -36t44 -30.5t50.5 -12.5h14l7 -72q-36 -1 -65 -13t-56 -30.5t-56 -39.5t-63 -39t-77.5 -29.5t-101.5 -11.5zM48 -21q0 31 5.5 64.5t18.5 69.5t32 72l62 -31q-14 -31 -24.5 -57.5t-15.5 -51.5t-5 -50
q0 -51 19.5 -81.5t49.5 -45.5t63 -20t59 -5q56 0 95.5 13.5t65.5 35t38 44t12 40.5q0 11 -8 22.5t-26 23t-47 23.5t-71 25l18 69q63 -24 104 -38t67.5 -20.5t43.5 -8.5t31 -3q21 0 30.5 -9t9.5 -26q0 -16 -10 -27.5t-39 -11.5h-9.5h-12.5h-10q1 -4 2.5 -12t1.5 -17
q0 -30 -18.5 -64t-55.5 -64t-92.5 -49t-128.5 -19q-91 0 -147 28.5t-81.5 76t-26.5 104.5z" />
    <glyph glyph-name="uniFDF2" unicode="&#x627;&#xfedf;&#xfee0;&#xfeea;" horiz-adv-x="1071" arabic-form="isolated" 
d="M402 -5q-38 0 -68.5 10t-51 33.5t-30.5 64.5q-39 -7 -79.5 -4.5t-75 16.5t-56 40.5t-21.5 67.5q0 49 27.5 91.5t75 74.5t108.5 48l-4 79h74l16 -330q3 -47 10.5 -72.5t27.5 -35t57 -9.5q29 0 42.5 13t17.5 43t2 80l-13 363h73l14 -361q2 -51 11.5 -81.5t29.5 -43.5
t51 -13q34 0 50 13t20 43t2 80l-19 489h73l20 -480q2 -53 -3 -94t-21.5 -69t-48 -42t-82.5 -14q-22 0 -42.5 7t-37 20t-26.5 31q-19 -28 -50.5 -43t-72.5 -15zM243 173l-9 184q-45 -10 -76 -31t-47 -45t-16 -45q0 -23 14.5 -37t37.5 -20t48.5 -7t47.5 1zM932 0l-20 694h73
l20 -694h-73zM412 626q-37 0 -48.5 24.5t-11.5 51.5q0 11 1 21.5t4 25.5l46 13q-3 -16 -4.5 -29t-1.5 -23q0 -17 5 -25.5t18 -8.5q14 0 23 14t10 57v28l43 16v-55q0 -13 5.5 -22.5t21.5 -9.5t21.5 9.5t5.5 25.5t-4 31.5t-10 31.5l41 13q9 -18 15 -40t6 -40q0 -30 -17 -54.5
t-52 -24.5q-28 0 -46 15t-18 36l21 -8q0 -31 -21 -52t-53 -21zM449 843l-5 157h50l5 -157h-50z" />
    <glyph glyph-name="uniFEF5" unicode="&#xfedf;&#xfe82;" horiz-adv-x="646" arabic-form="isolated" 
d="M338 536q0 22 -3 53t-7 62t-8 53l77 10q3 -20 6.5 -52.5t5.5 -64.5t2 -53q0 -46 -6 -90t-17.5 -85.5t-28.5 -81.5l-11 -25q-24 -49 -56 -94t-72 -86h85q34 0 52 8.5t24.5 22.5t6.5 30q0 28 -29 69t-79 91.5t-113.5 106.5t-131.5 113l47 60q77 -68 138 -123t106.5 -100.5
t75.5 -84t45 -73t15 -67.5q0 -22 -7.5 -45.5t-26 -44t-52 -33t-86.5 -12.5h-180v81q78 74 128.5 144t75 146t24.5 165zM179 644q-27 0 -49 9.5t-39.5 18.5t-33.5 9t-29.5 -8.5t-28.5 -22.5l-34 29q20 27 43 41.5t49 14.5q23 0 42 -9t38.5 -18t41.5 -9q15 0 27.5 5t31.5 16
l26 -37q-29 -26 -49.5 -32.5t-35.5 -6.5z" />
    <glyph glyph-name="uniFEF6" unicode="&#xfee0;&#xfe82;" horiz-adv-x="530" arabic-form="final" 
d="M530 -5q-45 0 -78.5 10t-55.5 31t-33.5 53.5t-13.5 77.5l-11 547h73l20 -515q2 -52 8 -80t28 -39t72 -11q21 0 31 -9t10 -22q0 -16 -14 -29.5t-36 -13.5zM140 -5q-27 0 -54.5 4.5t-38.5 6.5l11 79q61 -9 114.5 -3t93.5 34.5t63 86.5t23 151l39 -120q-8 -59 -27 -101
t-46 -69t-58 -42t-62 -21t-58 -6zM305 132q-16 31 -41 72.5t-59 90.5t-76.5 102t-93.5 107l57 57q56 -63 98.5 -117.5t74.5 -102t56.5 -86.5t43.5 -71zM179 644q-27 0 -49 9.5t-39.5 18.5t-33.5 9t-29.5 -8.5t-28.5 -22.5l-34 29q20 27 43 41.5t49 14.5q23 0 42 -9t38.5 -18
t41.5 -9q15 0 27.5 5t31.5 16l26 -37q-29 -26 -49.5 -32.5t-35.5 -6.5z" />
    <glyph glyph-name="uniFEF7" unicode="&#xfedf;&#xfe84;" horiz-adv-x="555" arabic-form="isolated" 
d="M338 536q0 22 -3 53t-7 62t-8 53l77 10q3 -20 6.5 -52.5t5.5 -64.5t2 -53q0 -46 -6 -90t-17.5 -85.5t-28.5 -81.5l-11 -25q-24 -49 -56 -94t-72 -86h85q34 0 52 8.5t24.5 22.5t6.5 30q0 28 -29 69t-79 91.5t-113.5 106.5t-131.5 113l47 60q77 -68 138 -123t106.5 -100.5
t75.5 -84t45 -73t15 -67.5q0 -22 -7.5 -45.5t-26 -44t-52 -33t-86.5 -12.5h-180v81q78 74 128.5 144t75 146t24.5 165zM29 648l-10 44q21 5 34.5 8.5t30.5 7.5l-5 -11q-22 8 -41 27t-19 47q0 25 12 42t31.5 26.5t41.5 9.5q8 0 18.5 -1.5t20.5 -6.5l-7 -39q-8 2 -16 3.5
t-16 1.5q-19 0 -29 -10t-10 -24q0 -17 11 -29.5t25.5 -18.5t23.5 -6l-35 -9q23 6 42 12t34 12l14 -42q-20 -7 -46.5 -15.5t-54 -15.5t-50.5 -13z" />
    <glyph glyph-name="uniFEF8" unicode="&#xfee0;&#xfe84;" horiz-adv-x="555" arabic-form="final" 
d="M530 -5q-45 0 -78.5 10t-55.5 31t-33.5 53.5t-13.5 77.5l-11 547h73l20 -515q2 -52 8 -80t28 -39t72 -11q21 0 31 -9t10 -22q0 -16 -14 -29.5t-36 -13.5zM140 -5q-27 0 -54.5 4.5t-38.5 6.5l11 79q61 -9 114.5 -3t93.5 34.5t63 86.5t23 151l39 -120q-8 -59 -27 -101
t-46 -69t-58 -42t-62 -21t-58 -6zM305 132q-16 31 -41 72.5t-59 90.5t-76.5 102t-93.5 107l57 57q56 -63 98.5 -117.5t74.5 -102t56.5 -86.5t43.5 -71zM45 648l-10 44q21 5 34.5 8.5t30.5 7.5l-5 -11q-22 8 -41 27t-19 47q0 25 12 42t31.5 26.5t41.5 9.5q8 0 18.5 -1.5
t20.5 -6.5l-7 -39q-8 2 -16 3.5t-16 1.5q-19 0 -29 -10t-10 -24q0 -17 11 -29.5t25.5 -18.5t23.5 -6l-35 -9q23 6 42 12t34 12l14 -42q-20 -7 -46.5 -15.5t-54 -15.5t-50.5 -13z" />
    <glyph glyph-name="uniFEF9" unicode="&#xfedf;&#xfe88;" horiz-adv-x="528" arabic-form="isolated" 
d="M338 536q0 22 -3 53t-7 62t-8 53l77 10q3 -20 6.5 -52.5t5.5 -64.5t2 -53q0 -46 -6 -90t-17.5 -85.5t-28.5 -81.5l-11 -25q-24 -49 -56 -94t-72 -86h85q34 0 52 8.5t24.5 22.5t6.5 30q0 28 -29 69t-79 91.5t-113.5 106.5t-131.5 113l47 60q77 -68 138 -123t106.5 -100.5
t75.5 -84t45 -73t15 -67.5q0 -22 -7.5 -45.5t-26 -44t-52 -33t-86.5 -12.5h-180v81q78 74 128.5 144t75 146t24.5 165zM95 -291l-10 44q21 5 34.5 8.5t30.5 7.5l-5 -11q-22 8 -41 27t-19 47q0 25 12 42t31.5 26.5t41.5 9.5q8 0 18.5 -1.5t20.5 -6.5l-7 -39q-8 2 -16 3.5
t-16 1.5q-19 0 -29 -10t-10 -24q0 -17 11 -29.5t25.5 -18.5t23.5 -6l-35 -9q23 6 42 12t34 12l14 -42q-20 -7 -46.5 -15.5t-54 -15.5t-50.5 -13z" />
    <glyph glyph-name="uniFEFA" unicode="&#xfee0;&#xfe88;" horiz-adv-x="530" arabic-form="final" 
d="M530 -5q-45 0 -78.5 10t-55.5 31t-33.5 53.5t-13.5 77.5l-11 547h73l20 -515q2 -52 8 -80t28 -39t72 -11q21 0 31 -9t10 -22q0 -16 -14 -29.5t-36 -13.5zM140 -5q-27 0 -54.5 4.5t-38.5 6.5l11 79q61 -9 114.5 -3t93.5 34.5t63 86.5t23 151l39 -120q-8 -59 -27 -101
t-46 -69t-58 -42t-62 -21t-58 -6zM305 132q-16 31 -41 72.5t-59 90.5t-76.5 102t-93.5 107l57 57q56 -63 98.5 -117.5t74.5 -102t56.5 -86.5t43.5 -71zM95 -291l-10 44q21 5 34.5 8.5t30.5 7.5l-5 -11q-22 8 -41 27t-19 47q0 25 12 42t31.5 26.5t41.5 9.5q8 0 18.5 -1.5
t20.5 -6.5l-7 -39q-8 2 -16 3.5t-16 1.5q-19 0 -29 -10t-10 -24q0 -17 11 -29.5t25.5 -18.5t23.5 -6l-35 -9q23 6 42 12t34 12l14 -42q-20 -7 -46.5 -15.5t-54 -15.5t-50.5 -13z" />
    <glyph glyph-name="uniFEFB" unicode="&#xfedf;&#xfe8e;" horiz-adv-x="528" arabic-form="isolated" 
d="M338 536q0 22 -3 53t-7 62t-8 53l77 10q3 -20 6.5 -52.5t5.5 -64.5t2 -53q0 -46 -6 -90t-17.5 -85.5t-28.5 -81.5l-11 -25q-24 -49 -56 -94t-72 -86h85q34 0 52 8.5t24.5 22.5t6.5 30q0 28 -29 69t-79 91.5t-113.5 106.5t-131.5 113l47 60q77 -68 138 -123t106.5 -100.5
t75.5 -84t45 -73t15 -67.5q0 -22 -7.5 -45.5t-26 -44t-52 -33t-86.5 -12.5h-180v81q78 74 128.5 144t75 146t24.5 165z" />
    <glyph glyph-name="uniFEFC" unicode="&#xfee0;&#xfe8e;" horiz-adv-x="530" arabic-form="final" 
d="M530 -5q-45 0 -78.5 10t-55.5 31t-33.5 53.5t-13.5 77.5l-11 547h73l20 -515q2 -52 8 -80t28 -39t72 -11q21 0 31 -9t10 -22q0 -16 -14 -29.5t-36 -13.5zM140 -5q-27 0 -54.5 4.5t-38.5 6.5l11 79q61 -9 114.5 -3t93.5 34.5t63 86.5t23 151l39 -120q-8 -59 -27 -101
t-46 -69t-58 -42t-62 -21t-58 -6zM305 132q-16 31 -41 72.5t-59 90.5t-76.5 102t-93.5 107l57 57q56 -63 98.5 -117.5t74.5 -102t56.5 -86.5t43.5 -71z" />
    <glyph glyph-name="lam_alefMaksura_meemar" unicode="&#xfedf;&#xfbe9;&#xfee2;" horiz-adv-x="906" 
d="M689 -5l9 74q35 0 51 13t20 43t2 80l-19 489h73l20 -480q2 -53 -3 -94t-21.5 -69t-48.5 -42t-83 -14zM465 -5l10 74q24 0 44.5 8.5t33.5 28.5t13 57q0 25 -8 60t-21 74.5t-28 77.5l73 28q12 -33 24 -74.5t20 -83.5t8 -79q0 -33 -8 -60t-23 -48t-36 -35t-46.5 -21
t-55.5 -7zM75 -394q-21 80 -35.5 153t-22 129.5t-7.5 86.5q0 72 17 132t44.5 107.5t60.5 80.5t66 50t59 17q22 0 39 -10.5t35 -42t42 -95.5q21 -55 37 -87t31 -45t34 -13q21 0 30.5 -9t9.5 -26q0 -16 -10 -27.5t-39 -11.5q-31 0 -61 23t-44 52l34 4q-6 -28 -21 -46.5
t-36 -27t-46 -8.5q-19 0 -43 6t-49.5 22t-51.5 45.5t-50 76.5l12 -1q-17 -41 -24 -82.5t-7 -83.5q0 -28 6 -71t15.5 -92.5t21 -98t22.5 -88.5zM293 61q13 0 25 5.5t16.5 19.5t-5.5 39q-17 45 -29 75.5t-20.5 49t-16 26.5t-16.5 8t-23 -7t-29.5 -19.5t-30 -30t-26.5 -38.5v15
q24 -51 52 -82.5t55.5 -46t47.5 -14.5z" />
    <glyph glyph-name="lam_alefWaslaar" unicode="&#xfedf;&#xfb51;" horiz-adv-x="470" 
d="M124 669q-18 0 -43 1.5t-47.5 4t-33.5 4.5l5 45q13 -2 34 -4.5t44 -4t41 -1.5q47 0 61.5 10t14.5 25q0 16 -9.5 22.5t-22.5 6.5t-26 -8.5t-25 -24t-24 -37.5l-46 1q12 26 28.5 52.5t40.5 44.5t56 18q26 0 49.5 -16.5t23.5 -55.5q0 -20 -10 -39t-36 -31.5t-75 -12.5z
M338 536q0 22 -3 53t-7 62t-8 53l77 10q3 -20 6.5 -52.5t5.5 -64.5t2 -53q0 -46 -6 -90t-17.5 -85.5t-28.5 -81.5l-11 -25q-24 -49 -56 -94t-72 -86h85q34 0 52 8.5t24.5 22.5t6.5 30q0 28 -29 69t-79 91.5t-113.5 106.5t-131.5 113l47 60q77 -68 138 -123t106.5 -100.5
t75.5 -84t45 -73t15 -67.5q0 -22 -7.5 -45.5t-26 -44t-52 -33t-86.5 -12.5h-180v81q78 74 128.5 144t75 146t24.5 165z" />
    <glyph glyph-name="lam_alefWaslaar.fina" unicode="&#xfee0;&#xfb51;" horiz-adv-x="588" 
d="M124 669q-18 0 -43 1.5t-47.5 4t-33.5 4.5l5 45q13 -2 34 -4.5t44 -4t41 -1.5q47 0 61.5 10t14.5 25q0 16 -9.5 22.5t-22.5 6.5t-26 -8.5t-25 -24t-24 -37.5l-46 1q12 26 28.5 52.5t40.5 44.5t55 18q27 0 50.5 -16.5t23.5 -55.5q0 -20 -10 -39t-36 -31.5t-75 -12.5z
M530 -5q-45 0 -78.5 10t-55.5 31t-33.5 53.5t-13.5 77.5l-11 547h73l20 -515q2 -52 8 -80t28 -39t72 -11q21 0 31 -9t10 -22q0 -16 -14 -29.5t-36 -13.5zM140 -5q-27 0 -54.5 4.5t-38.5 6.5l11 79q61 -9 114.5 -3t93.5 34.5t63 86.5t23 151l39 -120q-8 -59 -27 -101t-46 -69
t-58 -42t-62 -21t-58 -6zM305 132q-16 31 -41 72.5t-59 90.5t-76.5 102t-93.5 107l57 57q56 -63 98.5 -117.5t74.5 -102t56.5 -86.5t43.5 -71z" />
    <glyph glyph-name="uni0620.init" unicode="&#x620;" horiz-adv-x="249" 
d="M0 -5l10 74q39 0 66 6.5t41 27t14 60.5q0 25 -8 60t-21 74.5t-28 77.5l73 28q13 -32 24.5 -73t19.5 -81t8 -70q0 -50 -13 -85t-38 -57t-62.5 -32t-85.5 -10zM125 -91q-31 0 -52 21.5t-21 52.5t21 52.5t52 21.5t52.5 -21.5t21.5 -52.5t-21.5 -52.5t-52.5 -21.5zM125 -49
q14 0 24 9.5t10 22.5q0 14 -10 23.5t-24 9.5t-23.5 -9.5t-9.5 -23.5q0 -13 9.5 -22.5t23.5 -9.5z" />
    <glyph glyph-name="uni0620.medi" unicode="&#x620;" horiz-adv-x="323" 
d="M0 -5l10 74q40 0 62.5 9t35 32t21 65t21.5 108l70 -15q-4 -18 -9 -40t-8.5 -43.5t-3.5 -37.5q0 -15 5 -29t19 -25t40.5 -17.5t69.5 -6.5q21 0 30.5 -9t9.5 -25q0 -17 -10.5 -28.5t-39.5 -11.5q-46 0 -77.5 7t-50.5 20.5t-29 33t-13 43.5l27 -2q-16 -32 -34 -52t-39 -31
t-47.5 -15t-59.5 -4zM95 -101q-31 0 -52 21.5t-21 52.5t21 52.5t52 21.5t52.5 -21.5t21.5 -52.5t-21.5 -52.5t-52.5 -21.5zM95 -59q14 0 24 9.5t10 22.5q0 14 -10 23.5t-24 9.5t-23.5 -9.5t-9.5 -23.5q0 -13 9.5 -22.5t23.5 -9.5z" />
    <glyph glyph-name="uni0620.fina" unicode="&#x620;" horiz-adv-x="625" 
d="M283 -337q-31 0 -52 21.5t-21 52.5t21 52.5t52 21.5t52.5 -21.5t21.5 -52.5t-21.5 -52.5t-52.5 -21.5zM283 -295q14 0 24 9.5t10 22.5q0 14 -10 23.5t-24 9.5t-23.5 -9.5t-9.5 -23.5q0 -13 9.5 -22.5t23.5 -9.5zM48 -21q0 31 5.5 64.5t18.5 69.5t32 72l62 -31
q-14 -31 -24.5 -57.5t-15.5 -51.5t-5 -50q0 -51 19.5 -81.5t49.5 -45.5t63 -20t59 -5q56 0 95.5 13.5t65.5 35t38 44t12 40.5q0 11 -8 22.5t-26 23t-47 23.5t-71 25l18 69q63 -24 104 -38t67.5 -20.5t43.5 -8.5t31 -3q21 0 30.5 -9t9.5 -26q0 -16 -10 -27.5t-39 -11.5h-9.5
h-12.5h-10q1 -4 2.5 -12t1.5 -17q0 -30 -18.5 -64t-55.5 -64t-92.5 -49t-128.5 -19q-91 0 -147 28.5t-81.5 76t-26.5 104.5z" />
    <glyph glyph-name="uni063B.init" unicode="&#x63b;" horiz-adv-x="322" 
d="M195 691q-20 0 -34 13.5t-14 32.5q0 20 14 34t34 14q19 0 32.5 -14t13.5 -34q0 -19 -13.5 -32.5t-32.5 -13.5zM80 638q-20 0 -34 13.5t-14 32.5q0 20 14 34t34 14q19 0 32.5 -14t13.5 -34q0 -19 -13.5 -32.5t-32.5 -13.5zM0 -5l10 74h75q36 0 58.5 6.5t34.5 17.5t16 26.5
t4 33.5q0 36 -21 76t-52 74q-34 39 -56 63t-34 38t-17 21t-5 13q0 11 2.5 27.5t6.5 32t10 21.5q8 9 24 23.5t44.5 35t75 49t116.5 66.5l35 -60q-55 -31 -96 -54.5t-71.5 -43t-55.5 -37t-48 -37.5l7 25q26 -34 60.5 -72t67.5 -80t55 -88.5t22 -99.5q0 -27 -9.5 -53.5t-32 -49
t-60.5 -35.5t-94 -13h-72z" />
    <glyph glyph-name="uni063B.medi" unicode="&#x63b;" horiz-adv-x="382" 
d="M199 690q-20 0 -34 13.5t-14 32.5q0 20 14 34t34 14q19 0 32.5 -14t13.5 -34q0 -19 -13.5 -32.5t-32.5 -13.5zM84 637q-20 0 -34 13.5t-14 32.5q0 20 14 34t34 14q19 0 32.5 -14t13.5 -34q0 -19 -13.5 -32.5t-32.5 -13.5zM0 -5l9 74h62q42 0 70 6t42.5 24.5t14.5 53.5
q0 20 -13.5 47t-34.5 57t-44.5 59t-44.5 54.5t-34.5 43.5t-13.5 25q0 15 2.5 32t7 31.5t11.5 20.5q17 17 47 39t66.5 45.5t74 45.5t70.5 40l35 -61q-36 -21 -73 -42t-71.5 -42t-64.5 -41t-53 -40v10q27 -34 51 -62.5t47 -58.5t47.5 -67.5t52.5 -89.5q27 -49 44.5 -77.5
t36.5 -40.5t48 -12q21 0 30.5 -9t9.5 -26q0 -16 -10.5 -27.5t-39.5 -11.5q-35 0 -62.5 13.5t-49.5 43.5t-42 77l32 -7q-6 -40 -25 -65t-46.5 -38.5t-58.5 -18.5t-62 -5h-68z" />
    <glyph glyph-name="uni063B.fina" unicode="&#x63b;" horiz-adv-x="820" 
d="M621 691q-20 0 -34 13.5t-14 32.5q0 20 14 34t34 14q19 0 32.5 -14t13.5 -34q0 -19 -13.5 -32.5t-32.5 -13.5zM506 638q-20 0 -34 13.5t-14 32.5q0 20 14 34t34 14q19 0 32.5 -14t13.5 -34q0 -19 -13.5 -32.5t-32.5 -13.5zM290 -21l26 74q82 0 142 6t99 17.5t58 29.5
t19 42q0 23 -13 51.5t-34 58.5t-44.5 58.5t-44.5 53.5t-34 43.5t-13 26.5q0 12 1.5 27.5t6 30.5t12.5 23q24 26 68.5 56.5t96 61t94.5 54.5l35 -61q-58 -33 -106 -62t-88 -56t-76 -55l6 18q21 -23 48.5 -56t56.5 -72.5t55 -80t44 -78.5q17 -36 31.5 -59.5t29 -37t30 -19
t34.5 -5.5q21 0 30.5 -9t9.5 -26q0 -16 -10 -27.5t-39 -11.5q-38 0 -67.5 16t-51 46.5t-36.5 71.5l32 -7q-13 -46 -42.5 -74t-78.5 -43t-120 -20.5t-167 -5.5zM290 -21q-47 0 -93.5 9t-84 30t-60 56.5t-22.5 89.5q0 27 4.5 55.5t12 56.5t14.5 53l67 -20q-4 -13 -9.5 -36
t-10 -48t-4.5 -46q0 -38 19 -66.5t65.5 -44t127.5 -15.5l20 -42z" />
    <glyph glyph-name="uni063C.init" unicode="&#x63c;" horiz-adv-x="322" 
d="M0 -5l10 74h75q36 0 58.5 6.5t34.5 17.5t16 26.5t4 33.5q0 36 -21 76t-52 74q-34 39 -56 63t-34 38t-17 21t-5 13q0 11 2.5 27.5t6.5 32t10 21.5q8 9 24 23.5t44.5 35t75 49t116.5 66.5l35 -60q-55 -31 -96 -54.5t-71.5 -43t-55.5 -37t-48 -37.5l7 25q26 -34 60.5 -72
t67.5 -80t55 -88.5t22 -99.5q0 -27 -9.5 -53.5t-32 -49t-60.5 -35.5t-94 -13h-72zM141 -294q-20 0 -34 13.5t-14 32.5q0 20 14 34t34 14q19 0 32.5 -14t13.5 -33q0 -20 -13.5 -33.5t-32.5 -13.5zM77 -184q-20 0 -34 13.5t-14 32.5q0 20 14 34t34 14q19 0 32.5 -14t13.5 -33
q0 -20 -13.5 -33.5t-32.5 -13.5zM205 -184q-20 0 -34 13.5t-14 32.5q0 20 14 34t34 14q19 0 32.5 -14t13.5 -33q0 -20 -13.5 -33.5t-32.5 -13.5z" />
    <glyph glyph-name="uni063C.medi" unicode="&#x63c;" horiz-adv-x="382" 
d="M0 -5l9 74h62q42 0 70 6t42.5 24.5t14.5 53.5q0 20 -13.5 47t-34.5 57t-44.5 59t-44.5 54.5t-34.5 43.5t-13.5 25q0 15 2.5 32t7 31.5t11.5 20.5q17 17 47 39t66.5 45.5t74 45.5t70.5 40l35 -61q-36 -21 -73 -42t-71.5 -42t-64.5 -41t-53 -40v10q27 -34 51 -62.5
t47 -58.5t47.5 -67.5t52.5 -89.5q27 -49 44.5 -77.5t36.5 -40.5t48 -12q21 0 30.5 -9t9.5 -26q0 -16 -10.5 -27.5t-39.5 -11.5q-35 0 -62.5 13.5t-49.5 43.5t-42 77l32 -7q-6 -40 -25 -65t-46.5 -38.5t-58.5 -18.5t-62 -5h-68zM147 -294q-20 0 -34 13.5t-14 32.5q0 20 14 34
t34 14q19 0 32.5 -14t13.5 -33q0 -20 -13.5 -33.5t-32.5 -13.5zM83 -184q-20 0 -34 13.5t-14 32.5q0 20 14 34t34 14q19 0 32.5 -14t13.5 -33q0 -20 -13.5 -33.5t-32.5 -13.5zM211 -184q-20 0 -34 13.5t-14 32.5q0 20 14 34t34 14q19 0 32.5 -14t13.5 -33q0 -20 -13.5 -33.5
t-32.5 -13.5z" />
    <glyph glyph-name="uni063C.fina" unicode="&#x63c;" horiz-adv-x="820" 
d="M290 -21l26 74q82 0 142 6t99 17.5t58 29.5t19 42q0 23 -13 51.5t-34 58.5t-44.5 58.5t-44.5 53.5t-34 43.5t-13 26.5q0 12 1.5 27.5t6 30.5t12.5 23q24 26 68.5 56.5t96 61t94.5 54.5l35 -61q-58 -33 -106 -62t-88 -56t-76 -55l6 18q21 -23 48.5 -56t56.5 -72.5t55 -80
t44 -78.5q17 -36 31.5 -59.5t29 -37t30 -19t34.5 -5.5q21 0 30.5 -9t9.5 -26q0 -16 -10 -27.5t-39 -11.5q-38 0 -67.5 16t-51 46.5t-36.5 71.5l32 -7q-13 -46 -42.5 -74t-78.5 -43t-120 -20.5t-167 -5.5zM290 -21q-47 0 -93.5 9t-84 30t-60 56.5t-22.5 89.5q0 27 4.5 55.5
t12 56.5t14.5 53l67 -20q-4 -13 -9.5 -36t-10 -48t-4.5 -46q0 -38 19 -66.5t65.5 -44t127.5 -15.5l20 -42zM336 -315q-20 0 -34 13.5t-14 32.5q0 20 14 34t34 14q19 0 32.5 -14t13.5 -33q0 -20 -13.5 -33.5t-32.5 -13.5zM272 -205q-20 0 -34 13.5t-14 32.5q0 20 14 34t34 14
q19 0 32.5 -14t13.5 -33q0 -20 -13.5 -33.5t-32.5 -13.5zM400 -205q-20 0 -34 13.5t-14 32.5q0 20 14 34t34 14q19 0 32.5 -14t13.5 -33q0 -20 -13.5 -33.5t-32.5 -13.5z" />
    <glyph glyph-name="uni063D.init" unicode="&#x63d;" horiz-adv-x="224" 
d="M0 -5l10 74q24 0 44.5 8.5t33.5 28.5t13 57q0 25 -8 60t-21 74.5t-28 77.5l73 28q12 -33 24 -74.5t20 -83.5t8 -79q0 -33 -8 -60t-23 -48t-36 -35t-46.5 -21t-55.5 -7zM116 739q6 -13 16 -38t21 -53.5t21 -54t17 -40.5l-41 -19q-5 9 -14 30.5t-19.5 47.5t-20 49.5
t-15.5 36.5l-18 36zM63 734l40 -15q-6 -16 -16.5 -43.5t-22.5 -57t-21.5 -52.5t-12.5 -30l-41 17q4 9 14 32.5t21.5 52.5t22 55t16.5 41zM175 -189q-20 0 -34 13.5t-14 32.5q0 20 14 34t34 14q19 0 32.5 -14t13.5 -33q0 -20 -13.5 -33.5t-32.5 -13.5zM46 -189
q-20 0 -34 13.5t-14 32.5q0 20 14 34t34 14q19 0 32.5 -14t13.5 -33q0 -20 -13.5 -33.5t-32.5 -13.5z" />
    <glyph glyph-name="uni063D.medi" unicode="&#x63d;" horiz-adv-x="263" 
d="M0 -5l10 74q26 0 43 8t28.5 30t21 64t21.5 110l70 -13q-4 -18 -9 -40t-8.5 -43.5t-3.5 -37.5q0 -20 8.5 -38t30 -29t61.5 -11q21 0 30.5 -9t9.5 -26q0 -16 -10.5 -27.5t-39.5 -11.5q-42 0 -71 11.5t-45.5 35t-22.5 57.5l30 -2q-13 -38 -33 -59t-41.5 -30t-42.5 -11
t-37 -2zM164 594q6 -13 16 -38t21 -53.5t21 -54t17 -40.5l-41 -19q-5 9 -14 30.5t-19.5 47.5t-20 49.5t-15.5 36.5l-18 36zM111 589l40 -15q-6 -16 -16.5 -43.5t-22.5 -57t-21.5 -52.5t-12.5 -30l-41 17q4 9 14 32.5t21.5 52.5t22 55t16.5 41zM190 -189q-20 0 -34 13.5
t-14 32.5q0 20 14 34t34 14q19 0 32.5 -14t13.5 -33q0 -20 -13.5 -33.5t-32.5 -13.5zM61 -189q-20 0 -34 13.5t-14 32.5q0 20 14 34t34 14q19 0 32.5 -14t13.5 -33q0 -20 -13.5 -33.5t-32.5 -13.5z" />
    <glyph glyph-name="uni063D.fina" unicode="&#x63d;" horiz-adv-x="625" 
d="M48 -21q0 31 5.5 64.5t18.5 69.5t32 72l62 -31q-14 -31 -24.5 -57.5t-15.5 -51.5t-5 -50q0 -51 19.5 -81.5t49.5 -45.5t63 -20t59 -5q56 0 95.5 13.5t65.5 35t38 44t12 40.5q0 11 -8 22.5t-26 23t-47 23.5t-71 25l18 69q63 -24 104 -38t67.5 -20.5t43.5 -8.5t31 -3
q21 0 30.5 -9t9.5 -26q0 -16 -10 -27.5t-39 -11.5h-9.5h-12.5h-10q1 -4 2.5 -12t1.5 -17q0 -30 -18.5 -64t-55.5 -64t-92.5 -49t-128.5 -19q-91 0 -147 28.5t-81.5 76t-26.5 104.5zM244 486q6 -13 16 -38t21 -53.5t21 -54t17 -40.5l-41 -19q-5 9 -14 30.5t-19.5 47.5
t-20 49.5t-15.5 36.5l-18 36zM191 481l40 -15q-6 -16 -16.5 -43.5t-22.5 -57t-21.5 -52.5t-12.5 -30l-41 17q4 9 14 32.5t21.5 52.5t22 55t16.5 41z" />
    <glyph glyph-name="uni063E.init" unicode="&#x63e;" horiz-adv-x="249" 
d="M0 -5l10 74q39 0 66 6.5t41 27t14 60.5q0 25 -8 60t-21 74.5t-28 77.5l73 28q13 -32 24.5 -73t19.5 -81t8 -70q0 -50 -13 -85t-38 -57t-62.5 -32t-85.5 -10zM185 506q-20 0 -34 13.5t-14 32.5q0 20 14 34t34 14q19 0 32.5 -14t13.5 -33q0 -20 -13.5 -33.5t-32.5 -13.5z
M56 506q-20 0 -34 13.5t-14 32.5q0 20 14 34t34 14q19 0 32.5 -14t13.5 -33q0 -20 -13.5 -33.5t-32.5 -13.5zM153 -189q-20 0 -34 13.5t-14 32.5q0 20 14 34t34 14q19 0 32.5 -14t13.5 -33q0 -20 -13.5 -33.5t-32.5 -13.5zM24 -189q-20 0 -34 13.5t-14 32.5q0 20 14 34
t34 14q19 0 32.5 -14t13.5 -33q0 -20 -13.5 -33.5t-32.5 -13.5z" />
    <glyph glyph-name="uni063E.medi" unicode="&#x63e;" horiz-adv-x="323" 
d="M0 -5l10 74q40 0 62.5 9t35 32t21 65t21.5 108l70 -15q-4 -18 -9 -40t-8.5 -43.5t-3.5 -37.5q0 -15 5 -29t19 -25t40.5 -17.5t69.5 -6.5q21 0 30.5 -9t9.5 -25q0 -17 -10.5 -28.5t-39.5 -11.5q-46 0 -77.5 7t-50.5 20.5t-29 33t-13 43.5l27 -2q-16 -32 -34 -52t-39 -31
t-47.5 -15t-59.5 -4zM236 459q-20 0 -34 13.5t-14 32.5q0 20 14 34t34 14q19 0 32.5 -14t13.5 -33q0 -20 -13.5 -33.5t-32.5 -13.5zM107 459q-20 0 -34 13.5t-14 32.5q0 20 14 34t34 14q19 0 32.5 -14t13.5 -33q0 -20 -13.5 -33.5t-32.5 -13.5zM220 -189q-20 0 -34 13.5
t-14 32.5q0 20 14 34t34 14q19 0 32.5 -14t13.5 -33q0 -20 -13.5 -33.5t-32.5 -13.5zM91 -189q-20 0 -34 13.5t-14 32.5q0 20 14 34t34 14q19 0 32.5 -14t13.5 -33q0 -20 -13.5 -33.5t-32.5 -13.5z" />
    <glyph glyph-name="uni063E.fina" unicode="&#x63e;" horiz-adv-x="625" 
d="M48 -21q0 31 5.5 64.5t18.5 69.5t32 72l62 -31q-14 -31 -24.5 -57.5t-15.5 -51.5t-5 -50q0 -51 19.5 -81.5t49.5 -45.5t63 -20t59 -5q56 0 95.5 13.5t65.5 35t38 44t12 40.5q0 11 -8 22.5t-26 23t-47 23.5t-71 25l18 69q63 -24 104 -38t67.5 -20.5t43.5 -8.5t31 -3
q21 0 30.5 -9t9.5 -26q0 -16 -10 -27.5t-39 -11.5h-9.5h-12.5h-10q1 -4 2.5 -12t1.5 -17q0 -30 -18.5 -64t-55.5 -64t-92.5 -49t-128.5 -19q-91 0 -147 28.5t-81.5 76t-26.5 104.5zM297 299q-20 0 -34 13.5t-14 32.5q0 20 14 34t34 14q19 0 32.5 -14t13.5 -33
q0 -20 -13.5 -33.5t-32.5 -13.5zM168 299q-20 0 -34 13.5t-14 32.5q0 20 14 34t34 14q19 0 32.5 -14t13.5 -33q0 -20 -13.5 -33.5t-32.5 -13.5z" />
    <glyph glyph-name="uni063F.init" unicode="&#x63f;" horiz-adv-x="249" 
d="M0 -5l10 74q39 0 66 6.5t41 27t14 60.5q0 25 -8 60t-21 74.5t-28 77.5l73 28q13 -32 24.5 -73t19.5 -81t8 -70q0 -50 -13 -85t-38 -57t-62.5 -32t-85.5 -10zM121 616q-20 0 -34 13.5t-14 32.5q0 20 14 34t34 14q19 0 32.5 -14t13.5 -33q0 -20 -13.5 -33.5t-32.5 -13.5z
M57 506q-20 0 -34 13.5t-14 32.5q0 20 14 34t34 14q19 0 32.5 -14t13.5 -33q0 -20 -13.5 -33.5t-32.5 -13.5zM185 506q-20 0 -34 13.5t-14 32.5q0 20 14 34t34 14q19 0 32.5 -14t13.5 -33q0 -20 -13.5 -33.5t-32.5 -13.5zM153 -189q-20 0 -34 13.5t-14 32.5q0 20 14 34
t34 14q19 0 32.5 -14t13.5 -33q0 -20 -13.5 -33.5t-32.5 -13.5zM24 -189q-20 0 -34 13.5t-14 32.5q0 20 14 34t34 14q19 0 32.5 -14t13.5 -33q0 -20 -13.5 -33.5t-32.5 -13.5z" />
    <glyph glyph-name="uni063F.medi" unicode="&#x63f;" horiz-adv-x="323" 
d="M0 -5l10 74q40 0 62.5 9t35 32t21 65t21.5 108l70 -15q-4 -18 -9 -40t-8.5 -43.5t-3.5 -37.5q0 -15 5 -29t19 -25t40.5 -17.5t69.5 -6.5q21 0 30.5 -9t9.5 -25q0 -17 -10.5 -28.5t-39.5 -11.5q-46 0 -77.5 7t-50.5 20.5t-29 33t-13 43.5l27 -2q-16 -32 -34 -52t-39 -31
t-47.5 -15t-59.5 -4zM172 569q-20 0 -34 13.5t-14 32.5q0 20 14 34t34 14q19 0 32.5 -14t13.5 -33q0 -20 -13.5 -33.5t-32.5 -13.5zM108 459q-20 0 -34 13.5t-14 32.5q0 20 14 34t34 14q19 0 32.5 -14t13.5 -33q0 -20 -13.5 -33.5t-32.5 -13.5zM236 459q-20 0 -34 13.5
t-14 32.5q0 20 14 34t34 14q19 0 32.5 -14t13.5 -33q0 -20 -13.5 -33.5t-32.5 -13.5zM220 -189q-20 0 -34 13.5t-14 32.5q0 20 14 34t34 14q19 0 32.5 -14t13.5 -33q0 -20 -13.5 -33.5t-32.5 -13.5zM91 -189q-20 0 -34 13.5t-14 32.5q0 20 14 34t34 14q19 0 32.5 -14
t13.5 -33q0 -20 -13.5 -33.5t-32.5 -13.5z" />
    <glyph glyph-name="uni063F.fina" unicode="&#x63f;" horiz-adv-x="625" 
d="M48 -21q0 31 5.5 64.5t18.5 69.5t32 72l62 -31q-14 -31 -24.5 -57.5t-15.5 -51.5t-5 -50q0 -51 19.5 -81.5t49.5 -45.5t63 -20t59 -5q56 0 95.5 13.5t65.5 35t38 44t12 40.5q0 11 -8 22.5t-26 23t-47 23.5t-71 25l18 69q63 -24 104 -38t67.5 -20.5t43.5 -8.5t31 -3
q21 0 30.5 -9t9.5 -26q0 -16 -10 -27.5t-39 -11.5h-9.5h-12.5h-10q1 -4 2.5 -12t1.5 -17q0 -30 -18.5 -64t-55.5 -64t-92.5 -49t-128.5 -19q-91 0 -147 28.5t-81.5 76t-26.5 104.5zM233 409q-20 0 -34 13.5t-14 32.5q0 20 14 34t34 14q19 0 32.5 -14t13.5 -33
q0 -20 -13.5 -33.5t-32.5 -13.5zM169 299q-20 0 -34 13.5t-14 32.5q0 20 14 34t34 14q19 0 32.5 -14t13.5 -33q0 -20 -13.5 -33.5t-32.5 -13.5zM297 299q-20 0 -34 13.5t-14 32.5q0 20 14 34t34 14q19 0 32.5 -14t13.5 -33q0 -20 -13.5 -33.5t-32.5 -13.5z" />
    <glyph glyph-name="uni066E.init" unicode="&#x66e;" horiz-adv-x="224" 
d="M0 -5l10 74q24 0 44.5 8.5t33.5 28.5t13 57q0 25 -8 60t-21 74.5t-28 77.5l73 28q12 -33 24 -74.5t20 -83.5t8 -79q0 -33 -8 -60t-23 -48t-36 -35t-46.5 -21t-55.5 -7z" />
    <glyph glyph-name="uni066E.medi" unicode="&#x66e;" horiz-adv-x="263" 
d="M0 -5l10 74q26 0 43 8t28.5 30t21 64t21.5 110l70 -13q-4 -18 -9 -40t-8.5 -43.5t-3.5 -37.5q0 -20 8.5 -38t30 -29t61.5 -11q21 0 30.5 -9t9.5 -26q0 -16 -10.5 -27.5t-39.5 -11.5q-42 0 -71 11.5t-45.5 35t-22.5 57.5l30 -2q-13 -38 -33 -59t-41.5 -30t-42.5 -11
t-37 -2z" />
    <glyph glyph-name="uni066E.fina" unicode="&#x66e;" horiz-adv-x="791" 
d="M288 -21l26 74q51 0 101 7t96 24.5t85 50.5t66 85l60 -32q-12 -27 -16 -41.5t-4 -25.5t7.5 -23.5t29 -20.5t62.5 -8q21 0 30.5 -9t9.5 -26q0 -16 -10.5 -27.5t-39.5 -11.5q-41 0 -77 11t-57 36t-16 66l28 5q-30 -42 -74.5 -68t-97 -40.5t-106.5 -20t-103 -5.5zM288 -21
q-47 0 -93.5 9t-84 30t-60 56.5t-22.5 89.5q0 27 4.5 55.5t12 56.5t14.5 53l67 -20q-4 -13 -9.5 -36t-10 -48t-4.5 -46q0 -38 19 -66.5t65.5 -44t127.5 -15.5l20 -42z" />
    <glyph glyph-name="uni066F.init" unicode="&#x66f;" horiz-adv-x="369" 
d="M0 -5l9 74h42.5t46 1t45 5t39.5 12q28 12 44.5 34.5t23.5 57t7 80.5q0 44 -7.5 82.5t-22.5 62t-40 23.5q-16 0 -31 -16t-24.5 -44.5t-9.5 -66.5q0 -27 10.5 -42t28.5 -21t39 -6q20 0 40 4.5t34 13.5l4 -63q-10 -10 -25.5 -16t-31.5 -8.5t-30 -2.5q-54 0 -85.5 19
t-44.5 49t-13 62q0 39 10 76.5t29.5 68.5t46 49t59.5 18q47 0 77.5 -32.5t45.5 -88t15 -125.5t-22.5 -129.5t-75.5 -91.5q-22 -13 -47.5 -20.5t-55 -11.5t-62 -5.5t-68.5 -1.5z" />
    <glyph glyph-name="uni066F.medi" unicode="&#x66f;" horiz-adv-x="395" 
d="M0 -5l9 74q22 0 44 1.5t43.5 5.5t41.5 10.5t38 15.5q27 14 48.5 34.5t33.5 46t12 53.5q0 26 -8.5 50t-23.5 39.5t-33 15.5q-17 0 -33 -15t-26 -39.5t-10 -51.5q0 -36 16 -63t40.5 -45.5t49.5 -30.5l-78 -33q-21 15 -45.5 37.5t-41.5 56t-17 79.5q0 33 11 64.5t30.5 57.5
t46.5 41.5t59 15.5q41 0 72.5 -23.5t50 -62.5t18.5 -85q0 -33 -8.5 -61.5t-24.5 -52.5t-37.5 -44t-47.5 -36q-25 -15 -52.5 -25.5t-57 -17t-60 -9.5t-60.5 -3zM395 -5q-38 0 -76 5.5t-73 16t-64 25.5l67 43q27 -5 56 -9t55.5 -5.5t44.5 -1.5q21 0 30.5 -9t9.5 -26
q0 -16 -10.5 -27.5t-39.5 -11.5z" />
    <glyph glyph-name="uni066F.fina" unicode="&#x66f;" horiz-adv-x="696" 
d="M298 -273q-48 0 -95.5 13t-86.5 40t-62.5 70t-23.5 104q0 15 4 45.5t16 71.5t36 86l64 -30q-15 -34 -25.5 -61.5t-15.5 -53.5t-5 -55q0 -53 28.5 -87.5t74.5 -51.5t98 -17q33 0 62.5 3.5t55 11t47 19.5t38.5 28t30 37q19 32 28 75t9 98q0 51 -7.5 92.5t-22.5 66t-38 24.5
q-16 0 -28.5 -11.5t-21 -30t-13 -40.5t-4.5 -44q0 -20 6.5 -32t19.5 -18.5t31 -8.5t40 -2h169q21 0 30.5 -9t9.5 -26q0 -18 -11.5 -28.5t-37.5 -10.5h-171q-41 0 -71.5 8.5t-50 25t-29 39.5t-9.5 52q0 37 10.5 74.5t29.5 68.5t47 49.5t62 18.5q45 0 75 -33t44.5 -90.5
t14.5 -130.5q0 -67 -12 -120t-36 -93q-21 -36 -52 -62t-70 -42.5t-84.5 -24.5t-96.5 -8z" />
    <glyph glyph-name="uni0672.fina" unicode="&#x672;" horiz-adv-x="251" 
d="M251 -5q-57 0 -93.5 18t-55 56t-20.5 98l-17 477h74l17 -445q2 -49 11.5 -77.5t31.5 -40.5t62 -12q21 0 30.5 -9t9.5 -25q0 -17 -10.5 -28.5t-39.5 -11.5zM-59 731l-37 22q11 26 30 37t35 11q23 0 39 -10t32 -10q10 0 20.5 1t18.5 5l-9 -15q-24 9 -45 32t-21 53
q0 41 28 62t65 21q10 0 21.5 -2t21.5 -6l-7 -45q-9 2 -17.5 3.5t-18.5 1.5q-21 0 -32.5 -8.5t-11.5 -23.5q0 -19 12 -33t28 -21.5t26 -7.5l-33 -8q25 6 44.5 13.5t35.5 14.5l15 -44q-7 -4 -23.5 -11t-37.5 -14t-42.5 -12t-38.5 -5q-24 0 -40.5 10t-29.5 10q-10 0 -15.5 -5
t-12.5 -16z" />
    <glyph glyph-name="uni0673.fina" unicode="&#x673;" horiz-adv-x="253" 
d="M253 -5q-57 0 -93.5 18t-55 56t-20.5 98l-19 527h74l19 -495q2 -49 11.5 -77.5t31.5 -40.5t62 -12q21 0 30.5 -9t9.5 -26q0 -16 -10.5 -27.5t-39.5 -11.5zM-20 -286l-37 22q11 26 30 37t35 11q23 0 39 -10t32 -10q10 0 20.5 1t18.5 5l-9 -15q-24 9 -45 32t-21 53
q0 41 28 62t65 21q10 0 21.5 -2t21.5 -6l-7 -45q-9 2 -17.5 3.5t-18.5 1.5q-21 0 -32.5 -8.5t-11.5 -23.5q0 -19 12 -33t28 -21.5t26 -7.5l-33 -8q25 6 44.5 13.5t35.5 14.5l15 -44q-7 -4 -23.5 -11t-37.5 -14t-42.5 -12t-38.5 -5q-24 0 -40.5 10t-29.5 10q-10 0 -15.5 -5
t-12.5 -16z" />
    <glyph glyph-name="uni0675.fina" unicode="&#x675;" horiz-adv-x="413" 
d="M413 -5h-162q-56 0 -92.5 18t-54.5 56.5t-20 97.5l-19 527h74l19 -495q2 -48 11.5 -76.5t31 -41t60.5 -12.5h162q21 0 30.5 -9t9.5 -25q0 -17 -10.5 -28.5t-39.5 -11.5zM208 589l-11 49q23 5 37.5 9t33.5 8l-5 -19q-24 8 -45 31.5t-21 53.5q0 27 13 45.5t34.5 27.5
t45.5 9q10 0 21.5 -1.5t21.5 -5.5l-7 -45q-9 2 -17.5 3.5t-18.5 1.5q-21 0 -32.5 -8.5t-11.5 -24.5q0 -19 12 -33t28 -21.5t26 -7.5l-37 -3q25 6 46.5 12.5t37.5 13.5l15 -46q-22 -8 -51.5 -17.5t-59.5 -17.5t-55 -14z" />
    <glyph glyph-name="uni0676.fina" unicode="&#x676;" horiz-adv-x="382" 
d="M38 -230l-16 66q71 14 115.5 39.5t69.5 59t35 70t11 71.5q2 76 -16.5 124.5t-52.5 48.5q-21 0 -36 -17.5t-23 -45t-8 -56.5q0 -20 6.5 -32t19.5 -18.5t31 -8.5t40 -2h178q17 0 28.5 -7.5t11.5 -27.5q0 -22 -14.5 -30.5t-34.5 -8.5h-180q-55 0 -90.5 15t-52.5 43.5
t-17 66.5q0 37 10.5 74.5t29.5 68.5t47 49.5t62 18.5q45 0 76 -33t46 -90t13 -130q-2 -80 -35 -143t-96.5 -105t-157.5 -60zM228 399l-10 44q21 5 34.5 8.5t30.5 7.5l-5 -11q-22 8 -41 27t-19 47q0 25 12 42t31.5 26.5t41.5 9.5q8 0 18.5 -1.5t20.5 -6.5l-7 -39
q-8 2 -16 3.5t-16 1.5q-19 0 -29 -10t-10 -24q0 -17 11 -29.5t25.5 -18.5t23.5 -6l-35 -9q23 6 42 12t34 12l14 -42q-20 -7 -46.5 -15.5t-54 -15.5t-50.5 -13z" />
    <glyph glyph-name="uni0677.fina" unicode="&#x677;" horiz-adv-x="417" 
d="M73 -230l-16 66q71 14 115.5 39.5t69.5 59t35 70t11 71.5q2 76 -16.5 124.5t-52.5 48.5q-21 0 -36 -17.5t-23 -45t-8 -56.5q0 -20 6.5 -32t19.5 -18.5t31 -8.5t40 -2h178q17 0 28.5 -7.5t11.5 -27.5q0 -22 -14.5 -30.5t-34.5 -8.5h-180q-55 0 -90.5 15t-52.5 43.5
t-17 66.5q0 37 10.5 74.5t29.5 68.5t47 49.5t62 18.5q45 0 76 -33t46 -90t13 -130q-2 -80 -35 -143t-96.5 -105t-157.5 -60zM273 401l-10 44q21 5 34.5 8.5t30.5 7.5l-5 -11q-22 8 -41 27t-19 47q0 25 12 42t31.5 26.5t41.5 9.5q8 0 18.5 -1.5t20.5 -6.5l-7 -39
q-8 2 -16 3.5t-16 1.5q-19 0 -29 -10t-10 -24q0 -17 11 -29.5t25.5 -18.5t23.5 -6l-35 -9q23 6 42 12t34 12l14 -42q-20 -7 -46.5 -15.5t-54 -15.5t-50.5 -13zM30 394l-8 44q62 4 100.5 18.5t56.5 35t18 41.5q0 17 -7.5 27.5t-21.5 10.5t-23 -9t-9 -23q0 -17 14.5 -32.5
t36.5 -22.5l-29 -29q-29 11 -49.5 32t-20.5 52q0 32 22.5 55.5t58.5 23.5q37 0 55.5 -25t18.5 -57q0 -40 -26.5 -71t-74.5 -49t-112 -22z" />
    <glyph glyph-name="uni0678.init" unicode="&#x678;" horiz-adv-x="278" 
d="M0 -5l10 74q24 0 44.5 8.5t33.5 28.5t13 57q0 25 -8 60t-21 74.5t-28 77.5l73 28q12 -33 24 -74.5t20 -83.5t8 -79q0 -33 -8 -60t-23 -48t-36 -35t-46.5 -21t-55.5 -7zM112 589l-11 49q23 5 37.5 9t33.5 8l-5 -19q-24 8 -45 31.5t-21 53.5q0 27 13 45.5t34.5 27.5t45.5 9
q10 0 21.5 -1.5t21.5 -5.5l-7 -45q-9 2 -17.5 3.5t-18.5 1.5q-21 0 -32.5 -8.5t-11.5 -24.5q0 -19 12 -33t28 -21.5t26 -7.5l-37 -3q25 6 46.5 12.5t37.5 13.5l15 -46q-22 -8 -51.5 -17.5t-59.5 -17.5t-55 -14z" />
    <glyph glyph-name="uni0678.medi" unicode="&#x678;" horiz-adv-x="263" 
d="M0 -5l10 74q26 0 43 8t28.5 30t21 64t21.5 110l70 -13q-4 -18 -9 -40t-8.5 -43.5t-3.5 -37.5q0 -20 8.5 -38t30 -29t61.5 -11q21 0 30.5 -9t9.5 -26q0 -16 -10.5 -27.5t-39.5 -11.5q-42 0 -71 11.5t-45.5 35t-22.5 57.5l30 -2q-13 -38 -33 -59t-41.5 -30t-42.5 -11
t-37 -2zM118 420l-11 49q23 5 37.5 9t33.5 8l-5 -19q-24 8 -45 31.5t-21 53.5q0 27 13 45.5t34.5 27.5t45.5 9q10 0 21.5 -1.5t21.5 -5.5l-7 -45q-9 2 -17.5 3.5t-18.5 1.5q-21 0 -32.5 -8.5t-11.5 -24.5q0 -19 12 -33t28 -21.5t26 -7.5l-37 -3q25 6 46.5 12.5t37.5 13.5
l15 -46q-22 -8 -51.5 -17.5t-59.5 -17.5t-55 -14z" />
    <glyph glyph-name="uni0678.fina" unicode="&#x678;" horiz-adv-x="625" 
d="M48 -21q0 31 5.5 64.5t18.5 69.5t32 72l62 -31q-14 -31 -24.5 -57.5t-15.5 -51.5t-5 -50q0 -51 19.5 -81.5t49.5 -45.5t63 -20t59 -5q56 0 95.5 13.5t65.5 35t38 44t12 40.5q0 11 -8 22.5t-26 23t-47 23.5t-71 25l18 69q63 -24 104 -38t67.5 -20.5t43.5 -8.5t31 -3
q21 0 30.5 -9t9.5 -26q0 -16 -10 -27.5t-39 -11.5h-9.5h-12.5h-10q1 -4 2.5 -12t1.5 -17q0 -30 -18.5 -64t-55.5 -64t-92.5 -49t-128.5 -19q-91 0 -147 28.5t-81.5 76t-26.5 104.5zM432 186l-11 49q23 5 37.5 9t33.5 8l-5 -19q-24 8 -45 31.5t-21 53.5q0 27 13 45.5
t34.5 27.5t45.5 9q10 0 21.5 -1.5t21.5 -5.5l-7 -45q-9 2 -17.5 3.5t-18.5 1.5q-21 0 -32.5 -8.5t-11.5 -24.5q0 -19 12 -33t28 -21.5t26 -7.5l-37 -3q25 6 46.5 12.5t37.5 13.5l15 -46q-22 -8 -51.5 -17.5t-59.5 -17.5t-55 -14z" />
    <glyph glyph-name="uni067C.init" unicode="&#x67c;" horiz-adv-x="249" 
d="M0 -5l10 74q39 0 66 6.5t41 27t14 60.5q0 25 -8 60t-21 74.5t-28 77.5l73 28q13 -32 24.5 -73t19.5 -81t8 -70q0 -50 -13 -85t-38 -57t-62.5 -32t-85.5 -10zM117 -94q-31 0 -52 21.5t-21 52.5t21 52.5t52 21.5t52.5 -21.5t21.5 -52.5t-21.5 -52.5t-52.5 -21.5zM117 -52
q14 0 24 9.5t10 22.5q0 14 -10 23.5t-24 9.5t-23.5 -9.5t-9.5 -23.5q0 -13 9.5 -22.5t23.5 -9.5zM185 506q-20 0 -34 13.5t-14 32.5q0 20 14 34t34 14q19 0 32.5 -14t13.5 -33q0 -20 -13.5 -33.5t-32.5 -13.5zM56 506q-20 0 -34 13.5t-14 32.5q0 20 14 34t34 14
q19 0 32.5 -14t13.5 -33q0 -20 -13.5 -33.5t-32.5 -13.5z" />
    <glyph glyph-name="uni067C.medi" unicode="&#x67c;" horiz-adv-x="263" 
d="M86 -101q-31 0 -52 21.5t-21 52.5t21 52.5t52 21.5t52.5 -21.5t21.5 -52.5t-21.5 -52.5t-52.5 -21.5zM86 -59q14 0 24 9.5t10 22.5q0 14 -10 23.5t-24 9.5t-23.5 -9.5t-9.5 -23.5q0 -13 9.5 -22.5t23.5 -9.5zM0 -5l10 74q26 0 43 8t28.5 30t21 64t21.5 110l70 -13
q-4 -18 -9 -40t-8.5 -43.5t-3.5 -37.5q0 -20 8.5 -38t30 -29t61.5 -11q21 0 30.5 -9t9.5 -25q0 -17 -10.5 -28.5t-39.5 -11.5q-42 0 -71 11.5t-45.5 35t-22.5 57.5l30 -2q-13 -38 -33 -59t-41.5 -30t-42.5 -11t-37 -2zM231 409q-20 0 -34 13.5t-14 32.5q0 20 14 34t34 14
q19 0 32.5 -14t13.5 -33q0 -20 -13.5 -33.5t-32.5 -13.5zM102 409q-20 0 -34 13.5t-14 32.5q0 20 14 34t34 14q19 0 32.5 -14t13.5 -33q0 -20 -13.5 -33.5t-32.5 -13.5z" />
    <glyph glyph-name="uni067C.fina" unicode="&#x67c;" horiz-adv-x="791" 
d="M369 -128q-31 0 -52 21.5t-21 52.5t21 52.5t52 21.5t52.5 -21.5t21.5 -52.5t-21.5 -52.5t-52.5 -21.5zM369 -86q14 0 24 9.5t10 22.5q0 14 -10 23.5t-24 9.5t-23.5 -9.5t-9.5 -23.5q0 -13 9.5 -22.5t23.5 -9.5zM288 -21l26 74q51 0 101 7t96 24.5t85 50.5t66 85l60 -32
q-12 -27 -16 -41.5t-4 -25.5t7.5 -23.5t29 -20.5t62.5 -8q21 0 30.5 -9t9.5 -25q0 -17 -10.5 -28.5t-39.5 -11.5q-41 0 -77 11t-57 36t-16 66l28 5q-30 -42 -74.5 -68t-97 -40.5t-106.5 -20t-103 -5.5zM288 -21q-47 0 -93.5 9t-84 30t-60 56.5t-22.5 89.5q0 27 4.5 55.5
t12 56.5t14.5 53l67 -20q-4 -13 -9.5 -36t-10 -48t-4.5 -46q0 -38 19 -66.5t65.5 -44t127.5 -15.5l20 -42zM427 405q-20 0 -34 13.5t-14 32.5q0 20 14 34t34 14q19 0 32.5 -14t13.5 -33q0 -20 -13.5 -33.5t-32.5 -13.5zM298 405q-20 0 -34 13.5t-14 32.5q0 20 14 34t34 14
q19 0 32.5 -14t13.5 -33q0 -20 -13.5 -33.5t-32.5 -13.5z" />
    <glyph glyph-name="uni067D.init" unicode="&#x67d;" horiz-adv-x="249" 
d="M0 -5l10 74q39 0 66 6.5t41 27t14 60.5q0 25 -8 60t-21 74.5t-28 77.5l73 28q13 -32 24.5 -73t19.5 -81t8 -70q0 -50 -13 -85t-38 -57t-62.5 -32t-85.5 -10zM121 506q-20 0 -34 13.5t-14 32.5q0 20 14 34t34 14q19 0 32.5 -14t13.5 -33q0 -20 -13.5 -33.5t-32.5 -13.5z
M57 616q-20 0 -34 13.5t-14 32.5q0 20 14 34t34 14q19 0 32.5 -14t13.5 -33q0 -20 -13.5 -33.5t-32.5 -13.5zM185 616q-20 0 -34 13.5t-14 32.5q0 20 14 34t34 14q19 0 32.5 -14t13.5 -33q0 -20 -13.5 -33.5t-32.5 -13.5z" />
    <glyph glyph-name="uni067D.medi" unicode="&#x67d;" horiz-adv-x="323" 
d="M0 -5l10 74q40 0 62.5 9t35 32t21 65t21.5 108l70 -15q-4 -18 -9 -40t-8.5 -43.5t-3.5 -37.5q0 -15 5 -29t19 -25t40.5 -17.5t69.5 -6.5q21 0 30.5 -9t9.5 -25q0 -17 -10.5 -28.5t-39.5 -11.5q-46 0 -77.5 7t-50.5 20.5t-29 33t-13 43.5l27 -2q-16 -32 -34 -52t-39 -31
t-47.5 -15t-59.5 -4zM182 459q-20 0 -34 13.5t-14 32.5q0 20 14 34t34 14q19 0 32.5 -14t13.5 -33q0 -20 -13.5 -33.5t-32.5 -13.5zM118 569q-20 0 -34 13.5t-14 32.5q0 20 14 34t34 14q19 0 32.5 -14t13.5 -33q0 -20 -13.5 -33.5t-32.5 -13.5zM246 569q-20 0 -34 13.5
t-14 32.5q0 20 14 34t34 14q19 0 32.5 -14t13.5 -33q0 -20 -13.5 -33.5t-32.5 -13.5z" />
    <glyph glyph-name="uni067D.fina" unicode="&#x67d;" horiz-adv-x="791" 
d="M288 -21l26 74q51 0 101 7t96 24.5t85 50.5t66 85l60 -32q-12 -27 -16 -41.5t-4 -25.5t7.5 -23.5t29 -20.5t62.5 -8q21 0 30.5 -9t9.5 -26q0 -16 -10.5 -27.5t-39.5 -11.5q-41 0 -77 11t-57 36t-16 66l28 5q-30 -42 -74.5 -68t-97 -40.5t-106.5 -20t-103 -5.5zM288 -21
q-47 0 -93.5 9t-84 30t-60 56.5t-22.5 89.5q0 27 4.5 55.5t12 56.5t14.5 53l67 -20q-4 -13 -9.5 -36t-10 -48t-4.5 -46q0 -38 19 -66.5t65.5 -44t127.5 -15.5l20 -42zM363 405q-20 0 -34 13.5t-14 32.5q0 20 14 34t34 14q19 0 32.5 -14t13.5 -33q0 -20 -13.5 -33.5
t-32.5 -13.5zM299 515q-20 0 -34 13.5t-14 32.5q0 20 14 34t34 14q19 0 32.5 -14t13.5 -33q0 -20 -13.5 -33.5t-32.5 -13.5zM427 515q-20 0 -34 13.5t-14 32.5q0 20 14 34t34 14q19 0 32.5 -14t13.5 -33q0 -20 -13.5 -33.5t-32.5 -13.5z" />
    <glyph glyph-name="uni0681.init" unicode="&#x681;" horiz-adv-x="447" 
d="M0 -5l9 74q48 0 83.5 9.5t66.5 26.5t64.5 40t77.5 49q-35 23 -60.5 43t-51.5 32.5t-63 12.5q-16 0 -28 -1t-21.5 -3t-20.5 -5l-16 62q20 8 42.5 12.5t43.5 4.5q43 0 74.5 -12.5t56.5 -30.5t46.5 -36t44 -30.5t50.5 -12.5h14l7 -72q-36 -1 -65 -13t-56 -30.5t-56 -39.5
t-63 -39t-77.5 -29.5t-101.5 -11.5zM67 414l-10 44q21 5 34.5 8.5t30.5 7.5l-5 -11q-22 8 -41 27t-19 47q0 25 12 42t31.5 26.5t41.5 9.5q8 0 18.5 -1.5t20.5 -6.5l-7 -39q-8 2 -16 3.5t-16 1.5q-19 0 -29 -10t-10 -24q0 -17 11 -29.5t25.5 -18.5t23.5 -6l-35 -9q23 6 42 12
t34 12l14 -42q-20 -7 -46.5 -15.5t-54 -15.5t-50.5 -13z" />
    <glyph glyph-name="uni0681.medi" unicode="&#x681;" horiz-adv-x="457" 
d="M457 -5q-30 0 -54.5 6.5t-44 22.5t-33.5 44t-24 72l52 27q13 -40 25 -61t32.5 -29t56.5 -8q21 0 30.5 -9t9.5 -26q0 -16 -10.5 -27.5t-39.5 -11.5zM0 -5l9 74q48 0 83.5 9.5t66.5 26.5t64.5 40t77.5 49q-35 23 -60.5 43t-51.5 32.5t-63 12.5q-16 0 -28 -1t-21.5 -3
t-20.5 -5l-16 62q20 8 42.5 12.5t43.5 4.5q43 0 74.5 -12.5t56.5 -30.5t46.5 -36t44 -30.5t50.5 -12.5h14l7 -72q-36 -1 -65 -13t-56 -30.5t-56 -39.5t-63 -39t-77.5 -29.5t-101.5 -11.5zM72 414l-10 44q21 5 34.5 8.5t30.5 7.5l-5 -11q-22 8 -41 27t-19 47q0 25 12 42
t31.5 26.5t41.5 9.5q8 0 18.5 -1.5t20.5 -6.5l-7 -39q-8 2 -16 3.5t-16 1.5q-19 0 -29 -10t-10 -24q0 -17 11 -29.5t25.5 -18.5t23.5 -6l-35 -9q23 6 42 12t34 12l14 -42q-20 -7 -46.5 -15.5t-54 -15.5t-50.5 -13z" />
    <glyph glyph-name="uni0681.fina" unicode="&#x681;" horiz-adv-x="540" 
d="M540 -5q-41 0 -79.5 9t-69.5 34.5t-50.5 75.5t-23.5 132l62 23q6 -63 20 -102.5t36 -60.5t51 -29t64 -8q21 0 30.5 -9t9.5 -26q0 -16 -10.5 -27.5t-39.5 -11.5zM312 -394q-57 0 -111 17t-97 51t-68.5 86.5t-25.5 123.5q0 46 13.5 91.5t39.5 89t65 83.5t90.5 75t114.5 62
l10 -16q-26 8 -53 20.5t-54.5 25t-55.5 21t-57 8.5q-22 0 -42.5 -3.5t-35.5 -8.5l-13 66q18 6 45 12t55 6q35 0 65.5 -10.5t60 -25.5t60 -30t66 -25.5t79.5 -10.5h9l2 -69q-46 -3 -92.5 -17.5t-90 -38t-81 -55.5t-66 -71t-44.5 -83.5t-16 -93.5q0 -58 21.5 -97.5t56 -63
t76.5 -34t82 -10.5q30 0 67 6t86 25l26 -63q-58 -28 -107 -35.5t-80 -7.5zM182 478l-10 44q21 5 34.5 8.5t30.5 7.5l-5 -11q-22 8 -41 27t-19 47q0 25 12 42t31.5 26.5t41.5 9.5q8 0 18.5 -1.5t20.5 -6.5l-7 -39q-8 2 -16 3.5t-16 1.5q-19 0 -29 -10t-10 -24q0 -17 11 -29.5
t25.5 -18.5t23.5 -6l-35 -9q23 6 42 12t34 12l14 -42q-20 -7 -46.5 -15.5t-54 -15.5t-50.5 -13z" />
    <glyph glyph-name="uni0682.init" unicode="&#x682;" horiz-adv-x="447" 
d="M0 -5l9 74q48 0 83.5 9.5t66.5 26.5t64.5 40t77.5 49q-35 23 -60.5 43t-51.5 32.5t-63 12.5q-16 0 -28 -1t-21.5 -3t-20.5 -5l-16 62q20 8 42.5 12.5t43.5 4.5q43 0 74.5 -12.5t56.5 -30.5t46.5 -36t44 -30.5t50.5 -12.5h14l7 -72q-36 -1 -65 -13t-56 -30.5t-56 -39.5
t-63 -39t-77.5 -29.5t-101.5 -11.5zM139 455q-20 0 -34 13.5t-14 32.5q0 20 14 34t34 14q19 0 32.5 -14t13.5 -33q0 -20 -13.5 -33.5t-32.5 -13.5zM138 590q-20 0 -34 13.5t-14 32.5q0 20 14 34t34 14q19 0 32.5 -14t13.5 -33q0 -20 -13.5 -33.5t-32.5 -13.5z" />
    <glyph glyph-name="uni0682.medi" unicode="&#x682;" horiz-adv-x="457" 
d="M457 -5q-30 0 -54.5 6.5t-44 22.5t-33.5 44t-24 72l52 27q13 -40 25 -61t32.5 -29t56.5 -8q21 0 30.5 -9t9.5 -26q0 -16 -10.5 -27.5t-39.5 -11.5zM0 -5l9 74q48 0 83.5 9.5t66.5 26.5t64.5 40t77.5 49q-35 23 -60.5 43t-51.5 32.5t-63 12.5q-16 0 -28 -1t-21.5 -3
t-20.5 -5l-16 62q20 8 42.5 12.5t43.5 4.5q43 0 74.5 -12.5t56.5 -30.5t46.5 -36t44 -30.5t50.5 -12.5h14l7 -72q-36 -1 -65 -13t-56 -30.5t-56 -39.5t-63 -39t-77.5 -29.5t-101.5 -11.5zM139 455q-20 0 -34 13.5t-14 32.5q0 20 14 34t34 14q19 0 32.5 -14t13.5 -33
q0 -20 -13.5 -33.5t-32.5 -13.5zM138 590q-20 0 -34 13.5t-14 32.5q0 20 14 34t34 14q19 0 32.5 -14t13.5 -33q0 -20 -13.5 -33.5t-32.5 -13.5z" />
    <glyph glyph-name="uni0682.fina" unicode="&#x682;" horiz-adv-x="540" 
d="M540 -5q-41 0 -79.5 9t-69.5 34.5t-50.5 75.5t-23.5 132l62 23q6 -63 20 -102.5t36 -60.5t51 -29t64 -8q21 0 30.5 -9t9.5 -26q0 -16 -10.5 -27.5t-39.5 -11.5zM312 -394q-57 0 -111 17t-97 51t-68.5 86.5t-25.5 123.5q0 46 13.5 91.5t39.5 89t65 83.5t90.5 75t114.5 62
l10 -16q-26 8 -53 20.5t-54.5 25t-55.5 21t-57 8.5q-22 0 -42.5 -3.5t-35.5 -8.5l-13 66q18 6 45 12t55 6q35 0 65.5 -10.5t60 -25.5t60 -30t66 -25.5t79.5 -10.5h9l2 -69q-46 -3 -92.5 -17.5t-90 -38t-81 -55.5t-66 -71t-44.5 -83.5t-16 -93.5q0 -58 21.5 -97.5t56 -63
t76.5 -34t82 -10.5q30 0 67 6t86 25l26 -63q-58 -28 -107 -35.5t-80 -7.5zM285 519q-20 0 -34 13.5t-14 32.5q0 20 14 34t34 14q19 0 32.5 -14t13.5 -33q0 -20 -13.5 -33.5t-32.5 -13.5zM284 654q-20 0 -34 13.5t-14 32.5q0 20 14 34t34 14q19 0 32.5 -14t13.5 -33
q0 -20 -13.5 -33.5t-32.5 -13.5z" />
    <glyph glyph-name="uni0685.init" unicode="&#x685;" horiz-adv-x="447" 
d="M0 -5l9 74q48 0 83.5 9.5t66.5 26.5t64.5 40t77.5 49q-35 23 -60.5 43t-51.5 32.5t-63 12.5q-16 0 -28 -1t-21.5 -3t-20.5 -5l-16 62q20 8 42.5 12.5t43.5 4.5q43 0 74.5 -12.5t56.5 -30.5t46.5 -36t44 -30.5t50.5 -12.5h14l7 -72q-36 -1 -65 -13t-56 -30.5t-56 -39.5
t-63 -39t-77.5 -29.5t-101.5 -11.5zM141 565q-20 0 -34 13.5t-14 32.5q0 20 14 34t34 14q19 0 32.5 -14t13.5 -33q0 -20 -13.5 -33.5t-32.5 -13.5zM77 455q-20 0 -34 13.5t-14 32.5q0 20 14 34t34 14q19 0 32.5 -14t13.5 -33q0 -20 -13.5 -33.5t-32.5 -13.5zM205 455
q-20 0 -34 13.5t-14 32.5q0 20 14 34t34 14q19 0 32.5 -14t13.5 -33q0 -20 -13.5 -33.5t-32.5 -13.5z" />
    <glyph glyph-name="uni0685.medi" unicode="&#x685;" horiz-adv-x="457" 
d="M457 -5q-30 0 -54.5 6.5t-44 22.5t-33.5 44t-24 72l52 27q13 -40 25 -61t32.5 -29t56.5 -8q21 0 30.5 -9t9.5 -26q0 -16 -10.5 -27.5t-39.5 -11.5zM0 -5l9 74q48 0 83.5 9.5t66.5 26.5t64.5 40t77.5 49q-35 23 -60.5 43t-51.5 32.5t-63 12.5q-16 0 -28 -1t-21.5 -3
t-20.5 -5l-16 62q20 8 42.5 12.5t43.5 4.5q43 0 74.5 -12.5t56.5 -30.5t46.5 -36t44 -30.5t50.5 -12.5h14l7 -72q-36 -1 -65 -13t-56 -30.5t-56 -39.5t-63 -39t-77.5 -29.5t-101.5 -11.5zM141 565q-20 0 -34 13.5t-14 32.5q0 20 14 34t34 14q19 0 32.5 -14t13.5 -33
q0 -20 -13.5 -33.5t-32.5 -13.5zM77 455q-20 0 -34 13.5t-14 32.5q0 20 14 34t34 14q19 0 32.5 -14t13.5 -33q0 -20 -13.5 -33.5t-32.5 -13.5zM205 455q-20 0 -34 13.5t-14 32.5q0 20 14 34t34 14q19 0 32.5 -14t13.5 -33q0 -20 -13.5 -33.5t-32.5 -13.5z" />
    <glyph glyph-name="uni0685.fina" unicode="&#x685;" horiz-adv-x="540" 
d="M540 -5q-41 0 -79.5 9t-69.5 34.5t-50.5 75.5t-23.5 132l62 23q6 -63 20 -102.5t36 -60.5t51 -29t64 -8q21 0 30.5 -9t9.5 -26q0 -16 -10.5 -27.5t-39.5 -11.5zM312 -394q-57 0 -111 17t-97 51t-68.5 86.5t-25.5 123.5q0 46 13.5 91.5t39.5 89t65 83.5t90.5 75t114.5 62
l10 -16q-26 8 -53 20.5t-54.5 25t-55.5 21t-57 8.5q-22 0 -42.5 -3.5t-35.5 -8.5l-13 66q18 6 45 12t55 6q35 0 65.5 -10.5t60 -25.5t60 -30t66 -25.5t79.5 -10.5h9l2 -69q-46 -3 -92.5 -17.5t-90 -38t-81 -55.5t-66 -71t-44.5 -83.5t-16 -93.5q0 -58 21.5 -97.5t56 -63
t76.5 -34t82 -10.5q30 0 67 6t86 25l26 -63q-58 -28 -107 -35.5t-80 -7.5zM287 629q-20 0 -34 13.5t-14 32.5q0 20 14 34t34 14q19 0 32.5 -14t13.5 -33q0 -20 -13.5 -33.5t-32.5 -13.5zM223 519q-20 0 -34 13.5t-14 32.5q0 20 14 34t34 14q19 0 32.5 -14t13.5 -33
q0 -20 -13.5 -33.5t-32.5 -13.5zM351 519q-20 0 -34 13.5t-14 32.5q0 20 14 34t34 14q19 0 32.5 -14t13.5 -33q0 -20 -13.5 -33.5t-32.5 -13.5z" />
    <glyph glyph-name="uni0689.fina" unicode="&#x689;" horiz-adv-x="425" 
d="M171 -111q-31 0 -52 21.5t-21 52.5t21 52.5t52 21.5t52.5 -21.5t21.5 -52.5t-21.5 -52.5t-52.5 -21.5zM171 -69q14 0 24 9.5t10 22.5q0 14 -10 23.5t-24 9.5t-23.5 -9.5t-9.5 -23.5q0 -13 9.5 -22.5t23.5 -9.5zM174 70q32 0 53.5 8.5t33 28t11.5 51.5q0 12 -3 32.5
t-14.5 52.5t-36 77.5t-66.5 106.5l65 42q36 -55 63 -107t46.5 -106t30.5 -116q5 -27 17.5 -42.5t28.5 -22t32 -6.5q21 0 30.5 -9t9.5 -26q0 -16 -10.5 -27.5t-39.5 -11.5t-54 10t-43.5 31.5t-28.5 56.5l22 -13q-12 -27 -31.5 -45.5t-47 -28.5t-66.5 -10q-22 0 -48 3.5
t-50.5 10.5t-42.5 16l20 68q32 -11 63 -17.5t56 -6.5z" />
    <glyph glyph-name="uni068A.fina" unicode="&#x68a;" horiz-adv-x="425" 
d="M174 70q32 0 53.5 8.5t33 28t11.5 51.5q0 12 -3 32.5t-14.5 52.5t-36 77.5t-66.5 106.5l65 42q36 -55 63 -107t46.5 -106t30.5 -116q5 -27 17.5 -42.5t28.5 -22t32 -6.5q21 0 30.5 -9t9.5 -26q0 -16 -10.5 -27.5t-39.5 -11.5t-54 10t-43.5 31.5t-28.5 56.5l22 -13
q-12 -27 -31.5 -45.5t-47 -28.5t-66.5 -10q-22 0 -48 3.5t-50.5 10.5t-42.5 16l20 68q32 -11 63 -17.5t56 -6.5zM159 -191q-20 0 -34 13.5t-14 32.5q0 20 14 34t34 14q19 0 32.5 -14t13.5 -33q0 -20 -13.5 -33.5t-32.5 -13.5z" />
    <glyph glyph-name="uni068B.fina" unicode="&#x68b;" horiz-adv-x="425" 
d="M174 70q32 0 53.5 8.5t33 28t11.5 51.5q0 12 -3 32.5t-14.5 52.5t-36 77.5t-66.5 106.5l65 42q36 -55 63 -107t46.5 -106t30.5 -116q5 -27 17.5 -42.5t28.5 -22t32 -6.5q21 0 30.5 -9t9.5 -26q0 -16 -10.5 -27.5t-39.5 -11.5t-54 10t-43.5 31.5t-28.5 56.5l22 -13
q-12 -27 -31.5 -45.5t-47 -28.5t-66.5 -10q-22 0 -48 3.5t-50.5 10.5t-42.5 16l20 68q32 -11 63 -17.5t56 -6.5zM157 616q-16 0 -38.5 1.5t-42.5 3t-30 2.5l2 47q17 -4 47 -5.5t55 -1.5q30 0 49 5t28 13.5t9 19.5q0 13 -8 19t-22 6q-19 0 -36.5 -12.5t-31 -28t-20.5 -24.5
l-46 2q16 29 38.5 54.5t49 41.5t53.5 16q33 0 52.5 -20t19.5 -49q0 -18 -10.5 -39t-38 -36t-79.5 -15zM95 674l-6 175h45l7 -151zM159 -191q-20 0 -34 13.5t-14 32.5q0 20 14 34t34 14q19 0 32.5 -14t13.5 -33q0 -20 -13.5 -33.5t-32.5 -13.5z" />
    <glyph glyph-name="uni068F.fina" unicode="&#x68f;" horiz-adv-x="425" 
d="M174 70q32 0 53.5 8.5t33 28t11.5 51.5q0 12 -3 32.5t-14.5 52.5t-36 77.5t-66.5 106.5l65 42q36 -55 63 -107t46.5 -106t30.5 -116q5 -27 17.5 -42.5t28.5 -22t32 -6.5q21 0 30.5 -9t9.5 -26q0 -16 -10.5 -27.5t-39.5 -11.5t-54 10t-43.5 31.5t-28.5 56.5l22 -13
q-12 -27 -31.5 -45.5t-47 -28.5t-66.5 -10q-22 0 -48 3.5t-50.5 10.5t-42.5 16l20 68q32 -11 63 -17.5t56 -6.5zM169 574q-20 0 -34 13.5t-14 32.5q0 20 14 34t34 14q19 0 32.5 -14t13.5 -33q0 -20 -13.5 -33.5t-32.5 -13.5zM105 684q-20 0 -34 13.5t-14 32.5q0 20 14 34
t34 14q19 0 32.5 -14t13.5 -33q0 -20 -13.5 -33.5t-32.5 -13.5zM233 684q-20 0 -34 13.5t-14 32.5q0 20 14 34t34 14q19 0 32.5 -14t13.5 -33q0 -20 -13.5 -33.5t-32.5 -13.5z" />
    <glyph glyph-name="uni0690.fina" unicode="&#x690;" horiz-adv-x="425" 
d="M174 70q32 0 53.5 8.5t33 28t11.5 51.5q0 12 -3 32.5t-14.5 52.5t-36 77.5t-66.5 106.5l65 42q36 -55 63 -107t46.5 -106t30.5 -116q5 -27 17.5 -42.5t28.5 -22t32 -6.5q21 0 30.5 -9t9.5 -26q0 -16 -10.5 -27.5t-39.5 -11.5t-54 10t-43.5 31.5t-28.5 56.5l22 -13
q-12 -27 -31.5 -45.5t-47 -28.5t-66.5 -10q-22 0 -48 3.5t-50.5 10.5t-42.5 16l20 68q32 -11 63 -17.5t56 -6.5zM105 699q-20 0 -34 13.5t-14 32.5q0 20 14 34t34 14q19 0 32.5 -14t13.5 -33q0 -20 -13.5 -33.5t-32.5 -13.5zM105 574q-20 0 -34 13.5t-14 32.5q0 20 14 34
t34 14q19 0 32.5 -14t13.5 -33q0 -20 -13.5 -33.5t-32.5 -13.5zM233 699q-20 0 -34 13.5t-14 32.5q0 20 14 34t34 14q19 0 32.5 -14t13.5 -33q0 -20 -13.5 -33.5t-32.5 -13.5zM233 574q-20 0 -34 13.5t-14 32.5q0 20 14 34t34 14q19 0 32.5 -14t13.5 -33q0 -20 -13.5 -33.5
t-32.5 -13.5z" />
    <glyph glyph-name="uni0692.fina" unicode="&#x692;" horiz-adv-x="290" 
d="M17 -230l-44 65q56 35 91.5 71t54.5 71t26 65.5t7 52.5q0 44 -18 93.5t-52 113.5l73 37q18 -34 30 -65t21 -59.5t16 -54.5q14 -55 33 -73t45 -18q21 0 30.5 -9t9.5 -26q0 -16 -10.5 -27.5t-39.5 -11.5q-27 0 -47 11.5t-34.5 35t-24.5 59.5l42 5q0 -50 -13.5 -98.5
t-40 -92t-65.5 -81t-90 -64.5zM102 482q-6 14 -16 38.5t-21 53t-21 54t-17 40.5l41 19q5 -9 14 -30.5t19.5 -47.5t20 -49.5t15.5 -36.5l18 -36zM155 487l-40 15q6 16 16.5 43.5t22.5 57t21.5 52.5t12.5 30l41 -17q-4 -9 -14 -32.5t-21.5 -52.5t-22 -55t-16.5 -41z" />
    <glyph glyph-name="uni0693.fina" unicode="&#x693;" horiz-adv-x="290" 
d="M173 -218q-31 0 -52 21.5t-21 52.5t21 52.5t52 21.5t52.5 -21.5t21.5 -52.5t-21.5 -52.5t-52.5 -21.5zM173 -176q14 0 24 9.5t10 22.5q0 14 -10 23.5t-24 9.5t-23.5 -9.5t-9.5 -23.5q0 -13 9.5 -22.5t23.5 -9.5zM17 -230l-44 65q56 35 91.5 71t54.5 71t26 65.5t7 52.5
q0 44 -18 93.5t-52 113.5l73 37q18 -34 30 -65t21 -59.5t16 -54.5q14 -55 33 -73t45 -18q21 0 30.5 -9t9.5 -26q0 -16 -10.5 -27.5t-39.5 -11.5q-27 0 -47 11.5t-34.5 35t-24.5 59.5l42 5q0 -50 -13.5 -98.5t-40 -92t-65.5 -81t-90 -64.5z" />
    <glyph glyph-name="uni0694.fina" unicode="&#x694;" horiz-adv-x="290" 
d="M17 -230l-44 65q56 35 91.5 71t54.5 71t26 65.5t7 52.5q0 44 -18 93.5t-52 113.5l73 37q18 -34 30 -65t21 -59.5t16 -54.5q14 -55 33 -73t45 -18q21 0 30.5 -9t9.5 -26q0 -16 -10.5 -27.5t-39.5 -11.5q-27 0 -47 11.5t-34.5 35t-24.5 59.5l42 5q0 -50 -13.5 -98.5
t-40 -92t-65.5 -81t-90 -64.5zM105 -402q-20 0 -34 13.5t-14 32.5q0 20 14 34t34 14q19 0 32.5 -14t13.5 -33q0 -20 -13.5 -33.5t-32.5 -13.5z" />
    <glyph glyph-name="uni0695.fina" unicode="&#x695;" horiz-adv-x="290" 
d="M10 -55q-7 15 -19.5 41t-25.5 53t-22 42l33 18q5 -9 12.5 -24.5t16.5 -34t16.5 -35l12.5 -27.5l15 -29zM49 -51l-32 12q4 13 13 33.5t18 43t16.5 40t10.5 22.5l33 -13q-3 -8 -11 -25.5t-17.5 -39t-18 -41.5t-12.5 -32zM17 -230l-44 65q56 35 91.5 71t54.5 71t26 65.5
t7 52.5q0 44 -18 93.5t-52 113.5l73 37q18 -34 30 -65t21 -59.5t16 -54.5q14 -55 33 -73t45 -18q21 0 30.5 -9t9.5 -26q0 -16 -10.5 -27.5t-39.5 -11.5q-27 0 -47 11.5t-34.5 35t-24.5 59.5l42 5q0 -50 -13.5 -98.5t-40 -92t-65.5 -81t-90 -64.5z" />
    <glyph glyph-name="uni0696.fina" unicode="&#x696;" horiz-adv-x="290" 
d="M17 -230l-44 65q56 35 91.5 71t54.5 71t26 65.5t7 52.5q0 44 -18 93.5t-52 113.5l73 37q18 -34 30 -65t21 -59.5t16 -54.5q14 -55 33 -73t45 -18q21 0 30.5 -9t9.5 -26q0 -16 -10.5 -27.5t-39.5 -11.5q-27 0 -47 11.5t-34.5 35t-24.5 59.5l42 5q0 -50 -13.5 -98.5
t-40 -92t-65.5 -81t-90 -64.5zM13 -7q-20 0 -34 13.5t-14 32.5q0 20 14 34t34 14q19 0 32.5 -14t13.5 -33q0 -20 -13.5 -33.5t-32.5 -13.5zM75 -402q-20 0 -34 13.5t-14 32.5q0 20 14 34t34 14q19 0 32.5 -14t13.5 -33q0 -20 -13.5 -33.5t-32.5 -13.5z" />
    <glyph glyph-name="uni0697.fina" unicode="&#x697;" horiz-adv-x="290" 
d="M17 -230l-44 65q56 35 91.5 71t54.5 71t26 65.5t7 52.5q0 44 -18 93.5t-52 113.5l73 37q18 -34 30 -65t21 -59.5t16 -54.5q14 -55 33 -73t45 -18q21 0 30.5 -9t9.5 -26q0 -16 -10.5 -27.5t-39.5 -11.5q-27 0 -47 11.5t-34.5 35t-24.5 59.5l42 5q0 -50 -13.5 -98.5
t-40 -92t-65.5 -81t-90 -64.5zM193 454q-20 0 -34 13.5t-14 32.5q0 20 14 34t34 14q19 0 32.5 -14t13.5 -33q0 -20 -13.5 -33.5t-32.5 -13.5zM64 454q-20 0 -34 13.5t-14 32.5q0 20 14 34t34 14q19 0 32.5 -14t13.5 -33q0 -20 -13.5 -33.5t-32.5 -13.5z" />
    <glyph glyph-name="uni0699.fina" unicode="&#x699;" horiz-adv-x="290" 
d="M17 -230l-44 65q56 35 91.5 71t54.5 71t26 65.5t7 52.5q0 44 -18 93.5t-52 113.5l73 37q18 -34 30 -65t21 -59.5t16 -54.5q14 -55 33 -73t45 -18q21 0 30.5 -9t9.5 -26q0 -16 -10.5 -27.5t-39.5 -11.5q-27 0 -47 11.5t-34.5 35t-24.5 59.5l42 5q0 -50 -13.5 -98.5
t-40 -92t-65.5 -81t-90 -64.5zM65 579q-20 0 -34 13.5t-14 32.5q0 20 14 34t34 14q19 0 32.5 -14t13.5 -33q0 -20 -13.5 -33.5t-32.5 -13.5zM65 454q-20 0 -34 13.5t-14 32.5q0 20 14 34t34 14q19 0 32.5 -14t13.5 -33q0 -20 -13.5 -33.5t-32.5 -13.5zM193 579
q-20 0 -34 13.5t-14 32.5q0 20 14 34t34 14q19 0 32.5 -14t13.5 -33q0 -20 -13.5 -33.5t-32.5 -13.5zM193 454q-20 0 -34 13.5t-14 32.5q0 20 14 34t34 14q19 0 32.5 -14t13.5 -33q0 -20 -13.5 -33.5t-32.5 -13.5z" />
    <glyph glyph-name="uni069A.init" unicode="&#x69a;" horiz-adv-x="681" 
d="M0 -5l10 74q32 0 52 5.5t33.5 25.5t25.5 61.5t28 113.5l65 -18q-8 -34 -13 -55t-7 -37t-3 -35q-1 -29 8.5 -45t55.5 -16q20 0 34 6t24.5 27t20 64t20.5 116l67 -13q-3 -18 -7 -44t-7.5 -51t-3.5 -42t5.5 -31.5t20 -23t42.5 -8.5q30 0 48 10.5t26.5 30.5t8.5 48
q0 44 -17.5 100.5t-39.5 114.5l73 28q12 -32 25 -72.5t22 -83.5t9 -81q0 -42 -11.5 -73.5t-32.5 -52.5t-50 -32t-63 -11q-31 0 -54.5 10t-37.5 31t-19 55h24q-13 -39 -31 -59.5t-43 -28.5t-61 -8q-29 0 -54 8t-39.5 30.5t-14.5 65.5l30 6q-17 -51 -38.5 -74.5t-53 -29.5
t-77.5 -6zM329 -191q-20 0 -34 13.5t-14 32.5q0 20 14 34t34 14q19 0 32.5 -14t13.5 -33q0 -20 -13.5 -33.5t-32.5 -13.5zM372 435q-20 0 -34 13.5t-14 32.5q0 20 14 34t34 14q19 0 32.5 -14t13.5 -33q0 -20 -13.5 -33.5t-32.5 -13.5z" />
    <glyph glyph-name="uni069A.medi" unicode="&#x69a;" horiz-adv-x="679" 
d="M0 -5l10 74q28 0 46 5.5t31 25.5t24.5 61.5t27.5 113.5l65 -18q-6 -25 -14.5 -62t-8.5 -66q0 -16 2 -30t15.5 -22t46.5 -8q20 0 34 6t24.5 27t20 64t20.5 116l67 -12q-3 -18 -7 -44.5t-7.5 -52.5t-3.5 -43q0 -22 4 -35.5t18.5 -19.5t45.5 -6q32 0 53 17.5t21 75.5
q0 23 -1 48.5t-3.5 57t-7.5 72.5l70 5q5 -81 11 -134.5t16 -84.5t26.5 -44t42.5 -13q21 0 30.5 -9t9.5 -26q0 -16 -10.5 -27.5t-39.5 -11.5q-34 0 -56 9.5t-35.5 26t-21.5 38t-13 45.5l28 -6q-5 -45 -25 -69.5t-45.5 -34t-49.5 -9.5q-36 0 -60 10.5t-37 31.5t-16 54h24
q-12 -37 -29.5 -58t-43 -29.5t-62.5 -8.5q-25 0 -50.5 7t-41.5 29.5t-16 67.5l30 6q-17 -51 -38 -74.5t-50.5 -29.5t-70.5 -6zM334 -191q-20 0 -34 13.5t-14 32.5q0 20 14 34t34 14q19 0 32.5 -14t13.5 -33q0 -20 -13.5 -33.5t-32.5 -13.5zM364 435q-20 0 -34 13.5t-14 32.5
q0 20 14 34t34 14q19 0 32.5 -14t13.5 -33q0 -20 -13.5 -33.5t-32.5 -13.5z" />
    <glyph glyph-name="uni069A.fina" unicode="&#x69a;" horiz-adv-x="988" 
d="M274 -232q-51 0 -93 15t-71.5 42.5t-45.5 66.5t-16 88q0 14 3 43.5t15.5 70t38.5 86.5l61 -31q-15 -32 -25 -57.5t-14.5 -48.5t-4.5 -49q0 -47 17 -81.5t51 -52.5t83 -18q54 0 84.5 18.5t44.5 46t17.5 56.5t3.5 50q0 52 -5.5 89.5t-16 74t-25.5 85.5l73 20
q16 -57 22.5 -81.5t10.5 -40.5q11 -37 21.5 -56.5t24 -27t31.5 -7.5t31 6t24 27t20 64t18 116l68 -12q-3 -18 -7 -44.5t-7.5 -52.5t-3.5 -43q0 -14 5.5 -28.5t20.5 -23.5t43 -9t50.5 25t22.5 68q0 23 -1 48.5t-3.5 57t-7.5 72.5l70 5q5 -81 11 -134.5t16 -84.5t26.5 -44
t42.5 -13q21 0 30.5 -9t9.5 -26q0 -16 -10.5 -27.5t-39.5 -11.5t-56 10t-46.5 36t-27.5 73l32 -6q-11 -45 -31.5 -69.5t-44 -34t-44.5 -9.5q-30 0 -54 10.5t-39.5 33t-20.5 58.5h26q-15 -36 -31.5 -58.5t-37.5 -33t-52 -10.5q-24 0 -41.5 8t-29 21t-17.5 28t-8 28l27 -39
q5 -49 -4.5 -97.5t-35.5 -88.5t-69.5 -63.5t-108.5 -23.5zM667 -186q-20 0 -34 13.5t-14 32.5q0 20 14 34t34 14q19 0 32.5 -14t13.5 -33q0 -20 -13.5 -33.5t-32.5 -13.5zM646 435q-20 0 -34 13.5t-14 32.5q0 20 14 34t34 14q19 0 32.5 -14t13.5 -33q0 -20 -13.5 -33.5
t-32.5 -13.5z" />
    <glyph glyph-name="uni069B.init" unicode="&#x69b;" horiz-adv-x="681" 
d="M0 -5l10 74q32 0 52 5.5t33.5 25.5t25.5 61.5t28 113.5l65 -18q-8 -34 -13 -55t-7 -37t-3 -35q-1 -29 8.5 -45t55.5 -16q20 0 34 6t24.5 27t20 64t20.5 116l67 -13q-3 -18 -7 -44t-7.5 -51t-3.5 -42t5.5 -31.5t20 -23t42.5 -8.5q30 0 48 10.5t26.5 30.5t8.5 48
q0 44 -17.5 100.5t-39.5 114.5l73 28q12 -32 25 -72.5t22 -83.5t9 -81q0 -42 -11.5 -73.5t-32.5 -52.5t-50 -32t-63 -11q-31 0 -54.5 10t-37.5 31t-19 55h24q-13 -39 -31 -59.5t-43 -28.5t-61 -8q-29 0 -54 8t-39.5 30.5t-14.5 65.5l30 6q-17 -51 -38.5 -74.5t-53 -29.5
t-77.5 -6zM328 -299q-20 0 -34 13.5t-14 32.5q0 20 14 34t34 14q19 0 32.5 -14t13.5 -33q0 -20 -13.5 -33.5t-32.5 -13.5zM264 -189q-20 0 -34 13.5t-14 32.5q0 20 14 34t34 14q19 0 32.5 -14t13.5 -33q0 -20 -13.5 -33.5t-32.5 -13.5zM392 -189q-20 0 -34 13.5t-14 32.5
q0 20 14 34t34 14q19 0 32.5 -14t13.5 -33q0 -20 -13.5 -33.5t-32.5 -13.5z" />
    <glyph glyph-name="uni069B.medi" unicode="&#x69b;" horiz-adv-x="679" 
d="M0 -5l10 74q28 0 46 5.5t31 25.5t24.5 61.5t27.5 113.5l65 -18q-6 -25 -14.5 -62t-8.5 -66q0 -16 2 -30t15.5 -22t46.5 -8q20 0 34 6t24.5 27t20 64t20.5 116l67 -12q-3 -18 -7 -44.5t-7.5 -52.5t-3.5 -43q0 -22 4 -35.5t18.5 -19.5t45.5 -6q32 0 53 17.5t21 75.5
q0 23 -1 48.5t-3.5 57t-7.5 72.5l70 5q5 -81 11 -134.5t16 -84.5t26.5 -44t42.5 -13q21 0 30.5 -9t9.5 -26q0 -16 -10.5 -27.5t-39.5 -11.5q-34 0 -56 9.5t-35.5 26t-21.5 38t-13 45.5l28 -6q-5 -45 -25 -69.5t-45.5 -34t-49.5 -9.5q-36 0 -60 10.5t-37 31.5t-16 54h24
q-12 -37 -29.5 -58t-43 -29.5t-62.5 -8.5q-25 0 -50.5 7t-41.5 29.5t-16 67.5l30 6q-17 -51 -38 -74.5t-50.5 -29.5t-70.5 -6zM333 -299q-20 0 -34 13.5t-14 32.5q0 20 14 34t34 14q19 0 32.5 -14t13.5 -33q0 -20 -13.5 -33.5t-32.5 -13.5zM269 -189q-20 0 -34 13.5
t-14 32.5q0 20 14 34t34 14q19 0 32.5 -14t13.5 -33q0 -20 -13.5 -33.5t-32.5 -13.5zM397 -189q-20 0 -34 13.5t-14 32.5q0 20 14 34t34 14q19 0 32.5 -14t13.5 -33q0 -20 -13.5 -33.5t-32.5 -13.5z" />
    <glyph glyph-name="uni069B.fina" unicode="&#x69b;" horiz-adv-x="988" 
d="M274 -232q-51 0 -93 15t-71.5 42.5t-45.5 66.5t-16 88q0 14 3 43.5t15.5 70t38.5 86.5l61 -31q-15 -32 -25 -57.5t-14.5 -48.5t-4.5 -49q0 -47 17 -81.5t51 -52.5t83 -18q54 0 84.5 18.5t44.5 46t17.5 56.5t3.5 50q0 52 -5.5 89.5t-16 74t-25.5 85.5l73 20
q16 -57 22.5 -81.5t10.5 -40.5q11 -37 21.5 -56.5t24 -27t31.5 -7.5t31 6t24 27t20 64t18 116l68 -12q-3 -18 -7 -44.5t-7.5 -52.5t-3.5 -43q0 -14 5.5 -28.5t20.5 -23.5t43 -9t50.5 25t22.5 68q0 23 -1 48.5t-3.5 57t-7.5 72.5l70 5q5 -81 11 -134.5t16 -84.5t26.5 -44
t42.5 -13q21 0 30.5 -9t9.5 -26q0 -16 -10.5 -27.5t-39.5 -11.5t-56 10t-46.5 36t-27.5 73l32 -6q-11 -45 -31.5 -69.5t-44 -34t-44.5 -9.5q-30 0 -54 10.5t-39.5 33t-20.5 58.5h26q-15 -36 -31.5 -58.5t-37.5 -33t-52 -10.5q-24 0 -41.5 8t-29 21t-17.5 28t-8 28l27 -39
q5 -49 -4.5 -97.5t-35.5 -88.5t-69.5 -63.5t-108.5 -23.5zM666 -294q-20 0 -34 13.5t-14 32.5q0 20 14 34t34 14q19 0 32.5 -14t13.5 -33q0 -20 -13.5 -33.5t-32.5 -13.5zM602 -184q-20 0 -34 13.5t-14 32.5q0 20 14 34t34 14q19 0 32.5 -14t13.5 -33q0 -20 -13.5 -33.5
t-32.5 -13.5zM730 -184q-20 0 -34 13.5t-14 32.5q0 20 14 34t34 14q19 0 32.5 -14t13.5 -33q0 -20 -13.5 -33.5t-32.5 -13.5z" />
    <glyph glyph-name="uni069D.init" unicode="&#x69d;" horiz-adv-x="741" 
d="M379 -12q-69 0 -115 5.5t-74 17.5t-43 31.5t-22 47.5l25 7q-19 -40 -42 -62.5t-50 -31t-58 -8.5l10 74q26 0 41 8t25.5 29.5t20.5 60.5t26 100l73 -19q-6 -23 -11 -44t-7.5 -36.5t-2.5 -24.5q0 -24 8 -39.5t31 -24.5t66 -12.5t113 -3.5q60 0 104.5 9t74.5 26t44.5 42
t14.5 58q0 24 -10 44.5t-29 33t-47 12.5q-37 0 -74 -24t-70.5 -60.5t-60.5 -75t-44 -67.5l-78 -3q27 54 64 108t80.5 99t90.5 72t94 27q45 0 80.5 -21t55.5 -58t20 -85q0 -58 -34 -106t-105.5 -77t-184.5 -29zM435 -196q-20 0 -34 13.5t-14 32.5q0 20 14 34t34 14
q19 0 32.5 -14t13.5 -33q0 -20 -13.5 -33.5t-32.5 -13.5zM306 -196q-20 0 -34 13.5t-14 32.5q0 20 14 34t34 14q19 0 32.5 -14t13.5 -33q0 -20 -13.5 -33.5t-32.5 -13.5z" />
    <glyph glyph-name="uni069D.medi" unicode="&#x69d;" horiz-adv-x="752" 
d="M752 -5q-30 0 -58.5 7.5t-52 22t-39.5 34.5l66 33q15 -10 37.5 -16.5t56.5 -6.5q21 0 30.5 -9t9.5 -26q0 -16 -10.5 -27.5t-39.5 -11.5zM379 -12q-69 0 -115 5.5t-74 17.5t-43 31.5t-22 47.5l25 7q-19 -40 -42 -62.5t-50 -31t-58 -8.5l10 74q26 0 41 8t25.5 29.5
t20.5 60.5t26 100l73 -19q-6 -23 -11 -44t-7.5 -36.5t-2.5 -24.5q0 -24 8 -39.5t31 -24.5t66 -12.5t113 -3.5q60 0 104.5 9t74.5 26t44.5 42t14.5 58q0 24 -10 44.5t-29 33t-47 12.5q-37 0 -74 -24t-70.5 -60.5t-60.5 -75t-44 -67.5l-78 -3q27 54 64 108t80.5 99t90.5 72
t94 27q45 0 80.5 -21t55.5 -58t20 -85q0 -58 -34 -106t-105.5 -77t-184.5 -29zM435 -196q-20 0 -34 13.5t-14 32.5q0 20 14 34t34 14q19 0 32.5 -14t13.5 -33q0 -20 -13.5 -33.5t-32.5 -13.5zM306 -196q-20 0 -34 13.5t-14 32.5q0 20 14 34t34 14q19 0 32.5 -14t13.5 -33
q0 -20 -13.5 -33.5t-32.5 -13.5z" />
    <glyph glyph-name="uni069D.fina" unicode="&#x69d;" horiz-adv-x="1068" 
d="M1068 -5q-30 0 -58.5 7.5t-52 22t-39.5 34.5l66 33q15 -10 37.5 -16.5t56.5 -6.5q21 0 30.5 -9t9.5 -26q0 -16 -10.5 -27.5t-39.5 -11.5zM271 -232q-49 0 -89.5 14t-70.5 42t-46.5 68.5t-16.5 92.5q0 17 3.5 44.5t15.5 65.5t38 85l61 -31q-15 -31 -25 -56.5t-14.5 -48
t-4.5 -46.5q0 -51 17.5 -86t51 -52.5t80.5 -17.5q48 0 77.5 13.5t46 38t22.5 57.5t6 71q0 71 -14 125.5t-32 116.5l73 20q11 -39 16.5 -62t9 -37t7.5 -25q8 -21 23.5 -38.5t42 -31t66 -20.5t94.5 -7q46 0 84 5.5t66.5 16t48 27t29.5 38t10 48.5q0 25 -10 45.5t-29.5 32.5
t-46.5 12q-31 0 -63 -17.5t-64 -49t-62.5 -72.5t-60.5 -89l-74 3q13 28 37 66.5t56 79.5t69.5 76t79 57t84.5 22q44 0 79 -20t56 -56.5t21 -87.5q0 -44 -19.5 -82.5t-59 -67.5t-100.5 -45.5t-145 -16.5q-63 0 -107 11t-71.5 28.5t-41.5 36.5t-17 35l33 -47q6 -54 -3 -105
t-35 -91t-71 -64t-111 -24zM778 -196q-20 0 -34 13.5t-14 32.5q0 20 14 34t34 14q19 0 32.5 -14t13.5 -33q0 -20 -13.5 -33.5t-32.5 -13.5zM649 -196q-20 0 -34 13.5t-14 32.5q0 20 14 34t34 14q19 0 32.5 -14t13.5 -33q0 -20 -13.5 -33.5t-32.5 -13.5z" />
    <glyph glyph-name="uni069E.init" unicode="&#x69e;" horiz-adv-x="741" 
d="M379 -12q-69 0 -115 5.5t-74 17.5t-43 31.5t-22 47.5l25 7q-19 -40 -42 -62.5t-50 -31t-58 -8.5l10 74q26 0 41 8t25.5 29.5t20.5 60.5t26 100l73 -19q-6 -23 -11 -44t-7.5 -36.5t-2.5 -24.5q0 -24 8 -39.5t31 -24.5t66 -12.5t113 -3.5q60 0 104.5 9t74.5 26t44.5 42
t14.5 58q0 24 -10 44.5t-29 33t-47 12.5q-37 0 -74 -24t-70.5 -60.5t-60.5 -75t-44 -67.5l-78 -3q27 54 64 108t80.5 99t90.5 72t94 27q45 0 80.5 -21t55.5 -58t20 -85q0 -58 -34 -106t-105.5 -77t-184.5 -29zM520 577q-20 0 -34 13.5t-14 32.5q0 20 14 34t34 14
q19 0 32.5 -14t13.5 -33q0 -20 -13.5 -33.5t-32.5 -13.5zM456 467q-20 0 -34 13.5t-14 32.5q0 20 14 34t34 14q19 0 32.5 -14t13.5 -33q0 -20 -13.5 -33.5t-32.5 -13.5zM584 467q-20 0 -34 13.5t-14 32.5q0 20 14 34t34 14q19 0 32.5 -14t13.5 -33q0 -20 -13.5 -33.5
t-32.5 -13.5z" />
    <glyph glyph-name="uni069E.medi" unicode="&#x69e;" horiz-adv-x="752" 
d="M752 -5q-30 0 -58.5 7.5t-52 22t-39.5 34.5l66 33q15 -10 37.5 -16.5t56.5 -6.5q21 0 30.5 -9t9.5 -26q0 -16 -10.5 -27.5t-39.5 -11.5zM379 -12q-69 0 -115 5.5t-74 17.5t-43 31.5t-22 47.5l25 7q-19 -40 -42 -62.5t-50 -31t-58 -8.5l10 74q26 0 41 8t25.5 29.5
t20.5 60.5t26 100l73 -19q-6 -23 -11 -44t-7.5 -36.5t-2.5 -24.5q0 -24 8 -39.5t31 -24.5t66 -12.5t113 -3.5q60 0 104.5 9t74.5 26t44.5 42t14.5 58q0 24 -10 44.5t-29 33t-47 12.5q-37 0 -74 -24t-70.5 -60.5t-60.5 -75t-44 -67.5l-78 -3q27 54 64 108t80.5 99t90.5 72
t94 27q45 0 80.5 -21t55.5 -58t20 -85q0 -58 -34 -106t-105.5 -77t-184.5 -29zM520 577q-20 0 -34 13.5t-14 32.5q0 20 14 34t34 14q19 0 32.5 -14t13.5 -33q0 -20 -13.5 -33.5t-32.5 -13.5zM456 467q-20 0 -34 13.5t-14 32.5q0 20 14 34t34 14q19 0 32.5 -14t13.5 -33
q0 -20 -13.5 -33.5t-32.5 -13.5zM584 467q-20 0 -34 13.5t-14 32.5q0 20 14 34t34 14q19 0 32.5 -14t13.5 -33q0 -20 -13.5 -33.5t-32.5 -13.5z" />
    <glyph glyph-name="uni069E.fina" unicode="&#x69e;" horiz-adv-x="1068" 
d="M1068 -5q-30 0 -58.5 7.5t-52 22t-39.5 34.5l66 33q15 -10 37.5 -16.5t56.5 -6.5q21 0 30.5 -9t9.5 -26q0 -16 -10.5 -27.5t-39.5 -11.5zM271 -232q-49 0 -89.5 14t-70.5 42t-46.5 68.5t-16.5 92.5q0 17 3.5 44.5t15.5 65.5t38 85l61 -31q-15 -31 -25 -56.5t-14.5 -48
t-4.5 -46.5q0 -51 17.5 -86t51 -52.5t80.5 -17.5q48 0 77.5 13.5t46 38t22.5 57.5t6 71q0 71 -14 125.5t-32 116.5l73 20q11 -39 16.5 -62t9 -37t7.5 -25q8 -21 23.5 -38.5t42 -31t66 -20.5t94.5 -7q46 0 84 5.5t66.5 16t48 27t29.5 38t10 48.5q0 25 -10 45.5t-29.5 32.5
t-46.5 12q-31 0 -63 -17.5t-64 -49t-62.5 -72.5t-60.5 -89l-74 3q13 28 37 66.5t56 79.5t69.5 76t79 57t84.5 22q44 0 79 -20t56 -56.5t21 -87.5q0 -44 -19.5 -82.5t-59 -67.5t-100.5 -45.5t-145 -16.5q-63 0 -107 11t-71.5 28.5t-41.5 36.5t-17 35l33 -47q6 -54 -3 -105
t-35 -91t-71 -64t-111 -24zM831 577q-20 0 -34 13.5t-14 32.5q0 20 14 34t34 14q19 0 32.5 -14t13.5 -33q0 -20 -13.5 -33.5t-32.5 -13.5zM767 467q-20 0 -34 13.5t-14 32.5q0 20 14 34t34 14q19 0 32.5 -14t13.5 -33q0 -20 -13.5 -33.5t-32.5 -13.5zM895 467
q-20 0 -34 13.5t-14 32.5q0 20 14 34t34 14q19 0 32.5 -14t13.5 -33q0 -20 -13.5 -33.5t-32.5 -13.5z" />
    <glyph glyph-name="uni069F.init" unicode="&#x69f;" horiz-adv-x="567" 
d="M0 -5l9 74h178q54 0 102.5 6.5t86 21.5t59.5 40t22 62q0 21 -8.5 41.5t-27 34t-50.5 13.5q-37 0 -73 -23.5t-69 -59t-60.5 -74.5t-45.5 -71l-77 3q29 55 66 108.5t79.5 97t89 69.5t92.5 26q43 0 78.5 -20t56.5 -56t21 -84q0 -54 -28.5 -95t-81.5 -68q-29 -15 -66 -25
t-79.5 -15.5t-90.5 -5.5h-183zM94 99l-19 595h75l19 -525zM346 577q-20 0 -34 13.5t-14 32.5q0 20 14 34t34 14q19 0 32.5 -14t13.5 -33q0 -20 -13.5 -33.5t-32.5 -13.5zM282 467q-20 0 -34 13.5t-14 32.5q0 20 14 34t34 14q19 0 32.5 -14t13.5 -33q0 -20 -13.5 -33.5
t-32.5 -13.5zM410 467q-20 0 -34 13.5t-14 32.5q0 20 14 34t34 14q19 0 32.5 -14t13.5 -33q0 -20 -13.5 -33.5t-32.5 -13.5z" />
    <glyph glyph-name="uni069F.medi" unicode="&#x69f;" horiz-adv-x="571" 
d="M571 -5q-30 0 -58.5 7.5t-52 22t-39.5 34.5l66 33q15 -10 37.5 -16.5t56.5 -6.5q21 0 30.5 -9t9.5 -26q0 -16 -10.5 -27.5t-39.5 -11.5zM0 -5l9 74h178q54 0 102.5 6.5t86 21.5t59.5 40t22 62q0 21 -8.5 41.5t-27 34t-50.5 13.5q-37 0 -73 -23.5t-69 -59t-60.5 -74.5
t-45.5 -71l-77 3q29 55 66 108.5t79.5 97t89 69.5t92.5 26q43 0 78.5 -20t56.5 -56t21 -84q0 -54 -28.5 -95t-81.5 -68q-29 -15 -66 -25t-79.5 -15.5t-90.5 -5.5h-183zM94 99l-19 595h75l19 -525zM346 577q-20 0 -34 13.5t-14 32.5q0 20 14 34t34 14q19 0 32.5 -14t13.5 -33
q0 -20 -13.5 -33.5t-32.5 -13.5zM282 467q-20 0 -34 13.5t-14 32.5q0 20 14 34t34 14q19 0 32.5 -14t13.5 -33q0 -20 -13.5 -33.5t-32.5 -13.5zM410 467q-20 0 -34 13.5t-14 32.5q0 20 14 34t34 14q19 0 32.5 -14t13.5 -33q0 -20 -13.5 -33.5t-32.5 -13.5z" />
    <glyph glyph-name="uni069F.fina" unicode="&#x69f;" horiz-adv-x="641" 
d="M641 -5q-30 0 -58.5 7.5t-52 22t-39.5 34.5l66 33q15 -10 37.5 -16.5t56.5 -6.5q21 0 30.5 -9t9.5 -26q0 -16 -10.5 -27.5t-39.5 -11.5zM268 -13q-32 0 -68.5 1.5t-72.5 4.5t-67.5 6.5t-54.5 6.5l9 72q32 -3 59.5 -6t57 -5t66 -3t85.5 -1q54 0 97.5 7.5t75 24t48.5 42
t17 61.5q0 22 -8.5 42.5t-27 34t-50.5 13.5q-36 0 -72.5 -23.5t-70 -59t-61 -74.5t-45.5 -71l-76 3q28 54 65 107.5t80 97t89.5 70t92.5 26.5q43 0 78.5 -20t56.5 -56.5t21 -87.5q0 -63 -37 -111t-109 -75t-178 -27zM157 99l-19 595h75l19 -525zM409 577q-20 0 -34 13.5
t-14 32.5q0 20 14 34t34 14q19 0 32.5 -14t13.5 -33q0 -20 -13.5 -33.5t-32.5 -13.5zM345 467q-20 0 -34 13.5t-14 32.5q0 20 14 34t34 14q19 0 32.5 -14t13.5 -33q0 -20 -13.5 -33.5t-32.5 -13.5zM473 467q-20 0 -34 13.5t-14 32.5q0 20 14 34t34 14q19 0 32.5 -14
t13.5 -33q0 -20 -13.5 -33.5t-32.5 -13.5z" />
    <glyph glyph-name="uni06A0.init" unicode="&#x6a0;" horiz-adv-x="410" 
d="M0 -5l10 74q34 0 60 1t49.5 3t47.5 5q-26 13 -52.5 39t-44 62t-17.5 79q0 57 25.5 96.5t68 60.5t92.5 21q21 0 37 -3t37 -10l-14 -67q-16 4 -29 6t-27 2q-31 0 -58 -12.5t-43.5 -36t-16.5 -57.5q0 -28 11 -51.5t29 -42t39 -32t40.5 -21t32.5 -8.5q15 4 24.5 6.5t17.5 5
t17 6.5t24 10l25 -66q-45 -19 -100.5 -35t-125.5 -25.5t-159 -9.5zM214 649q-20 0 -34 13.5t-14 32.5q0 20 14 34t34 14q19 0 32.5 -14t13.5 -33q0 -20 -13.5 -33.5t-32.5 -13.5zM150 539q-20 0 -34 13.5t-14 32.5q0 20 14 34t34 14q19 0 32.5 -14t13.5 -33
q0 -20 -13.5 -33.5t-32.5 -13.5zM278 539q-20 0 -34 13.5t-14 32.5q0 20 14 34t34 14q19 0 32.5 -14t13.5 -33q0 -20 -13.5 -33.5t-32.5 -13.5z" />
    <glyph glyph-name="uni06A0.medi" unicode="&#x6a0;" horiz-adv-x="414" 
d="M0 -5l10 74q46 0 89 12.5t79.5 34t63.5 49t42.5 57t15.5 58.5q0 21 -11 33.5t-28 17.5t-34 5q-18 0 -39.5 -6.5t-42 -18t-35.5 -28.5q16 -16 38 -40t45 -53.5t42 -63.5q15 -12 32.5 -22t39 -18t50.5 -12.5t67 -4.5q20 0 30 -8.5t10 -26.5q0 -20 -12.5 -29.5t-37.5 -9.5
q-56 0 -98.5 10.5t-75.5 30t-63 47.5q-18 34 -40 62t-42 49.5t-33 34.5q-3 3 -6.5 12.5t-5.5 21t-2 19.5q0 21 15 44t40.5 42t59 31t69.5 12q35 0 67 -10t53 -36t21 -74q0 -44 -19 -87t-54 -80.5t-81.5 -66.5t-102 -45.5t-116.5 -16.5zM224 624q-20 0 -34 13.5t-14 32.5
q0 20 14 34t34 14q19 0 32.5 -14t13.5 -33q0 -20 -13.5 -33.5t-32.5 -13.5zM160 514q-20 0 -34 13.5t-14 32.5q0 20 14 34t34 14q19 0 32.5 -14t13.5 -33q0 -20 -13.5 -33.5t-32.5 -13.5zM288 514q-20 0 -34 13.5t-14 32.5q0 20 14 34t34 14q19 0 32.5 -14t13.5 -33
q0 -20 -13.5 -33.5t-32.5 -13.5z" />
    <glyph glyph-name="uni06A0.fina" unicode="&#x6a0;" horiz-adv-x="415" 
d="M243 -374q-40 0 -84 8.5t-82.5 31t-62.5 62.5t-24 103q0 56 22.5 101t57.5 81t75 68t75 62.5t57.5 63.5t22.5 72q0 16 -8 29t-24.5 20.5t-41.5 7.5q-17 0 -38 -6t-41.5 -18t-36.5 -29q27 -29 48 -52t39.5 -47.5t38.5 -56.5q18 -15 37 -26t41.5 -18t49.5 -10.5t61 -3.5
q17 0 28.5 -7.5t11.5 -27.5q0 -18 -11 -28.5t-39 -10.5q-54 0 -96.5 9.5t-76.5 29t-64 48.5q-16 30 -36.5 57t-41 49.5t-37.5 39.5q-4 4 -7.5 14.5t-5.5 21.5t-2 15q0 25 15.5 48.5t42 42.5t59.5 30t68 11q74 0 107 -34t33 -84q0 -49 -22.5 -89.5t-57.5 -76t-75 -68.5
t-75 -66.5t-57.5 -71t-22.5 -82.5q0 -43 16.5 -70.5t43 -42.5t58.5 -20.5t63 -5.5q22 0 44 1t50 8t68 23l26 -56q-29 -18 -62.5 -29t-66 -16t-60.5 -5zM223 624q-20 0 -34 13.5t-14 32.5q0 20 14 34t34 14q19 0 32.5 -14t13.5 -33q0 -20 -13.5 -33.5t-32.5 -13.5zM159 514
q-20 0 -34 13.5t-14 32.5q0 20 14 34t34 14q19 0 32.5 -14t13.5 -33q0 -20 -13.5 -33.5t-32.5 -13.5zM287 514q-20 0 -34 13.5t-14 32.5q0 20 14 34t34 14q19 0 32.5 -14t13.5 -33q0 -20 -13.5 -33.5t-32.5 -13.5z" />
    <glyph glyph-name="uni06A1.init" unicode="&#x6a1;" horiz-adv-x="369" 
d="M0 -5l9 74h42.5t46 1t45 5t39.5 12q28 12 44.5 34.5t23.5 57t7 80.5q0 44 -7.5 82.5t-22.5 62t-40 23.5q-16 0 -31 -16t-24.5 -44.5t-9.5 -66.5q0 -27 10.5 -42t28.5 -21t39 -6q20 0 40 4.5t34 13.5l4 -63q-10 -10 -25.5 -16t-31.5 -8.5t-30 -2.5q-54 0 -85.5 19
t-44.5 49t-13 62q0 39 10 76.5t29.5 68.5t46 49t59.5 18q47 0 77.5 -32.5t45.5 -88t15 -125.5t-22.5 -129.5t-75.5 -91.5q-22 -13 -47.5 -20.5t-55 -11.5t-62 -5.5t-68.5 -1.5z" />
    <glyph glyph-name="uni06A1.medi" unicode="&#x6a1;" horiz-adv-x="395" 
d="M0 -5l9 74q22 0 44 1.5t43.5 5.5t41.5 10.5t38 15.5q27 14 48.5 34.5t33.5 46t12 53.5q0 26 -8.5 50t-23.5 39.5t-33 15.5q-17 0 -33 -15t-26 -39.5t-10 -51.5q0 -36 16 -63t40.5 -45.5t49.5 -30.5l-78 -33q-21 15 -45.5 37.5t-41.5 56t-17 79.5q0 33 11 64.5t30.5 57.5
t46.5 41.5t59 15.5q41 0 72.5 -23.5t50 -62.5t18.5 -85q0 -33 -8.5 -61.5t-24.5 -52.5t-37.5 -44t-47.5 -36q-25 -15 -52.5 -25.5t-57 -17t-60 -9.5t-60.5 -3zM395 -5q-38 0 -76 5.5t-73 16t-64 25.5l67 43q27 -5 56 -9t55.5 -5.5t44.5 -1.5q21 0 30.5 -9t9.5 -26
q0 -16 -10.5 -27.5t-39.5 -11.5z" />
    <glyph glyph-name="uni06A1.fina" unicode="&#x6a1;" horiz-adv-x="884" 
d="M290 -21l26 74q43 0 90 2.5t93 8t87.5 15t73.5 24.5q33 15 55.5 34t34 43t11.5 53q0 19 -4.5 38t-12.5 35t-20.5 25.5t-28.5 9.5q-20 0 -36 -17t-24.5 -43t-8.5 -53q0 -35 15 -60t38.5 -42t48.5 -29l-74 -34q-21 15 -45.5 35.5t-41.5 52.5t-17 78q0 33 10 65.5t29 60
t46.5 44t61.5 16.5q44 0 75.5 -25.5t48.5 -66t17 -86.5q0 -29 -8.5 -55t-24 -49t-37.5 -42.5t-49 -35.5q-40 -23 -92.5 -38t-110.5 -23.5t-116.5 -11.5t-109.5 -3zM884 -5q-37 0 -75.5 5.5t-73.5 16t-63 25.5l67 43q21 -5 50.5 -8.5t58 -5.5t46.5 -2q21 0 30.5 -9t9.5 -26
q0 -16 -10.5 -27.5t-39.5 -11.5zM290 -21q-47 0 -93.5 9t-84 30t-60 56.5t-22.5 89.5q0 27 4.5 55.5t12 56.5t14.5 53l67 -20q-4 -13 -9.5 -36t-10 -48t-4.5 -46q0 -38 19 -66.5t65.5 -44t127.5 -15.5l20 -42z" />
    <glyph glyph-name="fehDotMovedbelowar.init" unicode="&#x6a2;" horiz-adv-x="369" 
d="M0 -5l9 74h42.5t46 1t45 5t39.5 12q28 12 44.5 34.5t23.5 57t7 80.5q0 44 -7.5 82.5t-22.5 62t-40 23.5q-16 0 -31 -16t-24.5 -44.5t-9.5 -66.5q0 -27 10.5 -42t28.5 -21t39 -6q20 0 40 4.5t34 13.5l4 -63q-10 -10 -25.5 -16t-31.5 -8.5t-30 -2.5q-54 0 -85.5 19
t-44.5 49t-13 62q0 39 10 76.5t29.5 68.5t46 49t59.5 18q47 0 77.5 -32.5t45.5 -88t15 -125.5t-22.5 -129.5t-75.5 -91.5q-22 -13 -47.5 -20.5t-55 -11.5t-62 -5.5t-68.5 -1.5zM156 -206q-20 0 -34 13.5t-14 32.5q0 20 14 34t34 14q19 0 32.5 -14t13.5 -33
q0 -20 -13.5 -33.5t-32.5 -13.5z" />
    <glyph glyph-name="fehDotMovedbelowar.medi" unicode="&#x6a2;" horiz-adv-x="395" 
d="M0 -5l9 74q22 0 44 1.5t43.5 5.5t41.5 10.5t38 15.5q27 14 48.5 34.5t33.5 46t12 53.5q0 26 -8.5 50t-23.5 39.5t-33 15.5q-17 0 -33 -15t-26 -39.5t-10 -51.5q0 -36 16 -63t40.5 -45.5t49.5 -30.5l-78 -33q-21 15 -45.5 37.5t-41.5 56t-17 79.5q0 33 11 64.5t30.5 57.5
t46.5 41.5t59 15.5q41 0 72.5 -23.5t50 -62.5t18.5 -85q0 -33 -8.5 -61.5t-24.5 -52.5t-37.5 -44t-47.5 -36q-25 -15 -52.5 -25.5t-57 -17t-60 -9.5t-60.5 -3zM395 -5q-38 0 -76 5.5t-73 16t-64 25.5l67 43q27 -5 56 -9t55.5 -5.5t44.5 -1.5q21 0 30.5 -9t9.5 -26
q0 -16 -10.5 -27.5t-39.5 -11.5zM194 -206q-20 0 -34 13.5t-14 32.5q0 20 14 34t34 14q19 0 32.5 -14t13.5 -33q0 -20 -13.5 -33.5t-32.5 -13.5z" />
    <glyph glyph-name="fehDotMovedbelowar.fina" unicode="&#x6a2;" horiz-adv-x="884" 
d="M290 -21l26 74q43 0 90 2.5t93 8t87.5 15t73.5 24.5q33 15 55.5 34t34 43t11.5 53q0 19 -4.5 38t-12.5 35t-20.5 25.5t-28.5 9.5q-20 0 -36 -17t-24.5 -43t-8.5 -53q0 -35 15 -60t38.5 -42t48.5 -29l-74 -34q-21 15 -45.5 35.5t-41.5 52.5t-17 78q0 33 10 65.5t29 60
t46.5 44t61.5 16.5q44 0 75.5 -25.5t48.5 -66t17 -86.5q0 -29 -8.5 -55t-24 -49t-37.5 -42.5t-49 -35.5q-40 -23 -92.5 -38t-110.5 -23.5t-116.5 -11.5t-109.5 -3zM884 -5q-37 0 -75.5 5.5t-73.5 16t-63 25.5l67 43q21 -5 50.5 -8.5t58 -5.5t46.5 -2q21 0 30.5 -9t9.5 -26
q0 -16 -10.5 -27.5t-39.5 -11.5zM290 -21q-47 0 -93.5 9t-84 30t-60 56.5t-22.5 89.5q0 27 4.5 55.5t12 56.5t14.5 53l67 -20q-4 -13 -9.5 -36t-10 -48t-4.5 -46q0 -38 19 -66.5t65.5 -44t127.5 -15.5l20 -42zM379 -205q-20 0 -34 13.5t-14 32.5q0 20 14 34t34 14
q19 0 32.5 -14t13.5 -33q0 -20 -13.5 -33.5t-32.5 -13.5z" />
    <glyph glyph-name="uni06A3.init" unicode="&#x6a3;" horiz-adv-x="369" 
d="M0 -5l9 74h42.5t46 1t45 5t39.5 12q28 12 44.5 34.5t23.5 57t7 80.5q0 44 -7.5 82.5t-22.5 62t-40 23.5q-16 0 -31 -16t-24.5 -44.5t-9.5 -66.5q0 -27 10.5 -42t28.5 -21t39 -6q20 0 40 4.5t34 13.5l4 -63q-10 -10 -25.5 -16t-31.5 -8.5t-30 -2.5q-54 0 -85.5 19
t-44.5 49t-13 62q0 39 10 76.5t29.5 68.5t46 49t59.5 18q47 0 77.5 -32.5t45.5 -88t15 -125.5t-22.5 -129.5t-75.5 -91.5q-22 -13 -47.5 -20.5t-55 -11.5t-62 -5.5t-68.5 -1.5zM172 604q-20 0 -34 13.5t-14 32.5q0 20 14 34t34 14q19 0 32.5 -14t13.5 -33q0 -20 -13.5 -33.5
t-32.5 -13.5zM156 -206q-20 0 -34 13.5t-14 32.5q0 20 14 34t34 14q19 0 32.5 -14t13.5 -33q0 -20 -13.5 -33.5t-32.5 -13.5z" />
    <glyph glyph-name="uni06A3.medi" unicode="&#x6a3;" horiz-adv-x="395" 
d="M0 -5l9 74q22 0 44 1.5t43.5 5.5t41.5 10.5t38 15.5q27 14 48.5 34.5t33.5 46t12 53.5q0 26 -8.5 50t-23.5 39.5t-33 15.5q-17 0 -33 -15t-26 -39.5t-10 -51.5q0 -36 16 -63t40.5 -45.5t49.5 -30.5l-78 -33q-21 15 -45.5 37.5t-41.5 56t-17 79.5q0 33 11 64.5t30.5 57.5
t46.5 41.5t59 15.5q41 0 72.5 -23.5t50 -62.5t18.5 -85q0 -33 -8.5 -61.5t-24.5 -52.5t-37.5 -44t-47.5 -36q-25 -15 -52.5 -25.5t-57 -17t-60 -9.5t-60.5 -3zM395 -5q-38 0 -76 5.5t-73 16t-64 25.5l67 43q27 -5 56 -9t55.5 -5.5t44.5 -1.5q21 0 30.5 -9t9.5 -26
q0 -16 -10.5 -27.5t-39.5 -11.5zM205 518q-20 0 -34 13.5t-14 32.5q0 20 14 34t34 14q19 0 32.5 -14t13.5 -33q0 -20 -13.5 -33.5t-32.5 -13.5zM194 -206q-20 0 -34 13.5t-14 32.5q0 20 14 34t34 14q19 0 32.5 -14t13.5 -33q0 -20 -13.5 -33.5t-32.5 -13.5z" />
    <glyph glyph-name="uni06A3.fina" unicode="&#x6a3;" horiz-adv-x="884" 
d="M290 -21l26 74q43 0 90 2.5t93 8t87.5 15t73.5 24.5q33 15 55.5 34t34 43t11.5 53q0 19 -4.5 38t-12.5 35t-20.5 25.5t-28.5 9.5q-20 0 -36 -17t-24.5 -43t-8.5 -53q0 -35 15 -60t38.5 -42t48.5 -29l-74 -34q-21 15 -45.5 35.5t-41.5 52.5t-17 78q0 33 10 65.5t29 60
t46.5 44t61.5 16.5q44 0 75.5 -25.5t48.5 -66t17 -86.5q0 -29 -8.5 -55t-24 -49t-37.5 -42.5t-49 -35.5q-40 -23 -92.5 -38t-110.5 -23.5t-116.5 -11.5t-109.5 -3zM884 -5q-37 0 -75.5 5.5t-73.5 16t-63 25.5l67 43q21 -5 50.5 -8.5t58 -5.5t46.5 -2q21 0 30.5 -9t9.5 -26
q0 -16 -10.5 -27.5t-39.5 -11.5zM290 -21q-47 0 -93.5 9t-84 30t-60 56.5t-22.5 89.5q0 27 4.5 55.5t12 56.5t14.5 53l67 -20q-4 -13 -9.5 -36t-10 -48t-4.5 -46q0 -38 19 -66.5t65.5 -44t127.5 -15.5l20 -42zM697 518q-20 0 -34 13.5t-14 32.5q0 20 14 34t34 14
q19 0 32.5 -14t13.5 -33q0 -20 -13.5 -33.5t-32.5 -13.5zM379 -205q-20 0 -34 13.5t-14 32.5q0 20 14 34t34 14q19 0 32.5 -14t13.5 -33q0 -20 -13.5 -33.5t-32.5 -13.5z" />
    <glyph glyph-name="uni06A5.init" unicode="&#x6a5;" horiz-adv-x="369" 
d="M0 -5l9 74h42.5t46 1t45 5t39.5 12q28 12 44.5 34.5t23.5 57t7 80.5q0 44 -7.5 82.5t-22.5 62t-40 23.5q-16 0 -31 -16t-24.5 -44.5t-9.5 -66.5q0 -27 10.5 -42t28.5 -21t39 -6q20 0 40 4.5t34 13.5l4 -63q-10 -10 -25.5 -16t-31.5 -8.5t-30 -2.5q-54 0 -85.5 19
t-44.5 49t-13 62q0 39 10 76.5t29.5 68.5t46 49t59.5 18q47 0 77.5 -32.5t45.5 -88t15 -125.5t-22.5 -129.5t-75.5 -91.5q-22 -13 -47.5 -20.5t-55 -11.5t-62 -5.5t-68.5 -1.5zM155 -314q-20 0 -34 13.5t-14 32.5q0 20 14 34t34 14q19 0 32.5 -14t13.5 -33
q0 -20 -13.5 -33.5t-32.5 -13.5zM91 -204q-20 0 -34 13.5t-14 32.5q0 20 14 34t34 14q19 0 32.5 -14t13.5 -33q0 -20 -13.5 -33.5t-32.5 -13.5zM219 -204q-20 0 -34 13.5t-14 32.5q0 20 14 34t34 14q19 0 32.5 -14t13.5 -33q0 -20 -13.5 -33.5t-32.5 -13.5z" />
    <glyph glyph-name="uni06A5.medi" unicode="&#x6a5;" horiz-adv-x="395" 
d="M0 -5l9 74q22 0 44 1.5t43.5 5.5t41.5 10.5t38 15.5q27 14 48.5 34.5t33.5 46t12 53.5q0 26 -8.5 50t-23.5 39.5t-33 15.5q-17 0 -33 -15t-26 -39.5t-10 -51.5q0 -36 16 -63t40.5 -45.5t49.5 -30.5l-78 -33q-21 15 -45.5 37.5t-41.5 56t-17 79.5q0 33 11 64.5t30.5 57.5
t46.5 41.5t59 15.5q41 0 72.5 -23.5t50 -62.5t18.5 -85q0 -33 -8.5 -61.5t-24.5 -52.5t-37.5 -44t-47.5 -36q-25 -15 -52.5 -25.5t-57 -17t-60 -9.5t-60.5 -3zM395 -5q-38 0 -76 5.5t-73 16t-64 25.5l67 43q27 -5 56 -9t55.5 -5.5t44.5 -1.5q21 0 30.5 -9t9.5 -26
q0 -16 -10.5 -27.5t-39.5 -11.5zM193 -314q-20 0 -34 13.5t-14 32.5q0 20 14 34t34 14q19 0 32.5 -14t13.5 -33q0 -20 -13.5 -33.5t-32.5 -13.5zM129 -204q-20 0 -34 13.5t-14 32.5q0 20 14 34t34 14q19 0 32.5 -14t13.5 -33q0 -20 -13.5 -33.5t-32.5 -13.5zM257 -204
q-20 0 -34 13.5t-14 32.5q0 20 14 34t34 14q19 0 32.5 -14t13.5 -33q0 -20 -13.5 -33.5t-32.5 -13.5z" />
    <glyph glyph-name="uni06A5.fina" unicode="&#x6a5;" horiz-adv-x="884" 
d="M290 -21l26 74q43 0 90 2.5t93 8t87.5 15t73.5 24.5q33 15 55.5 34t34 43t11.5 53q0 19 -4.5 38t-12.5 35t-20.5 25.5t-28.5 9.5q-20 0 -36 -17t-24.5 -43t-8.5 -53q0 -35 15 -60t38.5 -42t48.5 -29l-74 -34q-21 15 -45.5 35.5t-41.5 52.5t-17 78q0 33 10 65.5t29 60
t46.5 44t61.5 16.5q44 0 75.5 -25.5t48.5 -66t17 -86.5q0 -29 -8.5 -55t-24 -49t-37.5 -42.5t-49 -35.5q-40 -23 -92.5 -38t-110.5 -23.5t-116.5 -11.5t-109.5 -3zM884 -5q-37 0 -75.5 5.5t-73.5 16t-63 25.5l67 43q21 -5 50.5 -8.5t58 -5.5t46.5 -2q21 0 30.5 -9t9.5 -26
q0 -16 -10.5 -27.5t-39.5 -11.5zM290 -21q-47 0 -93.5 9t-84 30t-60 56.5t-22.5 89.5q0 27 4.5 55.5t12 56.5t14.5 53l67 -20q-4 -13 -9.5 -36t-10 -48t-4.5 -46q0 -38 19 -66.5t65.5 -44t127.5 -15.5l20 -42zM378 -313q-20 0 -34 13.5t-14 32.5q0 20 14 34t34 14
q19 0 32.5 -14t13.5 -33q0 -20 -13.5 -33.5t-32.5 -13.5zM314 -203q-20 0 -34 13.5t-14 32.5q0 20 14 34t34 14q19 0 32.5 -14t13.5 -33q0 -20 -13.5 -33.5t-32.5 -13.5zM442 -203q-20 0 -34 13.5t-14 32.5q0 20 14 34t34 14q19 0 32.5 -14t13.5 -33q0 -20 -13.5 -33.5
t-32.5 -13.5z" />
    <glyph glyph-name="uni06A7.fina" unicode="&#x6a7;" horiz-adv-x="696" 
d="M298 -273q-48 0 -95.5 13t-86.5 40t-62.5 70t-23.5 104q0 15 4 45.5t16 71.5t36 86l64 -30q-15 -34 -25.5 -61.5t-15.5 -53.5t-5 -55q0 -53 28.5 -87.5t74.5 -51.5t98 -17q33 0 62.5 3.5t55 11t47 19.5t38.5 28t30 37q19 32 28 75t9 98q0 51 -7.5 92.5t-22.5 66t-38 24.5
q-16 0 -28.5 -11.5t-21 -30t-13 -40.5t-4.5 -44q0 -20 6.5 -32t19.5 -18.5t31 -8.5t40 -2h169q21 0 30.5 -9t9.5 -26q0 -18 -11.5 -28.5t-37.5 -10.5h-171q-41 0 -71.5 8.5t-50 25t-29 39.5t-9.5 52q0 37 10.5 74.5t29.5 68.5t47 49.5t62 18.5q45 0 75 -33t44.5 -90.5
t14.5 -130.5q0 -67 -12 -120t-36 -93q-21 -36 -52 -62t-70 -42.5t-84.5 -24.5t-96.5 -8zM511 434q-20 0 -34 13.5t-14 32.5q0 20 14 34t34 14q19 0 32.5 -14t13.5 -33q0 -20 -13.5 -33.5t-32.5 -13.5z" />
    <glyph glyph-name="uni06A8.init" unicode="&#x6a8;" horiz-adv-x="369" 
d="M0 -5l9 74h42.5t46 1t45 5t39.5 12q28 12 44.5 34.5t23.5 57t7 80.5q0 44 -7.5 82.5t-22.5 62t-40 23.5q-16 0 -31 -16t-24.5 -44.5t-9.5 -66.5q0 -27 10.5 -42t28.5 -21t39 -6q20 0 40 4.5t34 13.5l4 -63q-10 -10 -25.5 -16t-31.5 -8.5t-30 -2.5q-54 0 -85.5 19
t-44.5 49t-13 62q0 39 10 76.5t29.5 68.5t46 49t59.5 18q47 0 77.5 -32.5t45.5 -88t15 -125.5t-22.5 -129.5t-75.5 -91.5q-22 -13 -47.5 -20.5t-55 -11.5t-62 -5.5t-68.5 -1.5zM174 714q-20 0 -34 13.5t-14 32.5q0 20 14 34t34 14q19 0 32.5 -14t13.5 -33q0 -20 -13.5 -33.5
t-32.5 -13.5zM110 604q-20 0 -34 13.5t-14 32.5q0 20 14 34t34 14q19 0 32.5 -14t13.5 -33q0 -20 -13.5 -33.5t-32.5 -13.5zM238 604q-20 0 -34 13.5t-14 32.5q0 20 14 34t34 14q19 0 32.5 -14t13.5 -33q0 -20 -13.5 -33.5t-32.5 -13.5z" />
    <glyph glyph-name="uni06A8.medi" unicode="&#x6a8;" horiz-adv-x="395" 
d="M0 -5l9 74q22 0 44 1.5t43.5 5.5t41.5 10.5t38 15.5q27 14 48.5 34.5t33.5 46t12 53.5q0 26 -8.5 50t-23.5 39.5t-33 15.5q-17 0 -33 -15t-26 -39.5t-10 -51.5q0 -36 16 -63t40.5 -45.5t49.5 -30.5l-78 -33q-21 15 -45.5 37.5t-41.5 56t-17 79.5q0 33 11 64.5t30.5 57.5
t46.5 41.5t59 15.5q41 0 72.5 -23.5t50 -62.5t18.5 -85q0 -33 -8.5 -61.5t-24.5 -52.5t-37.5 -44t-47.5 -36q-25 -15 -52.5 -25.5t-57 -17t-60 -9.5t-60.5 -3zM395 -5q-38 0 -76 5.5t-73 16t-64 25.5l67 43q27 -5 56 -9t55.5 -5.5t44.5 -1.5q21 0 30.5 -9t9.5 -26
q0 -16 -10.5 -27.5t-39.5 -11.5zM207 628q-20 0 -34 13.5t-14 32.5q0 20 14 34t34 14q19 0 32.5 -14t13.5 -33q0 -20 -13.5 -33.5t-32.5 -13.5zM143 518q-20 0 -34 13.5t-14 32.5q0 20 14 34t34 14q19 0 32.5 -14t13.5 -33q0 -20 -13.5 -33.5t-32.5 -13.5zM271 518
q-20 0 -34 13.5t-14 32.5q0 20 14 34t34 14q19 0 32.5 -14t13.5 -33q0 -20 -13.5 -33.5t-32.5 -13.5z" />
    <glyph glyph-name="uni06A8.fina" unicode="&#x6a8;" horiz-adv-x="696" 
d="M298 -273q-48 0 -95.5 13t-86.5 40t-62.5 70t-23.5 104q0 15 4 45.5t16 71.5t36 86l64 -30q-15 -34 -25.5 -61.5t-15.5 -53.5t-5 -55q0 -53 28.5 -87.5t74.5 -51.5t98 -17q33 0 62.5 3.5t55 11t47 19.5t38.5 28t30 37q19 32 28 75t9 98q0 51 -7.5 92.5t-22.5 66t-38 24.5
q-16 0 -28.5 -11.5t-21 -30t-13 -40.5t-4.5 -44q0 -20 6.5 -32t19.5 -18.5t31 -8.5t40 -2h169q21 0 30.5 -9t9.5 -26q0 -18 -11.5 -28.5t-37.5 -10.5h-171q-41 0 -71.5 8.5t-50 25t-29 39.5t-9.5 52q0 37 10.5 74.5t29.5 68.5t47 49.5t62 18.5q45 0 75 -33t44.5 -90.5
t14.5 -130.5q0 -67 -12 -120t-36 -93q-21 -36 -52 -62t-70 -42.5t-84.5 -24.5t-96.5 -8zM513 544q-20 0 -34 13.5t-14 32.5q0 20 14 34t34 14q19 0 32.5 -14t13.5 -33q0 -20 -13.5 -33.5t-32.5 -13.5zM449 434q-20 0 -34 13.5t-14 32.5q0 20 14 34t34 14q19 0 32.5 -14
t13.5 -33q0 -20 -13.5 -33.5t-32.5 -13.5zM577 434q-20 0 -34 13.5t-14 32.5q0 20 14 34t34 14q19 0 32.5 -14t13.5 -33q0 -20 -13.5 -33.5t-32.5 -13.5z" />
    <glyph glyph-name="uni06AA.init" unicode="&#x6aa;" horiz-adv-x="733" 
d="M0 -5l10 74h298q72 0 128.5 2t96 8.5t60 20t20.5 35.5q0 17 -11 31t-36 25t-66 19.5t-100 15.5q-84 10 -132.5 22t-68.5 32.5t-20 55.5q0 39 22 73.5t61.5 64.5t92 54.5t112.5 42.5l18 -67q-88 -30 -139 -57.5t-72 -52t-21 -45.5q0 -14 10 -22.5t41.5 -14.5t95.5 -14
q82 -10 136.5 -23.5t86.5 -31.5t46 -43t14 -57q0 -43 -22.5 -71.5t-69 -45.5t-116 -24t-164.5 -7h-311z" />
    <glyph glyph-name="uni06AA.medi" unicode="&#x6aa;" horiz-adv-x="756" 
d="M756 -5q-30 0 -58.5 7.5t-52 22t-39.5 34.5l66 33q15 -10 37.5 -16.5t56.5 -6.5q21 0 30.5 -9t9.5 -26q0 -16 -10.5 -27.5t-39.5 -11.5zM0 -5l10 74h298q72 0 128.5 2t96 8.5t60 20t20.5 35.5q0 17 -11 31t-36 25t-66 19.5t-100 15.5q-84 10 -132.5 22t-68.5 32.5
t-20 55.5q0 39 22 73.5t61.5 64.5t92 54.5t112.5 42.5l18 -67q-88 -30 -139 -57.5t-72 -52t-21 -45.5q0 -14 10 -22.5t41.5 -14.5t95.5 -14q82 -10 136.5 -23.5t86.5 -31.5t46 -43t14 -57q0 -43 -22.5 -71.5t-69 -45.5t-116 -24t-164.5 -7h-311z" />
    <glyph glyph-name="uni06AA.fina" unicode="&#x6aa;" horiz-adv-x="947" 
d="M947 -5q-30 0 -58.5 7.5t-52 22t-39.5 34.5l66 33q15 -10 37.5 -16.5t56.5 -6.5q21 0 30.5 -9t9.5 -26q0 -16 -10.5 -27.5t-39.5 -11.5zM502 -15q-32 0 -87.5 1t-121 3t-128.5 6t-110 9l6 71q50 -3 107.5 -6t116.5 -5.5t114 -4t100 -1.5q72 0 128.5 4t96 12.5t60 23.5
t20.5 37q0 17 -11 31t-36 25t-66 19.5t-100 15.5q-85 10 -133 22t-68 32.5t-20 55.5q0 39 22 73.5t61.5 64.5t92 54.5t112.5 42.5l18 -67q-88 -30 -139 -58t-72 -52.5t-21 -45.5q0 -14 10 -22t41.5 -14t95.5 -14q82 -10 136.5 -23.5t86.5 -31.5t46 -43t14 -57
q0 -43 -22.5 -73t-69 -49t-116 -27.5t-164.5 -8.5z" />
    <glyph glyph-name="uni06AB.init" unicode="&#x6ab;" horiz-adv-x="322" 
d="M240 470q-31 0 -52 21.5t-21 52.5t21 52.5t52 21.5t52.5 -21.5t21.5 -52.5t-21.5 -52.5t-52.5 -21.5zM240 512q14 0 24 9.5t10 22.5q0 14 -10 23.5t-24 9.5t-23.5 -9.5t-9.5 -23.5q0 -13 9.5 -22.5t23.5 -9.5zM0 -5l10 74h75q36 0 58.5 6.5t34.5 17.5t16 26.5t4 33.5
q0 36 -21 76t-52 74q-34 39 -56 63t-34 38t-17 21t-5 13q0 11 2.5 27.5t6.5 32t10 21.5q8 9 24 23.5t44.5 35t75 49t116.5 66.5l35 -60q-55 -31 -96 -54.5t-71.5 -43t-55.5 -37t-48 -37.5l7 25q26 -34 60.5 -72t67.5 -80t55 -88.5t22 -99.5q0 -27 -9.5 -53.5t-32 -49
t-60.5 -35.5t-94 -13h-72z" />
    <glyph glyph-name="uni06AB.medi" unicode="&#x6ab;" horiz-adv-x="382" 
d="M242 468q-31 0 -52 21.5t-21 52.5t21 52.5t52 21.5t52.5 -21.5t21.5 -52.5t-21.5 -52.5t-52.5 -21.5zM242 510q14 0 24 9.5t10 22.5q0 14 -10 23.5t-24 9.5t-23.5 -9.5t-9.5 -23.5q0 -13 9.5 -22.5t23.5 -9.5zM0 -5l9 74h62q42 0 70 6t42.5 24.5t14.5 53.5q0 20 -13.5 47
t-34.5 57t-44.5 59t-44.5 54.5t-34.5 43.5t-13.5 25q0 15 2.5 32t7 31.5t11.5 20.5q17 17 47 39t66.5 45.5t74 45.5t70.5 40l35 -61q-36 -21 -73 -42t-71.5 -42t-64.5 -41t-53 -40v10q27 -34 51 -62.5t47 -58.5t47.5 -67.5t52.5 -89.5q27 -49 44.5 -77.5t36.5 -40.5t48 -12
q21 0 30.5 -9t9.5 -26q0 -16 -10.5 -27.5t-39.5 -11.5q-35 0 -62.5 13.5t-49.5 43.5t-42 77l32 -7q-6 -40 -25 -65t-46.5 -38.5t-58.5 -18.5t-62 -5h-68z" />
    <glyph glyph-name="uni06AB.fina" unicode="&#x6ab;" horiz-adv-x="820" 
d="M665 460q-31 0 -52 21.5t-21 52.5t21 52.5t52 21.5t52.5 -21.5t21.5 -52.5t-21.5 -52.5t-52.5 -21.5zM665 502q14 0 24 9.5t10 22.5q0 14 -10 23.5t-24 9.5t-23.5 -9.5t-9.5 -23.5q0 -13 9.5 -22.5t23.5 -9.5zM290 -21l26 74q82 0 142 6t99 17.5t58 29.5t19 42
q0 23 -13 51.5t-34 58.5t-44.5 58.5t-44.5 53.5t-34 43.5t-13 26.5q0 12 1.5 27.5t6 30.5t12.5 23q24 26 68.5 56.5t96 61t94.5 54.5l35 -61q-58 -33 -106 -62t-88 -56t-76 -55l6 18q21 -23 48.5 -56t56.5 -72.5t55 -80t44 -78.5q17 -36 31.5 -59.5t29 -37t30 -19t34.5 -5.5
q21 0 30.5 -9t9.5 -26q0 -16 -10 -27.5t-39 -11.5q-38 0 -67.5 16t-51 46.5t-36.5 71.5l32 -7q-13 -46 -42.5 -74t-78.5 -43t-120 -20.5t-167 -5.5zM290 -21q-47 0 -93.5 9t-84 30t-60 56.5t-22.5 89.5q0 27 4.5 55.5t12 56.5t14.5 53l67 -20q-4 -13 -9.5 -36t-10 -48
t-4.5 -46q0 -38 19 -66.5t65.5 -44t127.5 -15.5l20 -42z" />
    <glyph glyph-name="uni06AC.init" unicode="&#x6ac;" horiz-adv-x="322" 
d="M0 -5l10 74h75q36 0 58.5 6.5t34.5 17.5t16 26.5t4 33.5q0 36 -21 76t-52 74q-34 39 -56 63t-34 38t-17 21t-5 13q0 11 2.5 27.5t6.5 32t10 21.5q8 9 24 23.5t44.5 35t75 49t116.5 66.5l35 -60q-55 -31 -96 -54.5t-71.5 -43t-55.5 -37t-48 -37.5l7 25q26 -34 60.5 -72
t67.5 -80t55 -88.5t22 -99.5q0 -27 -9.5 -53.5t-32 -49t-60.5 -35.5t-94 -13h-72zM136 686q-20 0 -34 13.5t-14 32.5q0 20 14 34t34 14q19 0 32.5 -14t13.5 -33q0 -20 -13.5 -33.5t-32.5 -13.5z" />
    <glyph glyph-name="uni06AC.medi" unicode="&#x6ac;" horiz-adv-x="382" 
d="M0 -5l9 74h62q42 0 70 6t42.5 24.5t14.5 53.5q0 20 -13.5 47t-34.5 57t-44.5 59t-44.5 54.5t-34.5 43.5t-13.5 25q0 15 2.5 32t7 31.5t11.5 20.5q17 17 47 39t66.5 45.5t74 45.5t70.5 40l35 -61q-36 -21 -73 -42t-71.5 -42t-64.5 -41t-53 -40v10q27 -34 51 -62.5
t47 -58.5t47.5 -67.5t52.5 -89.5q27 -49 44.5 -77.5t36.5 -40.5t48 -12q21 0 30.5 -9t9.5 -26q0 -16 -10.5 -27.5t-39.5 -11.5q-35 0 -62.5 13.5t-49.5 43.5t-42 77l32 -7q-6 -40 -25 -65t-46.5 -38.5t-58.5 -18.5t-62 -5h-68zM140 685q-20 0 -34 13.5t-14 32.5q0 20 14 34
t34 14q19 0 32.5 -14t13.5 -33q0 -20 -13.5 -33.5t-32.5 -13.5z" />
    <glyph glyph-name="uni06AC.fina" unicode="&#x6ac;" horiz-adv-x="793" 
d="M290 -21l26 74q96 0 154.5 7.5t89.5 24t41.5 43t8.5 64.5l-18 502h74l19 -493q2 -51 18.5 -80t43 -40.5t56.5 -11.5q21 0 30.5 -9t9.5 -25q0 -17 -10.5 -28.5t-39.5 -11.5q-47 0 -76 14.5t-44.5 36.5t-20.5 46l29 -1q-21 -31 -49.5 -52.5t-72 -34.5t-108.5 -19t-161 -6z
M290 219l-17 58q38 10 61.5 17.5t34 14t10.5 13.5q0 10 -10.5 18.5t-23.5 18t-23.5 22.5t-10.5 31q0 16 9.5 34t34 37.5t69.5 41.5l28 -52q-42 -19 -61.5 -33.5t-19.5 -25.5q0 -8 10.5 -17t23.5 -20.5t23.5 -25.5t10.5 -33q0 -13 -5.5 -25t-21 -24t-45 -24.5t-77.5 -25.5z
M290 -21q-47 0 -93.5 9t-84 30t-60 56.5t-22.5 89.5q0 27 4.5 55.5t12 56.5t14.5 53l67 -20q-4 -13 -9.5 -36t-10 -48t-4.5 -46q0 -38 19 -66.5t65.5 -44t127.5 -15.5l20 -42zM366 631q-20 0 -34 13.5t-14 32.5q0 20 14 34t34 14q19 0 32.5 -14t13.5 -33q0 -20 -13.5 -33.5
t-32.5 -13.5z" />
    <glyph glyph-name="uni06AE.init" unicode="&#x6ae;" horiz-adv-x="322" 
d="M0 -5l10 74h75q36 0 58.5 6.5t34.5 17.5t16 26.5t4 33.5q0 36 -21 76t-52 74q-34 39 -56 63t-34 38t-17 21t-5 13q0 11 2.5 27.5t6.5 32t10 21.5q8 9 24 23.5t44.5 35t75 49t116.5 66.5l35 -60q-55 -31 -96 -54.5t-71.5 -43t-55.5 -37t-48 -37.5l7 25q26 -34 60.5 -72
t67.5 -80t55 -88.5t22 -99.5q0 -27 -9.5 -53.5t-32 -49t-60.5 -35.5t-94 -13h-72zM141 -294q-20 0 -34 13.5t-14 32.5q0 20 14 34t34 14q19 0 32.5 -14t13.5 -33q0 -20 -13.5 -33.5t-32.5 -13.5zM77 -184q-20 0 -34 13.5t-14 32.5q0 20 14 34t34 14q19 0 32.5 -14t13.5 -33
q0 -20 -13.5 -33.5t-32.5 -13.5zM205 -184q-20 0 -34 13.5t-14 32.5q0 20 14 34t34 14q19 0 32.5 -14t13.5 -33q0 -20 -13.5 -33.5t-32.5 -13.5z" />
    <glyph glyph-name="uni06AE.medi" unicode="&#x6ae;" horiz-adv-x="382" 
d="M0 -5l9 74h62q42 0 70 6t42.5 24.5t14.5 53.5q0 20 -13.5 47t-34.5 57t-44.5 59t-44.5 54.5t-34.5 43.5t-13.5 25q0 15 2.5 32t7 31.5t11.5 20.5q17 17 47 39t66.5 45.5t74 45.5t70.5 40l35 -61q-36 -21 -73 -42t-71.5 -42t-64.5 -41t-53 -40v10q27 -34 51 -62.5
t47 -58.5t47.5 -67.5t52.5 -89.5q27 -49 44.5 -77.5t36.5 -40.5t48 -12q21 0 30.5 -9t9.5 -26q0 -16 -10.5 -27.5t-39.5 -11.5q-35 0 -62.5 13.5t-49.5 43.5t-42 77l32 -7q-6 -40 -25 -65t-46.5 -38.5t-58.5 -18.5t-62 -5h-68zM147 -294q-20 0 -34 13.5t-14 32.5q0 20 14 34
t34 14q19 0 32.5 -14t13.5 -33q0 -20 -13.5 -33.5t-32.5 -13.5zM83 -184q-20 0 -34 13.5t-14 32.5q0 20 14 34t34 14q19 0 32.5 -14t13.5 -33q0 -20 -13.5 -33.5t-32.5 -13.5zM211 -184q-20 0 -34 13.5t-14 32.5q0 20 14 34t34 14q19 0 32.5 -14t13.5 -33q0 -20 -13.5 -33.5
t-32.5 -13.5z" />
    <glyph glyph-name="uni06AE.fina" unicode="&#x6ae;" horiz-adv-x="793" 
d="M290 -21l26 74q96 0 154.5 7.5t89.5 24t41.5 43t8.5 64.5l-18 502h74l19 -493q2 -51 18.5 -80t43 -40.5t56.5 -11.5q21 0 30.5 -9t9.5 -25q0 -17 -10.5 -28.5t-39.5 -11.5q-47 0 -76 14.5t-44.5 36.5t-20.5 46l29 -1q-21 -31 -49.5 -52.5t-72 -34.5t-108.5 -19t-161 -6z
M290 219l-17 58q38 10 61.5 17.5t34 14t10.5 13.5q0 10 -10.5 18.5t-23.5 18t-23.5 22.5t-10.5 31q0 16 9.5 34t34 37.5t69.5 41.5l28 -52q-42 -19 -61.5 -33.5t-19.5 -25.5q0 -8 10.5 -17t23.5 -20.5t23.5 -25.5t10.5 -33q0 -13 -5.5 -25t-21 -24t-45 -24.5t-77.5 -25.5z
M290 -21q-47 0 -93.5 9t-84 30t-60 56.5t-22.5 89.5q0 27 4.5 55.5t12 56.5t14.5 53l67 -20q-4 -13 -9.5 -36t-10 -48t-4.5 -46q0 -38 19 -66.5t65.5 -44t127.5 -15.5l20 -42zM309 -315q-20 0 -34 13.5t-14 32.5q0 20 14 34t34 14q19 0 32.5 -14t13.5 -33q0 -20 -13.5 -33.5
t-32.5 -13.5zM245 -205q-20 0 -34 13.5t-14 32.5q0 20 14 34t34 14q19 0 32.5 -14t13.5 -33q0 -20 -13.5 -33.5t-32.5 -13.5zM373 -205q-20 0 -34 13.5t-14 32.5q0 20 14 34t34 14q19 0 32.5 -14t13.5 -33q0 -20 -13.5 -33.5t-32.5 -13.5z" />
    <glyph glyph-name="uni06B0.init" unicode="&#x6b0;" horiz-adv-x="317" 
d="M241 471q-31 0 -52 21.5t-21 52.5t21 52.5t52 21.5t52.5 -21.5t21.5 -52.5t-21.5 -52.5t-52.5 -21.5zM241 513q14 0 24 9.5t10 22.5q0 14 -10 23.5t-24 9.5t-23.5 -9.5t-9.5 -23.5q0 -13 9.5 -22.5t23.5 -9.5zM33 599l-36 59q40 25 76.5 47t75 44t82.5 47l35 -60
q-44 -24 -83 -46.5t-75.5 -45t-74.5 -45.5zM0 -5l10 74h75q36 0 58.5 6.5t34.5 17.5t16 26.5t4 33.5q0 36 -21 76t-52 74q-34 39 -56 63t-34 38t-17 21t-5 13q0 11 2.5 27.5t6.5 32t10 21.5q8 9 24 23.5t44.5 35t75 49t116.5 66.5l35 -60q-55 -31 -96 -54.5t-71.5 -43
t-55.5 -37t-48 -37.5l7 25q26 -34 60.5 -72t67.5 -80t55 -88.5t22 -99.5q0 -27 -9.5 -53.5t-32 -49t-60.5 -35.5t-94 -13h-72z" />
    <glyph glyph-name="uni06B0.medi" unicode="&#x6b0;" horiz-adv-x="382" 
d="M253 475q-31 0 -52 21.5t-21 52.5t21 52.5t52 21.5t52.5 -21.5t21.5 -52.5t-21.5 -52.5t-52.5 -21.5zM253 517q14 0 24 9.5t10 22.5q0 14 -10 23.5t-24 9.5t-23.5 -9.5t-9.5 -23.5q0 -13 9.5 -22.5t23.5 -9.5zM33 599l-36 59q40 25 76.5 47t75 44t82.5 47l35 -60
q-44 -24 -83 -46.5t-75.5 -45t-74.5 -45.5zM0 -5l9 74h62q42 0 70 6t42.5 24.5t14.5 53.5q0 20 -13.5 47t-34.5 57t-44.5 59t-44.5 54.5t-34.5 43.5t-13.5 25q0 15 2.5 32t7 31.5t11.5 20.5q17 17 47 39t66.5 45.5t74 45.5t70.5 40l35 -61q-36 -21 -73 -42t-71.5 -42
t-64.5 -41t-53 -40v10q27 -34 51 -62.5t47 -58.5t47.5 -67.5t52.5 -89.5q27 -49 44.5 -77.5t36.5 -40.5t48 -12q21 0 30.5 -9t9.5 -26q0 -16 -10.5 -27.5t-39.5 -11.5q-35 0 -62.5 13.5t-49.5 43.5t-42 77l32 -7q-6 -40 -25 -65t-46.5 -38.5t-58.5 -18.5t-62 -5h-68z" />
    <glyph glyph-name="uni06B0.fina" unicode="&#x6b0;" horiz-adv-x="797" 
d="M670 463q-31 0 -52 21.5t-21 52.5t21 52.5t52 21.5t52.5 -21.5t21.5 -52.5t-21.5 -52.5t-52.5 -21.5zM670 505q14 0 24 9.5t10 22.5q0 14 -10 23.5t-24 9.5t-23.5 -9.5t-9.5 -23.5q0 -13 9.5 -22.5t23.5 -9.5zM472 602l-36 59q40 25 76.5 47t75 44t82.5 47l35 -60
q-44 -24 -82.5 -46.5t-75.5 -45t-75 -45.5zM290 -21l26 74q82 0 142 6t99 17.5t58 29.5t19 42q0 23 -13 51.5t-34 58.5t-44.5 58.5t-44.5 53.5t-34 43.5t-13 26.5q0 12 1.5 27.5t6 30.5t12.5 23q24 26 68.5 56.5t96 61t94.5 54.5l35 -61q-58 -33 -106 -62t-88 -56t-76 -55
l6 18q21 -23 48.5 -56t56.5 -72.5t55 -80t44 -78.5q17 -36 31.5 -59.5t29 -37t30 -19t34.5 -5.5q21 0 30.5 -9t9.5 -26q0 -16 -10 -27.5t-39 -11.5q-38 0 -67.5 16t-51 46.5t-36.5 71.5l32 -7q-13 -46 -42.5 -74t-78.5 -43t-120 -20.5t-167 -5.5zM290 -21q-47 0 -93.5 9
t-84 30t-60 56.5t-22.5 89.5q0 27 4.5 55.5t12 56.5t14.5 53l67 -20q-4 -13 -9.5 -36t-10 -48t-4.5 -46q0 -38 19 -66.5t65.5 -44t127.5 -15.5l20 -42z" />
    <glyph glyph-name="uni06B2.init" unicode="&#x6b2;" horiz-adv-x="317" 
d="M33 599l-36 59q40 25 76.5 47t75 44t82.5 47l35 -60q-44 -24 -83 -46.5t-75.5 -45t-74.5 -45.5zM0 -5l10 74h75q36 0 58.5 6.5t34.5 17.5t16 26.5t4 33.5q0 36 -21 76t-52 74q-34 39 -56 63t-34 38t-17 21t-5 13q0 11 2.5 27.5t6.5 32t10 21.5q8 9 24 23.5t44.5 35t75 49
t116.5 66.5l35 -60q-55 -31 -96 -54.5t-71.5 -43t-55.5 -37t-48 -37.5l7 25q26 -34 60.5 -72t67.5 -80t55 -88.5t22 -99.5q0 -27 -9.5 -53.5t-32 -49t-60.5 -35.5t-94 -13h-72zM202 -184q-20 0 -34 13.5t-14 32.5q0 20 14 34t34 14q19 0 32.5 -14t13.5 -33
q0 -20 -13.5 -33.5t-32.5 -13.5zM73 -184q-20 0 -34 13.5t-14 32.5q0 20 14 34t34 14q19 0 32.5 -14t13.5 -33q0 -20 -13.5 -33.5t-32.5 -13.5z" />
    <glyph glyph-name="uni06B2.medi" unicode="&#x6b2;" horiz-adv-x="382" 
d="M33 599l-36 59q40 25 76.5 47t75 44t82.5 47l35 -60q-44 -24 -83 -46.5t-75.5 -45t-74.5 -45.5zM0 -5l9 74h62q42 0 70 6t42.5 24.5t14.5 53.5q0 20 -13.5 47t-34.5 57t-44.5 59t-44.5 54.5t-34.5 43.5t-13.5 25q0 15 2.5 32t7 31.5t11.5 20.5q17 17 47 39t66.5 45.5
t74 45.5t70.5 40l35 -61q-36 -21 -73 -42t-71.5 -42t-64.5 -41t-53 -40v10q27 -34 51 -62.5t47 -58.5t47.5 -67.5t52.5 -89.5q27 -49 44.5 -77.5t36.5 -40.5t48 -12q21 0 30.5 -9t9.5 -26q0 -16 -10.5 -27.5t-39.5 -11.5q-35 0 -62.5 13.5t-49.5 43.5t-42 77l32 -7
q-6 -40 -25 -65t-46.5 -38.5t-58.5 -18.5t-62 -5h-68zM196 -184q-20 0 -34 13.5t-14 32.5q0 20 14 34t34 14q19 0 32.5 -14t13.5 -33q0 -20 -13.5 -33.5t-32.5 -13.5zM67 -184q-20 0 -34 13.5t-14 32.5q0 20 14 34t34 14q19 0 32.5 -14t13.5 -33q0 -20 -13.5 -33.5
t-32.5 -13.5z" />
    <glyph glyph-name="uni06B2.fina" unicode="&#x6b2;" horiz-adv-x="797" 
d="M472 602l-36 59q40 25 76.5 47t75 44t82.5 47l35 -60q-44 -24 -82.5 -46.5t-75.5 -45t-75 -45.5zM290 -21l26 74q82 0 142 6t99 17.5t58 29.5t19 42q0 23 -13 51.5t-34 58.5t-44.5 58.5t-44.5 53.5t-34 43.5t-13 26.5q0 12 1.5 27.5t6 30.5t12.5 23q24 26 68.5 56.5
t96 61t94.5 54.5l35 -61q-58 -33 -106 -62t-88 -56t-76 -55l6 18q21 -23 48.5 -56t56.5 -72.5t55 -80t44 -78.5q17 -36 31.5 -59.5t29 -37t30 -19t34.5 -5.5q21 0 30.5 -9t9.5 -26q0 -16 -10 -27.5t-39 -11.5q-38 0 -67.5 16t-51 46.5t-36.5 71.5l32 -7q-13 -46 -42.5 -74
t-78.5 -43t-120 -20.5t-167 -5.5zM290 -21q-47 0 -93.5 9t-84 30t-60 56.5t-22.5 89.5q0 27 4.5 55.5t12 56.5t14.5 53l67 -20q-4 -13 -9.5 -36t-10 -48t-4.5 -46q0 -38 19 -66.5t65.5 -44t127.5 -15.5l20 -42zM405 -205q-20 0 -34 13.5t-14 32.5q0 20 14 34t34 14
q19 0 32.5 -14t13.5 -33q0 -20 -13.5 -33.5t-32.5 -13.5zM276 -205q-20 0 -34 13.5t-14 32.5q0 20 14 34t34 14q19 0 32.5 -14t13.5 -33q0 -20 -13.5 -33.5t-32.5 -13.5z" />
    <glyph glyph-name="uni06B4.init" unicode="&#x6b4;" horiz-adv-x="317" 
d="M48 885q-20 0 -34 13.5t-14 32.5q0 20 14 34t34 14q19 0 32.5 -14t13.5 -34q0 -19 -13.5 -32.5t-32.5 -13.5zM38 760q-20 0 -34 13.5t-14 32.5q0 20 14 34t34 14q19 0 32.5 -14t13.5 -34q0 -19 -13.5 -32.5t-32.5 -13.5zM153 811q-20 0 -34 13.5t-14 32.5q0 20 14 34
t34 14q19 0 32.5 -14t13.5 -34q0 -19 -13.5 -32.5t-32.5 -13.5zM33 599l-36 59q40 25 76.5 47t75 44t82.5 47l35 -60q-44 -24 -83 -46.5t-75.5 -45t-74.5 -45.5zM0 -5l10 74h75q36 0 58.5 6.5t34.5 17.5t16 26.5t4 33.5q0 36 -21 76t-52 74q-34 39 -56 63t-34 38t-17 21
t-5 13q0 11 2.5 27.5t6.5 32t10 21.5q8 9 24 23.5t44.5 35t75 49t116.5 66.5l35 -60q-55 -31 -96 -54.5t-71.5 -43t-55.5 -37t-48 -37.5l7 25q26 -34 60.5 -72t67.5 -80t55 -88.5t22 -99.5q0 -27 -9.5 -53.5t-32 -49t-60.5 -35.5t-94 -13h-72z" />
    <glyph glyph-name="uni06B4.medi" unicode="&#x6b4;" horiz-adv-x="382" 
d="M48 885q-20 0 -34 13.5t-14 32.5q0 20 14 34t34 14q19 0 32.5 -14t13.5 -34q0 -19 -13.5 -32.5t-32.5 -13.5zM38 760q-20 0 -34 13.5t-14 32.5q0 20 14 34t34 14q19 0 32.5 -14t13.5 -34q0 -19 -13.5 -32.5t-32.5 -13.5zM153 811q-20 0 -34 13.5t-14 32.5q0 20 14 34
t34 14q19 0 32.5 -14t13.5 -34q0 -19 -13.5 -32.5t-32.5 -13.5zM33 599l-36 59q40 25 76.5 47t75 44t82.5 47l35 -60q-44 -24 -83 -46.5t-75.5 -45t-74.5 -45.5zM0 -5l9 74h62q42 0 70 6t42.5 24.5t14.5 53.5q0 20 -13.5 47t-34.5 57t-44.5 59t-44.5 54.5t-34.5 43.5
t-13.5 25q0 15 2.5 32t7 31.5t11.5 20.5q17 17 47 39t66.5 45.5t74 45.5t70.5 40l35 -61q-36 -21 -73 -42t-71.5 -42t-64.5 -41t-53 -40v10q27 -34 51 -62.5t47 -58.5t47.5 -67.5t52.5 -89.5q27 -49 44.5 -77.5t36.5 -40.5t48 -12q21 0 30.5 -9t9.5 -26q0 -16 -10.5 -27.5
t-39.5 -11.5q-35 0 -62.5 13.5t-49.5 43.5t-42 77l32 -7q-6 -40 -25 -65t-46.5 -38.5t-58.5 -18.5t-62 -5h-68z" />
    <glyph glyph-name="uni06B4.fina" unicode="&#x6b4;" horiz-adv-x="797" 
d="M472 885q-20 0 -34 13.5t-14 32.5q0 20 14 34t34 14q19 0 32.5 -14t13.5 -34q0 -19 -13.5 -32.5t-32.5 -13.5zM462 760q-20 0 -34 13.5t-14 32.5q0 20 14 34t34 14q19 0 32.5 -14t13.5 -34q0 -19 -13.5 -32.5t-32.5 -13.5zM577 811q-20 0 -34 13.5t-14 32.5q0 20 14 34
t34 14q19 0 32.5 -14t13.5 -34q0 -19 -13.5 -32.5t-32.5 -13.5zM472 602l-36 59q40 25 76.5 47t75 44t82.5 47l35 -60q-44 -24 -82.5 -46.5t-75.5 -45t-75 -45.5zM290 -21l26 74q82 0 142 6t99 17.5t58 29.5t19 42q0 23 -13 51.5t-34 58.5t-44.5 58.5t-44.5 53.5t-34 43.5
t-13 26.5q0 12 1.5 27.5t6 30.5t12.5 23q24 26 68.5 56.5t96 61t94.5 54.5l35 -61q-58 -33 -106 -62t-88 -56t-76 -55l6 18q21 -23 48.5 -56t56.5 -72.5t55 -80t44 -78.5q17 -36 31.5 -59.5t29 -37t30 -19t34.5 -5.5q21 0 30.5 -9t9.5 -26q0 -16 -10 -27.5t-39 -11.5
q-38 0 -67.5 16t-51 46.5t-36.5 71.5l32 -7q-13 -46 -42.5 -74t-78.5 -43t-120 -20.5t-167 -5.5zM290 -21q-47 0 -93.5 9t-84 30t-60 56.5t-22.5 89.5q0 27 4.5 55.5t12 56.5t14.5 53l67 -20q-4 -13 -9.5 -36t-10 -48t-4.5 -46q0 -38 19 -66.5t65.5 -44t127.5 -15.5l20 -42z
" />
    <glyph glyph-name="uni06B5.init" unicode="&#x6b5;" horiz-adv-x="217" 
d="M0 -5l9 74q35 0 51 13t20 43t2 80l-19 489h73l20 -480q2 -53 -3 -94t-21.5 -69t-48.5 -42t-83 -14zM76 825q-6 14 -16 38.5t-21 53t-21 54t-17 40.5l41 19q5 -9 14 -30.5t19.5 -47.5t20 -49.5t15.5 -36.5l18 -36zM129 830l-40 15q6 16 16.5 43.5t22.5 57t21.5 52.5
t12.5 30l41 -17q-4 -9 -14 -32.5t-21.5 -52.5t-22 -55t-16.5 -41z" />
    <glyph glyph-name="uni06B5.medi" unicode="&#x6b5;" horiz-adv-x="228" 
d="M0 -5l10 74q29 0 42.5 13t17.5 43t2 80l-18 489h73l19 -487q2 -51 11.5 -81.5t29.5 -43.5t51 -13q21 0 30.5 -9t9.5 -26q0 -16 -10 -27.5t-39 -11.5q-28 0 -53.5 11t-42.5 32t-20 51l27 -2q-10 -30 -30 -50.5t-47.5 -31t-62.5 -10.5zM65 825q-6 14 -16 38.5t-21 53
t-21 54t-17 40.5l41 19q5 -9 14 -30.5t19.5 -47.5t20 -49.5t15.5 -36.5l18 -36zM118 830l-40 15q6 16 16.5 43.5t22.5 57t21.5 52.5t12.5 30l41 -17q-4 -9 -14 -32.5t-21.5 -52.5t-22 -55t-16.5 -41z" />
    <glyph glyph-name="uni06B5.fina" unicode="&#x6b5;" horiz-adv-x="618" 
d="M48 -14q0 15 3.5 42.5t15.5 66.5t38 86l61 -32q-15 -31 -25 -58.5t-15 -50.5t-5 -44q0 -51 20.5 -85.5t54.5 -51.5t75 -17q76 0 116 34t54 103t10 173l-18 542h76l15 -495q2 -51 17.5 -79.5t39 -39.5t47.5 -11q21 0 30.5 -9t9.5 -26q0 -16 -10 -27.5t-39 -11.5
q-22 0 -41 6t-33 18.5t-23 30.5t-13 42l15 -33q-4 -61 -19.5 -113.5t-45 -92t-77 -61.5t-116.5 -22q-43 0 -82.5 13.5t-70 40.5t-48 67.5t-17.5 94.5zM234 588q-6 14 -16 38.5t-21 53t-21 54t-17 40.5l41 19q5 -9 14 -30.5t19.5 -47.5t20 -49.5t15.5 -36.5l18 -36zM287 593
l-40 15q6 16 16.5 43.5t22.5 57t21.5 52.5t12.5 30l41 -17q-4 -9 -14 -32.5t-21.5 -52.5t-22 -55t-16.5 -41z" />
    <glyph glyph-name="uni06B6.init" unicode="&#x6b6;" horiz-adv-x="217" 
d="M0 -5l9 74q35 0 51 13t20 43t2 80l-19 489h73l20 -480q2 -53 -3 -94t-21.5 -69t-48.5 -42t-83 -14zM101 797q-20 0 -34 13.5t-14 32.5q0 20 14 34t34 14q19 0 32.5 -14t13.5 -33q0 -20 -13.5 -33.5t-32.5 -13.5z" />
    </font>
</defs>
</svg>
