<?xml version="1.0" standalone="no"?>
<!DOCTYPE svg PUBLIC "-//W3C//DTD SVG 1.1//EN" "http://www.w3.org/Graphics/SVG/1.1/DTD/svg11.dtd" >
<svg xmlns="http://www.w3.org/2000/svg" xmlns:xlink="http://www.w3.org/1999/xlink" version="1.1">
<metadata>
Created by FontForge 20170731 at Thu Nov 12 05:28:44 2020
 By Aleksey,,,
Copyright 2015-2020 Google LLC. All Rights Reserved.
</metadata>
<defs>
<font id="NotoSansArabicExtraCondensed-Thin" horiz-adv-x="0" >
  <font-face 
    font-family="Noto Sans Arabic ExtraCondensed Thin"
    font-weight="250"
    font-stretch="extra-condensed"
    units-per-em="1000"
    panose-1="0 0 0 0 0 0 0 0 0 0"
    ascent="800"
    descent="-200"
    bbox="-214 -573 1911 1053"
    underline-thickness="50"
    underline-position="-175"
    unicode-range="U+000D-FEFC"
  />
<missing-glyph horiz-adv-x="600" 
d="M107 0v714h385v-714h-385zM131 24h337v666h-337v-666z" />
    <glyph glyph-name="uniFC43" unicode="&#xfedf;&#xfef0;" horiz-adv-x="780" arabic-form="isolated" 
d="M612 -5l4 22q44 0 64.5 15.5t26 50t3.5 92.5l-19 539h23l20 -537q2 -50 -2 -84.5t-17 -56t-38 -31.5t-65 -10zM40 -13q0 16 3 43t15 65.5t38 86.5l22 -9q-18 -33 -30 -65.5t-18 -64t-6 -60.5q0 -43 13 -77.5t39.5 -59.5t66.5 -38.5t94 -13.5q64 0 112.5 17.5t81.5 44
t49.5 55.5t16.5 53q0 20 -11 34t-32 24.5t-49 20t-63 21.5l6 25q31 -12 63 -24.5t62 -23t56.5 -17.5t46.5 -7q7 0 11.5 -2t4.5 -9q0 -6 -5 -8.5t-15 -2.5q-9 0 -20 1.5t-23 5t-26 9.5q11 -13 14.5 -27.5t3.5 -23.5q0 -27 -18.5 -59.5t-54.5 -62t-88.5 -49t-120.5 -19.5
q-66 0 -120.5 23t-86.5 71t-32 123z" />
    <glyph glyph-name="uniFC86" unicode="&#xfee0;&#xfef0;" horiz-adv-x="826" arabic-form="final" 
d="M612 -5l4 22q43 0 64.5 22t27.5 64t4 102l-17 509h25l16 -507q3 -78 14.5 -119t31.5 -56t48 -15q7 0 11.5 -2t4.5 -9q0 -6 -5 -8.5t-15 -2.5q-28 0 -49.5 15.5t-35 41.5t-19.5 55h10q-7 -34 -20.5 -59t-37 -39t-62.5 -14zM40 -13q0 16 3 43t15 65.5t38 86.5l22 -9
q-18 -33 -30 -65.5t-18 -64t-6 -60.5q0 -43 13 -77.5t39.5 -59.5t66.5 -38.5t94 -13.5q64 0 112.5 17.5t81.5 44t49.5 55.5t16.5 53q0 20 -11 34t-32 24.5t-49 20t-63 21.5l6 25q31 -12 63 -24.5t62 -23t56.5 -17.5t46.5 -7q7 0 11.5 -2t4.5 -9q0 -6 -5 -8.5t-15 -2.5
q-9 0 -20 1.5t-23 5t-26 9.5q11 -13 14.5 -27.5t3.5 -23.5q0 -27 -18.5 -59.5t-54.5 -62t-88.5 -49t-120.5 -19.5q-66 0 -120.5 23t-86.5 71t-32 123z" />
    <glyph glyph-name="uniFD82" unicode="&#xfee0;&#xfea4;&#xfef0;" horiz-adv-x="1303" arabic-form="final" 
d="M1089 -5l4 22q43 0 64.5 22t27.5 64t4 102l-17 509h25l16 -507q3 -78 14.5 -119t31.5 -56t48 -15q7 0 11.5 -2t4.5 -9q0 -6 -5 -8.5t-15 -2.5q-28 0 -49.5 15.5t-35 41.5t-19.5 55h10q-7 -34 -20.5 -59t-37 -39t-62.5 -14zM1089 -5q-18 0 -40 2.5t-44 15t-41 41.5t-30 81
l20 8q15 -62 37.5 -88.5t49 -32t52.5 -5.5q11 0 13.5 -3.5t2.5 -7.5q0 -5 -4.5 -8t-15.5 -3zM612 -5l4 22q40 0 77 7t76 23t84.5 43t101.5 67q-47 35 -84 63t-69.5 44.5t-69.5 16.5q-11 0 -21.5 -0.5t-21.5 -2t-25 -5.5l-4 23q17 5 35.5 6.5t36.5 1.5q40 0 73 -13.5t61 -33
t52 -39.5t45.5 -33.5t41.5 -13.5h15l3 -23q-26 0 -51 -11.5t-51.5 -28.5t-57 -36.5t-67.5 -37t-82.5 -28.5t-101.5 -11zM40 -13q0 16 3 43t15 65.5t38 86.5l22 -9q-18 -33 -30 -65.5t-18 -64t-6 -60.5q0 -43 13 -77.5t39.5 -59.5t66.5 -38.5t94 -13.5q64 0 112.5 17.5
t81.5 44t49.5 55.5t16.5 53q0 20 -11 34t-32 24.5t-49 20t-63 21.5l6 25q31 -12 63 -24.5t62 -23t56.5 -17.5t46.5 -7q7 0 11.5 -2t4.5 -9q0 -6 -5 -8.5t-15 -2.5q-9 0 -20 1.5t-23 5t-26 9.5q11 -13 14.5 -27.5t3.5 -23.5q0 -27 -18.5 -59.5t-54.5 -62t-88.5 -49
t-120.5 -19.5q-66 0 -120.5 23t-86.5 71t-32 123z" />
    <glyph glyph-name="uniFDF2" unicode="&#x627;&#xfedf;&#xfee0;&#xfeea;" horiz-adv-x="971" arabic-form="isolated" 
d="M386 -5q-20 0 -41.5 7t-38 29t-23.5 66q-50 -10 -94 -6.5t-77.5 18t-52.5 40t-19 60.5q0 47 27 92.5t77.5 82.5t120.5 55l-4 77h24l18 -367q3 -51 11 -80t26 -40.5t50 -11.5q43 0 64.5 22t28 64t3.5 102l-16 363h25l15 -361q3 -78 14.5 -119t31.5 -56t48 -15
q44 0 64.5 15.5t26 50t3.5 92.5l-19 539h23l20 -537q2 -50 -2 -84.5t-17 -56t-38 -31.5t-65 -10q-25 0 -44.5 12.5t-33 33t-21.5 45.5q-12 -42 -37.5 -66.5t-77.5 -24.5zM280 120l-14 293q-59 -14 -104.5 -46t-71 -72.5t-25.5 -81.5q0 -34 19 -55.5t50 -32t69 -11.5t77 6z
M872 0l-19 714h23l20 -714h-24zM417 598q-28 0 -42.5 21.5t-14.5 57.5q0 11 1.5 25.5t4.5 30.5l21 6q-3 -19 -4.5 -34t-1.5 -26q0 -23 8.5 -41t28.5 -18q14 0 28 17.5t14 60.5v63l22 8v-81q0 -14 10.5 -24.5t26.5 -10.5q20 0 29 16t9 44q0 22 -4 41.5t-11 36.5l20 7
q7 -13 12 -37.5t5 -47.5q0 -34 -14.5 -58t-46.5 -24q-22 0 -36.5 14.5t-14.5 37.5h12q0 -34 -16.5 -59.5t-45.5 -25.5zM456 834l-5 147h22l5 -147h-22z" />
    <glyph glyph-name="uniFEF5" unicode="&#xfedf;&#xfe82;" horiz-adv-x="573" arabic-form="isolated" 
d="M326 527q0 33 -3.5 68.5t-8 67t-8.5 51.5l23 5q4 -19 8.5 -52t8 -70.5t3.5 -71.5q0 -38 -5.5 -75t-15 -73t-23.5 -70l-3 -9q-32 -78 -80.5 -147.5t-103.5 -126.5h164q47 0 72 14t34 35t9 43q0 43 -25.5 85.5t-72.5 90.5t-112.5 108.5t-146.5 139.5l12 20q77 -71 137 -127
t103.5 -101t72 -81.5t42 -69t13.5 -64.5q0 -18 -5.5 -38.5t-20.5 -38t-42 -29t-70 -11.5h-187v37q74 70 125.5 152t78.5 168.5t27 169.5zM154 599q-24 0 -45.5 10.5t-40 20.5t-34.5 10q-13 0 -28 -9t-31 -25l-15 14q17 18 35.5 30.5t40.5 12.5q21 0 40.5 -10t40 -20.5
t40.5 -10.5q19 0 38 9t41 28l12 -17q-25 -23 -49 -33t-45 -10z" />
    <glyph glyph-name="uniFEF6" unicode="&#xfee0;&#xfe82;" horiz-adv-x="461" arabic-form="final" 
d="M467 -5q-33 0 -55.5 9.5t-37 31.5t-22 59.5t-9.5 94.5l-20 524h23l18 -499q3 -66 8.5 -110t27 -66t70.5 -22q6 0 8.5 -3t2.5 -8q0 -4 -4 -7.5t-10 -3.5zM133 -11q-27 0 -54.5 4.5t-38.5 6.5l4 25q61 -18 114 -9t93.5 47t63.5 104.5t23 163.5l17 -24q0 -79 -15.5 -134.5
t-40.5 -91.5t-54.5 -56t-59 -28t-52.5 -8zM321 154q-23 41 -52 90.5t-62.5 101.5t-69 101.5t-70.5 91.5l18 16q40 -48 75.5 -98.5t67 -100.5t58 -96t48.5 -86zM154 599q-24 0 -45.5 10.5t-40 20.5t-34.5 10q-13 0 -28 -9t-31 -25l-15 14q17 18 35.5 30.5t40.5 12.5
q21 0 40.5 -10t40 -20.5t40.5 -10.5q19 0 38 9t41 28l12 -17q-25 -23 -49 -33t-45 -10z" />
    <glyph glyph-name="uniFEF7" unicode="&#xfedf;&#xfe84;" horiz-adv-x="495" arabic-form="isolated" 
d="M326 527q0 33 -3.5 68.5t-8 67t-8.5 51.5l23 5q4 -19 8.5 -52t8 -70.5t3.5 -71.5q0 -38 -5.5 -75t-15 -73t-23.5 -70l-3 -9q-32 -78 -80.5 -147.5t-103.5 -126.5h164q47 0 72 14t34 35t9 43q0 43 -25.5 85.5t-72.5 90.5t-112.5 108.5t-146.5 139.5l12 20q77 -71 137 -127
t103.5 -101t72 -81.5t42 -69t13.5 -64.5q0 -18 -5.5 -38.5t-20.5 -38t-42 -29t-70 -11.5h-187v37q74 70 125.5 152t78.5 168.5t27 169.5zM14 591l-5 22q23 6 42.5 12t33.5 10l28 -8q-41 5 -68.5 33t-27.5 62q0 26 12 44t30.5 27t36.5 9q13 0 24.5 -2t21.5 -6l-5 -20
q-10 3 -20 4.5t-21 1.5q-28 0 -42.5 -17.5t-14.5 -40.5q0 -21 12.5 -38t32.5 -27.5t42 -15.5l-37 -4q26 7 47 14t41 14l7 -20q-24 -9 -53 -19t-59 -19t-58 -16z" />
    <glyph glyph-name="uniFEF8" unicode="&#xfee0;&#xfe84;" horiz-adv-x="461" arabic-form="final" 
d="M467 -5q-33 0 -55.5 9.5t-37 31.5t-22 59.5t-9.5 94.5l-20 524h23l18 -499q3 -66 8.5 -110t27 -66t70.5 -22q6 0 8.5 -3t2.5 -8q0 -4 -4 -7.5t-10 -3.5zM133 -11q-27 0 -54.5 4.5t-38.5 6.5l4 25q61 -18 114 -9t93.5 47t63.5 104.5t23 163.5l17 -24q0 -79 -15.5 -134.5
t-40.5 -91.5t-54.5 -56t-59 -28t-52.5 -8zM321 154q-23 41 -52 90.5t-62.5 101.5t-69 101.5t-70.5 91.5l18 16q40 -48 75.5 -98.5t67 -100.5t58 -96t48.5 -86zM45 591l-5 22q23 6 42.5 12t33.5 10l28 -8q-41 5 -68.5 33t-27.5 62q0 26 12 44t30.5 27t36.5 9q13 0 24.5 -2
t21.5 -6l-5 -20q-10 3 -20 4.5t-21 1.5q-28 0 -42.5 -17.5t-14.5 -40.5q0 -21 12.5 -38t32.5 -27.5t42 -15.5l-37 -4q26 7 47 14t41 14l7 -20q-24 -9 -53 -19t-59 -19t-58 -16z" />
    <glyph glyph-name="uniFEF9" unicode="&#xfedf;&#xfe88;" horiz-adv-x="495" arabic-form="isolated" 
d="M326 527q0 33 -3.5 68.5t-8 67t-8.5 51.5l23 5q4 -19 8.5 -52t8 -70.5t3.5 -71.5q0 -38 -5.5 -75t-15 -73t-23.5 -70l-3 -9q-32 -78 -80.5 -147.5t-103.5 -126.5h164q47 0 72 14t34 35t9 43q0 43 -25.5 85.5t-72.5 90.5t-112.5 108.5t-146.5 139.5l12 20q77 -71 137 -127
t103.5 -101t72 -81.5t42 -69t13.5 -64.5q0 -18 -5.5 -38.5t-20.5 -38t-42 -29t-70 -11.5h-187v37q74 70 125.5 152t78.5 168.5t27 169.5zM79 -278l-5 22q23 6 42.5 12t33.5 10l28 -8q-41 5 -68.5 33t-27.5 62q0 26 12 44t30.5 27t36.5 9q13 0 24.5 -2t21.5 -6l-5 -20
q-10 3 -20 4.5t-21 1.5q-28 0 -42.5 -17.5t-14.5 -40.5q0 -21 12.5 -38t32.5 -27.5t42 -15.5l-37 -4q26 7 47 14t41 14l7 -20q-24 -9 -53 -19t-59 -19t-58 -16z" />
    <glyph glyph-name="uniFEFA" unicode="&#xfee0;&#xfe88;" horiz-adv-x="461" arabic-form="final" 
d="M467 -5q-33 0 -55.5 9.5t-37 31.5t-22 59.5t-9.5 94.5l-20 524h23l18 -499q3 -66 8.5 -110t27 -66t70.5 -22q6 0 8.5 -3t2.5 -8q0 -4 -4 -7.5t-10 -3.5zM133 -11q-27 0 -54.5 4.5t-38.5 6.5l4 25q61 -18 114 -9t93.5 47t63.5 104.5t23 163.5l17 -24q0 -79 -15.5 -134.5
t-40.5 -91.5t-54.5 -56t-59 -28t-52.5 -8zM321 154q-23 41 -52 90.5t-62.5 101.5t-69 101.5t-70.5 91.5l18 16q40 -48 75.5 -98.5t67 -100.5t58 -96t48.5 -86zM89 -278l-5 22q23 6 42.5 12t33.5 10l28 -8q-41 5 -68.5 33t-27.5 62q0 26 12 44t30.5 27t36.5 9q13 0 24.5 -2
t21.5 -6l-5 -20q-10 3 -20 4.5t-21 1.5q-28 0 -42.5 -17.5t-14.5 -40.5q0 -21 12.5 -38t32.5 -27.5t42 -15.5l-37 -4q26 7 47 14t41 14l7 -20q-24 -9 -53 -19t-59 -19t-58 -16z" />
    <glyph glyph-name="uniFEFB" unicode="&#xfedf;&#xfe8e;" horiz-adv-x="495" arabic-form="isolated" 
d="M326 527q0 33 -3.5 68.5t-8 67t-8.5 51.5l23 5q4 -19 8.5 -52t8 -70.5t3.5 -71.5q0 -38 -5.5 -75t-15 -73t-23.5 -70l-3 -9q-32 -78 -80.5 -147.5t-103.5 -126.5h164q47 0 72 14t34 35t9 43q0 43 -25.5 85.5t-72.5 90.5t-112.5 108.5t-146.5 139.5l12 20q77 -71 137 -127
t103.5 -101t72 -81.5t42 -69t13.5 -64.5q0 -18 -5.5 -38.5t-20.5 -38t-42 -29t-70 -11.5h-187v37q74 70 125.5 152t78.5 168.5t27 169.5z" />
    <glyph glyph-name="uniFEFC" unicode="&#xfee0;&#xfe8e;" horiz-adv-x="461" arabic-form="final" 
d="M467 -5q-33 0 -55.5 9.5t-37 31.5t-22 59.5t-9.5 94.5l-20 524h23l18 -499q3 -66 8.5 -110t27 -66t70.5 -22q6 0 8.5 -3t2.5 -8q0 -4 -4 -7.5t-10 -3.5zM133 -11q-27 0 -54.5 4.5t-38.5 6.5l4 25q61 -18 114 -9t93.5 47t63.5 104.5t23 163.5l17 -24q0 -79 -15.5 -134.5
t-40.5 -91.5t-54.5 -56t-59 -28t-52.5 -8zM321 154q-23 41 -52 90.5t-62.5 101.5t-69 101.5t-70.5 91.5l18 16q40 -48 75.5 -98.5t67 -100.5t58 -96t48.5 -86z" />
    <glyph glyph-name="lam_alefMaksura_meemar" unicode="&#xfedf;&#xfbe9;&#xfee2;" horiz-adv-x="833" 
d="M665 -5l4 22q44 0 64.5 15.5t26 50t3.5 92.5l-19 539h23l20 -537q2 -50 -2 -84.5t-17 -56t-38 -31.5t-65 -10zM457 -5l4 22q48 0 71.5 14.5t31 39t7.5 55.5q0 38 -5.5 72.5t-16.5 72t-28 83.5l23 9q16 -43 27.5 -81.5t17.5 -75.5t6 -76q0 -23 -4 -43.5t-13 -37t-25 -29
t-39.5 -19t-56.5 -6.5zM87 -393q-21 81 -36 155.5t-23 131.5t-8 85q0 75 13.5 133.5t36 102t50 71.5t55.5 42t52 14q20 0 33.5 -15t30.5 -55.5t45 -119.5q18 -51 37.5 -80.5t41.5 -42t46 -12.5q7 0 11.5 -2t4.5 -9q0 -6 -5 -8.5t-15 -2.5q-35 0 -68.5 26t-49.5 72l13 -7
q3 -24 -4.5 -45.5t-25 -35t-44.5 -13.5q-28 0 -57 12.5t-56.5 37.5t-50.5 62t-38 85l6 -2q-21 -43 -30.5 -98t-9.5 -110q0 -28 5 -68.5t14 -89t21 -101.5t26 -107zM279 15q21 0 34.5 13t16.5 38.5t-10 61.5q-15 43 -27.5 78t-23.5 60t-21.5 38.5t-21.5 13.5q-15 0 -33 -7
t-36 -21.5t-35 -35.5t-31 -49v10q14 -52 42 -97.5t65.5 -74t80.5 -28.5z" />
    <glyph glyph-name="lam_alefWaslaar" unicode="&#xfedf;&#xfb51;" horiz-adv-x="416" 
d="M127 621q-20 0 -44.5 2t-46.5 5t-36 5l3 21q15 -2 36 -4.5t44 -4.5t43 -2q54 0 75.5 22t21.5 47q0 23 -12 33.5t-29 10.5q-25 0 -49 -18t-43.5 -44.5t-31.5 -53.5l-21 4q15 33 37 63.5t50 50.5t61 20q29 0 44 -19t15 -46q0 -24 -13 -45t-38.5 -34t-65.5 -13zM326 527
q0 33 -3.5 68.5t-8 67t-8.5 51.5l23 5q4 -19 8.5 -52t8 -70.5t3.5 -71.5q0 -38 -5.5 -75t-15 -73t-23.5 -70l-3 -9q-32 -78 -80.5 -147.5t-103.5 -126.5h164q47 0 72 14t34 35t9 43q0 43 -25.5 85.5t-72.5 90.5t-112.5 108.5t-146.5 139.5l12 20q77 -71 137 -127t103.5 -101
t72 -81.5t42 -69t13.5 -64.5q0 -18 -5.5 -38.5t-20.5 -38t-42 -29t-70 -11.5h-187v37q74 70 125.5 152t78.5 168.5t27 169.5z" />
    <glyph glyph-name="lam_alefWaslaar.fina" unicode="&#xfee0;&#xfb51;" horiz-adv-x="477" 
d="M127 661q-20 0 -44.5 2t-46.5 5t-36 5l3 21q15 -2 36 -4.5t44 -4.5t43 -2q54 0 75.5 22t21.5 47q0 23 -12 33.5t-29 10.5q-25 0 -49 -18t-43.5 -44.5t-31.5 -53.5l-21 4q15 33 37 63.5t50 50.5t60 20q30 0 45 -19t15 -46q0 -24 -13 -45t-38.5 -34t-65.5 -13zM467 -5
q-33 0 -55.5 9.5t-37 31.5t-22 59.5t-9.5 94.5l-20 524h23l18 -499q3 -66 8.5 -110t27 -66t70.5 -22q6 0 8.5 -3t2.5 -8q0 -4 -4 -7.5t-10 -3.5zM133 -11q-27 0 -54.5 4.5t-38.5 6.5l4 25q61 -18 114 -9t93.5 47t63.5 104.5t23 163.5l17 -24q0 -79 -15.5 -134.5t-40.5 -91.5
t-54.5 -56t-59 -28t-52.5 -8zM321 154q-23 41 -52 90.5t-62.5 101.5t-69 101.5t-70.5 91.5l18 16q40 -48 75.5 -98.5t67 -100.5t58 -96t48.5 -86z" />
    <glyph glyph-name="uni0620.init" unicode="&#x620;" horiz-adv-x="236" 
d="M0 -5l4 22q43 0 72 9.5t44 33.5t15 66q0 36 -6 71.5t-17 73.5t-27 83l23 9q16 -42 27 -80.5t17.5 -75t6.5 -75.5q0 -35 -9 -61t-28 -43t-49.5 -25t-72.5 -8zM123 -102q-29 0 -49.5 21t-20.5 50t20.5 49.5t49.5 20.5t50 -20.5t21 -49.5t-21 -50t-50 -21zM123 -82
q20 0 35 15t15 36q0 20 -15 35t-35 15t-34.5 -15t-14.5 -35q0 -21 14.5 -36t34.5 -15z" />
    <glyph glyph-name="uni0620.medi" unicode="&#x620;" horiz-adv-x="238" 
d="M0 -5l4 22q23 0 43 8t37.5 32.5t33 74t29.5 132.5l24 -5q-7 -36 -12.5 -60t-8 -43t-2.5 -41q0 -23 4 -41t14 -31t28.5 -19.5t47.5 -6.5q11 0 13.5 -3.5t2.5 -6.5q0 -6 -4.5 -9t-15.5 -3q-32 0 -53 7t-33.5 21t-18 36.5t-5.5 53.5h2q-10 -39 -22.5 -62.5t-28 -35.5
t-35.5 -16t-44 -4zM73 -115q-29 0 -49.5 21t-20.5 50t20.5 49.5t49.5 20.5t50 -20.5t21 -49.5t-21 -50t-50 -21zM73 -95q20 0 35 15t15 36q0 20 -15 35t-35 15t-34.5 -15t-14.5 -35q0 -21 14.5 -36t34.5 -15z" />
    <glyph glyph-name="uni0620.fina" unicode="&#x620;" horiz-adv-x="612" 
d="M273 -351q-29 0 -49.5 21t-20.5 50t20.5 49.5t49.5 20.5t50 -20.5t21 -49.5t-21 -50t-50 -21zM273 -331q20 0 35 15t15 36q0 20 -15 35t-35 15t-34.5 -15t-14.5 -35q0 -21 14.5 -36t34.5 -15zM40 -13q0 16 3 43t15 65.5t38 86.5l22 -9q-18 -33 -30 -65.5t-18 -64
t-6 -60.5q0 -43 13 -77.5t39.5 -59.5t66.5 -38.5t94 -13.5q64 0 112.5 17.5t81.5 44t49.5 55.5t16.5 53q0 20 -11 34t-32 24.5t-49 20t-63 21.5l6 25q31 -12 63 -24.5t62 -23t56.5 -17.5t46.5 -7q7 0 11.5 -2t4.5 -9q0 -6 -5 -8.5t-15 -2.5q-9 0 -20 1.5t-23 5t-26 9.5
q11 -13 14.5 -27.5t3.5 -23.5q0 -27 -18.5 -59.5t-54.5 -62t-88.5 -49t-120.5 -19.5q-66 0 -120.5 23t-86.5 71t-32 123z" />
    <glyph glyph-name="uni063B.init" unicode="&#x63b;" horiz-adv-x="328" 
d="M215 744q-10 0 -16.5 7t-6.5 16t6.5 15.5t16.5 6.5q9 0 15.5 -6.5t6.5 -15.5t-6.5 -16t-15.5 -7zM106 692q-10 0 -16.5 7t-6.5 16t6.5 15.5t16.5 6.5q9 0 15.5 -6.5t6.5 -15.5t-6.5 -16t-15.5 -7zM0 -5l4 22h78q55 0 86.5 12t46 31.5t18 42t3.5 43.5q0 43 -21 91t-65 104
q-39 50 -62.5 79.5t-36 45t-16.5 22t-4 9.5q0 8 2 13.5t5.5 10t7.5 7.5l58 46t61.5 46t69.5 48t81 52l12 -19q-42 -27 -82 -54t-75.5 -53.5t-66.5 -51t-57 -46.5v12q39 -51 77 -97t68 -89.5t48.5 -87t18.5 -90.5q0 -30 -7 -56.5t-26.5 -47.5t-54.5 -33t-90 -12h-81z" />
    <glyph glyph-name="uni063B.medi" unicode="&#x63b;" horiz-adv-x="390" 
d="M215 744q-10 0 -16.5 7t-6.5 16t6.5 15.5t16.5 6.5q9 0 15.5 -6.5t6.5 -15.5t-6.5 -16t-15.5 -7zM106 692q-10 0 -16.5 7t-6.5 16t6.5 15.5t16.5 6.5q9 0 15.5 -6.5t6.5 -15.5t-6.5 -16t-15.5 -7zM0 -5l4 22h82q53 0 86.5 13.5t49 42t15.5 72.5q0 35 -14.5 72t-38 74
t-49.5 71t-49.5 62t-38 47t-14.5 26q0 8 2 13.5t5.5 9.5t7.5 8q24 22 54.5 45.5t65 47.5t72 49t76.5 50l12 -20q-40 -25 -80 -52.5t-77.5 -54.5t-69 -52t-52.5 -45l2 10q23 -34 52.5 -69t59.5 -74.5t55 -84.5t39 -98q14 -51 34 -87.5t46 -56t57 -19.5q7 0 11.5 -2t4.5 -9
q0 -6 -5 -8.5t-15 -2.5q-31 0 -60 19.5t-51 55.5t-34 85l14 -13q0 -43 -13.5 -71.5t-37 -45t-55 -23.5t-68.5 -7h-85z" />
    <glyph glyph-name="uni063B.fina" unicode="&#x63b;" horiz-adv-x="776" 
d="M577 744q-10 0 -16.5 7t-6.5 16t6.5 15.5t16.5 6.5q9 0 15.5 -6.5t6.5 -15.5t-6.5 -16t-15.5 -7zM468 692q-10 0 -16.5 7t-6.5 16t6.5 15.5t16.5 6.5q9 0 15.5 -6.5t6.5 -15.5t-6.5 -16t-15.5 -7zM290 -21l6 23q69 0 128.5 6.5t104 22.5t69 43t24.5 69q0 33 -15.5 70
t-40 74t-51.5 71.5t-51.5 63t-40 48.5t-15.5 27q0 8 2 13.5t5.5 10t7.5 7.5q34 27 75 58t89 65t104 69l13 -19q-55 -35 -109.5 -74t-99 -73.5t-71.5 -57.5l2 10q24 -34 56.5 -72.5t64.5 -80.5t57.5 -85.5t37.5 -87.5q5 -18 14.5 -45t25.5 -54t40 -45.5t58 -18.5q7 0 11.5 -2
t4.5 -9q0 -6 -5 -8.5t-15 -2.5q-32 0 -60.5 18.5t-50.5 54.5t-35 87l15 -13q0 -47 -26 -78.5t-73.5 -50t-112.5 -26.5t-143 -8zM290 -21q-58 0 -104 12t-78.5 35.5t-50 58t-17.5 80.5q0 23 4 49t9.5 51t11.5 46l22 -6q-6 -19 -11 -42.5t-8.5 -48t-3.5 -47.5q0 -56 27 -92.5
t79 -54.5t126 -18l20 -14z" />
    <glyph glyph-name="uni063C.init" unicode="&#x63c;" horiz-adv-x="328" 
d="M0 -5l4 22h78q55 0 86.5 12t46 31.5t18 42t3.5 43.5q0 43 -21 91t-65 104q-39 50 -62.5 79.5t-36 45t-16.5 22t-4 9.5q0 8 2 13.5t5.5 10t7.5 7.5l58 46t61.5 46t69.5 48t81 52l12 -19q-42 -27 -82 -54t-75.5 -53.5t-66.5 -51t-57 -46.5v12q39 -51 77 -97t68 -89.5
t48.5 -87t18.5 -90.5q0 -30 -7 -56.5t-26.5 -47.5t-54.5 -33t-90 -12h-81zM127 -250q-11 0 -19 8t-8 18q0 11 8 19t19 8t18.5 -8t7.5 -19q0 -10 -7.5 -18t-18.5 -8zM79 -167q-11 0 -19 8t-8 18q0 11 8 19t19 8t18.5 -8t7.5 -19q0 -10 -7.5 -18t-18.5 -8zM174 -167
q-11 0 -19 8t-8 18q0 11 8 19t19 8t18.5 -8t7.5 -19q0 -10 -7.5 -18t-18.5 -8z" />
    <glyph glyph-name="uni063C.medi" unicode="&#x63c;" horiz-adv-x="390" 
d="M0 -5l4 22h82q53 0 86.5 13.5t49 42t15.5 72.5q0 35 -14.5 72t-38 74t-49.5 71t-49.5 62t-38 47t-14.5 26q0 8 2 13.5t5.5 9.5t7.5 8q24 22 54.5 45.5t65 47.5t72 49t76.5 50l12 -20q-40 -25 -80 -52.5t-77.5 -54.5t-69 -52t-52.5 -45l2 10q23 -34 52.5 -69t59.5 -74.5
t55 -84.5t39 -98q14 -51 34 -87.5t46 -56t57 -19.5q7 0 11.5 -2t4.5 -9q0 -6 -5 -8.5t-15 -2.5q-31 0 -60 19.5t-51 55.5t-34 85l14 -13q0 -43 -13.5 -71.5t-37 -45t-55 -23.5t-68.5 -7h-85zM127 -250q-11 0 -19 8t-8 18q0 11 8 19t19 8t18.5 -8t7.5 -19q0 -10 -7.5 -18
t-18.5 -8zM79 -167q-11 0 -19 8t-8 18q0 11 8 19t19 8t18.5 -8t7.5 -19q0 -10 -7.5 -18t-18.5 -8zM174 -167q-11 0 -19 8t-8 18q0 11 8 19t19 8t18.5 -8t7.5 -19q0 -10 -7.5 -18t-18.5 -8z" />
    <glyph glyph-name="uni063C.fina" unicode="&#x63c;" horiz-adv-x="776" 
d="M290 -21l6 23q69 0 128.5 6.5t104 22.5t69 43t24.5 69q0 33 -15.5 70t-40 74t-51.5 71.5t-51.5 63t-40 48.5t-15.5 27q0 8 2 13.5t5.5 10t7.5 7.5q34 27 75 58t89 65t104 69l13 -19q-55 -35 -109.5 -74t-99 -73.5t-71.5 -57.5l2 10q24 -34 56.5 -72.5t64.5 -80.5
t57.5 -85.5t37.5 -87.5q5 -18 14.5 -45t25.5 -54t40 -45.5t58 -18.5q7 0 11.5 -2t4.5 -9q0 -6 -5 -8.5t-15 -2.5q-32 0 -60.5 18.5t-50.5 54.5t-35 87l15 -13q0 -47 -26 -78.5t-73.5 -50t-112.5 -26.5t-143 -8zM290 -21q-58 0 -104 12t-78.5 35.5t-50 58t-17.5 80.5
q0 23 4 49t9.5 51t11.5 46l22 -6q-6 -19 -11 -42.5t-8.5 -48t-3.5 -47.5q0 -56 27 -92.5t79 -54.5t126 -18l20 -14zM338 -271q-11 0 -19 8t-8 18q0 11 8 19t19 8t18.5 -8t7.5 -19q0 -10 -7.5 -18t-18.5 -8zM290 -188q-11 0 -19 8t-8 18q0 11 8 19t19 8t18.5 -8t7.5 -19
q0 -10 -7.5 -18t-18.5 -8zM385 -188q-11 0 -19 8t-8 18q0 11 8 19t19 8t18.5 -8t7.5 -19q0 -10 -7.5 -18t-18.5 -8z" />
    <glyph glyph-name="uni063D.init" unicode="&#x63d;" horiz-adv-x="208" 
d="M0 -5l4 22q48 0 71.5 14.5t31 39t7.5 55.5q0 38 -5.5 72.5t-16.5 72t-28 83.5l23 9q16 -43 27.5 -81.5t17.5 -75.5t6 -76q0 -23 -4 -43.5t-13 -37t-25 -29t-39.5 -19t-56.5 -6.5zM94 690q6 -15 14 -41t17 -55t17.5 -55t14.5 -42l-19 -8q-5 10 -13 34.5t-17.5 54.5
t-17.5 56.5t-13 40.5l-7 13zM70 688l19 -6q-5 -17 -13 -46.5t-16.5 -61.5t-15 -56.5t-8.5 -32.5l-21 6q3 10 10 35.5t15.5 57t16.5 60t13 44.5zM132 -170q-11 0 -19 8t-8 18q0 11 8 19t19 8t18.5 -8t7.5 -19q0 -10 -7.5 -18t-18.5 -8zM37 -170q-11 0 -19 8t-8 18q0 11 8 19
t19 8t18.5 -8t7.5 -19q0 -10 -7.5 -18t-18.5 -8z" />
    <glyph glyph-name="uni063D.medi" unicode="&#x63d;" horiz-adv-x="218" 
d="M0 -5l4 22q16 0 31.5 8t31.5 32.5t31 74t29 132.5l24 -5q-7 -36 -12.5 -60t-8 -43t-2.5 -41q0 -30 7.5 -52t27.5 -34t59 -12q11 0 13.5 -3.5t2.5 -7.5q0 -5 -4.5 -8t-15.5 -3q-42 0 -66 12t-33.5 38.5t-10.5 67.5h2q-10 -39 -22 -62.5t-26 -35.5t-29.5 -16t-32.5 -4z
M144 593q6 -15 14 -41t17 -55t17.5 -55t14.5 -42l-19 -8q-5 10 -13 34.5t-17.5 54.5t-17.5 56.5t-13 40.5l-7 13zM120 591l19 -6q-5 -17 -13 -46.5t-16.5 -61.5t-15 -56.5t-8.5 -32.5l-21 6q3 10 10 35.5t15.5 57t16.5 60t13 44.5zM148 -170q-11 0 -19 8t-8 18q0 11 8 19
t19 8t18.5 -8t7.5 -19q0 -10 -7.5 -18t-18.5 -8zM53 -170q-11 0 -19 8t-8 18q0 11 8 19t19 8t18.5 -8t7.5 -19q0 -10 -7.5 -18t-18.5 -8z" />
    <glyph glyph-name="uni063D.fina" unicode="&#x63d;" horiz-adv-x="612" 
d="M40 -13q0 16 3 43t15 65.5t38 86.5l22 -9q-18 -33 -30 -65.5t-18 -64t-6 -60.5q0 -43 13 -77.5t39.5 -59.5t66.5 -38.5t94 -13.5q64 0 112.5 17.5t81.5 44t49.5 55.5t16.5 53q0 20 -11 34t-32 24.5t-49 20t-63 21.5l6 25q31 -12 63 -24.5t62 -23t56.5 -17.5t46.5 -7
q7 0 11.5 -2t4.5 -9q0 -6 -5 -8.5t-15 -2.5q-9 0 -20 1.5t-23 5t-26 9.5q11 -13 14.5 -27.5t3.5 -23.5q0 -27 -18.5 -59.5t-54.5 -62t-88.5 -49t-120.5 -19.5q-66 0 -120.5 23t-86.5 71t-32 123zM203 457q6 -15 14 -41t17 -55t17.5 -55t14.5 -42l-19 -8q-5 10 -13 34.5
t-17.5 54.5t-17.5 56.5t-13 40.5l-7 13zM179 455l19 -6q-5 -17 -13 -46.5t-16.5 -61.5t-15 -56.5t-8.5 -32.5l-21 6q3 10 10 35.5t15.5 57t16.5 60t13 44.5z" />
    <glyph glyph-name="uni063E.init" unicode="&#x63e;" horiz-adv-x="236" 
d="M0 -5l4 22q43 0 72 9.5t44 33.5t15 66q0 36 -6 71.5t-17 73.5t-27 83l23 9q16 -42 27 -80.5t17.5 -75t6.5 -75.5q0 -35 -9 -61t-28 -43t-49.5 -25t-72.5 -8zM155 498q-11 0 -19 8t-8 18q0 11 8 19t19 8t18.5 -8t7.5 -19q0 -10 -7.5 -18t-18.5 -8zM60 498q-11 0 -19 8
t-8 18q0 11 8 19t19 8t18.5 -8t7.5 -19q0 -10 -7.5 -18t-18.5 -8zM145 -170q-11 0 -19 8t-8 18q0 11 8 19t19 8t18.5 -8t7.5 -19q0 -10 -7.5 -18t-18.5 -8zM50 -170q-11 0 -19 8t-8 18q0 11 8 19t19 8t18.5 -8t7.5 -19q0 -10 -7.5 -18t-18.5 -8z" />
    <glyph glyph-name="uni063E.medi" unicode="&#x63e;" horiz-adv-x="238" 
d="M0 -5l4 22q23 0 43 8t37.5 32.5t33 74t29.5 132.5l24 -5q-7 -36 -12.5 -60t-8 -43t-2.5 -41q0 -23 4 -41t14 -31t28.5 -19.5t47.5 -6.5q11 0 13.5 -3.5t2.5 -6.5q0 -6 -4.5 -9t-15.5 -3q-32 0 -53 7t-33.5 21t-18 36.5t-5.5 53.5h2q-10 -39 -22.5 -62.5t-28 -35.5
t-35.5 -16t-44 -4zM200 421q-11 0 -19 8t-8 18q0 11 8 19t19 8t18.5 -8t7.5 -19q0 -10 -7.5 -18t-18.5 -8zM105 421q-11 0 -19 8t-8 18q0 11 8 19t19 8t18.5 -8t7.5 -19q0 -10 -7.5 -18t-18.5 -8zM170 -165q-11 0 -19 8t-8 18q0 11 8 19t19 8t18.5 -8t7.5 -19
q0 -10 -7.5 -18t-18.5 -8zM75 -165q-11 0 -19 8t-8 18q0 11 8 19t19 8t18.5 -8t7.5 -19q0 -10 -7.5 -18t-18.5 -8z" />
    <glyph glyph-name="uni063E.fina" unicode="&#x63e;" horiz-adv-x="612" 
d="M40 -13q0 16 3 43t15 65.5t38 86.5l22 -9q-18 -33 -30 -65.5t-18 -64t-6 -60.5q0 -43 13 -77.5t39.5 -59.5t66.5 -38.5t94 -13.5q64 0 112.5 17.5t81.5 44t49.5 55.5t16.5 53q0 20 -11 34t-32 24.5t-49 20t-63 21.5l6 25q31 -12 63 -24.5t62 -23t56.5 -17.5t46.5 -7
q7 0 11.5 -2t4.5 -9q0 -6 -5 -8.5t-15 -2.5q-9 0 -20 1.5t-23 5t-26 9.5q11 -13 14.5 -27.5t3.5 -23.5q0 -27 -18.5 -59.5t-54.5 -62t-88.5 -49t-120.5 -19.5q-66 0 -120.5 23t-86.5 71t-32 123zM246 265q-11 0 -19 8t-8 18q0 11 8 19t19 8t18.5 -8t7.5 -19q0 -10 -7.5 -18
t-18.5 -8zM151 265q-11 0 -19 8t-8 18q0 11 8 19t19 8t18.5 -8t7.5 -19q0 -10 -7.5 -18t-18.5 -8z" />
    <glyph glyph-name="uni063F.init" unicode="&#x63f;" horiz-adv-x="236" 
d="M0 -5l4 22q43 0 72 9.5t44 33.5t15 66q0 36 -6 71.5t-17 73.5t-27 83l23 9q16 -42 27 -80.5t17.5 -75t6.5 -75.5q0 -35 -9 -61t-28 -43t-49.5 -25t-72.5 -8zM107 581q-10 0 -18 8t-8 19t8 18.5t18 7.5q11 0 19 -7.5t8 -18.5t-8 -19t-19 -8zM60 498q-10 0 -18 8t-8 19
t8 18.5t18 7.5q11 0 19 -7.5t8 -18.5t-8 -19t-19 -8zM155 498q-10 0 -18 8t-8 19t8 18.5t18 7.5q11 0 19 -7.5t8 -18.5t-8 -19t-19 -8zM145 -170q-11 0 -19 8t-8 18q0 11 8 19t19 8t18.5 -8t7.5 -19q0 -10 -7.5 -18t-18.5 -8zM50 -170q-11 0 -19 8t-8 18q0 11 8 19t19 8
t18.5 -8t7.5 -19q0 -10 -7.5 -18t-18.5 -8z" />
    <glyph glyph-name="uni063F.medi" unicode="&#x63f;" horiz-adv-x="238" 
d="M0 -5l4 22q23 0 43 8t37.5 32.5t33 74t29.5 132.5l24 -5q-7 -36 -12.5 -60t-8 -43t-2.5 -41q0 -23 4 -41t14 -31t28.5 -19.5t47.5 -6.5q11 0 13.5 -3.5t2.5 -6.5q0 -6 -4.5 -9t-15.5 -3q-32 0 -53 7t-33.5 21t-18 36.5t-5.5 53.5h2q-10 -39 -22.5 -62.5t-28 -35.5
t-35.5 -16t-44 -4zM152 504q-10 0 -18 8t-8 19t8 18.5t18 7.5q11 0 19 -7.5t8 -18.5t-8 -19t-19 -8zM105 421q-10 0 -18 8t-8 19t8 18.5t18 7.5q11 0 19 -7.5t8 -18.5t-8 -19t-19 -8zM200 421q-10 0 -18 8t-8 19t8 18.5t18 7.5q11 0 19 -7.5t8 -18.5t-8 -19t-19 -8z
M170 -165q-11 0 -19 8t-8 18q0 11 8 19t19 8t18.5 -8t7.5 -19q0 -10 -7.5 -18t-18.5 -8zM75 -165q-11 0 -19 8t-8 18q0 11 8 19t19 8t18.5 -8t7.5 -19q0 -10 -7.5 -18t-18.5 -8z" />
    <glyph glyph-name="uni063F.fina" unicode="&#x63f;" horiz-adv-x="612" 
d="M40 -13q0 16 3 43t15 65.5t38 86.5l22 -9q-18 -33 -30 -65.5t-18 -64t-6 -60.5q0 -43 13 -77.5t39.5 -59.5t66.5 -38.5t94 -13.5q64 0 112.5 17.5t81.5 44t49.5 55.5t16.5 53q0 20 -11 34t-32 24.5t-49 20t-63 21.5l6 25q31 -12 63 -24.5t62 -23t56.5 -17.5t46.5 -7
q7 0 11.5 -2t4.5 -9q0 -6 -5 -8.5t-15 -2.5q-9 0 -20 1.5t-23 5t-26 9.5q11 -13 14.5 -27.5t3.5 -23.5q0 -27 -18.5 -59.5t-54.5 -62t-88.5 -49t-120.5 -19.5q-66 0 -120.5 23t-86.5 71t-32 123zM198 348q-10 0 -18 8t-8 19t8 18.5t18 7.5q11 0 19 -7.5t8 -18.5t-8 -19
t-19 -8zM151 265q-10 0 -18 8t-8 19t8 18.5t18 7.5q11 0 19 -7.5t8 -18.5t-8 -19t-19 -8zM246 265q-10 0 -18 8t-8 19t8 18.5t18 7.5q11 0 19 -7.5t8 -18.5t-8 -19t-19 -8z" />
    <glyph glyph-name="uni066E.init" unicode="&#x66e;" horiz-adv-x="208" 
d="M0 -5l4 22q48 0 71.5 14.5t31 39t7.5 55.5q0 38 -5.5 72.5t-16.5 72t-28 83.5l23 9q16 -43 27.5 -81.5t17.5 -75.5t6 -76q0 -23 -4 -43.5t-13 -37t-25 -29t-39.5 -19t-56.5 -6.5z" />
    <glyph glyph-name="uni066E.medi" unicode="&#x66e;" horiz-adv-x="218" 
d="M0 -5l4 22q16 0 31.5 8t31.5 32.5t31 74t29 132.5l24 -5q-7 -36 -12.5 -60t-8 -43t-2.5 -41q0 -30 7.5 -52t27.5 -34t59 -12q11 0 13.5 -3.5t2.5 -7.5q0 -5 -4.5 -8t-15.5 -3q-42 0 -66 12t-33.5 38.5t-10.5 67.5h2q-10 -39 -22 -62.5t-26 -35.5t-29.5 -16t-32.5 -4z" />
    <glyph glyph-name="uni066E.fina" unicode="&#x66e;" horiz-adv-x="702" 
d="M290 -21l6 23q57 0 108 8.5t95 30.5t78 62t56 102l22 -8q-10 -27 -21 -57t-11 -60q0 -15 6.5 -29.5t24.5 -24t52 -9.5q11 0 13.5 -3.5t2.5 -7.5q0 -5 -4.5 -8t-15.5 -3q-35 0 -60.5 13t-35.5 40.5t1 72.5h9q-29 -49 -70.5 -78t-87 -42.5t-89.5 -17.5t-79 -4zM290 -21
q-58 0 -104 12t-78.5 35.5t-50 58t-17.5 80.5q0 23 4 49t9.5 51t11.5 46l22 -6q-6 -19 -11 -42.5t-8.5 -48t-3.5 -47.5q0 -56 27 -92.5t79 -54.5t126 -18l20 -14z" />
    <glyph glyph-name="uni066F.init" unicode="&#x66f;" horiz-adv-x="366" 
d="M0 -5l4 22q30 0 61 2t60.5 7t55.5 13.5t46 21.5q15 10 31.5 29t27.5 55t11 96q0 51 -11 100.5t-33 82t-57 32.5q-29 0 -51.5 -26.5t-35 -66t-12.5 -80.5t15.5 -63.5t39.5 -31.5t49 -9q23 0 51 7t50 19l4 -21q-16 -10 -37.5 -16.5t-41 -9t-30.5 -2.5q-31 0 -59.5 12.5
t-46.5 40.5t-18 73q0 32 8.5 67t24.5 65t39.5 48.5t54.5 18.5q40 0 67 -34.5t40.5 -90.5t13.5 -121q0 -60 -16 -107.5t-62 -81.5q-18 -13 -42.5 -22.5t-55 -16t-67 -9.5t-78.5 -3z" />
    <glyph glyph-name="uni066F.medi" unicode="&#x66f;" horiz-adv-x="339" 
d="M0 -5l4 22q20 0 41 2.5t41.5 8t40 13.5t37.5 19q31 18 54.5 43t37.5 56t14 66q0 29 -9.5 60.5t-29.5 54t-52 22.5q-26 0 -49.5 -19t-38 -50.5t-14.5 -70.5q0 -37 13 -69t36 -55.5t52 -37.5l-28 -8q-21 13 -43 36.5t-37 57t-15 76.5q0 34 10 63.5t27.5 52t40 35t46.5 12.5
q35 0 60 -22.5t39 -58t14 -75.5q0 -29 -8.5 -56t-23.5 -51t-35.5 -44t-44.5 -35q-20 -13 -42 -22t-45 -15t-46.5 -8.5t-46.5 -2.5zM339 -5q-22 0 -58.5 7.5t-71.5 19.5t-53 26l24 11q18 -10 43.5 -19.5t56.5 -16t63 -6.5q7 0 11.5 -2t4.5 -9q0 -6 -5 -8.5t-15 -2.5z" />
    <glyph glyph-name="uni066F.fina" unicode="&#x66f;" horiz-adv-x="703" 
d="M295 -272q-54 0 -100 13.5t-81 41.5t-54.5 72.5t-19.5 106.5q0 10 3 38.5t15 70t39 89.5l21 -11q-13 -22 -25.5 -50.5t-20.5 -62t-8 -70.5q0 -82 34 -128.5t88 -66t115 -19.5q29 0 65 4.5t72.5 17.5t69.5 36.5t58 62t36 94.5q4 19 6 43.5t2 47.5q0 65 -12 116.5t-34.5 82
t-54.5 30.5q-23 0 -41 -16t-31 -42.5t-20 -57t-7 -60.5q0 -31 9.5 -50t28 -28.5t44.5 -12.5t58 -3h157q7 0 11.5 -2t4.5 -9q0 -6 -5 -8.5t-15 -2.5h-157q-27 0 -55.5 4t-52 15.5t-38 34t-14.5 59.5q0 33 8 68.5t23.5 66.5t39.5 50t56 19q40 0 66.5 -34t40.5 -91.5t14 -129.5
q0 -28 -3 -56t-8 -51q-17 -71 -53.5 -115t-83.5 -67t-97 -31.5t-94 -8.5z" />
    <glyph glyph-name="uni0672.fina" unicode="&#x672;" horiz-adv-x="202" 
d="M202 -5q-35 0 -56.5 13t-32 47.5t-13.5 98.5l-18 490h22l18 -479q3 -61 10 -93t24.5 -43.5t49.5 -11.5q11 0 13.5 -3.5t2.5 -6.5q0 -6 -4.5 -9t-15.5 -3zM-78 720l-17 11q13 20 27 30t30 10q20 0 35.5 -11.5t34.5 -11.5q12 0 25.5 4t21.5 8l14 -7q-41 5 -69 32.5
t-28 64.5t25.5 57.5t55.5 20.5q12 0 23.5 -2t21.5 -6l-5 -20q-10 3 -19.5 4.5t-19.5 1.5q-31 0 -45.5 -17t-14.5 -40q0 -22 11 -39t30.5 -27.5t46.5 -15.5l-23 -5q27 7 42.5 14t31.5 15l8 -18q-10 -6 -28 -14t-38.5 -15t-38.5 -12t-29 -5q-24 0 -39.5 11.5t-30.5 11.5
q-12 0 -21.5 -9.5t-17.5 -20.5z" />
    <glyph glyph-name="uni0673.fina" unicode="&#x673;" horiz-adv-x="214" 
d="M214 -5q-40 0 -64 12.5t-34.5 47t-13.5 99.5l-20 560h22l20 -549q3 -66 10.5 -97.5t27 -41t56.5 -9.5q11 0 13.5 -3.5t2.5 -7.5q0 -5 -4.5 -8t-15.5 -3zM-1 -292l-17 11q13 20 27 30t30 10q20 0 35.5 -11.5t34.5 -11.5q12 0 25.5 4t21.5 8l14 -7q-41 5 -69 32.5t-28 64.5
t25.5 57.5t55.5 20.5q12 0 23.5 -2t21.5 -6l-5 -20q-10 3 -19.5 4.5t-19.5 1.5q-31 0 -45.5 -17t-14.5 -40q0 -22 11 -39t30.5 -27.5t46.5 -15.5l-23 -5q27 7 42.5 14t31.5 15l8 -18q-10 -6 -28 -14t-38.5 -15t-38.5 -12t-29 -5q-24 0 -39.5 11.5t-30.5 11.5
q-12 0 -21.5 -9.5t-17.5 -20.5z" />
    <glyph glyph-name="uni0675.fina" unicode="&#x675;" horiz-adv-x="354" 
d="M354 -5h-141q-40 0 -63.5 12.5t-34 47t-13.5 99.5l-20 560h22l20 -549q3 -65 10.5 -97t26.5 -41.5t56 -9.5h141q11 0 13.5 -3.5t2.5 -6.5q0 -6 -4.5 -9t-15.5 -3zM194 592l-5 21q26 6 41 10.5l35 10.5l28 -6q-49 5 -74 33t-25 62q0 26 13 44t32 27t37 9q13 0 25.5 -2
t22.5 -6l-5 -20q-10 3 -20 5t-21 2q-28 0 -45 -17t-17 -42q0 -21 11.5 -38t31.5 -27.5t47 -15.5l-40 -6q27 7 50.5 14.5t42.5 14.5l7 -19q-24 -9 -53.5 -19t-60 -19t-58.5 -16z" />
    <glyph glyph-name="uni0676.fina" unicode="&#x676;" horiz-adv-x="381" 
d="M50 -230l-7 24q38 12 81 30t80.5 48.5t61 79.5t23.5 123q0 101 -28.5 156.5t-72.5 55.5q-27 0 -50 -26t-36.5 -64.5t-13.5 -78.5q0 -34 8 -54.5t26 -30.5t47 -13t71 -3h145q7 0 11.5 -2t4.5 -9q0 -6 -5 -8.5t-15 -2.5h-140q-63 0 -102 8.5t-57 34.5t-18 78q0 33 9 67.5
t26 63.5t40.5 47t51.5 18q38 0 65 -31t42 -85.5t15 -124.5q0 -83 -30.5 -141.5t-89 -96.5t-143.5 -63zM251 342l-5 22q23 6 42.5 12t33.5 10l28 -8q-41 5 -68.5 33t-27.5 62q0 26 12 44t30.5 27t36.5 9q13 0 24.5 -2t21.5 -6l-5 -20q-10 3 -20 4.5t-21 1.5
q-28 0 -42.5 -17.5t-14.5 -40.5q0 -21 12.5 -38t32.5 -27.5t42 -15.5l-37 -4q26 7 47 14t41 14l7 -20q-24 -9 -53 -19t-59 -19t-58 -16z" />
    <glyph glyph-name="uni0677.fina" unicode="&#x677;" horiz-adv-x="434" 
d="M83 -230l-7 24q38 12 81 30t80.5 48.5t61 79.5t23.5 123q0 101 -28.5 156.5t-72.5 55.5q-27 0 -50 -26t-36.5 -64.5t-13.5 -78.5q0 -34 8 -54.5t26 -30.5t47 -13t71 -3h145q7 0 11.5 -2t4.5 -9q0 -6 -5 -8.5t-15 -2.5h-140q-63 0 -102 8.5t-57 34.5t-18 78q0 33 9 67.5
t26 63.5t40.5 47t51.5 18q38 0 65 -31t42 -85.5t15 -124.5q0 -83 -30.5 -141.5t-89 -96.5t-143.5 -63zM284 394l-5 22q23 6 42.5 12t33.5 10l28 -8q-41 5 -68.5 33t-27.5 62q0 26 12 44t30.5 27t36.5 9q13 0 24.5 -2t21.5 -6l-5 -20q-10 3 -20 4.5t-21 1.5
q-28 0 -42.5 -17.5t-14.5 -40.5q0 -21 12.5 -38t32.5 -27.5t42 -15.5l-37 -4q26 7 47 14t41 14l7 -20q-24 -9 -53 -19t-59 -19t-58 -16zM47 394l-4 20q44 5 70.5 22t39 41.5t12.5 52.5q0 24 -8 43t-31 19q-19 0 -29.5 -15t-10.5 -35q0 -31 25.5 -49t52.5 -21l-11 -18
q-41 6 -65 30.5t-24 57.5q0 30 18.5 50.5t44.5 20.5q21 0 40.5 -18t19.5 -63q0 -38 -17 -67.5t-48.5 -47.5t-74.5 -23z" />
    <glyph glyph-name="uni0678.init" unicode="&#x678;" horiz-adv-x="273" 
d="M0 -5l4 22q48 0 71.5 14.5t31 39t7.5 55.5q0 38 -5.5 72.5t-16.5 72t-28 83.5l23 9q16 -43 27.5 -81.5t17.5 -75.5t6 -76q0 -23 -4 -43.5t-13 -37t-25 -29t-39.5 -19t-56.5 -6.5zM101 592l-5 21q26 6 41 10.5l35 10.5l28 -6q-49 5 -74 33t-25 62q0 26 13 44t32 27t37 9
q13 0 25.5 -2t22.5 -6l-5 -20q-10 3 -20 5t-21 2q-28 0 -45 -17t-17 -42q0 -21 11 -38t31.5 -27.5t47.5 -15.5l-40 -6q27 7 50.5 14.5t42.5 14.5l7 -19q-24 -9 -54 -19t-60 -19t-58 -16z" />
    <glyph glyph-name="uni0678.medi" unicode="&#x678;" horiz-adv-x="238" 
d="M0 -5l4 22q16 0 31.5 8t31.5 32.5t31 74t29 132.5l24 -5q-7 -36 -12.5 -60t-8 -43t-2.5 -41q0 -30 7.5 -52t27.5 -34t59 -12q11 0 13.5 -3.5t2.5 -7.5q0 -5 -4.5 -8t-15.5 -3q-42 0 -66 12t-33.5 38.5t-10.5 67.5h2q-10 -39 -22 -62.5t-26 -35.5t-29.5 -16t-32.5 -4z
M117 423l-5 21q26 6 41 10.5l35 10.5l28 -6q-49 5 -74 33t-25 62q0 26 13 44t32 27t37 9q13 0 25.5 -2t22.5 -6l-5 -20q-10 3 -20 5t-21 2q-28 0 -45 -17t-17 -42q0 -21 11 -38t31.5 -27.5t47.5 -15.5l-40 -6q27 7 50.5 14.5t42.5 14.5l7 -19q-24 -9 -54 -19t-60 -19
t-58 -16z" />
    <glyph glyph-name="uni0678.fina" unicode="&#x678;" horiz-adv-x="612" 
d="M40 -13q0 16 3 43t15 65.5t38 86.5l22 -9q-18 -33 -30 -65.5t-18 -64t-6 -60.5q0 -43 13 -77.5t39.5 -59.5t66.5 -38.5t94 -13.5q64 0 112.5 17.5t81.5 44t49.5 55.5t16.5 53q0 20 -11 34t-32 24.5t-49 20t-63 21.5l6 25q31 -12 63 -24.5t62 -23t56.5 -17.5t46.5 -7
q7 0 11.5 -2t4.5 -9q0 -6 -5 -8.5t-15 -2.5q-9 0 -20 1.5t-23 5t-26 9.5q11 -13 14.5 -27.5t3.5 -23.5q0 -27 -18.5 -59.5t-54.5 -62t-88.5 -49t-120.5 -19.5q-66 0 -120.5 23t-86.5 71t-32 123zM418 219l-5 21q26 6 41 10.5l35 10.5l28 -6q-49 5 -74 33t-25 62q0 26 13 44
t32 27t37 9q13 0 25.5 -2t22.5 -6l-5 -20q-10 3 -20 5t-21 2q-28 0 -45 -17t-17 -42q0 -21 11 -38t31.5 -27.5t47.5 -15.5l-40 -6q27 7 50.5 14.5t42.5 14.5l7 -19q-24 -9 -54 -19t-60 -19t-58 -16z" />
    <glyph glyph-name="uni067C.init" unicode="&#x67c;" horiz-adv-x="236" 
d="M0 -5l4 22q43 0 72 9.5t44 33.5t15 66q0 36 -6 71.5t-17 73.5t-27 83l23 9q16 -42 27 -80.5t17.5 -75t6.5 -75.5q0 -35 -9 -61t-28 -43t-49.5 -25t-72.5 -8zM96 -108q-29 0 -49.5 20.5t-20.5 50.5q0 29 20.5 49.5t49.5 20.5t50 -20.5t21 -49.5t-20.5 -50t-50.5 -21z
M96 -88q20 0 35 15t15 36q0 20 -15 35t-35 15t-34.5 -15t-14.5 -35q0 -21 14.5 -36t34.5 -15zM155 498q-11 0 -19 8t-8 18q0 11 8 19t19 8t18.5 -8t7.5 -19q0 -10 -7.5 -18t-18.5 -8zM60 498q-11 0 -19 8t-8 18q0 11 8 19t19 8t18.5 -8t7.5 -19q0 -10 -7.5 -18t-18.5 -8z
" />
    <glyph glyph-name="uni067C.medi" unicode="&#x67c;" horiz-adv-x="218" 
d="M73 -109q-29 0 -49.5 20.5t-20.5 50.5q0 29 20.5 49.5t49.5 20.5t50 -20.5t21 -49.5t-20.5 -50t-50.5 -21zM73 -89q20 0 35 15t15 36q0 20 -15 35t-35 15t-34.5 -15t-14.5 -35q0 -21 14.5 -36t34.5 -15zM0 -5l4 22q16 0 31.5 8t31.5 32.5t31 74t29 132.5l24 -5
q-7 -36 -12.5 -60t-8 -43t-2.5 -41q0 -30 7.5 -52t27.5 -34t59 -12q11 0 13.5 -3.5t2.5 -6.5q0 -6 -4.5 -9t-15.5 -3q-42 0 -66 12t-33.5 38.5t-10.5 67.5h2q-10 -39 -22 -62.5t-26 -35.5t-29.5 -16t-32.5 -4zM221 421q-11 0 -19 8t-8 18q0 11 8 19t19 8t18.5 -8t7.5 -19
q0 -10 -7.5 -18t-18.5 -8zM126 421q-11 0 -19 8t-8 18q0 11 8 19t19 8t18.5 -8t7.5 -19q0 -10 -7.5 -18t-18.5 -8z" />
    <glyph glyph-name="uni067C.fina" unicode="&#x67c;" horiz-adv-x="702" 
d="M331 -142q-29 0 -49.5 21t-20.5 50t20.5 49.5t49.5 20.5t50 -20.5t21 -49.5t-21 -50t-50 -21zM331 -122q20 0 35 15t15 36q0 20 -15 35t-35 15t-34.5 -15t-14.5 -35q0 -21 14.5 -36t34.5 -15zM290 -21l6 23q57 0 108 8.5t95 30.5t78 62t56 102l22 -8q-10 -27 -21 -57
t-11 -60q0 -15 6.5 -29.5t24.5 -24t52 -9.5q11 0 13.5 -3.5t2.5 -6.5q0 -6 -4.5 -9t-15.5 -3q-35 0 -60.5 13t-35.5 40.5t1 72.5h9q-29 -49 -70.5 -78t-87 -42.5t-89.5 -17.5t-79 -4zM290 -21q-58 0 -104 12t-78.5 35.5t-50 58t-17.5 80.5q0 23 4 49t9.5 51t11.5 46l22 -6
q-6 -19 -11 -42.5t-8.5 -48t-3.5 -47.5q0 -56 27 -92.5t79 -54.5t126 -18l20 -14zM380 433q-11 0 -19 8t-8 18q0 11 8 19t19 8t18.5 -8t7.5 -18q0 -11 -8 -19t-18 -8zM285 433q-11 0 -19 8t-8 18q0 11 8 19t19 8t18.5 -8t7.5 -18q0 -11 -8 -19t-18 -8z" />
    <glyph glyph-name="uni067D.init" unicode="&#x67d;" horiz-adv-x="236" 
d="M0 -5l4 22q43 0 72 9.5t44 33.5t15 66q0 36 -6 71.5t-17 73.5t-27 83l23 9q16 -42 27 -80.5t17.5 -75t6.5 -75.5q0 -35 -9 -61t-28 -43t-49.5 -25t-72.5 -8zM108 498q-11 0 -19 8t-8 18q0 11 8 19t19 8t18.5 -8t7.5 -19q0 -10 -7.5 -18t-18.5 -8zM60 581q-11 0 -19 8
t-8 18q0 11 8 19t19 8t18.5 -8t7.5 -19q0 -10 -7.5 -18t-18.5 -8zM155 581q-11 0 -19 8t-8 18q0 11 8 19t19 8t18.5 -8t7.5 -19q0 -10 -7.5 -18t-18.5 -8z" />
    <glyph glyph-name="uni067D.medi" unicode="&#x67d;" horiz-adv-x="238" 
d="M0 -5l4 22q23 0 43 8t37.5 32.5t33 74t29.5 132.5l24 -5q-7 -36 -12.5 -60t-8 -43t-2.5 -41q0 -23 4 -41t14 -31t28.5 -19.5t47.5 -6.5q11 0 13.5 -3.5t2.5 -6.5q0 -6 -4.5 -9t-15.5 -3q-32 0 -53 7t-33.5 21t-18 36.5t-5.5 53.5h2q-10 -39 -22.5 -62.5t-28 -35.5
t-35.5 -16t-44 -4zM153 421q-11 0 -19 8t-8 18q0 11 8 19t19 8t18.5 -8t7.5 -19q0 -10 -7.5 -18t-18.5 -8zM105 504q-11 0 -19 8t-8 18q0 11 8 19t19 8t18.5 -8t7.5 -19q0 -10 -7.5 -18t-18.5 -8zM200 504q-11 0 -19 8t-8 18q0 11 8 19t19 8t18.5 -8t7.5 -19q0 -10 -7.5 -18
t-18.5 -8z" />
    <glyph glyph-name="uni067D.fina" unicode="&#x67d;" horiz-adv-x="702" 
d="M290 -21l6 23q57 0 108 8.5t95 30.5t78 62t56 102l22 -8q-10 -27 -21 -57t-11 -60q0 -15 6.5 -29.5t24.5 -24t52 -9.5q11 0 13.5 -3.5t2.5 -7.5q0 -5 -4.5 -8t-15.5 -3q-35 0 -60.5 13t-35.5 40.5t1 72.5h9q-29 -49 -70.5 -78t-87 -42.5t-89.5 -17.5t-79 -4zM290 -21
q-58 0 -104 12t-78.5 35.5t-50 58t-17.5 80.5q0 23 4 49t9.5 51t11.5 46l22 -6q-6 -19 -11 -42.5t-8.5 -48t-3.5 -47.5q0 -56 27 -92.5t79 -54.5t126 -18l20 -14zM343 433q-11 0 -19 8t-8 18q0 11 8 19t19 8t18.5 -8t7.5 -19q0 -10 -7.5 -18t-18.5 -8zM295 516q-11 0 -19 8
t-8 18q0 11 8 19t19 8t18.5 -8t7.5 -19q0 -10 -7.5 -18t-18.5 -8zM390 516q-11 0 -19 8t-8 18q0 11 8 19t19 8t18.5 -8t7.5 -19q0 -10 -7.5 -18t-18.5 -8z" />
    <glyph glyph-name="uni0681.init" unicode="&#x681;" horiz-adv-x="461" 
d="M0 -5l4 22q40 0 77 7t76 23t84.5 43t101.5 67q-47 35 -84 63t-69.5 44.5t-69.5 16.5q-11 0 -21.5 -0.5t-21.5 -2t-25 -5.5l-4 23q17 5 35.5 6.5t36.5 1.5q40 0 73 -13.5t61 -33t52 -39.5t45.5 -33.5t41.5 -13.5h15l3 -23q-26 0 -51 -11.5t-51.5 -28.5t-57 -36.5
t-67.5 -37t-82.5 -28.5t-101.5 -11zM46 366l-5 22q23 6 42.5 12t33.5 10l28 -8q-41 5 -68.5 33t-27.5 62q0 26 12 44t30.5 27t36.5 9q13 0 24.5 -2t21.5 -6l-5 -20q-10 3 -20 4.5t-21 1.5q-28 0 -42.5 -17.5t-14.5 -40.5q0 -21 12.5 -38t32.5 -27.5t42 -15.5l-37 -4
q26 7 47 14t41 14l7 -20q-24 -9 -53 -19t-59 -19t-58 -16z" />
    <glyph glyph-name="uni0681.medi" unicode="&#x681;" horiz-adv-x="477" 
d="M477 -5q-18 0 -40 2.5t-44 15t-41 41.5t-30 81l20 8q15 -62 37.5 -88.5t49 -32t52.5 -5.5q11 0 13.5 -3.5t2.5 -7.5q0 -5 -4.5 -8t-15.5 -3zM0 -5l4 22q40 0 77 7t76 23t84.5 43t101.5 67q-47 35 -84 63t-69.5 44.5t-69.5 16.5q-11 0 -21.5 -0.5t-21.5 -2t-25 -5.5l-4 23
q17 5 35.5 6.5t36.5 1.5q40 0 73 -13.5t61 -33t52 -39.5t45.5 -33.5t41.5 -13.5h15l3 -23q-26 0 -51 -11.5t-51.5 -28.5t-57 -36.5t-67.5 -37t-82.5 -28.5t-101.5 -11zM46 366l-5 22q23 6 42.5 12t33.5 10l28 -8q-41 5 -68.5 33t-27.5 62q0 26 12 44t30.5 27t36.5 9
q13 0 24.5 -2t21.5 -6l-5 -20q-10 3 -20 4.5t-21 1.5q-28 0 -42.5 -17.5t-14.5 -40.5q0 -21 12.5 -38t32.5 -27.5t42 -15.5l-37 -4q26 7 47 14t41 14l7 -20q-24 -9 -53 -19t-59 -19t-58 -16z" />
    <glyph glyph-name="uni0681.fina" unicode="&#x681;" horiz-adv-x="510" 
d="M510 -5q-41 0 -74.5 13.5t-59 41.5t-40.5 72t-20 106l21 7q4 -58 17 -99t35.5 -67.5t54 -39t70.5 -12.5q11 0 13.5 -3.5t2.5 -7.5q0 -5 -4.5 -8t-15.5 -3zM290 -394q-51 0 -96.5 16.5t-80.5 49.5t-55 82.5t-20 115.5q0 72 22 131t59.5 105t83 79t92.5 53t89 27l2 -8
q-24 5 -50 16.5t-56 25.5t-66.5 23.5t-81.5 9.5q-20 0 -34 -2.5t-34 -9.5l-4 23q21 8 40 10.5t35 2.5q38 0 71.5 -8.5t63.5 -20.5t56.5 -24t52 -20.5t50.5 -8.5h5v-27q-38 0 -80 -11.5t-83.5 -34t-79 -55t-66.5 -74.5t-45.5 -93t-16.5 -110q0 -63 19 -108.5t51.5 -74
t73.5 -42.5t85 -14q45 0 81.5 6t68.5 17l8 -21q-36 -15 -80.5 -20.5t-79.5 -5.5zM168 486l-5 22q23 6 42.5 12t33.5 10l28 -8q-41 5 -68.5 33t-27.5 62q0 26 12 44t30.5 27t36.5 9q13 0 24.5 -2t21.5 -6l-5 -20q-10 3 -20 4.5t-21 1.5q-28 0 -42.5 -17.5t-14.5 -40.5
q0 -21 12.5 -38t32.5 -27.5t42 -15.5l-37 -4q26 7 47 14t41 14l7 -20q-24 -9 -53 -19t-59 -19t-58 -16z" />
    <glyph glyph-name="uni0682.init" unicode="&#x682;" horiz-adv-x="461" 
d="M0 -5l4 22q40 0 77 7t76 23t84.5 43t101.5 67q-47 35 -84 63t-69.5 44.5t-69.5 16.5q-11 0 -21.5 -0.5t-21.5 -2t-25 -5.5l-4 23q17 5 35.5 6.5t36.5 1.5q40 0 73 -13.5t61 -33t52 -39.5t45.5 -33.5t41.5 -13.5h15l3 -23q-26 0 -51 -11.5t-51.5 -28.5t-57 -36.5
t-67.5 -37t-82.5 -28.5t-101.5 -11zM121 439q-11 0 -19 8t-8 18q0 11 8 19t19 8t18.5 -8t7.5 -19q0 -10 -7.5 -18t-18.5 -8zM120 547q-11 0 -19 8t-8 18q0 11 8 19t19 8t18.5 -8t7.5 -19q0 -10 -7.5 -18t-18.5 -8z" />
    <glyph glyph-name="uni0682.medi" unicode="&#x682;" horiz-adv-x="477" 
d="M477 -5q-18 0 -40 2.5t-44 15t-41 41.5t-30 81l20 8q15 -62 37.5 -88.5t49 -32t52.5 -5.5q11 0 13.5 -3.5t2.5 -7.5q0 -5 -4.5 -8t-15.5 -3zM0 -5l4 22q40 0 77 7t76 23t84.5 43t101.5 67q-47 35 -84 63t-69.5 44.5t-69.5 16.5q-11 0 -21.5 -0.5t-21.5 -2t-25 -5.5l-4 23
q17 5 35.5 6.5t36.5 1.5q40 0 73 -13.5t61 -33t52 -39.5t45.5 -33.5t41.5 -13.5h15l3 -23q-26 0 -51 -11.5t-51.5 -28.5t-57 -36.5t-67.5 -37t-82.5 -28.5t-101.5 -11zM121 439q-11 0 -19 8t-8 18q0 11 8 19t19 8t18.5 -8t7.5 -19q0 -10 -7.5 -18t-18.5 -8zM120 547
q-11 0 -19 8t-8 18q0 11 8 19t19 8t18.5 -8t7.5 -19q0 -10 -7.5 -18t-18.5 -8z" />
    <glyph glyph-name="uni0682.fina" unicode="&#x682;" horiz-adv-x="510" 
d="M510 -5q-41 0 -74.5 13.5t-59 41.5t-40.5 72t-20 106l21 7q4 -58 17 -99t35.5 -67.5t54 -39t70.5 -12.5q11 0 13.5 -3.5t2.5 -7.5q0 -5 -4.5 -8t-15.5 -3zM290 -394q-51 0 -96.5 16.5t-80.5 49.5t-55 82.5t-20 115.5q0 72 22 131t59.5 105t83 79t92.5 53t89 27l2 -8
q-24 5 -50 16.5t-56 25.5t-66.5 23.5t-81.5 9.5q-20 0 -34 -2.5t-34 -9.5l-4 23q21 8 40 10.5t35 2.5q38 0 71.5 -8.5t63.5 -20.5t56.5 -24t52 -20.5t50.5 -8.5h5v-27q-38 0 -80 -11.5t-83.5 -34t-79 -55t-66.5 -74.5t-45.5 -93t-16.5 -110q0 -63 19 -108.5t51.5 -74
t73.5 -42.5t85 -14q45 0 81.5 6t68.5 17l8 -21q-36 -15 -80.5 -20.5t-79.5 -5.5zM252 505q-11 0 -19 8t-8 18q0 11 8 19t19 8t18.5 -8t7.5 -19q0 -10 -7.5 -18t-18.5 -8zM251 613q-11 0 -19 8t-8 18q0 11 8 19t19 8t18.5 -8t7.5 -19q0 -10 -7.5 -18t-18.5 -8z" />
    <glyph glyph-name="uni0685.init" unicode="&#x685;" horiz-adv-x="461" 
d="M0 -5l4 22q40 0 77 7t76 23t84.5 43t101.5 67q-47 35 -84 63t-69.5 44.5t-69.5 16.5q-11 0 -21.5 -0.5t-21.5 -2t-25 -5.5l-4 23q17 5 35.5 6.5t36.5 1.5q40 0 73 -13.5t61 -33t52 -39.5t45.5 -33.5t41.5 -13.5h15l3 -23q-26 0 -51 -11.5t-51.5 -28.5t-57 -36.5
t-67.5 -37t-82.5 -28.5t-101.5 -11zM122 502q-10 0 -18 8t-8 19t8 18.5t18 7.5q11 0 19 -7.5t8 -18.5t-8 -19t-19 -8zM75 419q-10 0 -18 8t-8 19t8 18.5t18 7.5q11 0 19 -7.5t8 -18.5t-8 -19t-19 -8zM170 419q-10 0 -18 8t-8 19t8 18.5t18 7.5q11 0 19 -7.5t8 -18.5t-8 -19
t-19 -8z" />
    <glyph glyph-name="uni0685.medi" unicode="&#x685;" horiz-adv-x="477" 
d="M477 -5q-18 0 -40 2.5t-44 15t-41 41.5t-30 81l20 8q15 -62 37.5 -88.5t49 -32t52.5 -5.5q11 0 13.5 -3.5t2.5 -7.5q0 -5 -4.5 -8t-15.5 -3zM0 -5l4 22q40 0 77 7t76 23t84.5 43t101.5 67q-47 35 -84 63t-69.5 44.5t-69.5 16.5q-11 0 -21.5 -0.5t-21.5 -2t-25 -5.5l-4 23
q17 5 35.5 6.5t36.5 1.5q40 0 73 -13.5t61 -33t52 -39.5t45.5 -33.5t41.5 -13.5h15l3 -23q-26 0 -51 -11.5t-51.5 -28.5t-57 -36.5t-67.5 -37t-82.5 -28.5t-101.5 -11zM122 502q-10 0 -18 8t-8 19t8 18.5t18 7.5q11 0 19 -7.5t8 -18.5t-8 -19t-19 -8zM75 419q-10 0 -18 8
t-8 19t8 18.5t18 7.5q11 0 19 -7.5t8 -18.5t-8 -19t-19 -8zM170 419q-10 0 -18 8t-8 19t8 18.5t18 7.5q11 0 19 -7.5t8 -18.5t-8 -19t-19 -8z" />
    <glyph glyph-name="uni0685.fina" unicode="&#x685;" horiz-adv-x="510" 
d="M510 -5q-41 0 -74.5 13.5t-59 41.5t-40.5 72t-20 106l21 7q4 -58 17 -99t35.5 -67.5t54 -39t70.5 -12.5q11 0 13.5 -3.5t2.5 -7.5q0 -5 -4.5 -8t-15.5 -3zM290 -394q-51 0 -96.5 16.5t-80.5 49.5t-55 82.5t-20 115.5q0 72 22 131t59.5 105t83 79t92.5 53t89 27l2 -8
q-24 5 -50 16.5t-56 25.5t-66.5 23.5t-81.5 9.5q-20 0 -34 -2.5t-34 -9.5l-4 23q21 8 40 10.5t35 2.5q38 0 71.5 -8.5t63.5 -20.5t56.5 -24t52 -20.5t50.5 -8.5h5v-27q-38 0 -80 -11.5t-83.5 -34t-79 -55t-66.5 -74.5t-45.5 -93t-16.5 -110q0 -63 19 -108.5t51.5 -74
t73.5 -42.5t85 -14q45 0 81.5 6t68.5 17l8 -21q-36 -15 -80.5 -20.5t-79.5 -5.5zM273 588q-10 0 -18 8t-8 19t8 18.5t18 7.5q11 0 19 -7.5t8 -18.5t-8 -19t-19 -8zM226 505q-10 0 -18 8t-8 19t8 18.5t18 7.5q11 0 19 -7.5t8 -18.5t-8 -19t-19 -8zM321 505q-10 0 -18 8t-8 19
t8 18.5t18 7.5q11 0 19 -7.5t8 -18.5t-8 -19t-19 -8z" />
    <glyph glyph-name="uni0689.fina" unicode="&#x689;" horiz-adv-x="374" 
d="M173 -124q-29 0 -49.5 21t-20.5 50t20.5 49.5t49.5 20.5t50 -20.5t21 -49.5t-21 -50t-50 -21zM173 -104q20 0 35 15t15 36q0 20 -15 35t-35 15t-34.5 -15t-14.5 -35q0 -21 14.5 -36t34.5 -15zM140 17q39 0 60.5 14.5t30 37t8.5 45.5q0 21 -3 47.5t-14.5 62t-36 84
t-66.5 113.5l20 13q36 -56 59.5 -103t37 -83t18.5 -61q13 -55 26 -93t35.5 -57.5t62.5 -19.5q11 0 13.5 -3.5t2.5 -7.5q0 -5 -4.5 -8t-15.5 -3q-34 0 -59.5 16.5t-41.5 48t-24 76.5l10 -20q0 -27 -10 -55t-36 -47t-75 -19q-19 0 -38.5 2.5t-36.5 7t-31 10.5l8 21
q20 -8 43.5 -13.5t56.5 -5.5z" />
    <glyph glyph-name="uni068A.fina" unicode="&#x68a;" horiz-adv-x="374" 
d="M140 17q39 0 60.5 14.5t30 37t8.5 45.5q0 21 -3 47.5t-14.5 62t-36 84t-66.5 113.5l20 13q36 -56 59.5 -103t37 -83t18.5 -61q13 -55 26 -93t35.5 -57.5t62.5 -19.5q11 0 13.5 -3.5t2.5 -7.5q0 -5 -4.5 -8t-15.5 -3q-34 0 -59.5 16.5t-41.5 48t-24 76.5l10 -20
q0 -27 -10 -55t-36 -47t-75 -19q-19 0 -38.5 2.5t-36.5 7t-31 10.5l8 21q20 -8 43.5 -13.5t56.5 -5.5zM123 -170q-11 0 -19 8t-8 18q0 11 8 19t19 8t18.5 -8t7.5 -19q0 -10 -7.5 -18t-18.5 -8z" />
    <glyph glyph-name="uni068B.fina" unicode="&#x68b;" horiz-adv-x="374" 
d="M140 17q39 0 60.5 14.5t30 37t8.5 45.5q0 21 -3 47.5t-14.5 62t-36 84t-66.5 113.5l20 13q36 -56 59.5 -103t37 -83t18.5 -61q13 -55 26 -93t35.5 -57.5t62.5 -19.5q11 0 13.5 -3.5t2.5 -7.5q0 -5 -4.5 -8t-15.5 -3q-34 0 -59.5 16.5t-41.5 48t-24 76.5l10 -20
q0 -27 -10 -55t-36 -47t-75 -19q-19 0 -38.5 2.5t-36.5 7t-31 10.5l8 21q20 -8 43.5 -13.5t56.5 -5.5zM95 612q-13 0 -30.5 1t-34 3t-28.5 3l1 18q33 -3 55.5 -5t40.5 -2q34 0 58 10t36.5 26t12.5 34q0 20 -10.5 33.5t-29.5 13.5q-25 0 -47 -17.5t-40.5 -44.5t-33.5 -54
l-17 3q16 32 37.5 62t47 49.5t53.5 19.5q27 0 42.5 -17.5t15.5 -46.5q0 -27 -16 -47t-45 -31t-68 -11zM52 671l-6 194h17l6 -173zM123 -170q-11 0 -19 8t-8 18q0 11 8 19t19 8t18.5 -8t7.5 -19q0 -10 -7.5 -18t-18.5 -8z" />
    <glyph glyph-name="uni068F.fina" unicode="&#x68f;" horiz-adv-x="374" 
d="M140 17q39 0 60.5 14.5t30 37t8.5 45.5q0 21 -3 47.5t-14.5 62t-36 84t-66.5 113.5l20 13q36 -56 59.5 -103t37 -83t18.5 -61q13 -55 26 -93t35.5 -57.5t62.5 -19.5q11 0 13.5 -3.5t2.5 -7.5q0 -5 -4.5 -8t-15.5 -3q-34 0 -59.5 16.5t-41.5 48t-24 76.5l10 -20
q0 -27 -10 -55t-36 -47t-75 -19q-19 0 -38.5 2.5t-36.5 7t-31 10.5l8 21q20 -8 43.5 -13.5t56.5 -5.5zM124 610q-11 0 -19 8t-8 18q0 11 8 19t19 8t18.5 -8t7.5 -19q0 -10 -7.5 -18t-18.5 -8zM76 693q-11 0 -19 8t-8 18q0 11 8 19t19 8t18.5 -8t7.5 -19q0 -10 -7.5 -18
t-18.5 -8zM171 693q-11 0 -19 8t-8 18q0 11 8 19t19 8t18.5 -8t7.5 -19q0 -10 -7.5 -18t-18.5 -8z" />
    <glyph glyph-name="uni0690.fina" unicode="&#x690;" horiz-adv-x="374" 
d="M140 17q39 0 60.5 14.5t30 37t8.5 45.5q0 21 -3 47.5t-14.5 62t-36 84t-66.5 113.5l20 13q36 -56 59.5 -103t37 -83t18.5 -61q13 -55 26 -93t35.5 -57.5t62.5 -19.5q11 0 13.5 -3.5t2.5 -7.5q0 -5 -4.5 -8t-15.5 -3q-34 0 -59.5 16.5t-41.5 48t-24 76.5l10 -20
q0 -27 -10 -55t-36 -47t-75 -19q-19 0 -38.5 2.5t-36.5 7t-31 10.5l8 21q20 -8 43.5 -13.5t56.5 -5.5zM78 718q-11 0 -19 8t-8 18q0 11 8 19t19 8t18.5 -8t7.5 -19q0 -10 -7.5 -18t-18.5 -8zM76 610q-11 0 -19 8t-8 18q0 11 8 19t19 8t18.5 -8t7.5 -19q0 -10 -7.5 -18
t-18.5 -8zM173 718q-11 0 -19 8t-8 18q0 11 8 19t19 8t18.5 -8t7.5 -19q0 -10 -7.5 -18t-18.5 -8zM171 610q-11 0 -19 8t-8 18q0 11 8 19t19 8t18.5 -8t7.5 -19q0 -10 -7.5 -18t-18.5 -8z" />
    <glyph glyph-name="uni0692.fina" unicode="&#x692;" horiz-adv-x="265" 
d="M3 -230l-15 20q30 21 60.5 54t56 74t40.5 86t15 90q0 53 -20 105t-58 117l23 13q21 -37 35.5 -68.5t24 -60t15.5 -56.5q14 -66 31.5 -96.5t57.5 -30.5q11 0 13.5 -3.5t2.5 -7.5q0 -5 -4.5 -8t-15.5 -3q-26 0 -45.5 12t-32 34t-17.5 50l14 2q0 -52 -18 -102t-45.5 -93.5
t-59 -76.5t-58.5 -51zM83 479q-6 15 -14 41t-17 55t-17.5 55t-14.5 42l19 8q5 -10 13 -34.5t17.5 -54.5t17.5 -56.5t13 -40.5l7 -13zM107 481l-19 6q5 17 13 46.5t16.5 61.5t15 56.5t8.5 32.5l21 -6q-3 -10 -10 -35.5t-15.5 -57t-16.5 -60t-13 -44.5z" />
    <glyph glyph-name="uni0693.fina" unicode="&#x693;" horiz-adv-x="265" 
d="M151 -217q-29 0 -49.5 21t-20.5 50t20.5 49.5t49.5 20.5t50 -20.5t21 -49.5t-21 -50t-50 -21zM151 -197q20 0 35 15t15 36q0 20 -15 35t-35 15t-34.5 -15t-14.5 -35q0 -21 14.5 -36t34.5 -15zM3 -230l-15 20q30 21 60.5 54t56 74t40.5 86t15 90q0 53 -20 105t-58 117
l23 13q21 -37 35.5 -68.5t24 -60t15.5 -56.5q14 -66 31.5 -96.5t57.5 -30.5q11 0 13.5 -3.5t2.5 -7.5q0 -5 -4.5 -8t-15.5 -3q-26 0 -45.5 12t-32 34t-17.5 50l14 2q0 -52 -18 -102t-45.5 -93.5t-59 -76.5t-58.5 -51z" />
    <glyph glyph-name="uni0694.fina" unicode="&#x694;" horiz-adv-x="265" 
d="M3 -230l-15 20q30 21 60.5 54t56 74t40.5 86t15 90q0 53 -20 105t-58 117l23 13q21 -37 35.5 -68.5t24 -60t15.5 -56.5q14 -66 31.5 -96.5t57.5 -30.5q11 0 13.5 -3.5t2.5 -7.5q0 -5 -4.5 -8t-15.5 -3q-26 0 -45.5 12t-32 34t-17.5 50l14 2q0 -52 -18 -102t-45.5 -93.5
t-59 -76.5t-58.5 -51zM81 -384q-11 0 -19 8t-8 18q0 11 8 19t19 8t18.5 -8t7.5 -19q0 -10 -7.5 -18t-18.5 -8z" />
    <glyph glyph-name="uni0695.fina" unicode="&#x695;" horiz-adv-x="265" 
d="M26 -93q-6 16 -15.5 43.5l-19 55t-16.5 44.5l18 6q4 -8 10 -26t13 -39.5t13.5 -41t10.5 -30.5l5 -11zM45 -92l-16 5q4 14 10.5 35.5t12.5 44.5t11 41t7 25l17 -7q-3 -8 -8 -26.5t-11.5 -41t-12.5 -43t-10 -33.5zM3 -230l-15 20q30 21 60.5 54t56 74t40.5 86t15 90
q0 53 -20 105t-58 117l23 13q21 -37 35.5 -68.5t24 -60t15.5 -56.5q14 -66 31.5 -96.5t57.5 -30.5q11 0 13.5 -3.5t2.5 -7.5q0 -5 -4.5 -8t-15.5 -3q-26 0 -45.5 12t-32 34t-17.5 50l14 2q0 -52 -18 -102t-45.5 -93.5t-59 -76.5t-58.5 -51z" />
    <glyph glyph-name="uni0696.fina" unicode="&#x696;" horiz-adv-x="265" 
d="M3 -230l-15 20q30 21 60.5 54t56 74t40.5 86t15 90q0 53 -20 105t-58 117l23 13q21 -37 35.5 -68.5t24 -60t15.5 -56.5q14 -66 31.5 -96.5t57.5 -30.5q11 0 13.5 -3.5t2.5 -7.5q0 -5 -4.5 -8t-15.5 -3q-26 0 -45.5 12t-32 34t-17.5 50l14 2q0 -52 -18 -102t-45.5 -93.5
t-59 -76.5t-58.5 -51zM16 25q-11 0 -19 8t-8 18q0 11 8 19t19 8t18.5 -8t7.5 -19q0 -10 -7.5 -18t-18.5 -8zM31 -384q-11 0 -19 8t-8 18q0 11 8 19t19 8t18.5 -8t7.5 -19q0 -10 -7.5 -18t-18.5 -8z" />
    <glyph glyph-name="uni0697.fina" unicode="&#x697;" horiz-adv-x="265" 
d="M3 -230l-15 20q30 21 60.5 54t56 74t40.5 86t15 90q0 53 -20 105t-58 117l23 13q21 -37 35.5 -68.5t24 -60t15.5 -56.5q14 -66 31.5 -96.5t57.5 -30.5q11 0 13.5 -3.5t2.5 -7.5q0 -5 -4.5 -8t-15.5 -3q-26 0 -45.5 12t-32 34t-17.5 50l14 2q0 -52 -18 -102t-45.5 -93.5
t-59 -76.5t-58.5 -51zM142 487q-11 0 -19 8t-8 18q0 11 8 19t19 8t18.5 -8t7.5 -19q0 -10 -7.5 -18t-18.5 -8zM47 487q-11 0 -19 8t-8 18q0 11 8 19t19 8t18.5 -8t7.5 -19q0 -10 -7.5 -18t-18.5 -8z" />
    <glyph glyph-name="uni0699.fina" unicode="&#x699;" horiz-adv-x="265" 
d="M3 -230l-15 20q30 21 60.5 54t56 74t40.5 86t15 90q0 53 -20 105t-58 117l23 13q21 -37 35.5 -68.5t24 -60t15.5 -56.5q14 -66 31.5 -96.5t57.5 -30.5q11 0 13.5 -3.5t2.5 -7.5q0 -5 -4.5 -8t-15.5 -3q-26 0 -45.5 12t-32 34t-17.5 50l14 2q0 -52 -18 -102t-45.5 -93.5
t-59 -76.5t-58.5 -51zM49 595q-11 0 -19 8t-8 18q0 11 8 19t19 8t18.5 -8t7.5 -19q0 -10 -7.5 -18t-18.5 -8zM47 487q-11 0 -19 8t-8 18q0 11 8 19t19 8t18.5 -8t7.5 -19q0 -10 -7.5 -18t-18.5 -8zM144 595q-11 0 -19 8t-8 18q0 11 8 19t19 8t18.5 -8t7.5 -19
q0 -10 -7.5 -18t-18.5 -8zM142 487q-11 0 -19 8t-8 18q0 11 8 19t19 8t18.5 -8t7.5 -19q0 -10 -7.5 -18t-18.5 -8z" />
    <glyph glyph-name="uni069A.init" unicode="&#x69a;" horiz-adv-x="594" 
d="M0 -5l4 22q21 0 36 7.5t27 31t24 69.5t25 122l23 -6q-4 -17 -9 -39.5t-9 -47t-4 -47.5q0 -54 23 -71.5t56 -17.5q29 0 47.5 9.5t30.5 34.5t21.5 72.5t19.5 123.5l23 -4q-4 -27 -8.5 -54.5t-7 -51.5t-2.5 -43q0 -35 10.5 -54t30 -26t45.5 -7q18 0 40 7t38 33t16 82
q0 55 -14.5 107t-31.5 106l24 10q12 -37 22.5 -74.5t17 -74.5t6.5 -73q0 -47 -12 -76t-31 -44t-40 -20.5t-39 -5.5q-44 0 -65 15t-28.5 39t-11.5 51h12q-10 -39 -23.5 -62t-34.5 -33t-57 -10q-26 0 -48.5 8t-36.5 33t-14 75h9q-7 -46 -21.5 -71t-35 -35t-47.5 -10zM270 -171
q-11 0 -19 8t-8 18q0 11 8 19t19 8t18.5 -8t7.5 -19q0 -10 -7.5 -18t-18.5 -8zM316 467q-11 0 -19 8t-8 18q0 11 8 19t19 8t18.5 -8t7.5 -19q0 -10 -7.5 -18t-18.5 -8z" />
    <glyph glyph-name="uni069A.medi" unicode="&#x69a;" horiz-adv-x="599" 
d="M0 -5l4 22q18 0 33.5 6t29 27.5t27 68.5t28.5 128l23 -6q-6 -25 -14 -62.5t-8 -68.5q0 -35 5 -55t19.5 -28.5t41.5 -8.5q26 0 44.5 7.5t32 31t24.5 71.5t22 130l25 -4q-3 -18 -8 -45.5t-9 -54.5t-4 -44q0 -32 6 -52.5t22.5 -30t45.5 -9.5q53 0 73 24.5t20 82.5
q0 24 -1.5 61t-4 74.5t-4.5 59.5l25 2q4 -103 11 -164t19 -91t30 -40t45 -10q11 0 13.5 -3.5t2.5 -7.5q0 -5 -4.5 -8t-15.5 -3q-24 0 -41 6.5t-28.5 20t-19.5 33.5t-13 47h6q-6 -45 -20.5 -68t-37.5 -31t-56 -8t-52.5 11.5t-29 34.5t-12.5 59h8q-11 -34 -23.5 -57.5
t-33 -35.5t-56.5 -12q-26 0 -46.5 8.5t-31 33.5t-9.5 74h9q-14 -51 -30.5 -75.5t-36.5 -32.5t-45 -8zM265 -171q-11 0 -19 8t-8 18q0 11 8 19t19 8t18.5 -8t7.5 -19q0 -10 -7.5 -18t-18.5 -8zM329 467q-11 0 -19 8t-8 18q0 11 8 19t19 8t18.5 -8t7.5 -19q0 -10 -7.5 -18
t-18.5 -8z" />
    <glyph glyph-name="uni069A.fina" unicode="&#x69a;" horiz-adv-x="900" 
d="M222 -232q-36 0 -68.5 10.5t-58 33t-40.5 59.5t-15 89q0 28 4.5 56t17 63t35.5 81l21 -13q-16 -31 -27.5 -62.5t-18 -62t-6.5 -59.5q0 -63 22 -100.5t58 -54t78 -16.5q54 0 88.5 19t54 51.5t27 75t7.5 88.5q0 34 -6 72t-15 78.5t-19 79.5l25 8q14 -57 21.5 -90.5
t16.5 -65.5q10 -33 19.5 -52.5t24 -28.5t38.5 -9q18 0 33.5 6t28.5 29t24.5 72.5t21.5 136.5l24 -4q-6 -40 -11 -67t-7.5 -46t-2.5 -37q0 -32 5 -52t21.5 -29t49.5 -9q42 0 66 27.5t24 79.5q0 24 -1.5 62t-4 76.5t-4.5 60.5l25 2q6 -96 11 -156.5t15 -93t28.5 -45.5
t51.5 -14q11 0 13.5 -3.5t2.5 -7.5q0 -5 -4.5 -8t-15.5 -3q-30 0 -50 11.5t-32.5 31.5t-19.5 47h2q-5 -27 -19.5 -47t-37 -31.5t-51.5 -11.5q-38 0 -58.5 11.5t-28 35t-8.5 58.5l9 1q-10 -42 -24 -65t-32.5 -32t-44.5 -9t-43 8.5t-27.5 22.5t-16 31.5t-9.5 35.5l16 -32
q0 -67 -8.5 -121t-30.5 -92.5t-62 -59t-102 -20.5zM597 -166q-11 0 -19 8t-8 18q0 11 8 19t19 8t18.5 -8t7.5 -19q0 -10 -7.5 -18t-18.5 -8zM603 467q-11 0 -19 8t-8 18q0 11 8 19t19 8t18.5 -8t7.5 -19q0 -10 -7.5 -18t-18.5 -8z" />
    <glyph glyph-name="uni069B.init" unicode="&#x69b;" horiz-adv-x="594" 
d="M0 -5l4 22q21 0 36 7.5t27 31t24 69.5t25 122l23 -6q-4 -17 -9 -39.5t-9 -47t-4 -47.5q0 -54 23 -71.5t56 -17.5q29 0 47.5 9.5t30.5 34.5t21.5 72.5t19.5 123.5l23 -4q-4 -27 -8.5 -54.5t-7 -51.5t-2.5 -43q0 -35 10.5 -54t30 -26t45.5 -7q18 0 40 7t38 33t16 82
q0 55 -14.5 107t-31.5 106l24 10q12 -37 22.5 -74.5t17 -74.5t6.5 -73q0 -47 -12 -76t-31 -44t-40 -20.5t-39 -5.5q-44 0 -65 15t-28.5 39t-11.5 51h12q-10 -39 -23.5 -62t-34.5 -33t-57 -10q-26 0 -48.5 8t-36.5 33t-14 75h9q-7 -46 -21.5 -71t-35 -35t-47.5 -10zM270 -255
q-11 0 -19 8t-8 18q0 11 8 19t19 8t18.5 -8t7.5 -19q0 -10 -7.5 -18t-18.5 -8zM222 -172q-11 0 -19 8t-8 18q0 11 8 19t19 8t18.5 -8t7.5 -19q0 -10 -7.5 -18t-18.5 -8zM317 -172q-11 0 -19 8t-8 18q0 11 8 19t19 8t18.5 -8t7.5 -19q0 -10 -7.5 -18t-18.5 -8z" />
    <glyph glyph-name="uni069B.medi" unicode="&#x69b;" horiz-adv-x="599" 
d="M0 -5l4 22q18 0 33.5 6t29 27.5t27 68.5t28.5 128l23 -6q-6 -25 -14 -62.5t-8 -68.5q0 -35 5 -55t19.5 -28.5t41.5 -8.5q26 0 44.5 7.5t32 31t24.5 71.5t22 130l25 -4q-3 -18 -8 -45.5t-9 -54.5t-4 -44q0 -32 6 -52.5t22.5 -30t45.5 -9.5q53 0 73 24.5t20 82.5
q0 24 -1.5 61t-4 74.5t-4.5 59.5l25 2q4 -103 11 -164t19 -91t30 -40t45 -10q11 0 13.5 -3.5t2.5 -7.5q0 -5 -4.5 -8t-15.5 -3q-24 0 -41 6.5t-28.5 20t-19.5 33.5t-13 47h6q-6 -45 -20.5 -68t-37.5 -31t-56 -8t-52.5 11.5t-29 34.5t-12.5 59h8q-11 -34 -23.5 -57.5
t-33 -35.5t-56.5 -12q-26 0 -46.5 8.5t-31 33.5t-9.5 74h9q-14 -51 -30.5 -75.5t-36.5 -32.5t-45 -8zM265 -255q-11 0 -19 8t-8 18q0 11 8 19t19 8t18.5 -8t7.5 -19q0 -10 -7.5 -18t-18.5 -8zM217 -172q-11 0 -19 8t-8 18q0 11 8 19t19 8t18.5 -8t7.5 -19q0 -10 -7.5 -18
t-18.5 -8zM312 -172q-11 0 -19 8t-8 18q0 11 8 19t19 8t18.5 -8t7.5 -19q0 -10 -7.5 -18t-18.5 -8z" />
    <glyph glyph-name="uni069B.fina" unicode="&#x69b;" horiz-adv-x="900" 
d="M222 -232q-36 0 -68.5 10.5t-58 33t-40.5 59.5t-15 89q0 28 4.5 56t17 63t35.5 81l21 -13q-16 -31 -27.5 -62.5t-18 -62t-6.5 -59.5q0 -63 22 -100.5t58 -54t78 -16.5q54 0 88.5 19t54 51.5t27 75t7.5 88.5q0 34 -6 72t-15 78.5t-19 79.5l25 8q14 -57 21.5 -90.5
t16.5 -65.5q10 -33 19.5 -52.5t24 -28.5t38.5 -9q18 0 33.5 6t28.5 29t24.5 72.5t21.5 136.5l24 -4q-6 -40 -11 -67t-7.5 -46t-2.5 -37q0 -32 5 -52t21.5 -29t49.5 -9q42 0 66 27.5t24 79.5q0 24 -1.5 62t-4 76.5t-4.5 60.5l25 2q6 -96 11 -156.5t15 -93t28.5 -45.5
t51.5 -14q11 0 13.5 -3.5t2.5 -7.5q0 -5 -4.5 -8t-15.5 -3q-30 0 -50 11.5t-32.5 31.5t-19.5 47h2q-5 -27 -19.5 -47t-37 -31.5t-51.5 -11.5q-38 0 -58.5 11.5t-28 35t-8.5 58.5l9 1q-10 -42 -24 -65t-32.5 -32t-44.5 -9t-43 8.5t-27.5 22.5t-16 31.5t-9.5 35.5l16 -32
q0 -67 -8.5 -121t-30.5 -92.5t-62 -59t-102 -20.5zM597 -250q-11 0 -19 8t-8 18q0 11 8 19t19 8t18.5 -8t7.5 -19q0 -10 -7.5 -18t-18.5 -8zM549 -167q-11 0 -19 8t-8 18q0 11 8 19t19 8t18.5 -8t7.5 -19q0 -10 -7.5 -18t-18.5 -8zM644 -167q-11 0 -19 8t-8 18q0 11 8 19
t19 8t18.5 -8t7.5 -19q0 -10 -7.5 -18t-18.5 -8z" />
    <glyph glyph-name="uni069D.init" unicode="&#x69d;" horiz-adv-x="703" 
d="M367 -18q-36 0 -79.5 5.5t-82.5 19.5t-64.5 39t-27.5 65h7q-14 -51 -32.5 -75.5t-40.5 -32.5t-47 -8l3 22q22 0 38.5 6.5t31 31t30.5 75.5t35 139l23 -6q-4 -17 -10.5 -42t-12 -51t-5.5 -47q0 -28 15 -50t45 -37t73 -23t98 -8q60 0 109.5 11t85.5 32t55.5 52.5t19.5 73.5
q0 39 -14.5 66.5t-40.5 41.5t-60 14q-46 0 -90.5 -24t-83.5 -65.5t-70 -92.5t-49 -105l-21 11q28 71 63.5 126.5t76.5 94t85.5 59t90.5 20.5q38 0 69 -16t49.5 -48t18.5 -79q0 -64 -35.5 -107.5t-100.5 -65.5t-155 -22zM415 -183q-11 0 -19 8t-8 18q0 11 8 19t19 8t18.5 -8
t7.5 -19q0 -10 -7.5 -18t-18.5 -8zM320 -183q-11 0 -19 8t-8 18q0 11 8 19t19 8t18.5 -8t7.5 -19q0 -10 -7.5 -18t-18.5 -8z" />
    <glyph glyph-name="uni069D.medi" unicode="&#x69d;" horiz-adv-x="744" 
d="M744 -5q-34 0 -61.5 5.5t-51 18t-46.5 31.5l17 15q30 -24 63.5 -36t82.5 -12q11 0 13.5 -3.5t2.5 -7.5q0 -5 -4.5 -8t-15.5 -3zM367 -18q-36 0 -79.5 5.5t-82.5 19.5t-64.5 39t-27.5 65h7q-14 -51 -32.5 -75.5t-40.5 -32.5t-47 -8l3 22q22 0 38.5 6.5t31 31t30.5 75.5
t35 139l23 -6q-4 -17 -10.5 -42t-12 -51t-5.5 -47q0 -28 15 -50t45 -37t73 -23t98 -8q60 0 109.5 11t85.5 32t55.5 52.5t19.5 73.5q0 39 -14.5 66.5t-40.5 41.5t-60 14q-46 0 -90.5 -24t-83.5 -65.5t-70 -92.5t-49 -105l-21 11q28 71 63.5 126.5t76.5 94t85.5 59t90.5 20.5
q38 0 69 -16t49.5 -48t18.5 -79q0 -64 -35.5 -107.5t-100.5 -65.5t-155 -22zM415 -183q-11 0 -19 8t-8 18q0 11 8 19t19 8t18.5 -8t7.5 -19q0 -10 -7.5 -18t-18.5 -8zM320 -183q-11 0 -19 8t-8 18q0 11 8 19t19 8t18.5 -8t7.5 -19q0 -10 -7.5 -18t-18.5 -8z" />
    <glyph glyph-name="uni069D.fina" unicode="&#x69d;" horiz-adv-x="1064" 
d="M1064 -5q-34 0 -61.5 5.5t-51 18t-46.5 31.5l17 15q30 -24 63.5 -36t82.5 -12q11 0 13.5 -3.5t2.5 -7.5q0 -5 -4.5 -8t-15.5 -3zM221 -232q-38 0 -71 11t-57.5 34.5t-38.5 61t-14 90.5q0 25 4.5 52.5t17 62t35.5 80.5l21 -13q-16 -32 -28 -64t-18 -61.5t-6 -55.5
q0 -64 21.5 -102.5t57 -55t76.5 -16.5q55 0 90.5 18.5t55 51t27 74.5t7.5 90q0 51 -12.5 111t-27.5 119l25 8q9 -38 14.5 -64.5t10 -45t9.5 -32.5q10 -26 26.5 -46.5t45 -35t72 -22.5t107.5 -8q33 0 70 4t73 15t65.5 30t47 48.5t17.5 72.5q0 36 -13 63.5t-39 42.5t-64 15
q-40 0 -82 -21t-81.5 -59t-72.5 -90.5t-56 -116.5l-21 10q22 57 49 104t58.5 84t66 62t70 38t70.5 13q47 0 77.5 -19.5t46 -52t15.5 -71.5q0 -60 -28 -98.5t-73 -59.5t-96 -29t-97 -8q-64 0 -108.5 7t-74 20t-48.5 30.5t-34 38.5l16 -10q2 -70 -6.5 -126.5t-31 -96.5
t-63 -61t-103.5 -21zM732 -178q-11 0 -19 8t-8 18q0 11 8 19t19 8t18.5 -8t7.5 -19q0 -10 -7.5 -18t-18.5 -8zM637 -178q-11 0 -19 8t-8 18q0 11 8 19t19 8t18.5 -8t7.5 -19q0 -10 -7.5 -18t-18.5 -8z" />
    <glyph glyph-name="uni069E.init" unicode="&#x69e;" horiz-adv-x="703" 
d="M367 -18q-36 0 -79.5 5.5t-82.5 19.5t-64.5 39t-27.5 65h7q-14 -51 -32.5 -75.5t-40.5 -32.5t-47 -8l3 22q22 0 38.5 6.5t31 31t30.5 75.5t35 139l23 -6q-4 -17 -10.5 -42t-12 -51t-5.5 -47q0 -28 15 -50t45 -37t73 -23t98 -8q60 0 109.5 11t85.5 32t55.5 52.5t19.5 73.5
q0 39 -14.5 66.5t-40.5 41.5t-60 14q-46 0 -90.5 -24t-83.5 -65.5t-70 -92.5t-49 -105l-21 11q28 71 63.5 126.5t76.5 94t85.5 59t90.5 20.5q38 0 69 -16t49.5 -48t18.5 -79q0 -64 -35.5 -107.5t-100.5 -65.5t-155 -22zM493 538q-10 0 -18 8t-8 19t8 18.5t18 7.5
q11 0 19 -7.5t8 -18.5t-8 -19t-19 -8zM446 455q-10 0 -18 8t-8 19t8 18.5t18 7.5q11 0 19 -7.5t8 -18.5t-8 -19t-19 -8zM541 455q-10 0 -18 8t-8 19t8 18.5t18 7.5q11 0 19 -7.5t8 -18.5t-8 -19t-19 -8z" />
    <glyph glyph-name="uni069E.medi" unicode="&#x69e;" horiz-adv-x="744" 
d="M744 -5q-34 0 -61.5 5.5t-51 18t-46.5 31.5l17 15q30 -24 63.5 -36t82.5 -12q11 0 13.5 -3.5t2.5 -7.5q0 -5 -4.5 -8t-15.5 -3zM367 -18q-36 0 -79.5 5.5t-82.5 19.5t-64.5 39t-27.5 65h7q-14 -51 -32.5 -75.5t-40.5 -32.5t-47 -8l3 22q22 0 38.5 6.5t31 31t30.5 75.5
t35 139l23 -6q-4 -17 -10.5 -42t-12 -51t-5.5 -47q0 -28 15 -50t45 -37t73 -23t98 -8q60 0 109.5 11t85.5 32t55.5 52.5t19.5 73.5q0 39 -14.5 66.5t-40.5 41.5t-60 14q-46 0 -90.5 -24t-83.5 -65.5t-70 -92.5t-49 -105l-21 11q28 71 63.5 126.5t76.5 94t85.5 59t90.5 20.5
q38 0 69 -16t49.5 -48t18.5 -79q0 -64 -35.5 -107.5t-100.5 -65.5t-155 -22zM493 538q-10 0 -18 8t-8 19t8 18.5t18 7.5q11 0 19 -7.5t8 -18.5t-8 -19t-19 -8zM446 455q-10 0 -18 8t-8 19t8 18.5t18 7.5q11 0 19 -7.5t8 -18.5t-8 -19t-19 -8zM541 455q-10 0 -18 8t-8 19
t8 18.5t18 7.5q11 0 19 -7.5t8 -18.5t-8 -19t-19 -8z" />
    <glyph glyph-name="uni069E.fina" unicode="&#x69e;" horiz-adv-x="1064" 
d="M1064 -5q-34 0 -61.5 5.5t-51 18t-46.5 31.5l17 15q30 -24 63.5 -36t82.5 -12q11 0 13.5 -3.5t2.5 -7.5q0 -5 -4.5 -8t-15.5 -3zM221 -232q-38 0 -71 11t-57.5 34.5t-38.5 61t-14 90.5q0 25 4.5 52.5t17 62t35.5 80.5l21 -13q-16 -32 -28 -64t-18 -61.5t-6 -55.5
q0 -64 21.5 -102.5t57 -55t76.5 -16.5q55 0 90.5 18.5t55 51t27 74.5t7.5 90q0 51 -12.5 111t-27.5 119l25 8q9 -38 14.5 -64.5t10 -45t9.5 -32.5q10 -26 26.5 -46.5t45 -35t72 -22.5t107.5 -8q33 0 70 4t73 15t65.5 30t47 48.5t17.5 72.5q0 36 -13 63.5t-39 42.5t-64 15
q-40 0 -82 -21t-81.5 -59t-72.5 -90.5t-56 -116.5l-21 10q22 57 49 104t58.5 84t66 62t70 38t70.5 13q47 0 77.5 -19.5t46 -52t15.5 -71.5q0 -60 -28 -98.5t-73 -59.5t-96 -29t-97 -8q-64 0 -108.5 7t-74 20t-48.5 30.5t-34 38.5l16 -10q2 -70 -6.5 -126.5t-31 -96.5
t-63 -61t-103.5 -21zM801 543q-10 0 -18 8t-8 19t8 18.5t18 7.5q11 0 19 -7.5t8 -18.5t-8 -19t-19 -8zM754 460q-10 0 -18 8t-8 19t8 18.5t18 7.5q11 0 19 -7.5t8 -18.5t-8 -19t-19 -8zM849 460q-10 0 -18 8t-8 19t8 18.5t18 7.5q11 0 19 -7.5t8 -18.5t-8 -19t-19 -8z" />
    <glyph glyph-name="uni069F.init" unicode="&#x69f;" horiz-adv-x="562" 
d="M0 -5l4 22h228q61 0 109 10.5t82 30.5t52 51t18 71q0 34 -12 61t-37.5 43.5t-66.5 16.5q-46 0 -89 -25t-81 -67t-69 -93t-54 -103l-30 -11q28 66 63.5 124.5t77 103t87.5 70t96 25.5q47 0 78 -19.5t46 -52t15 -72.5q0 -62 -37.5 -107t-121.5 -66q-31 -7 -76 -10t-90.5 -3
h-80.5h-111zM100 78l-17 636h23l17 -600zM340 543q-10 0 -18 8t-8 19t8 18.5t18 7.5q11 0 19 -7.5t8 -18.5t-8 -19t-19 -8zM293 460q-10 0 -18 8t-8 19t8 18.5t18 7.5q11 0 19 -7.5t8 -18.5t-8 -19t-19 -8zM388 460q-10 0 -18 8t-8 19t8 18.5t18 7.5q11 0 19 -7.5t8 -18.5
t-8 -19t-19 -8z" />
    <glyph glyph-name="uni069F.medi" unicode="&#x69f;" horiz-adv-x="576" 
d="M576 -5q-34 0 -61.5 5.5t-51 18t-46.5 31.5l17 15q30 -24 63.5 -36t82.5 -12q11 0 13.5 -3.5t2.5 -7.5q0 -5 -4.5 -8t-15.5 -3zM0 -5l4 22h228q61 0 109 10.5t82 30.5t52 51t18 71q0 34 -12 61t-37.5 43.5t-66.5 16.5q-46 0 -89 -25t-81 -67t-69 -93t-54 -103l-30 -11
q28 66 63.5 124.5t77 103t87.5 70t96 25.5q47 0 78 -19.5t46 -52t15 -72.5q0 -62 -37.5 -107t-121.5 -66q-31 -7 -76 -10t-90.5 -3h-80.5h-111zM100 78l-17 636h23l17 -600zM340 543q-10 0 -18 8t-8 19t8 18.5t18 7.5q11 0 19 -7.5t8 -18.5t-8 -19t-19 -8zM293 460
q-10 0 -18 8t-8 19t8 18.5t18 7.5q11 0 19 -7.5t8 -18.5t-8 -19t-19 -8zM388 460q-10 0 -18 8t-8 19t8 18.5t18 7.5q11 0 19 -7.5t8 -18.5t-8 -19t-19 -8z" />
    <glyph glyph-name="uni069F.fina" unicode="&#x69f;" horiz-adv-x="680" 
d="M680 -5q-34 0 -61.5 5.5t-51 18t-46.5 31.5l17 15q30 -24 63.5 -36t82.5 -12q11 0 13.5 -3.5t2.5 -7.5q0 -5 -4.5 -8t-15.5 -3zM308 -13q-26 0 -63.5 2t-77 4.5t-73.5 6t-54 6.5l3 23q23 -3 59 -6.5t75.5 -6.5t75.5 -4.5t59 -1.5q52 0 99 9.5t84 30t58.5 53t21.5 78.5
q0 35 -13.5 62t-39 42.5t-63.5 15.5q-45 0 -89 -23.5t-83 -64.5t-70 -92.5t-51 -107.5l-30 -11q28 76 64.5 135.5t79 101.5t88 64t91.5 22q45 0 76 -18.5t47.5 -50.5t16.5 -74q0 -68 -38.5 -111.5t-104.5 -63.5t-148 -20zM183 72l-20 642h24l21 -605zM421 543q-10 0 -18 8
t-8 19t8 18.5t18 7.5q11 0 19 -7.5t8 -18.5t-8 -19t-19 -8zM374 460q-10 0 -18 8t-8 19t8 18.5t18 7.5q11 0 19 -7.5t8 -18.5t-8 -19t-19 -8zM469 460q-10 0 -18 8t-8 19t8 18.5t18 7.5q11 0 19 -7.5t8 -18.5t-8 -19t-19 -8z" />
    <glyph glyph-name="uni06A0.init" unicode="&#x6a0;" horiz-adv-x="357" 
d="M0 -5l3 22q38 0 72 3t67 9t69 15q-40 16 -75 44.5t-57 67.5t-22 85q0 42 17.5 77.5t53.5 56.5t89 21q14 0 33.5 -3t38.5 -10l-5 -22q-19 6 -36 8.5t-34 2.5q-42 0 -72 -17.5t-46 -47t-16 -65.5q0 -29 9.5 -54.5t26.5 -46t38 -37t44 -28.5t45 -20q9 2 14.5 3.5t13 3.5
t21 7t37.5 15l8 -22q-63 -27 -117.5 -42t-107.5 -20.5t-112 -5.5zM199 614q-10 0 -18 8t-8 19t8 18.5t18 7.5q11 0 19 -7.5t8 -18.5t-8 -19t-19 -8zM152 531q-10 0 -18 8t-8 19t8 18.5t18 7.5q11 0 19 -7.5t8 -18.5t-8 -19t-19 -8zM247 531q-10 0 -18 8t-8 19t8 18.5t18 7.5
q11 0 19 -7.5t8 -18.5t-8 -19t-19 -8z" />
    <glyph glyph-name="uni06A0.medi" unicode="&#x6a0;" horiz-adv-x="377" 
d="M0 -5l4 22q40 0 80.5 17t77 45.5t65.5 63.5t45.5 72t16.5 71q0 17 -8.5 34t-28.5 28.5t-56 11.5q-29 0 -54.5 -10.5t-44 -26t-28.5 -31.5q22 -29 43.5 -60.5t42 -64.5t38.5 -69q17 -24 35 -39.5t39.5 -24.5t49 -13t64.5 -4q7 0 11.5 -2t4.5 -9q0 -6 -5 -8.5t-15 -2.5
q-49 0 -85.5 8.5t-64.5 28.5t-53 55q-23 46 -47.5 83.5t-43.5 64.5t-28 40q0 1 -1 4.5l-2 7t-1 4.5q0 12 12.5 28t33.5 31t46.5 24.5t52.5 9.5q38 0 64 -11t39.5 -32t13.5 -50q0 -38 -17.5 -79.5t-48.5 -80t-71 -69.5t-85 -49t-91 -18zM200 602q-10 0 -18 8t-8 19t8 18.5
t18 7.5q11 0 19 -7.5t8 -18.5t-8 -19t-19 -8zM153 519q-10 0 -18 8t-8 19t8 18.5t18 7.5q11 0 19 -7.5t8 -18.5t-8 -19t-19 -8zM248 519q-10 0 -18 8t-8 19t8 18.5t18 7.5q11 0 19 -7.5t8 -18.5t-8 -19t-19 -8z" />
    <glyph glyph-name="uni06A0.fina" unicode="&#x6a0;" horiz-adv-x="397" 
d="M249 -394q-31 0 -70 9t-75.5 31.5t-60 64t-23.5 105.5q0 52 21 97t54 84t70 75.5t70 71t54 70t21 73.5q0 20 -10 36.5t-30 26.5t-52 10q-30 0 -55.5 -10.5t-44 -26t-28.5 -31.5q16 -20 37 -50.5t43.5 -67t42.5 -74.5q18 -24 38 -40.5t43 -25.5t50 -13t57 -4
q5 0 10.5 -1.5t5.5 -9.5q0 -7 -6 -9t-14 -2q-37 0 -73.5 7.5t-69.5 28t-61 59.5q-16 34 -39.5 71t-45 68t-31.5 45q-1 2 -2 5t-2 7t-1 6q0 11 12 26.5t33 30.5t47 25t54 10q55 0 85.5 -24.5t30.5 -69.5q0 -43 -21 -81t-54 -74t-70 -71.5t-70 -73.5t-54 -80t-21 -91
q0 -48 16 -84t44.5 -59t66.5 -34.5t83 -11.5q31 0 58.5 3t53.5 10t52 18l8 -21q-33 -13 -62 -20.5t-56.5 -10.5t-58.5 -3zM224 602q-10 0 -18 8t-8 19t8 18.5t18 7.5q11 0 19 -7.5t8 -18.5t-8 -19t-19 -8zM177 519q-10 0 -18 8t-8 19t8 18.5t18 7.5q11 0 19 -7.5t8 -18.5
t-8 -19t-19 -8zM272 519q-10 0 -18 8t-8 19t8 18.5t18 7.5q11 0 19 -7.5t8 -18.5t-8 -19t-19 -8z" />
    <glyph glyph-name="uni06A1.init" unicode="&#x6a1;" horiz-adv-x="366" 
d="M0 -5l4 22q30 0 61 2t60.5 7t55.5 13.5t46 21.5q15 10 31.5 29t27.5 55t11 96q0 51 -11 100.5t-33 82t-57 32.5q-29 0 -51.5 -26.5t-35 -66t-12.5 -80.5t15.5 -63.5t39.5 -31.5t49 -9q23 0 51 7t50 19l4 -21q-16 -10 -37.5 -16.5t-41 -9t-30.5 -2.5q-31 0 -59.5 12.5
t-46.5 40.5t-18 73q0 32 8.5 67t24.5 65t39.5 48.5t54.5 18.5q40 0 67 -34.5t40.5 -90.5t13.5 -121q0 -60 -16 -107.5t-62 -81.5q-18 -13 -42.5 -22.5t-55 -16t-67 -9.5t-78.5 -3z" />
    <glyph glyph-name="uni06A1.medi" unicode="&#x6a1;" horiz-adv-x="339" 
d="M0 -5l4 22q20 0 41 2.5t41.5 8t40 13.5t37.5 19q31 18 54.5 43t37.5 56t14 66q0 29 -9.5 60.5t-29.5 54t-52 22.5q-26 0 -49.5 -19t-38 -50.5t-14.5 -70.5q0 -37 13 -69t36 -55.5t52 -37.5l-28 -8q-21 13 -43 36.5t-37 57t-15 76.5q0 34 10 63.5t27.5 52t40 35t46.5 12.5
q35 0 60 -22.5t39 -58t14 -75.5q0 -29 -8.5 -56t-23.5 -51t-35.5 -44t-44.5 -35q-20 -13 -42 -22t-45 -15t-46.5 -8.5t-46.5 -2.5zM339 -5q-22 0 -58.5 7.5t-71.5 19.5t-53 26l24 11q18 -10 43.5 -19.5t56.5 -16t63 -6.5q7 0 11.5 -2t4.5 -9q0 -6 -5 -8.5t-15 -2.5z" />
    <glyph glyph-name="uni06A1.fina" unicode="&#x6a1;" horiz-adv-x="809" 
d="M289 -21l7 23q51 0 98.5 4t90.5 11.5t78.5 18.5t62.5 26q38 21 63.5 45t38 52t12.5 61q0 25 -5.5 50t-17 46t-28.5 33.5t-40 12.5q-28 0 -51.5 -20t-37 -54t-13.5 -75q0 -37 14 -66.5t37.5 -51t49.5 -35.5l-30 -8q-20 13 -41.5 34.5t-36.5 53t-15 73.5q0 35 9.5 66
t26.5 55t39.5 37.5t48.5 13.5q34 0 59 -21.5t39.5 -59t14.5 -84.5q0 -27 -7.5 -50.5t-22 -45t-36 -40.5t-50.5 -36q-28 -17 -66.5 -30t-85 -21.5t-98 -13t-107.5 -4.5zM809 -5q-32 0 -64.5 6.5t-63.5 18.5t-57 28l26 11q19 -10 42.5 -19.5t53.5 -16t67 -6.5q7 0 11.5 -2
t4.5 -9q0 -6 -5 -8.5t-15 -2.5zM290 -21q-58 0 -104 12t-78.5 35.5t-50 58t-17.5 80.5q0 23 4 49t9.5 51t11.5 46l22 -6q-6 -19 -11 -42.5t-8.5 -48t-3.5 -47.5q0 -56 27 -92.5t79 -54.5t126 -18l20 -14z" />
    <glyph glyph-name="fehDotMovedbelowar.init" unicode="&#x6a2;" horiz-adv-x="366" 
d="M0 -5l4 22q30 0 61 2t60.5 7t55.5 13.5t46 21.5q15 10 31.5 29t27.5 55t11 96q0 51 -11 100.5t-33 82t-57 32.5q-29 0 -51.5 -26.5t-35 -66t-12.5 -80.5t15.5 -63.5t39.5 -31.5t49 -9q23 0 51 7t50 19l4 -21q-16 -10 -37.5 -16.5t-41 -9t-30.5 -2.5q-31 0 -59.5 12.5
t-46.5 40.5t-18 73q0 32 8.5 67t24.5 65t39.5 48.5t54.5 18.5q40 0 67 -34.5t40.5 -90.5t13.5 -121q0 -60 -16 -107.5t-62 -81.5q-18 -13 -42.5 -22.5t-55 -16t-67 -9.5t-78.5 -3zM178 -191q-11 0 -19 8t-8 18q0 11 8 19t19 8t18.5 -8t7.5 -19q0 -10 -7.5 -18t-18.5 -8z" />
    <glyph glyph-name="fehDotMovedbelowar.medi" unicode="&#x6a2;" horiz-adv-x="339" 
d="M0 -5l4 22q20 0 41 2.5t41.5 8t40 13.5t37.5 19q31 18 54.5 43t37.5 56t14 66q0 29 -9.5 60.5t-29.5 54t-52 22.5q-26 0 -49.5 -19t-38 -50.5t-14.5 -70.5q0 -37 13 -69t36 -55.5t52 -37.5l-28 -8q-21 13 -43 36.5t-37 57t-15 76.5q0 34 10 63.5t27.5 52t40 35t46.5 12.5
q35 0 60 -22.5t39 -58t14 -75.5q0 -29 -8.5 -56t-23.5 -51t-35.5 -44t-44.5 -35q-20 -13 -42 -22t-45 -15t-46.5 -8.5t-46.5 -2.5zM339 -5q-22 0 -58.5 7.5t-71.5 19.5t-53 26l24 11q18 -10 43.5 -19.5t56.5 -16t63 -6.5q7 0 11.5 -2t4.5 -9q0 -6 -5 -8.5t-15 -2.5z
M173 -192q-11 0 -19 8t-8 18q0 11 8 19t19 8t18.5 -8t7.5 -19q0 -10 -7.5 -18t-18.5 -8z" />
    <glyph glyph-name="fehDotMovedbelowar.fina" unicode="&#x6a2;" horiz-adv-x="809" 
d="M289 -21l7 23q51 0 98.5 4t90.5 11.5t78.5 18.5t62.5 26q38 21 63.5 45t38 52t12.5 61q0 25 -5.5 50t-17 46t-28.5 33.5t-40 12.5q-28 0 -51.5 -20t-37 -54t-13.5 -75q0 -37 14 -66.5t37.5 -51t49.5 -35.5l-30 -8q-20 13 -41.5 34.5t-36.5 53t-15 73.5q0 35 9.5 66
t26.5 55t39.5 37.5t48.5 13.5q34 0 59 -21.5t39.5 -59t14.5 -84.5q0 -27 -7.5 -50.5t-22 -45t-36 -40.5t-50.5 -36q-28 -17 -66.5 -30t-85 -21.5t-98 -13t-107.5 -4.5zM809 -5q-32 0 -64.5 6.5t-63.5 18.5t-57 28l26 11q19 -10 42.5 -19.5t53.5 -16t67 -6.5q7 0 11.5 -2
t4.5 -9q0 -6 -5 -8.5t-15 -2.5zM290 -21q-58 0 -104 12t-78.5 35.5t-50 58t-17.5 80.5q0 23 4 49t9.5 51t11.5 46l22 -6q-6 -19 -11 -42.5t-8.5 -48t-3.5 -47.5q0 -56 27 -92.5t79 -54.5t126 -18l20 -14zM320 -192q-11 0 -19 8t-8 18q0 11 8 19t19 8t18.5 -8t7.5 -19
q0 -10 -7.5 -18t-18.5 -8z" />
    <glyph glyph-name="uni06A3.init" unicode="&#x6a3;" horiz-adv-x="366" 
d="M0 -5l4 22q30 0 61 2t60.5 7t55.5 13.5t46 21.5q15 10 31.5 29t27.5 55t11 96q0 51 -11 100.5t-33 82t-57 32.5q-29 0 -51.5 -26.5t-35 -66t-12.5 -80.5t15.5 -63.5t39.5 -31.5t49 -9q23 0 51 7t50 19l4 -21q-16 -10 -37.5 -16.5t-41 -9t-30.5 -2.5q-31 0 -59.5 12.5
t-46.5 40.5t-18 73q0 32 8.5 67t24.5 65t39.5 48.5t54.5 18.5q40 0 67 -34.5t40.5 -90.5t13.5 -121q0 -60 -16 -107.5t-62 -81.5q-18 -13 -42.5 -22.5t-55 -16t-67 -9.5t-78.5 -3zM191 616q-11 0 -19 8t-8 18q0 11 8 19t19 8t18.5 -8t7.5 -19q0 -10 -7.5 -18t-18.5 -8z
M178 -191q-11 0 -19 8t-8 18q0 11 8 19t19 8t18.5 -8t7.5 -19q0 -10 -7.5 -18t-18.5 -8z" />
    <glyph glyph-name="uni06A3.medi" unicode="&#x6a3;" horiz-adv-x="339" 
d="M0 -5l4 22q20 0 41 2.5t41.5 8t40 13.5t37.5 19q31 18 54.5 43t37.5 56t14 66q0 29 -9.5 60.5t-29.5 54t-52 22.5q-26 0 -49.5 -19t-38 -50.5t-14.5 -70.5q0 -37 13 -69t36 -55.5t52 -37.5l-28 -8q-21 13 -43 36.5t-37 57t-15 76.5q0 34 10 63.5t27.5 52t40 35t46.5 12.5
q35 0 60 -22.5t39 -58t14 -75.5q0 -29 -8.5 -56t-23.5 -51t-35.5 -44t-44.5 -35q-20 -13 -42 -22t-45 -15t-46.5 -8.5t-46.5 -2.5zM339 -5q-22 0 -58.5 7.5t-71.5 19.5t-53 26l24 11q18 -10 43.5 -19.5t56.5 -16t63 -6.5q7 0 11.5 -2t4.5 -9q0 -6 -5 -8.5t-15 -2.5zM180 520
q-11 0 -19 8t-8 18q0 11 8 19t19 8t18.5 -8t7.5 -19q0 -10 -7.5 -18t-18.5 -8zM173 -192q-11 0 -19 8t-8 18q0 11 8 19t19 8t18.5 -8t7.5 -19q0 -10 -7.5 -18t-18.5 -8z" />
    <glyph glyph-name="uni06A3.fina" unicode="&#x6a3;" horiz-adv-x="809" 
d="M289 -21l7 23q51 0 98.5 4t90.5 11.5t78.5 18.5t62.5 26q38 21 63.5 45t38 52t12.5 61q0 25 -5.5 50t-17 46t-28.5 33.5t-40 12.5q-28 0 -51.5 -20t-37 -54t-13.5 -75q0 -37 14 -66.5t37.5 -51t49.5 -35.5l-30 -8q-20 13 -41.5 34.5t-36.5 53t-15 73.5q0 35 9.5 66
t26.5 55t39.5 37.5t48.5 13.5q34 0 59 -21.5t39.5 -59t14.5 -84.5q0 -27 -7.5 -50.5t-22 -45t-36 -40.5t-50.5 -36q-28 -17 -66.5 -30t-85 -21.5t-98 -13t-107.5 -4.5zM809 -5q-32 0 -64.5 6.5t-63.5 18.5t-57 28l26 11q19 -10 42.5 -19.5t53.5 -16t67 -6.5q7 0 11.5 -2
t4.5 -9q0 -6 -5 -8.5t-15 -2.5zM290 -21q-58 0 -104 12t-78.5 35.5t-50 58t-17.5 80.5q0 23 4 49t9.5 51t11.5 46l22 -6q-6 -19 -11 -42.5t-8.5 -48t-3.5 -47.5q0 -56 27 -92.5t79 -54.5t126 -18l20 -14zM650 520q-11 0 -19 8t-8 18q0 11 8 19t19 8t18.5 -8t7.5 -19
q0 -10 -7.5 -18t-18.5 -8zM320 -192q-11 0 -19 8t-8 18q0 11 8 19t19 8t18.5 -8t7.5 -19q0 -10 -7.5 -18t-18.5 -8z" />
    <glyph glyph-name="uni06A5.init" unicode="&#x6a5;" horiz-adv-x="366" 
d="M0 -5l4 22q30 0 61 2t60.5 7t55.5 13.5t46 21.5q15 10 31.5 29t27.5 55t11 96q0 51 -11 100.5t-33 82t-57 32.5q-29 0 -51.5 -26.5t-35 -66t-12.5 -80.5t15.5 -63.5t39.5 -31.5t49 -9q23 0 51 7t50 19l4 -21q-16 -10 -37.5 -16.5t-41 -9t-30.5 -2.5q-31 0 -59.5 12.5
t-46.5 40.5t-18 73q0 32 8.5 67t24.5 65t39.5 48.5t54.5 18.5q40 0 67 -34.5t40.5 -90.5t13.5 -121q0 -60 -16 -107.5t-62 -81.5q-18 -13 -42.5 -22.5t-55 -16t-67 -9.5t-78.5 -3zM178 -275q-11 0 -19 8t-8 18q0 11 8 19t19 8t18.5 -8t7.5 -19q0 -10 -7.5 -18t-18.5 -8z
M130 -192q-11 0 -19 8t-8 18q0 11 8 19t19 8t18.5 -8t7.5 -19q0 -10 -7.5 -18t-18.5 -8zM225 -192q-11 0 -19 8t-8 18q0 11 8 19t19 8t18.5 -8t7.5 -19q0 -10 -7.5 -18t-18.5 -8z" />
    <glyph glyph-name="uni06A5.medi" unicode="&#x6a5;" horiz-adv-x="339" 
d="M0 -5l4 22q20 0 41 2.5t41.5 8t40 13.5t37.5 19q31 18 54.5 43t37.5 56t14 66q0 29 -9.5 60.5t-29.5 54t-52 22.5q-26 0 -49.5 -19t-38 -50.5t-14.5 -70.5q0 -37 13 -69t36 -55.5t52 -37.5l-28 -8q-21 13 -43 36.5t-37 57t-15 76.5q0 34 10 63.5t27.5 52t40 35t46.5 12.5
q35 0 60 -22.5t39 -58t14 -75.5q0 -29 -8.5 -56t-23.5 -51t-35.5 -44t-44.5 -35q-20 -13 -42 -22t-45 -15t-46.5 -8.5t-46.5 -2.5zM339 -5q-22 0 -58.5 7.5t-71.5 19.5t-53 26l24 11q18 -10 43.5 -19.5t56.5 -16t63 -6.5q7 0 11.5 -2t4.5 -9q0 -6 -5 -8.5t-15 -2.5z
M173 -276q-11 0 -19 8t-8 18q0 11 8 19t19 8t18.5 -8t7.5 -19q0 -10 -7.5 -18t-18.5 -8zM125 -193q-11 0 -19 8t-8 18q0 11 8 19t19 8t18.5 -8t7.5 -19q0 -10 -7.5 -18t-18.5 -8zM220 -193q-11 0 -19 8t-8 18q0 11 8 19t19 8t18.5 -8t7.5 -19q0 -10 -7.5 -18t-18.5 -8z" />
    <glyph glyph-name="uni06A5.fina" unicode="&#x6a5;" horiz-adv-x="809" 
d="M289 -21l7 23q51 0 98.5 4t90.5 11.5t78.5 18.5t62.5 26q38 21 63.5 45t38 52t12.5 61q0 25 -5.5 50t-17 46t-28.5 33.5t-40 12.5q-28 0 -51.5 -20t-37 -54t-13.5 -75q0 -37 14 -66.5t37.5 -51t49.5 -35.5l-30 -8q-20 13 -41.5 34.5t-36.5 53t-15 73.5q0 35 9.5 66
t26.5 55t39.5 37.5t48.5 13.5q34 0 59 -21.5t39.5 -59t14.5 -84.5q0 -27 -7.5 -50.5t-22 -45t-36 -40.5t-50.5 -36q-28 -17 -66.5 -30t-85 -21.5t-98 -13t-107.5 -4.5zM809 -5q-32 0 -64.5 6.5t-63.5 18.5t-57 28l26 11q19 -10 42.5 -19.5t53.5 -16t67 -6.5q7 0 11.5 -2
t4.5 -9q0 -6 -5 -8.5t-15 -2.5zM290 -21q-58 0 -104 12t-78.5 35.5t-50 58t-17.5 80.5q0 23 4 49t9.5 51t11.5 46l22 -6q-6 -19 -11 -42.5t-8.5 -48t-3.5 -47.5q0 -56 27 -92.5t79 -54.5t126 -18l20 -14zM320 -276q-11 0 -19 8t-8 18q0 11 8 19t19 8t18.5 -8t7.5 -19
q0 -10 -7.5 -18t-18.5 -8zM272 -193q-11 0 -19 8t-8 18q0 11 8 19t19 8t18.5 -8t7.5 -19q0 -10 -7.5 -18t-18.5 -8zM367 -193q-11 0 -19 8t-8 18q0 11 8 19t19 8t18.5 -8t7.5 -19q0 -10 -7.5 -18t-18.5 -8z" />
    <glyph glyph-name="uni06A7.fina" unicode="&#x6a7;" horiz-adv-x="703" 
d="M295 -272q-54 0 -100 13.5t-81 41.5t-54.5 72.5t-19.5 106.5q0 10 3 38.5t15 70t39 89.5l21 -11q-13 -22 -25.5 -50.5t-20.5 -62t-8 -70.5q0 -82 34 -128.5t88 -66t115 -19.5q29 0 65 4.5t72.5 17.5t69.5 36.5t58 62t36 94.5q4 19 6 43.5t2 47.5q0 65 -12 116.5t-34.5 82
t-54.5 30.5q-23 0 -41 -16t-31 -42.5t-20 -57t-7 -60.5q0 -31 9.5 -50t28 -28.5t44.5 -12.5t58 -3h157q7 0 11.5 -2t4.5 -9q0 -6 -5 -8.5t-15 -2.5h-157q-27 0 -55.5 4t-52 15.5t-38 34t-14.5 59.5q0 33 8 68.5t23.5 66.5t39.5 50t56 19q40 0 66.5 -34t40.5 -91.5t14 -129.5
q0 -28 -3 -56t-8 -51q-17 -71 -53.5 -115t-83.5 -67t-97 -31.5t-94 -8.5zM514 447q-11 0 -19 8t-8 18q0 11 8 19t19 8t18.5 -8t7.5 -19q0 -10 -7.5 -18t-18.5 -8z" />
    <glyph glyph-name="uni06A8.init" unicode="&#x6a8;" horiz-adv-x="366" 
d="M0 -5l4 22q30 0 61 2t60.5 7t55.5 13.5t46 21.5q15 10 31.5 29t27.5 55t11 96q0 51 -11 100.5t-33 82t-57 32.5q-29 0 -51.5 -26.5t-35 -66t-12.5 -80.5t15.5 -63.5t39.5 -31.5t49 -9q23 0 51 7t50 19l4 -21q-16 -10 -37.5 -16.5t-41 -9t-30.5 -2.5q-31 0 -59.5 12.5
t-46.5 40.5t-18 73q0 32 8.5 67t24.5 65t39.5 48.5t54.5 18.5q40 0 67 -34.5t40.5 -90.5t13.5 -121q0 -60 -16 -107.5t-62 -81.5q-18 -13 -42.5 -22.5t-55 -16t-67 -9.5t-78.5 -3zM192 699q-10 0 -18 8t-8 19t8 18.5t18 7.5q11 0 19 -7.5t8 -18.5t-8 -19t-19 -8zM145 616
q-10 0 -18 8t-8 19t8 18.5t18 7.5q11 0 19 -7.5t8 -18.5t-8 -19t-19 -8zM240 616q-10 0 -18 8t-8 19t8 18.5t18 7.5q11 0 19 -7.5t8 -18.5t-8 -19t-19 -8z" />
    <glyph glyph-name="uni06A8.medi" unicode="&#x6a8;" horiz-adv-x="339" 
d="M0 -5l4 22q20 0 41 2.5t41.5 8t40 13.5t37.5 19q31 18 54.5 43t37.5 56t14 66q0 29 -9.5 60.5t-29.5 54t-52 22.5q-26 0 -49.5 -19t-38 -50.5t-14.5 -70.5q0 -37 13 -69t36 -55.5t52 -37.5l-28 -8q-21 13 -43 36.5t-37 57t-15 76.5q0 34 10 63.5t27.5 52t40 35t46.5 12.5
q35 0 60 -22.5t39 -58t14 -75.5q0 -29 -8.5 -56t-23.5 -51t-35.5 -44t-44.5 -35q-20 -13 -42 -22t-45 -15t-46.5 -8.5t-46.5 -2.5zM339 -5q-22 0 -58.5 7.5t-71.5 19.5t-53 26l24 11q18 -10 43.5 -19.5t56.5 -16t63 -6.5q7 0 11.5 -2t4.5 -9q0 -6 -5 -8.5t-15 -2.5zM181 603
q-10 0 -18 8t-8 19t8 18.5t18 7.5q11 0 19 -7.5t8 -18.5t-8 -19t-19 -8zM134 520q-10 0 -18 8t-8 19t8 18.5t18 7.5q11 0 19 -7.5t8 -18.5t-8 -19t-19 -8zM229 520q-10 0 -18 8t-8 19t8 18.5t18 7.5q11 0 19 -7.5t8 -18.5t-8 -19t-19 -8z" />
    <glyph glyph-name="uni06A8.fina" unicode="&#x6a8;" horiz-adv-x="703" 
d="M295 -272q-54 0 -100 13.5t-81 41.5t-54.5 72.5t-19.5 106.5q0 10 3 38.5t15 70t39 89.5l21 -11q-13 -22 -25.5 -50.5t-20.5 -62t-8 -70.5q0 -82 34 -128.5t88 -66t115 -19.5q29 0 65 4.5t72.5 17.5t69.5 36.5t58 62t36 94.5q4 19 6 43.5t2 47.5q0 65 -12 116.5t-34.5 82
t-54.5 30.5q-23 0 -41 -16t-31 -42.5t-20 -57t-7 -60.5q0 -31 9.5 -50t28 -28.5t44.5 -12.5t58 -3h157q7 0 11.5 -2t4.5 -9q0 -6 -5 -8.5t-15 -2.5h-157q-27 0 -55.5 4t-52 15.5t-38 34t-14.5 59.5q0 33 8 68.5t23.5 66.5t39.5 50t56 19q40 0 66.5 -34t40.5 -91.5t14 -129.5
q0 -28 -3 -56t-8 -51q-17 -71 -53.5 -115t-83.5 -67t-97 -31.5t-94 -8.5zM515 530q-10 0 -18 8t-8 19t8 18.5t18 7.5q11 0 19 -7.5t8 -18.5t-8 -19t-19 -8zM468 447q-10 0 -18 8t-8 19t8 18.5t18 7.5q11 0 19 -7.5t8 -18.5t-8 -19t-19 -8zM563 447q-10 0 -18 8t-8 19t8 18.5
t18 7.5q11 0 19 -7.5t8 -18.5t-8 -19t-19 -8z" />
    <glyph glyph-name="uni06AA.init" unicode="&#x6aa;" horiz-adv-x="677" 
d="M0 -5l4 22h237q84 0 149.5 7t111.5 20.5t69.5 34.5t23.5 49q0 18 -8.5 35t-30.5 32.5t-63.5 29t-107.5 23.5q-91 14 -148.5 23.5t-84.5 25.5t-28 49q0 36 27.5 69.5t73 62.5t101 52.5t110.5 40.5l5 -23q-97 -29 -162 -65t-98 -71.5t-33 -63.5q0 -23 25 -35t78 -20.5
t137 -21.5q41 -6 81.5 -16t74 -25.5t53.5 -39.5t20 -59q0 -44 -33.5 -71t-88 -41t-121 -19t-132.5 -5h-242z" />
    <glyph glyph-name="uni06AA.medi" unicode="&#x6aa;" horiz-adv-x="708" 
d="M708 -5q-34 0 -61.5 5.5t-51 18t-46.5 31.5l17 15q30 -24 63.5 -36t82.5 -12q11 0 13.5 -3.5t2.5 -7.5q0 -5 -4.5 -8t-15.5 -3zM0 -5l4 22h237q84 0 149.5 7t111.5 20.5t69.5 34.5t23.5 49q0 18 -8.5 35t-30.5 32.5t-63.5 29t-107.5 23.5q-91 14 -148.5 23.5t-84.5 25.5
t-28 49q0 36 27.5 69.5t73 62.5t101 52.5t110.5 40.5l5 -23q-97 -29 -162 -65t-98 -71.5t-33 -63.5q0 -23 25 -35t78 -20.5t137 -21.5q41 -6 81.5 -16t74 -25.5t53.5 -39.5t20 -59q0 -44 -33.5 -71t-88 -41t-121 -19t-132.5 -5h-242z" />
    <glyph glyph-name="uni06AA.fina" unicode="&#x6aa;" horiz-adv-x="929" 
d="M929 -5q-34 0 -61.5 5.5t-51 18t-46.5 31.5l17 15q30 -24 63.5 -36t82.5 -12q11 0 13.5 -3.5t2.5 -7.5q0 -5 -4.5 -8t-15.5 -3zM463 -15q-28 0 -75 1t-103.5 3t-113.5 5.5t-106 9.5l2 22q49 -5 107.5 -9t116 -6t103.5 -3t68 -1q84 0 149.5 8.5t111.5 24t69.5 38
t23.5 50.5q0 18 -8.5 35t-30.5 32.5t-63.5 29t-107.5 23.5q-91 14 -148.5 23.5t-84.5 25.5t-28 49q0 36 27.5 69.5t73 62.5t101 52.5t110.5 40.5l5 -23q-97 -29 -162 -65t-98 -71.5t-33 -63.5q0 -23 25 -35t78 -20.5t137 -21.5q41 -6 81.5 -16t74 -25.5t53.5 -39.5t20 -59
q0 -44 -33.5 -72.5t-88 -44.5t-121 -22.5t-132.5 -6.5z" />
    <glyph glyph-name="uni06AB.init" unicode="&#x6ab;" horiz-adv-x="328" 
d="M255 521q-29 0 -49.5 21t-20.5 50t20.5 49.5t49.5 20.5t50 -20.5t21 -49.5t-21 -50t-50 -21zM255 541q20 0 35 15t15 36q0 20 -15 35t-35 15t-34.5 -15t-14.5 -35q0 -21 14.5 -36t34.5 -15zM0 -5l4 22h78q55 0 86.5 12t46 31.5t18 42t3.5 43.5q0 43 -21 91t-65 104
q-39 50 -62.5 79.5t-36 45t-16.5 22t-4 9.5q0 8 2 13.5t5.5 10t7.5 7.5l58 46t61.5 46t69.5 48t81 52l12 -19q-42 -27 -82 -54t-75.5 -53.5t-66.5 -51t-57 -46.5v12q39 -51 77 -97t68 -89.5t48.5 -87t18.5 -90.5q0 -30 -7 -56.5t-26.5 -47.5t-54.5 -33t-90 -12h-81z" />
    <glyph glyph-name="uni06AB.medi" unicode="&#x6ab;" horiz-adv-x="390" 
d="M253 519q-29 0 -49.5 21t-20.5 50t20.5 49.5t49.5 20.5t50 -20.5t21 -49.5t-21 -50t-50 -21zM253 539q20 0 35 15t15 36q0 20 -15 35t-35 15t-34.5 -15t-14.5 -35q0 -21 14.5 -36t34.5 -15zM0 -5l4 22h82q53 0 86.5 13.5t49 42t15.5 72.5q0 35 -14.5 72t-38 74t-49.5 71
t-49.5 62t-38 47t-14.5 26q0 8 2 13.5t5.5 9.5t7.5 8q24 22 54.5 45.5t65 47.5t72 49t76.5 50l12 -20q-40 -25 -80 -52.5t-77.5 -54.5t-69 -52t-52.5 -45l2 10q23 -34 52.5 -69t59.5 -74.5t55 -84.5t39 -98q14 -51 34 -87.5t46 -56t57 -19.5q7 0 11.5 -2t4.5 -9
q0 -6 -5 -8.5t-15 -2.5q-31 0 -60 19.5t-51 55.5t-34 85l14 -13q0 -43 -13.5 -71.5t-37 -45t-55 -23.5t-68.5 -7h-85z" />
    <glyph glyph-name="uni06AB.fina" unicode="&#x6ab;" horiz-adv-x="776" 
d="M633 522q-29 0 -49.5 21t-20.5 50t20.5 49.5t49.5 20.5t50 -20.5t21 -49.5t-21 -50t-50 -21zM633 542q20 0 35 15t15 36q0 20 -15 35t-35 15t-34.5 -15t-14.5 -35q0 -21 14.5 -36t34.5 -15zM290 -21l6 23q69 0 128.5 6.5t104 22.5t69 43t24.5 69q0 33 -15.5 70t-40 74
t-51.5 71.5t-51.5 63t-40 48.5t-15.5 27q0 8 2 13.5t5.5 10t7.5 7.5q34 27 75 58t89 65t104 69l13 -19q-55 -35 -109.5 -74t-99 -73.5t-71.5 -57.5l2 10q24 -34 56.5 -72.5t64.5 -80.5t57.5 -85.5t37.5 -87.5q5 -18 14.5 -45t25.5 -54t40 -45.5t58 -18.5q7 0 11.5 -2t4.5 -9
q0 -6 -5 -8.5t-15 -2.5q-32 0 -60.5 18.5t-50.5 54.5t-35 87l15 -13q0 -47 -26 -78.5t-73.5 -50t-112.5 -26.5t-143 -8zM290 -21q-58 0 -104 12t-78.5 35.5t-50 58t-17.5 80.5q0 23 4 49t9.5 51t11.5 46l22 -6q-6 -19 -11 -42.5t-8.5 -48t-3.5 -47.5q0 -56 27 -92.5
t79 -54.5t126 -18l20 -14z" />
    <glyph glyph-name="uni06AC.init" unicode="&#x6ac;" horiz-adv-x="328" 
d="M0 -5l4 22h78q55 0 86.5 12t46 31.5t18 42t3.5 43.5q0 43 -21 91t-65 104q-39 50 -62.5 79.5t-36 45t-16.5 22t-4 9.5q0 8 2 13.5t5.5 10t7.5 7.5l58 46t61.5 46t69.5 48t81 52l12 -19q-42 -27 -82 -54t-75.5 -53.5t-66.5 -51t-57 -46.5v12q39 -51 77 -97t68 -89.5
t48.5 -87t18.5 -90.5q0 -30 -7 -56.5t-26.5 -47.5t-54.5 -33t-90 -12h-81zM153 771q-11 0 -19 8t-8 18q0 11 8 19t19 8t18.5 -8t7.5 -19q0 -10 -7.5 -18t-18.5 -8z" />
    <glyph glyph-name="uni06AC.medi" unicode="&#x6ac;" horiz-adv-x="390" 
d="M0 -5l4 22h82q53 0 86.5 13.5t49 42t15.5 72.5q0 35 -14.5 72t-38 74t-49.5 71t-49.5 62t-38 47t-14.5 26q0 8 2 13.5t5.5 9.5t7.5 8q24 22 54.5 45.5t65 47.5t72 49t76.5 50l12 -20q-40 -25 -80 -52.5t-77.5 -54.5t-69 -52t-52.5 -45l2 10q23 -34 52.5 -69t59.5 -74.5
t55 -84.5t39 -98q14 -51 34 -87.5t46 -56t57 -19.5q7 0 11.5 -2t4.5 -9q0 -6 -5 -8.5t-15 -2.5q-31 0 -60 19.5t-51 55.5t-34 85l14 -13q0 -43 -13.5 -71.5t-37 -45t-55 -23.5t-68.5 -7h-85zM153 771q-11 0 -19 8t-8 18q0 11 8 19t19 8t18.5 -8t7.5 -19q0 -10 -7.5 -18
t-18.5 -8z" />
    <glyph glyph-name="uni06AC.fina" unicode="&#x6ac;" horiz-adv-x="684" 
d="M290 -21l6 23q79 0 133.5 8.5t88 28t48.5 51t13 76.5l-19 548h23l20 -542q2 -52 6 -86.5t21.5 -51.5t57.5 -17q7 0 11.5 -2t4.5 -8q0 -7 -5 -9.5t-15 -2.5q-21 0 -43.5 8t-37.5 32.5t-15 75.5h11q-9 -41 -35 -67t-66 -40t-92.5 -19.5t-115.5 -5.5zM283 204l-6 21
q50 15 76 29t35.5 26t9.5 20q0 17 -14 29.5t-32 25t-32 28t-14 38.5q0 13 9 31.5t31.5 41t63.5 46.5l10 -19q-37 -22 -64.5 -49.5t-27.5 -50.5q0 -18 14 -31t32 -25.5t32 -27.5t14 -37q0 -12 -7.5 -24.5t-24 -24.5t-42.5 -23.5t-63 -23.5zM290 -21q-58 0 -104 12t-78.5 35.5
t-50 58t-17.5 80.5q0 23 4 49t9.5 51t11.5 46l22 -6q-6 -19 -11 -42.5t-8.5 -48t-3.5 -47.5q0 -56 27 -92.5t79 -54.5t126 -18l20 -14zM350 663q-11 0 -19 8t-8 18q0 11 8 19t19 8t18.5 -8t7.5 -19q0 -10 -7.5 -18t-18.5 -8z" />
    <glyph glyph-name="uni06AE.init" unicode="&#x6ae;" horiz-adv-x="328" 
d="M0 -5l4 22h78q55 0 86.5 12t46 31.5t18 42t3.5 43.5q0 43 -21 91t-65 104q-39 50 -62.5 79.5t-36 45t-16.5 22t-4 9.5q0 8 2 13.5t5.5 10t7.5 7.5l58 46t61.5 46t69.5 48t81 52l12 -19q-42 -27 -82 -54t-75.5 -53.5t-66.5 -51t-57 -46.5v12q39 -51 77 -97t68 -89.5
t48.5 -87t18.5 -90.5q0 -30 -7 -56.5t-26.5 -47.5t-54.5 -33t-90 -12h-81zM137 -250q-11 0 -19 8t-8 18q0 11 8 19t19 8t18.5 -8t7.5 -19q0 -10 -7.5 -18t-18.5 -8zM89 -167q-11 0 -19 8t-8 18q0 11 8 19t19 8t18.5 -8t7.5 -19q0 -10 -7.5 -18t-18.5 -8zM184 -167
q-11 0 -19 8t-8 18q0 11 8 19t19 8t18.5 -8t7.5 -19q0 -10 -7.5 -18t-18.5 -8z" />
    <glyph glyph-name="uni06AE.medi" unicode="&#x6ae;" horiz-adv-x="390" 
d="M0 -5l4 22h82q53 0 86.5 13.5t49 42t15.5 72.5q0 35 -14.5 72t-38 74t-49.5 71t-49.5 62t-38 47t-14.5 26q0 8 2 13.5t5.5 9.5t7.5 8q24 22 54.5 45.5t65 47.5t72 49t76.5 50l12 -20q-40 -25 -80 -52.5t-77.5 -54.5t-69 -52t-52.5 -45l2 10q23 -34 52.5 -69t59.5 -74.5
t55 -84.5t39 -98q14 -51 34 -87.5t46 -56t57 -19.5q7 0 11.5 -2t4.5 -9q0 -6 -5 -8.5t-15 -2.5q-31 0 -60 19.5t-51 55.5t-34 85l14 -13q0 -43 -13.5 -71.5t-37 -45t-55 -23.5t-68.5 -7h-85zM107 -250q-11 0 -19 8t-8 18q0 11 8 19t19 8t18.5 -8t7.5 -19q0 -10 -7.5 -18
t-18.5 -8zM59 -167q-11 0 -19 8t-8 18q0 11 8 19t19 8t18.5 -8t7.5 -19q0 -10 -7.5 -18t-18.5 -8zM154 -167q-11 0 -19 8t-8 18q0 11 8 19t19 8t18.5 -8t7.5 -19q0 -10 -7.5 -18t-18.5 -8z" />
    <glyph glyph-name="uni06AE.fina" unicode="&#x6ae;" horiz-adv-x="684" 
d="M290 -21l6 23q79 0 133.5 8.5t88 28t48.5 51t13 76.5l-19 548h23l20 -542q2 -52 6 -86.5t21.5 -51.5t57.5 -17q7 0 11.5 -2t4.5 -8q0 -7 -5 -9.5t-15 -2.5q-21 0 -43.5 8t-37.5 32.5t-15 75.5h11q-9 -41 -35 -67t-66 -40t-92.5 -19.5t-115.5 -5.5zM283 204l-6 21
q50 15 76 29t35.5 26t9.5 20q0 17 -14 29.5t-32 25t-32 28t-14 38.5q0 13 9 31.5t31.5 41t63.5 46.5l10 -19q-37 -22 -64.5 -49.5t-27.5 -50.5q0 -18 14 -31t32 -25.5t32 -27.5t14 -37q0 -12 -7.5 -24.5t-24 -24.5t-42.5 -23.5t-63 -23.5zM290 -21q-58 0 -104 12t-78.5 35.5
t-50 58t-17.5 80.5q0 23 4 49t9.5 51t11.5 46l22 -6q-6 -19 -11 -42.5t-8.5 -48t-3.5 -47.5q0 -56 27 -92.5t79 -54.5t126 -18l20 -14zM305 -271q-11 0 -19 8t-8 18q0 11 8 19t19 8t18.5 -8t7.5 -19q0 -10 -7.5 -18t-18.5 -8zM257 -188q-11 0 -19 8t-8 18q0 11 8 19t19 8
t18.5 -8t7.5 -19q0 -10 -7.5 -18t-18.5 -8zM352 -188q-11 0 -19 8t-8 18q0 11 8 19t19 8t18.5 -8t7.5 -19q0 -10 -7.5 -18t-18.5 -8z" />
    <glyph glyph-name="uni06B0.init" unicode="&#x6b0;" horiz-adv-x="328" 
d="M258 523q-29 0 -49.5 21t-20.5 50t20.5 49.5t49.5 20.5t50 -20.5t21 -49.5t-21 -50t-50 -21zM258 543q20 0 35 15t15 36q0 20 -15 35t-35 15t-34.5 -15t-14.5 -35q0 -21 14.5 -36t34.5 -15zM9 590l-13 17q39 30 77.5 58.5t84 60t103.5 69.5l12 -18q-58 -38 -103.5 -70
t-84 -60t-76.5 -57zM0 -5l4 22h78q55 0 86.5 12t46 31.5t18 42t3.5 43.5q0 43 -21 91t-65 104q-39 50 -62.5 79.5t-36 45t-16.5 22t-4 9.5q0 8 2 13.5t5.5 10t7.5 7.5l58 46t61.5 46t69.5 48t81 52l12 -19q-42 -27 -82 -54t-75.5 -53.5t-66.5 -51t-57 -46.5v12
q39 -51 77 -97t68 -89.5t48.5 -87t18.5 -90.5q0 -30 -7 -56.5t-26.5 -47.5t-54.5 -33t-90 -12h-81z" />
    <glyph glyph-name="uni06B0.medi" unicode="&#x6b0;" horiz-adv-x="390" 
d="M254 520q-29 0 -49.5 21t-20.5 50t20.5 49.5t49.5 20.5t50 -20.5t21 -49.5t-21 -50t-50 -21zM254 540q20 0 35 15t15 36q0 20 -15 35t-35 15t-34.5 -15t-14.5 -35q0 -21 14.5 -36t34.5 -15zM5 590l-13 17q39 30 77.5 58.5t84 60t103.5 69.5l12 -18q-58 -38 -103.5 -70
t-84 -60t-76.5 -57zM0 -5l4 22h82q53 0 86.5 13.5t49 42t15.5 72.5q0 35 -14.5 72t-38 74t-49.5 71t-49.5 62t-38 47t-14.5 26q0 8 2 13.5t5.5 9.5t7.5 8q24 22 54.5 45.5t65 47.5t72 49t76.5 50l12 -20q-40 -25 -80 -52.5t-77.5 -54.5t-69 -52t-52.5 -45l2 10
q23 -34 52.5 -69t59.5 -74.5t55 -84.5t39 -98q14 -51 34 -87.5t46 -56t57 -19.5q7 0 11.5 -2t4.5 -9q0 -6 -5 -8.5t-15 -2.5q-31 0 -60 19.5t-51 55.5t-34 85l14 -13q0 -43 -13.5 -71.5t-37 -45t-55 -23.5t-68.5 -7h-85z" />
    <glyph glyph-name="uni06B0.fina" unicode="&#x6b0;" horiz-adv-x="776" 
d="M630 520q-29 0 -49.5 21t-20.5 50t20.5 49.5t49.5 20.5t50 -20.5t21 -49.5t-21 -50t-50 -21zM630 540q20 0 35 15t15 36q0 20 -15 35t-35 15t-34.5 -15t-14.5 -35q0 -21 14.5 -36t34.5 -15zM380 590l-13 17q39 30 77.5 58.5t84 60t103.5 69.5l12 -18q-58 -38 -103.5 -70
t-84 -60t-76.5 -57zM290 -21l6 23q69 0 128.5 6.5t104 22.5t69 43t24.5 69q0 33 -15.5 70t-40 74t-51.5 71.5t-51.5 63t-40 48.5t-15.5 27q0 8 2 13.5t5.5 10t7.5 7.5q34 27 75 58t89 65t104 69l13 -19q-55 -35 -109.5 -74t-99 -73.5t-71.5 -57.5l2 10q24 -34 56.5 -72.5
t64.5 -80.5t57.5 -85.5t37.5 -87.5q5 -18 14.5 -45t25.5 -54t40 -45.5t58 -18.5q7 0 11.5 -2t4.5 -9q0 -6 -5 -8.5t-15 -2.5q-32 0 -60.5 18.5t-50.5 54.5t-35 87l15 -13q0 -47 -26 -78.5t-73.5 -50t-112.5 -26.5t-143 -8zM290 -21q-58 0 -104 12t-78.5 35.5t-50 58
t-17.5 80.5q0 23 4 49t9.5 51t11.5 46l22 -6q-6 -19 -11 -42.5t-8.5 -48t-3.5 -47.5q0 -56 27 -92.5t79 -54.5t126 -18l20 -14z" />
    <glyph glyph-name="uni06B2.init" unicode="&#x6b2;" horiz-adv-x="328" 
d="M9 590l-13 17q39 30 77.5 58.5t84 60t103.5 69.5l12 -18q-58 -38 -103.5 -70t-84 -60t-76.5 -57zM0 -5l4 22h78q55 0 86.5 12t46 31.5t18 42t3.5 43.5q0 43 -21 91t-65 104q-39 50 -62.5 79.5t-36 45t-16.5 22t-4 9.5q0 8 2 13.5t5.5 10t7.5 7.5l58 46t61.5 46t69.5 48
t81 52l12 -19q-42 -27 -82 -54t-75.5 -53.5t-66.5 -51t-57 -46.5v12q39 -51 77 -97t68 -89.5t48.5 -87t18.5 -90.5q0 -30 -7 -56.5t-26.5 -47.5t-54.5 -33t-90 -12h-81zM191 -165q-11 0 -19 8t-8 18q0 11 8 19t19 8t18.5 -8t7.5 -19q0 -10 -7.5 -18t-18.5 -8zM96 -165
q-11 0 -19 8t-8 18q0 11 8 19t19 8t18.5 -8t7.5 -19q0 -10 -7.5 -18t-18.5 -8z" />
    <glyph glyph-name="uni06B2.medi" unicode="&#x6b2;" horiz-adv-x="390" 
d="M5 590l-13 17q39 30 77.5 58.5t84 60t103.5 69.5l12 -18q-58 -38 -103.5 -70t-84 -60t-76.5 -57zM0 -5l4 22h82q53 0 86.5 13.5t49 42t15.5 72.5q0 35 -14.5 72t-38 74t-49.5 71t-49.5 62t-38 47t-14.5 26q0 8 2 13.5t5.5 9.5t7.5 8q24 22 54.5 45.5t65 47.5t72 49
t76.5 50l12 -20q-40 -25 -80 -52.5t-77.5 -54.5t-69 -52t-52.5 -45l2 10q23 -34 52.5 -69t59.5 -74.5t55 -84.5t39 -98q14 -51 34 -87.5t46 -56t57 -19.5q7 0 11.5 -2t4.5 -9q0 -6 -5 -8.5t-15 -2.5q-31 0 -60 19.5t-51 55.5t-34 85l14 -13q0 -43 -13.5 -71.5t-37 -45
t-55 -23.5t-68.5 -7h-85zM211 -165q-11 0 -19 8t-8 18q0 11 8 19t19 8t18.5 -8t7.5 -19q0 -10 -7.5 -18t-18.5 -8zM116 -165q-11 0 -19 8t-8 18q0 11 8 19t19 8t18.5 -8t7.5 -19q0 -10 -7.5 -18t-18.5 -8z" />
    <glyph glyph-name="uni06B2.fina" unicode="&#x6b2;" horiz-adv-x="776" 
d="M380 590l-13 17q39 30 77.5 58.5t84 60t103.5 69.5l12 -18q-58 -38 -103.5 -70t-84 -60t-76.5 -57zM290 -21l6 23q69 0 128.5 6.5t104 22.5t69 43t24.5 69q0 33 -15.5 70t-40 74t-51.5 71.5t-51.5 63t-40 48.5t-15.5 27q0 8 2 13.5t5.5 10t7.5 7.5q34 27 75 58t89 65
t104 69l13 -19q-55 -35 -109.5 -74t-99 -73.5t-71.5 -57.5l2 10q24 -34 56.5 -72.5t64.5 -80.5t57.5 -85.5t37.5 -87.5q5 -18 14.5 -45t25.5 -54t40 -45.5t58 -18.5q7 0 11.5 -2t4.5 -9q0 -6 -5 -8.5t-15 -2.5q-32 0 -60.5 18.5t-50.5 54.5t-35 87l15 -13q0 -47 -26 -78.5
t-73.5 -50t-112.5 -26.5t-143 -8zM290 -21q-58 0 -104 12t-78.5 35.5t-50 58t-17.5 80.5q0 23 4 49t9.5 51t11.5 46l22 -6q-6 -19 -11 -42.5t-8.5 -48t-3.5 -47.5q0 -56 27 -92.5t79 -54.5t126 -18l20 -14zM386 -186q-11 0 -19 8t-8 18q0 11 8 19t19 8t18.5 -8t7.5 -19
q0 -10 -7.5 -18t-18.5 -8zM291 -186q-11 0 -19 8t-8 18q0 11 8 19t19 8t18.5 -8t7.5 -19q0 -10 -7.5 -18t-18.5 -8z" />
    <glyph glyph-name="uni06B4.init" unicode="&#x6b4;" horiz-adv-x="328" 
d="M59 861q-10 0 -16.5 7t-6.5 16t6.5 15.5t16.5 6.5q9 0 15.5 -6.5t6.5 -15.5t-6.5 -16t-15.5 -7zM49 735q-10 0 -16.5 7t-6.5 16t6.5 15.5t16.5 6.5q9 0 15.5 -6.5t6.5 -15.5t-6.5 -16t-15.5 -7zM158 787q-10 0 -16.5 7t-6.5 16t6.5 15.5t16.5 6.5q9 0 15.5 -6.5
t6.5 -15.5t-6.5 -16t-15.5 -7zM9 590l-13 17q39 30 77.5 58.5t84 60t103.5 69.5l12 -18q-58 -38 -103.5 -70t-84 -60t-76.5 -57zM0 -5l4 22h78q55 0 86.5 12t46 31.5t18 42t3.5 43.5q0 43 -21 91t-65 104q-39 50 -62.5 79.5t-36 45t-16.5 22t-4 9.5q0 8 2 13.5t5.5 10
t7.5 7.5l58 46t61.5 46t69.5 48t81 52l12 -19q-42 -27 -82 -54t-75.5 -53.5t-66.5 -51t-57 -46.5v12q39 -51 77 -97t68 -89.5t48.5 -87t18.5 -90.5q0 -30 -7 -56.5t-26.5 -47.5t-54.5 -33t-90 -12h-81z" />
    <glyph glyph-name="uni06B4.medi" unicode="&#x6b4;" horiz-adv-x="390" 
d="M59 860q-10 0 -16.5 7t-6.5 16t6.5 15.5t16.5 6.5q9 0 15.5 -6.5t6.5 -15.5t-6.5 -16t-15.5 -7zM49 734q-10 0 -16.5 7t-6.5 16t6.5 15.5t16.5 6.5q9 0 15.5 -6.5t6.5 -15.5t-6.5 -16t-15.5 -7zM158 786q-10 0 -16.5 7t-6.5 16t6.5 15.5t16.5 6.5q9 0 15.5 -6.5
t6.5 -15.5t-6.5 -16t-15.5 -7zM5 590l-13 17q39 30 77.5 58.5t84 60t103.5 69.5l12 -18q-58 -38 -103.5 -70t-84 -60t-76.5 -57zM0 -5l4 22h82q53 0 86.5 13.5t49 42t15.5 72.5q0 35 -14.5 72t-38 74t-49.5 71t-49.5 62t-38 47t-14.5 26q0 8 2 13.5t5.5 9.5t7.5 8
q24 22 54.5 45.5t65 47.5t72 49t76.5 50l12 -20q-40 -25 -80 -52.5t-77.5 -54.5t-69 -52t-52.5 -45l2 10q23 -34 52.5 -69t59.5 -74.5t55 -84.5t39 -98q14 -51 34 -87.5t46 -56t57 -19.5q7 0 11.5 -2t4.5 -9q0 -6 -5 -8.5t-15 -2.5q-31 0 -60 19.5t-51 55.5t-34 85l14 -13
q0 -43 -13.5 -71.5t-37 -45t-55 -23.5t-68.5 -7h-85z" />
    <glyph glyph-name="uni06B4.fina" unicode="&#x6b4;" horiz-adv-x="776" 
d="M429 861q-10 0 -16.5 7t-6.5 16t6.5 15.5t16.5 6.5q9 0 15.5 -6.5t6.5 -15.5t-6.5 -16t-15.5 -7zM419 735q-10 0 -16.5 7t-6.5 16t6.5 15.5t16.5 6.5q9 0 15.5 -6.5t6.5 -15.5t-6.5 -16t-15.5 -7zM528 787q-10 0 -16.5 7t-6.5 16t6.5 15.5t16.5 6.5q9 0 15.5 -6.5
t6.5 -15.5t-6.5 -16t-15.5 -7zM380 590l-13 17q39 30 77.5 58.5t84 60t103.5 69.5l12 -18q-58 -38 -103.5 -70t-84 -60t-76.5 -57zM290 -21l6 23q69 0 128.5 6.5t104 22.5t69 43t24.5 69q0 33 -15.5 70t-40 74t-51.5 71.5t-51.5 63t-40 48.5t-15.5 27q0 8 2 13.5t5.5 10
t7.5 7.5q34 27 75 58t89 65t104 69l13 -19q-55 -35 -109.5 -74t-99 -73.5t-71.5 -57.5l2 10q24 -34 56.5 -72.5t64.5 -80.5t57.5 -85.5t37.5 -87.5q5 -18 14.5 -45t25.5 -54t40 -45.5t58 -18.5q7 0 11.5 -2t4.5 -9q0 -6 -5 -8.5t-15 -2.5q-32 0 -60.5 18.5t-50.5 54.5
t-35 87l15 -13q0 -47 -26 -78.5t-73.5 -50t-112.5 -26.5t-143 -8zM290 -21q-58 0 -104 12t-78.5 35.5t-50 58t-17.5 80.5q0 23 4 49t9.5 51t11.5 46l22 -6q-6 -19 -11 -42.5t-8.5 -48t-3.5 -47.5q0 -56 27 -92.5t79 -54.5t126 -18l20 -14z" />
    <glyph glyph-name="uni06B5.init" unicode="&#x6b5;" horiz-adv-x="168" 
d="M0 -5l4 22q44 0 64.5 15.5t26 50t3.5 92.5l-19 539h23l20 -537q2 -50 -2 -84.5t-17 -56t-38 -31.5t-65 -10zM80 841q-6 15 -14 41t-17 55t-17.5 55t-14.5 42l19 8q5 -10 13 -34.5t17.5 -54.5t17.5 -56.5t13 -40.5l7 -13zM104 843l-19 6q5 17 13 46.5t16.5 61.5t15 56.5
t8.5 32.5l21 -6q-3 -10 -10 -35.5t-15.5 -57t-16.5 -60t-13 -44.5z" />
    <glyph glyph-name="uni06B5.medi" unicode="&#x6b5;" horiz-adv-x="214" 
d="M0 -5l4 22q43 0 64.5 22t27.5 64t4 102l-17 509h25l16 -507q3 -78 14.5 -119t31.5 -56t48 -15q7 0 11.5 -2t4.5 -9q0 -6 -5 -8.5t-15 -2.5q-28 0 -49.5 15.5t-35 41.5t-19.5 55h10q-7 -34 -20.5 -59t-37 -39t-62.5 -14zM83 841q-6 15 -14 41t-17 55t-17.5 55t-14.5 42
l19 8q5 -10 13 -34.5t17.5 -54.5t17.5 -56.5t13 -40.5l7 -13zM107 843l-19 6q5 17 13 46.5t16.5 61.5t15 56.5t8.5 32.5l21 -6q-3 -10 -10 -35.5t-15.5 -57t-16.5 -60t-13 -44.5z" />
    <glyph glyph-name="uni06B5.fina" unicode="&#x6b5;" horiz-adv-x="562" 
d="M40 -32q0 21 4 48.5t14 63t29 79.5l22 -11q-14 -32 -24 -63t-15 -61t-5 -60q0 -52 19 -90.5t56.5 -59t93.5 -20.5q69 0 111 36.5t60.5 119.5t13.5 223l-17 541h24l18 -539q2 -42 19.5 -78t45 -58t57.5 -22q7 0 11.5 -2t4.5 -9q0 -6 -5 -8.5t-15 -2.5q-22 0 -43 9.5
t-38.5 26t-28.5 36.5t-11 41l1 -10q-1 -69 -10 -128.5t-32 -104.5t-63.5 -70t-103.5 -25q-48 0 -84.5 13.5t-60.5 39.5t-36 62.5t-12 82.5zM210 584q-6 15 -14 41t-17 55t-17.5 55t-14.5 42l19 8q5 -10 13 -34.5t17.5 -54.5t17.5 -56.5t13 -40.5l7 -13zM234 586l-19 6
q5 17 13 46.5t16.5 61.5t15 56.5t8.5 32.5l21 -6q-3 -10 -10 -35.5t-15.5 -57t-16.5 -60t-13 -44.5z" />
    <glyph glyph-name="uni06B6.init" unicode="&#x6b6;" horiz-adv-x="168" 
d="M0 -5l4 22q44 0 64.5 15.5t26 50t3.5 92.5l-19 539h23l20 -537q2 -50 -2 -84.5t-17 -56t-38 -31.5t-65 -10zM90 849q-11 0 -19 8t-8 18q0 11 8 19t19 8t18.5 -8t7.5 -19q0 -10 -7.5 -18t-18.5 -8z" />
    <glyph glyph-name="uni06B6.medi" unicode="&#x6b6;" horiz-adv-x="214" 
d="M0 -5l4 22q43 0 64.5 22t27.5 64t4 102l-17 509h25l16 -507q3 -78 14.5 -119t31.5 -56t48 -15q7 0 11.5 -2t4.5 -9q0 -6 -5 -8.5t-15 -2.5q-28 0 -49.5 15.5t-35 41.5t-19.5 55h10q-7 -34 -20.5 -59t-37 -39t-62.5 -14zM93 849q-11 0 -19 8t-8 18q0 11 8 19t19 8t18.5 -8
t7.5 -19q0 -10 -7.5 -18t-18.5 -8z" />
    <glyph glyph-name="uni06B6.fina" unicode="&#x6b6;" horiz-adv-x="562" 
d="M40 -32q0 21 4 48.5t14 63t29 79.5l22 -11q-14 -32 -24 -63t-15 -61t-5 -60q0 -52 19 -90.5t56.5 -59t93.5 -20.5q69 0 111 36.5t60.5 119.5t13.5 223l-17 541h24l18 -539q2 -42 19.5 -78t45 -58t57.5 -22q7 0 11.5 -2t4.5 -9q0 -6 -5 -8.5t-15 -2.5q-22 0 -43 9.5
t-38.5 26t-28.5 36.5t-11 41l1 -10q-1 -69 -10 -128.5t-32 -104.5t-63.5 -70t-103.5 -25q-48 0 -84.5 13.5t-60.5 39.5t-36 62.5t-12 82.5zM220 592q-11 0 -19 8t-8 18q0 11 8 19t19 8t18.5 -8t7.5 -19q0 -10 -7.5 -18t-18.5 -8z" />
    <glyph glyph-name="uni06B7.init" unicode="&#x6b7;" horiz-adv-x="168" 
d="M0 -5l4 22q44 0 64.5 15.5t26 50t3.5 92.5l-19 539h23l20 -537q2 -50 -2 -84.5t-17 -56t-38 -31.5t-65 -10zM91 932q-10 0 -18 8t-8 19t8 18.5t18 7.5q11 0 19 -7.5t8 -18.5t-8 -19t-19 -8zM44 849q-10 0 -18 8t-8 19t8 18.5t18 7.5q11 0 19 -7.5t8 -18.5t-8 -19t-19 -8z
M139 849q-10 0 -18 8t-8 19t8 18.5t18 7.5q11 0 19 -7.5t8 -18.5t-8 -19t-19 -8z" />
    <glyph glyph-name="uni06B7.medi" unicode="&#x6b7;" horiz-adv-x="214" 
d="M0 -5l4 22q43 0 64.5 22t27.5 64t4 102l-17 509h25l16 -507q3 -78 14.5 -119t31.5 -56t48 -15q7 0 11.5 -2t4.5 -9q0 -6 -5 -8.5t-15 -2.5q-28 0 -49.5 15.5t-35 41.5t-19.5 55h10q-7 -34 -20.5 -59t-37 -39t-62.5 -14zM94 932q-10 0 -18 8t-8 19t8 18.5t18 7.5
q11 0 19 -7.5t8 -18.5t-8 -19t-19 -8zM47 849q-10 0 -18 8t-8 19t8 18.5t18 7.5q11 0 19 -7.5t8 -18.5t-8 -19t-19 -8zM142 849q-10 0 -18 8t-8 19t8 18.5t18 7.5q11 0 19 -7.5t8 -18.5t-8 -19t-19 -8z" />
    <glyph glyph-name="uni06B7.fina" unicode="&#x6b7;" horiz-adv-x="562" 
d="M40 -32q0 21 4 48.5t14 63t29 79.5l22 -11q-14 -32 -24 -63t-15 -61t-5 -60q0 -52 19 -90.5t56.5 -59t93.5 -20.5q69 0 111 36.5t60.5 119.5t13.5 223l-17 541h24l18 -539q2 -42 19.5 -78t45 -58t57.5 -22q7 0 11.5 -2t4.5 -9q0 -6 -5 -8.5t-15 -2.5q-22 0 -43 9.5
t-38.5 26t-28.5 36.5t-11 41l1 -10q-1 -69 -10 -128.5t-32 -104.5t-63.5 -70t-103.5 -25q-48 0 -84.5 13.5t-60.5 39.5t-36 62.5t-12 82.5zM221 675q-10 0 -18 8t-8 19t8 18.5t18 7.5q11 0 19 -7.5t8 -18.5t-8 -19t-19 -8zM174 592q-10 0 -18 8t-8 19t8 18.5t18 7.5
q11 0 19 -7.5t8 -18.5t-8 -19t-19 -8zM269 592q-10 0 -18 8t-8 19t8 18.5t18 7.5q11 0 19 -7.5t8 -18.5t-8 -19t-19 -8z" />
    <glyph glyph-name="uni06B8.init" unicode="&#x6b8;" horiz-adv-x="168" 
d="M0 -5l4 22q44 0 64.5 15.5t26 50t3.5 92.5l-19 539h23l20 -537q2 -50 -2 -84.5t-17 -56t-38 -31.5t-65 -10zM79 -250q-11 0 -19 8t-8 18q0 11 8 19t19 8t18.5 -8t7.5 -19q0 -10 -7.5 -18t-18.5 -8zM31 -167q-11 0 -19 8t-8 18q0 11 8 19t19 8t18.5 -8t7.5 -19
q0 -10 -7.5 -18t-18.5 -8zM126 -167q-11 0 -19 8t-8 18q0 11 8 19t19 8t18.5 -8t7.5 -19q0 -10 -7.5 -18t-18.5 -8z" />
    <glyph glyph-name="uni06B8.medi" unicode="&#x6b8;" horiz-adv-x="214" 
d="M0 -5l4 22q43 0 64.5 22t27.5 64t4 102l-17 509h25l16 -507q3 -78 14.5 -119t31.5 -56t48 -15q7 0 11.5 -2t4.5 -9q0 -6 -5 -8.5t-15 -2.5q-28 0 -49.5 15.5t-35 41.5t-19.5 55h10q-7 -34 -20.5 -59t-37 -39t-62.5 -14zM98 -250q-11 0 -19 8t-8 18q0 11 8 19t19 8
t18.5 -8t7.5 -19q0 -10 -7.5 -18t-18.5 -8zM50 -167q-11 0 -19 8t-8 18q0 11 8 19t19 8t18.5 -8t7.5 -19q0 -10 -7.5 -18t-18.5 -8zM145 -167q-11 0 -19 8t-8 18q0 11 8 19t19 8t18.5 -8t7.5 -19q0 -10 -7.5 -18t-18.5 -8z" />
    <glyph glyph-name="uni06B8.fina" unicode="&#x6b8;" horiz-adv-x="562" 
d="M40 -32q0 21 4 48.5t14 63t29 79.5l22 -11q-14 -32 -24 -63t-15 -61t-5 -60q0 -52 19 -90.5t56.5 -59t93.5 -20.5q69 0 111 36.5t60.5 119.5t13.5 223l-17 541h24l18 -539q2 -42 19.5 -78t45 -58t57.5 -22q7 0 11.5 -2t4.5 -9q0 -6 -5 -8.5t-15 -2.5q-22 0 -43 9.5
t-38.5 26t-28.5 36.5t-11 41l1 -10q-1 -69 -10 -128.5t-32 -104.5t-63.5 -70t-103.5 -25q-48 0 -84.5 13.5t-60.5 39.5t-36 62.5t-12 82.5zM237 -480q-11 0 -19 8t-8 18q0 11 8 19t19 8t18.5 -8t7.5 -19q0 -10 -7.5 -18t-18.5 -8zM189 -397q-11 0 -19 8t-8 18q0 11 8 19
t19 8t18.5 -8t7.5 -19q0 -10 -7.5 -18t-18.5 -8zM284 -397q-11 0 -19 8t-8 18q0 11 8 19t19 8t18.5 -8t7.5 -19q0 -10 -7.5 -18t-18.5 -8z" />
    <glyph glyph-name="uni06B9.init" unicode="&#x6b9;" horiz-adv-x="208" 
d="M0 -5l4 22q48 0 71.5 14.5t31 39t7.5 55.5q0 38 -5.5 72.5t-16.5 72t-28 83.5l23 9q16 -43 27.5 -81.5t17.5 -75.5t6 -76q0 -23 -4 -43.5t-13 -37t-25 -29t-39.5 -19t-56.5 -6.5zM88 498q-11 0 -19 8t-8 18q0 11 8 19t19 8t18.5 -8t7.5 -19q0 -10 -7.5 -18t-18.5 -8z
M49 -172q-11 0 -19 8t-8 18q0 11 8 19t19 8t18.5 -8t7.5 -19q0 -10 -7.5 -18t-18.5 -8z" />
    <glyph glyph-name="uni06B9.medi" unicode="&#x6b9;" horiz-adv-x="218" 
d="M0 -5l4 22q16 0 31.5 8t31.5 32.5t31 74t29 132.5l24 -5q-7 -36 -12.5 -60t-8 -43t-2.5 -41q0 -30 7.5 -52t27.5 -34t59 -12q11 0 13.5 -3.5t2.5 -7.5q0 -5 -4.5 -8t-15.5 -3q-42 0 -66 12t-33.5 38.5t-10.5 67.5h2q-10 -39 -22 -62.5t-26 -35.5t-29.5 -16t-32.5 -4z
M127 421q-11 0 -19 8t-8 18q0 11 8 19t19 8t18.5 -8t7.5 -19q0 -10 -7.5 -18t-18.5 -8zM100 -171q-11 0 -19 8t-8 18q0 11 8 19t19 8t18.5 -8t7.5 -19q0 -10 -7.5 -18t-18.5 -8z" />
    </font>
</defs>
</svg>
